  0
SECTION
  2
HEADER
  9
$ACADVER
  1
AC1009
  9
$DWGCODEPAGE
  3
dos932
  9
$INSBASE
 10
0.0
 20
0.0
 30
0.0
  9
$EXTMIN
 10
-456.777638
 20
-42.868547
 30
0.0
  9
$EXTMAX
 10
6480.54
 20
4219.584524
 30
0.0
  9
$LIMMIN
 10
-519.57702
 20
-279.613677
  9
$LIMMAX
 10
6188.675397
 20
4461.507067
  9
$ORTHOMODE
 70
     0
  9
$REGENMODE
 70
     1
  9
$FILLMODE
 70
     1
  9
$QTEXTMODE
 70
     0
  9
$MIRRTEXT
 70
     0
  9
$DRAGMODE
 70
     2
  9
$LTSCALE
 40
1.0
  9
$OSMODE
 70
     0
  9
$ATTMODE
 70
     1
  9
$TEXTSIZE
 40
0.2
  9
$TRACEWID
 40
0.05
  9
$TEXTSTYLE
  7
STANDARD
  9
$CLAYER
  8
0
  9
$CELTYPE
  6
BYLAYER
  9
$CECOLOR
 62
   256
  9
$DIMSCALE
 40
1.0
  9
$DIMASZ
 40
0.18
  9
$DIMEXO
 40
3.0
  9
$DIMDLI
 40
0.38
  9
$DIMRND
 40
0.0
  9
$DIMDLE
 40
0.0
  9
$DIMEXE
 40
5.0
  9
$DIMTP
 40
0.0
  9
$DIMTM
 40
0.0
  9
$DIMTXT
 40
0.18
  9
$DIMCEN
 40
0.09
  9
$DIMTSZ
 40
0.0
  9
$DIMTOL
 70
     0
  9
$DIMLIM
 70
     0
  9
$DIMTIH
 70
     1
  9
$DIMTOH
 70
     1
  9
$DIMSE1
 70
     0
  9
$DIMSE2
 70
     0
  9
$DIMTAD
 70
     1
  9
$DIMZIN
 70
     0
  9
$DIMBLK
  1

  9
$DIMASO
 70
     1
  9
$DIMSHO
 70
     0
  9
$DIMPOST
  1

  9
$DIMAPOST
  1

  9
$DIMALT
 70
     0
  9
$DIMALTD
 70
     2
  9
$DIMALTF
 40
25.4
  9
$DIMLFAC
 40
1.0
  9
$DIMTOFL
 70
     0
  9
$DIMTVP
 40
1.0
  9
$DIMTIX
 70
     0
  9
$DIMSOXD
 70
     0
  9
$DIMSAH
 70
     0
  9
$DIMBLK1
  1

  9
$DIMBLK2
  1

  9
$DIMSTYLE
  2
STANDARD
  9
$DIMCLRD
 70
     0
  9
$DIMCLRE
 70
     0
  9
$DIMCLRT
 70
     0
  9
$DIMTFAC
 40
1.0
  9
$DIMGAP
 40
0.09
  9
$LUNITS
 70
     2
  9
$LUPREC
 70
     4
  9
$SKETCHINC
 40
0.1
  9
$FILLETRAD
 40
0.05
  9
$AUNITS
 70
     0
  9
$AUPREC
 70
     0
  9
$MENU
  1
acad
  9
$ELEVATION
 40
0.0
  9
$PELEVATION
 40
0.0
  9
$THICKNESS
 40
0.0
  9
$LIMCHECK
 70
     0
  9
$BLIPMODE
 70
     1
  9
$CHAMFERA
 40
0.0
  9
$CHAMFERB
 40
0.0
  9
$SKPOLY
 70
     0
  9
$TDCREATE
 40
0.0
  9
$TDUPDATE
 40
0.0
  9
$TDINDWG
 40
0.0
  9
$TDUSRTIMER
 40
0.0
  9
$USRTIMER
 70
     1
  9
$ANGBASE
 50
0.0
  9
$ANGDIR
 70
     0
  9
$PDMODE
 70
     0
  9
$PDSIZE
 40
0.0
  9
$PLINEWID
 40
0.0
  9
$COORDS
 70
     0
  9
$SPLFRAME
 70
     0
  9
$SPLINETYPE
 70
     6
  9
$SPLINESEGS
 70
     8
  9
$ATTDIA
 70
     1
  9
$ATTREQ
 70
     1
  9
$HANDLING
 70
     1
  9
$HANDSEED
  5
607
  9
$SURFTAB1
 70
     6
  9
$SURFTAB2
 70
     6
  9
$SURFTYPE
 70
     6
  9
$SURFU
 70
     6
  9
$SURFV
 70
     6
  9
$UCSNAME
  2

  9
$UCSORG
 10
0.0
 20
0.0
 30
0.0
  9
$UCSXDIR
 10
1.0
 20
0.0
 30
0.0
  9
$UCSYDIR
 10
0.0
 20
1.0
 30
0.0
  9
$PUCSNAME
  2

  9
$PUCSORG
 10
0.0
 20
0.0
 30
0.0
  9
$PUCSXDIR
 10
1.0
 20
0.0
 30
0.0
  9
$PUCSYDIR
 10
0.0
 20
1.0
 30
0.0
  9
$USERI1
 70
     0
  9
$USERI2
 70
     0
  9
$USERI3
 70
     0
  9
$USERI4
 70
     0
  9
$USERI5
 70
     0
  9
$USERR1
 40
0.0
  9
$USERR2
 40
0.0
  9
$USERR3
 40
0.0
  9
$USERR4
 40
0.0
  9
$USERR5
 40
0.0
  9
$WORLDVIEW
 70
     1
  9
$SHADEDGE
 70
     3
  9
$SHADEDIF
 70
    70
  9
$TILEMODE
 70
     1
  9
$MAXACTVP
 70
    16
  9
$PINSBASE
 10
0.0
 20
0.0
 30
0.0
  9
$PLIMCHECK
 70
     0
  9
$PEXTMIN
 10
1.000000E+020
 20
1.000000E+020
 30
1.000000E+020
  9
$PEXTMAX
 10
-1.000000E+020
 20
-1.000000E+020
 30
-1.000000E+020
  9
$PLIMMIN
 10
0.0
 20
0.0
  9
$PLIMMAX
 10
12.0
 20
9.0
  9
$UNITMODE
 70
     0
  9
$VISRETAIN
 70
     0
  9
$PLINEGEN
 70
     0
  9
$PSLTSCALE
 70
     1
  9
$TREEDEPTH
 70
  3020
  0
ENDSEC
  0
SECTION
  2
TABLES
  0
TABLE
  2
VPORT
 70
     2
  0
VPORT
  2
*ACTIVE
 70
     0
 10
0.0
 20
0.0
 11
1.0
 21
1.0
 12
4403.894522
 22
2090.946695
 13
0.0
 23
0.0
 14
1.0
 24
1.0
 15
0.0
 25
0.0
 16
0.0
 26
0.0
 36
1.0
 17
0.0
 27
0.0
 37
0.0
 40
4741.120744
 41
2.076923
 42
50.0
 43
0.0
 44
0.0
 50
0.0
 51
0.0
 71
     0
 72
   100
 73
     1
 74
     1
 75
     0
 76
     0
 77
     0
 78
     0
  0
ENDTAB
  0
TABLE
  2
LTYPE
 70
     5
  0
LTYPE
  2
CONTINUOUS
 70
    64
  3
Solid line
 72
    65
 73
     0
 40
0.0
  0
LTYPE
  2
DASHDOT
 70
    64
  3
__ . __ . __ . __ . __ . __ . __ . __ . __ . __
 72
    65
 73
     4
 40
1.0
 49
0.5
 49
-0.25
 49
0.0
 49
-0.25
  0
LTYPE
  2
DOT
 70
    64
  3
...............................................
 72
    65
 73
     2
 40
0.25
 49
0.0
 49
-0.25
  0
LTYPE
  2
DIVIDE
 70
    64
  3
__ . . __ . . __ . . __ . . __ . . __ . . __
 72
    65
 73
     6
 40
1.25
 49
0.5
 49
-0.25
 49
0.0
 49
-0.25
 49
0.0
 49
-0.25
  0
LTYPE
  2
DASHED
 70
    64
  3
__ __ __ __ __ __ __ __ __ __ __ __ __ __ __
 72
    65
 73
     2
 40
0.75
 49
0.5
 49
-0.25
  0
ENDTAB
  0
TABLE
  2
LAYER
 70
     5
  0
LAYER
  2
0
 70
     0
 62
     7
  6
CONTINUOUS
  0
LAYER
  2
DEFPOINTS
 70
     0
 62
    -7
  6
CONTINUOUS
  0
LAYER
  2
1
 70
     0
 62
     7
  6
CONTINUOUS
  0
LAYER
  2
2
 70
     0
 62
     7
  6
DOT
  0
LAYER
  2
3
 70
     0
 62
     7
  6
CONTINUOUS
  0
ENDTAB
  0
TABLE
  2
STYLE
 70
     3
  0
STYLE
  2
STANDARD
 70
    64
 40
100.0
 41
0.8
 50
0.0
 71
     0
 42
0.2
  3
txt
  4

  0
STYLE
  2
MONOTXT
 70
    64
 40
0.0
 41
0.5
 50
0.0
 71
     0
 42
4.191412
  3
monotxt
  4
BIGFONT
  0
STYLE
  2
VERTICAL
 70
    68
 40
0.0
 41
0.5
 50
0.0
 71
     0
 42
4.191412
  3
monotxt
  4
BIGFONT
  0
ENDTAB
  0
TABLE
  2
VIEW
 70
     0
  0
ENDTAB
  0
TABLE
  2
UCS
 70
     0
  0
ENDTAB
  0
TABLE
  2
APPID
 70
     1
  0
APPID
  2
ACAD
 70
     0
  0
ENDTAB
  0
TABLE
  2
DIMSTYLE
 70
     1
  0
DIMSTYLE
  2
STANDARD
 70
     0
  3

  4

  5

  6

  7

 40
1.0
 41
0.18
 42
0.0625
 43
0.38
 44
0.18
 45
0.0
 46
0.0
 47
0.0
 48
0.0
140
0.18
141
0.09
142
0.0
143
25.4
144
1.0
145
0.0
146
1.0
147
0.09
 71
     0
 72
     0
 73
     1
 74
     1
 75
     0
 76
     0
 77
     0
 78
     0
170
     0
171
     2
172
     0
173
     0
174
     0
175
     0
176
     0
177
     0
178
     0
  0
ENDTAB
  0
ENDSEC
  0
SECTION
  2
BLOCKS
  0
BLOCK
  5
5BF
  8
0
  2
$MODEL_SPACE
 70
     0
 10
0.0
 20
0.0
 30
0.0
  3
$MODEL_SPACE
  1

  0
ENDBLK
  5
5C0
  8
0
  0
BLOCK
  5
5BC
 67
     1
  8
0
  2
$PAPER_SPACE
 70
     0
 10
0.0
 20
0.0
 30
0.0
  3
$PAPER_SPACE
  1

  0
ENDBLK
  5
5BD
 67
     1
  8
0
  0
BLOCK
  5
2B
  8
2
  2
*D2
 70
    65
 10
0.0
 20
0.0
 30
0.0
  3
*D2
  1

  0
POINT
  5
2C
  8
DEFPOINTS
 10
857.349262
 20
1961.020575
 30
0.0
  0
POINT
  5
2D
  8
DEFPOINTS
 10
618.213364
 20
2190.437121
 30
0.0
  0
POINT
  5
2E
  8
DEFPOINTS
 10
1024.6688
 20
2124.856308
 30
0.0
  0
LINE
  5
2F
  8
2
  6
CONTINUOUS
 10
863.349262
 20
1961.020575
 30
0.0
 11
1029.6688
 21
1961.020575
 31
0.0
  0
LINE
  5
30
  8
2
  6
CONTINUOUS
 10
624.213364
 20
2190.437121
 30
0.0
 11
1029.6688
 21
2190.437121
 31
0.0
  0
LINE
  5
31
  8
2
  6
CONTINUOUS
 10
1024.6688
 20
1961.020575
 30
0.0
 11
1024.6688
 21
2190.437121
 31
0.0
  0
LINE
  5
32
  8
2
  6
CONTINUOUS
 10
1019.719826
 20
1989.087595
 30
0.0
 11
1024.6688
 21
1961.020575
 31
0.0
  0
LINE
  5
33
  8
2
  6
CONTINUOUS
 10
1029.617772
 20
1989.087596
 30
0.0
 11
1024.6688
 21
1961.020575
 31
0.0
  0
LINE
  5
34
  8
2
  6
CONTINUOUS
 10
1029.617774
 20
2162.3701
 30
0.0
 11
1024.6688
 21
2190.437121
 31
0.0
  0
LINE
  5
35
  8
2
  6
CONTINUOUS
 10
1019.719828
 20
2162.3701
 30
0.0
 11
1024.6688
 21
2190.437121
 31
0.0
  0
TEXT
  5
36
  8
2
  6
CONTINUOUS
 10
1020.668823
 20
2013.328857
 30
0.0
 40
52.0
  1
２３０
 50
90.000003
 41
0.9
  7
MONOTXT
  0
ENDBLK
  5
37
  8
0
  0
BLOCK
  5
39
  8
2
  2
*D3
 70
    65
 10
0.0
 20
0.0
 30
0.0
  3
*D3
  1

  0
POINT
  5
3A
  8
DEFPOINTS
 10
517.349262
 20
2389.773687
 30
0.0
  0
POINT
  5
3B
  8
DEFPOINTS
 10
567.670145
 20
2279.855899
 30
0.0
  0
POINT
  5
3C
  8
DEFPOINTS
 10
2433.190517
 20
2496.598316
 30
0.0
  0
LINE
  5
3D
  8
2
  6
CONTINUOUS
 10
517.349262
 20
2395.773687
 30
0.0
 11
517.349262
 21
2501.598316
 31
0.0
  0
LINE
  5
3E
  8
2
  6
CONTINUOUS
 10
567.670145
 20
2285.855899
 30
0.0
 11
567.670145
 21
2501.598316
 31
0.0
  0
LINE
  5
3F
  8
2
  6
CONTINUOUS
 10
392.549267
 20
2496.598316
 30
0.0
 11
609.770677
 21
2496.598316
 31
0.0
  0
LINE
  5
40
  8
2
  6
CONTINUOUS
 10
489.282242
 20
2491.649341
 30
0.0
 11
517.349262
 21
2496.598316
 31
0.0
  0
LINE
  5
41
  8
2
  6
CONTINUOUS
 10
489.282241
 20
2501.547287
 30
0.0
 11
517.349262
 21
2496.598316
 31
0.0
  0
LINE
  5
42
  8
2
  6
CONTINUOUS
 10
595.737165
 20
2501.547294
 30
0.0
 11
567.670145
 21
2496.598316
 31
0.0
  0
LINE
  5
43
  8
2
  6
CONTINUOUS
 10
595.737167
 20
2491.649348
 30
0.0
 11
567.670145
 21
2496.598316
 31
0.0
  0
TEXT
  5
44
  8
2
  6
CONTINUOUS
 10
413.349274
 20
2500.598389
 30
0.0
 40
52.0
  1
５０
 41
0.9
  7
MONOTXT
  0
ENDBLK
  5
45
  8
0
  0
BLOCK
  5
47
  8
2
  2
*D4
 70
    65
 10
0.0
 20
0.0
 30
0.0
  3
*D4
  1

  0
POINT
  5
48
  8
DEFPOINTS
 10
3099.790586
 20
3255.433781
 30
0.0
  0
POINT
  5
49
  8
DEFPOINTS
 10
3160.390586
 20
3506.033781
 30
0.0
  0
POINT
  5
4A
  8
DEFPOINTS
 10
3284.153091
 20
3113.716299
 30
0.0
  0
LINE
  5
4B
  8
2
  6
CONTINUOUS
 10
3099.790586
 20
3249.433781
 30
0.0
 11
3099.790586
 21
3108.716299
 31
0.0
  0
LINE
  5
4C
  8
2
  6
CONTINUOUS
 10
3160.390586
 20
3500.033781
 30
0.0
 11
3160.390586
 21
3108.716299
 31
0.0
  0
LINE
  5
4D
  8
2
  6
CONTINUOUS
 10
3057.690053
 20
3113.716299
 30
0.0
 11
3360.270026
 21
3113.716299
 31
0.0
  0
LINE
  5
4E
  8
2
  6
CONTINUOUS
 10
3071.723565
 20
3108.767323
 30
0.0
 11
3099.790586
 21
3113.716299
 31
0.0
  0
LINE
  5
4F
  8
2
  6
CONTINUOUS
 10
3071.723564
 20
3118.66527
 30
0.0
 11
3099.790586
 21
3113.716299
 31
0.0
  0
LINE
  5
50
  8
2
  6
CONTINUOUS
 10
3188.457606
 20
3118.665277
 30
0.0
 11
3160.390586
 21
3113.716299
 31
0.0
  0
LINE
  5
51
  8
2
  6
CONTINUOUS
 10
3188.457608
 20
3108.767331
 30
0.0
 11
3160.390586
 21
3113.716299
 31
0.0
  0
TEXT
  5
52
  8
2
  6
CONTINUOUS
 10
3256.27002
 20
3117.716309
 30
0.0
 40
52.0
  1
６０
 41
0.9
  7
MONOTXT
  0
ENDBLK
  5
53
  8
0
  0
BLOCK
  5
55
  8
2
  2
*D5
 70
    65
 10
0.0
 20
0.0
 30
0.0
  3
*D5
  1

  0
POINT
  5
56
  8
DEFPOINTS
 10
3099.790586
 20
3855.433781
 30
0.0
  0
POINT
  5
57
  8
DEFPOINTS
 10
3152.190586
 20
3686.033781
 30
0.0
  0
POINT
  5
58
  8
DEFPOINTS
 10
3278.131808
 20
4000.013568
 30
0.0
  0
LINE
  5
59
  8
2
  6
CONTINUOUS
 10
3099.790586
 20
3861.433781
 30
0.0
 11
3099.790586
 21
4005.013568
 31
0.0
  0
LINE
  5
5A
  8
2
  6
CONTINUOUS
 10
3152.190586
 20
3692.033781
 30
0.0
 11
3152.190586
 21
4005.013568
 31
0.0
  0
LINE
  5
5B
  8
2
  6
CONTINUOUS
 10
3057.690053
 20
4000.013568
 30
0.0
 11
3318.44997
 21
4000.013568
 31
0.0
  0
LINE
  5
5C
  8
2
  6
CONTINUOUS
 10
3071.723565
 20
3995.064593
 30
0.0
 11
3099.790586
 21
4000.013568
 31
0.0
  0
LINE
  5
5D
  8
2
  6
CONTINUOUS
 10
3071.723564
 20
4004.962539
 30
0.0
 11
3099.790586
 21
4000.013568
 31
0.0
  0
LINE
  5
5E
  8
2
  6
CONTINUOUS
 10
3180.257606
 20
4004.962546
 30
0.0
 11
3152.190586
 21
4000.013568
 31
0.0
  0
LINE
  5
5F
  8
2
  6
CONTINUOUS
 10
3180.257608
 20
3995.0646
 30
0.0
 11
3152.190586
 21
4000.013568
 31
0.0
  0
TEXT
  5
60
  8
2
  6
CONTINUOUS
 10
3214.449951
 20
4004.013672
 30
0.0
 40
52.0
  1
５０
 41
0.9
  7
MONOTXT
  0
ENDBLK
  5
61
  8
0
  0
BLOCK
  5
63
  8
2
  2
*D6
 70
    65
 10
0.0
 20
0.0
 30
0.0
  3
*D6
  1

  0
POINT
  5
64
  8
DEFPOINTS
 10
2282.514284
 20
3295.833781
 30
0.0
  0
POINT
  5
65
  8
DEFPOINTS
 10
2284.064495
 20
3815.833781
 30
0.0
  0
POINT
  5
66
  8
DEFPOINTS
 10
2016.808076
 20
3502.527807
 30
0.0
  0
LINE
  5
67
  8
2
  6
CONTINUOUS
 10
2276.514284
 20
3295.833781
 30
0.0
 11
2011.808076
 21
3295.833781
 31
0.0
  0
LINE
  5
68
  8
2
  6
CONTINUOUS
 10
2278.064495
 20
3815.833781
 30
0.0
 11
2011.808076
 21
3815.833781
 31
0.0
  0
LINE
  5
69
  8
2
  6
CONTINUOUS
 10
2016.808076
 20
3295.833781
 30
0.0
 11
2016.808076
 21
3815.833781
 31
0.0
  0
LINE
  5
6A
  8
2
  6
CONTINUOUS
 10
2011.859102
 20
3323.900802
 30
0.0
 11
2016.808076
 21
3295.833781
 31
0.0
  0
LINE
  5
6B
  8
2
  6
CONTINUOUS
 10
2021.757048
 20
3323.900803
 30
0.0
 11
2016.808076
 21
3295.833781
 31
0.0
  0
LINE
  5
6C
  8
2
  6
CONTINUOUS
 10
2021.75705
 20
3787.766761
 30
0.0
 11
2016.808076
 21
3815.833781
 31
0.0
  0
LINE
  5
6D
  8
2
  6
CONTINUOUS
 10
2011.859104
 20
3787.76676
 30
0.0
 11
2016.808076
 21
3815.833781
 31
0.0
  0
TEXT
  5
6E
  8
2
  6
CONTINUOUS
 10
2012.808105
 20
3368.633789
 30
0.0
 40
52.0
  1
５２０（吊り位置）
 50
90.000003
 41
0.9
  7
MONOTXT
  0
ENDBLK
  5
6F
  8
0
  0
BLOCK
  5
71
  8
2
  2
*D7
 70
    65
 10
0.0
 20
0.0
 30
0.0
  3
*D7
  1

  0
POINT
  5
72
  8
DEFPOINTS
 10
2220.190586
 20
3235.433781
 30
0.0
  0
POINT
  5
73
  8
DEFPOINTS
 10
2220.190586
 20
3875.433781
 30
0.0
  0
POINT
  5
74
  8
DEFPOINTS
 10
1919.817349
 20
3348.088972
 30
0.0
  0
LINE
  5
75
  8
2
  6
CONTINUOUS
 10
2214.190586
 20
3235.433781
 30
0.0
 11
1914.817349
 21
3235.433781
 31
0.0
  0
LINE
  5
76
  8
2
  6
CONTINUOUS
 10
2214.190586
 20
3875.433781
 30
0.0
 11
1914.817349
 21
3875.433781
 31
0.0
  0
LINE
  5
77
  8
2
  6
CONTINUOUS
 10
1919.817349
 20
3235.433781
 30
0.0
 11
1919.817349
 21
3875.433781
 31
0.0
  0
LINE
  5
78
  8
2
  6
CONTINUOUS
 10
1914.868375
 20
3263.500802
 30
0.0
 11
1919.817349
 21
3235.433781
 31
0.0
  0
LINE
  5
79
  8
2
  6
CONTINUOUS
 10
1924.766321
 20
3263.500803
 30
0.0
 11
1919.817349
 21
3235.433781
 31
0.0
  0
LINE
  5
7A
  8
2
  6
CONTINUOUS
 10
1924.766323
 20
3847.366761
 30
0.0
 11
1919.817349
 21
3875.433781
 31
0.0
  0
LINE
  5
7B
  8
2
  6
CONTINUOUS
 10
1914.868377
 20
3847.36676
 30
0.0
 11
1919.817349
 21
3875.433781
 31
0.0
  0
TEXT
  5
7C
  8
2
  6
CONTINUOUS
 10
1915.817383
 20
3347.433838
 30
0.0
 40
52.0
  1
６４０（天井開口部）
 50
90.000003
 41
0.9
  7
MONOTXT
  0
ENDBLK
  5
7D
  8
0
  0
BLOCK
  5
7F
  8
2
  2
*D8
 70
    65
 10
0.0
 20
0.0
 30
0.0
  3
*D8
  1

  0
POINT
  5
80
  8
DEFPOINTS
 10
2220.190586
 20
3235.433781
 30
0.0
  0
POINT
  5
81
  8
DEFPOINTS
 10
3210.190586
 20
3235.433781
 30
0.0
  0
POINT
  5
82
  8
DEFPOINTS
 10
2682.396991
 20
2954.871031
 30
0.0
  0
LINE
  5
83
  8
2
  6
CONTINUOUS
 10
2220.190586
 20
3229.433781
 30
0.0
 11
2220.190586
 21
2949.871031
 31
0.0
  0
LINE
  5
84
  8
2
  6
CONTINUOUS
 10
3210.190586
 20
3229.433781
 30
0.0
 11
3210.190586
 21
2949.871031
 31
0.0
  0
LINE
  5
85
  8
2
  6
CONTINUOUS
 10
2220.190586
 20
2954.871031
 30
0.0
 11
3210.190586
 21
2954.871031
 31
0.0
  0
LINE
  5
86
  8
2
  6
CONTINUOUS
 10
2248.257607
 20
2959.820004
 30
0.0
 11
2220.190586
 21
2954.871031
 31
0.0
  0
LINE
  5
87
  8
2
  6
CONTINUOUS
 10
2248.257607
 20
2949.922058
 30
0.0
 11
2220.190586
 21
2954.871031
 31
0.0
  0
LINE
  5
88
  8
2
  6
CONTINUOUS
 10
3182.123565
 20
2949.922056
 30
0.0
 11
3210.190586
 21
2954.871031
 31
0.0
  0
LINE
  5
89
  8
2
  6
CONTINUOUS
 10
3182.123564
 20
2959.820002
 30
0.0
 11
3210.190586
 21
2954.871031
 31
0.0
  0
TEXT
  5
8A
  8
2
  6
CONTINUOUS
 10
2507.190674
 20
2958.871094
 30
0.0
 40
52.0
  1
９９０（天井開口部）
 41
0.9
  7
MONOTXT
  0
ENDBLK
  5
8B
  8
0
  0
BLOCK
  5
8D
  8
2
  2
*D9
 70
    65
 10
0.0
 20
0.0
 30
0.0
  3
*D9
  1

  0
POINT
  5
8E
  8
DEFPOINTS
 10
2305.590586
 20
3268.149792
 30
0.0
  0
POINT
  5
8F
  8
DEFPOINTS
 10
3124.790586
 20
3268.545635
 30
0.0
  0
POINT
  5
90
  8
DEFPOINTS
 10
2676.306985
 20
3040.131116
 30
0.0
  0
LINE
  5
91
  8
2
  6
CONTINUOUS
 10
2305.590586
 20
3262.149792
 30
0.0
 11
2305.590586
 21
3035.131116
 31
0.0
  0
LINE
  5
92
  8
2
  6
CONTINUOUS
 10
3124.790586
 20
3262.545635
 30
0.0
 11
3124.790586
 21
3035.131116
 31
0.0
  0
LINE
  5
93
  8
2
  6
CONTINUOUS
 10
2305.590586
 20
3040.131116
 30
0.0
 11
3124.790586
 21
3040.131116
 31
0.0
  0
LINE
  5
94
  8
2
  6
CONTINUOUS
 10
2333.657607
 20
3045.080089
 30
0.0
 11
2305.590586
 21
3040.131116
 31
0.0
  0
LINE
  5
95
  8
2
  6
CONTINUOUS
 10
2333.657607
 20
3035.182143
 30
0.0
 11
2305.590586
 21
3040.131116
 31
0.0
  0
LINE
  5
96
  8
2
  6
CONTINUOUS
 10
3096.723565
 20
3035.182141
 30
0.0
 11
3124.790586
 21
3040.131116
 31
0.0
  0
LINE
  5
97
  8
2
  6
CONTINUOUS
 10
3096.723564
 20
3045.080087
 30
0.0
 11
3124.790586
 21
3040.131116
 31
0.0
  0
TEXT
  5
98
  8
2
  6
CONTINUOUS
 10
2527.990479
 20
3044.131104
 30
0.0
 40
52.0
  1
８２０（吊り位置）
 41
0.9
  7
MONOTXT
  0
ENDBLK
  5
99
  8
0
  0
BLOCK
  5
9B
  8
2
  2
*D10
 70
    65
 10
0.0
 20
0.0
 30
0.0
  3
*D10
  1

  0
POINT
  5
9C
  8
DEFPOINTS
 10
4330.11298
 20
3433.708993
 30
0.0
  0
POINT
  5
9D
  8
DEFPOINTS
 10
4330.11298
 20
3568.708993
 30
0.0
  0
POINT
  5
9E
  8
DEFPOINTS
 10
3977.364466
 20
3487.365286
 30
0.0
  0
LINE
  5
9F
  8
2
  6
CONTINUOUS
 10
4324.11298
 20
3433.708993
 30
0.0
 11
3972.364466
 21
3433.708993
 31
0.0
  0
LINE
  5
A0
  8
2
  6
CONTINUOUS
 10
4324.11298
 20
3568.708993
 30
0.0
 11
3972.364466
 21
3568.708993
 31
0.0
  0
LINE
  5
A1
  8
2
  6
CONTINUOUS
 10
3977.364466
 20
3245.946557
 30
0.0
 11
3977.364466
 21
3610.809525
 31
0.0
  0
LINE
  5
A2
  8
2
  6
CONTINUOUS
 10
3982.313439
 20
3405.641972
 30
0.0
 11
3977.364466
 21
3433.708993
 31
0.0
  0
LINE
  5
A3
  8
2
  6
CONTINUOUS
 10
3972.415493
 20
3405.641972
 30
0.0
 11
3977.364466
 21
3433.708993
 31
0.0
  0
LINE
  5
A4
  8
2
  6
CONTINUOUS
 10
3972.415497
 20
3596.776014
 30
0.0
 11
3977.364466
 21
3568.708993
 31
0.0
  0
LINE
  5
A5
  8
2
  6
CONTINUOUS
 10
3982.313443
 20
3596.776013
 30
0.0
 11
3977.364466
 21
3568.708993
 31
0.0
  0
TEXT
  5
A6
  8
2
  6
CONTINUOUS
 10
3973.364502
 20
3266.746582
 30
0.0
 40
52.0
  1
１３５
 50
90.000003
 41
0.9
  7
MONOTXT
  0
ENDBLK
  5
A7
  8
0
  0
BLOCK
  5
A9
  8
2
  2
*D11
 70
    65
 10
0.0
 20
0.0
 30
0.0
  3
*D11
  1

  0
POINT
  5
AA
  8
DEFPOINTS
 10
4294.069734
 20
3501.208993
 30
0.0
  0
POINT
  5
AB
  8
DEFPOINTS
 10
4097.113269
 20
3739.909634
 30
0.0
  0
POINT
  5
AC
  8
DEFPOINTS
 10
3895.942066
 20
3636.926752
 30
0.0
  0
LINE
  5
AD
  8
2
  6
CONTINUOUS
 10
4288.069734
 20
3501.208993
 30
0.0
 11
3890.942066
 21
3501.208993
 31
0.0
  0
LINE
  5
AE
  8
2
  6
CONTINUOUS
 10
4091.113269
 20
3739.909634
 30
0.0
 11
3890.942066
 21
3739.909634
 31
0.0
  0
LINE
  5
AF
  8
2
  6
CONTINUOUS
 10
3895.942066
 20
3501.208993
 30
0.0
 11
3895.942066
 21
3739.909634
 31
0.0
  0
LINE
  5
B0
  8
2
  6
CONTINUOUS
 10
3890.993092
 20
3529.276013
 30
0.0
 11
3895.942066
 21
3501.208993
 31
0.0
  0
LINE
  5
B1
  8
2
  6
CONTINUOUS
 10
3900.891038
 20
3529.276014
 30
0.0
 11
3895.942066
 21
3501.208993
 31
0.0
  0
LINE
  5
B2
  8
2
  6
CONTINUOUS
 10
3900.891039
 20
3711.842613
 30
0.0
 11
3895.942066
 21
3739.909634
 31
0.0
  0
LINE
  5
B3
  8
2
  6
CONTINUOUS
 10
3890.993093
 20
3711.842613
 30
0.0
 11
3895.942066
 21
3739.909634
 31
0.0
  0
TEXT
  5
B4
  8
2
  6
CONTINUOUS
 10
3891.942139
 20
3558.159424
 30
0.0
 40
52.0
  1
２４０
 50
90.000003
 41
0.9
  7
MONOTXT
  0
ENDBLK
  5
B5
  8
0
  0
BLOCK
  5
B7
  8
2
  2
*D12
 70
    65
 10
0.0
 20
0.0
 30
0.0
  3
*D12
  1

  0
POINT
  5
B8
  8
DEFPOINTS
 10
4330.11298
 20
3433.708993
 30
0.0
  0
POINT
  5
B9
  8
DEFPOINTS
 10
4597.112919
 20
3433.708969
 30
0.0
  0
POINT
  5
BA
  8
DEFPOINTS
 10
4627.635686
 20
3119.961644
 30
0.0
  0
LINE
  5
BB
  8
2
  6
CONTINUOUS
 10
4330.11298
 20
3427.708993
 30
0.0
 11
4330.11298
 21
3114.961644
 31
0.0
  0
LINE
  5
BC
  8
2
  6
CONTINUOUS
 10
4597.112919
 20
3427.708969
 30
0.0
 11
4597.112919
 21
3114.961644
 31
0.0
  0
LINE
  5
BD
  8
2
  6
CONTINUOUS
 10
4330.11298
 20
3119.961644
 30
0.0
 11
4597.112919
 21
3119.961644
 31
0.0
  0
LINE
  5
BE
  8
2
  6
CONTINUOUS
 10
4358.180001
 20
3124.910617
 30
0.0
 11
4330.11298
 21
3119.961644
 31
0.0
  0
LINE
  5
BF
  8
2
  6
CONTINUOUS
 10
4358.180001
 20
3115.012671
 30
0.0
 11
4330.11298
 21
3119.961644
 31
0.0
  0
LINE
  5
C0
  8
2
  6
CONTINUOUS
 10
4569.045899
 20
3115.012669
 30
0.0
 11
4597.112919
 21
3119.961644
 31
0.0
  0
LINE
  5
C1
  8
2
  6
CONTINUOUS
 10
4569.045898
 20
3124.910615
 30
0.0
 11
4597.112919
 21
3119.961644
 31
0.0
  0
TEXT
  5
C2
  8
2
  6
CONTINUOUS
 10
4401.212891
 20
3123.96167
 30
0.0
 40
52.0
  1
２６５
 41
0.9
  7
MONOTXT
  0
ENDBLK
  5
C3
  8
0
  0
BLOCK
  5
C5
  8
2
  2
*D13
 70
    65
 10
0.0
 20
0.0
 30
0.0
  3
*D13
  1

  0
POINT
  5
C6
  8
DEFPOINTS
 10
4463.61295
 20
3404.588931
 30
0.0
  0
POINT
  5
C7
  8
DEFPOINTS
 10
4612.112869
 20
3330.009158
 30
0.0
  0
POINT
  5
C8
  8
DEFPOINTS
 10
4706.493156
 20
3215.717144
 30
0.0
  0
LINE
  5
C9
  8
2
  6
CONTINUOUS
 10
4463.61295
 20
3398.588931
 30
0.0
 11
4463.61295
 21
3210.717144
 31
0.0
  0
LINE
  5
CA
  8
2
  6
CONTINUOUS
 10
4612.112869
 20
3324.009158
 30
0.0
 11
4612.112869
 21
3210.717144
 31
0.0
  0
LINE
  5
CB
  8
2
  6
CONTINUOUS
 10
4143.870518
 20
3215.717144
 30
0.0
 11
4654.213402
 21
3215.717144
 31
0.0
  0
LINE
  5
CC
  8
2
  6
CONTINUOUS
 10
4435.545929
 20
3210.768168
 30
0.0
 11
4463.61295
 21
3215.717144
 31
0.0
  0
LINE
  5
CD
  8
2
  6
CONTINUOUS
 10
4435.545928
 20
3220.666114
 30
0.0
 11
4463.61295
 21
3215.717144
 31
0.0
  0
LINE
  5
CE
  8
2
  6
CONTINUOUS
 10
4640.179889
 20
3220.666121
 30
0.0
 11
4612.112869
 21
3215.717144
 31
0.0
  0
LINE
  5
CF
  8
2
  6
CONTINUOUS
 10
4640.179891
 20
3210.768175
 30
0.0
 11
4612.112869
 21
3215.717144
 31
0.0
  0
TEXT
  5
D0
  8
2
  6
CONTINUOUS
 10
4164.67041
 20
3219.717041
 30
0.0
 40
52.0
  1
１５０
 41
0.9
  7
MONOTXT
  0
ENDBLK
  5
D1
  8
0
  0
BLOCK
  5
D3
  8
2
  2
*D14
 70
    65
 10
0.0
 20
0.0
 30
0.0
  3
*D14
  1

  0
POINT
  5
D4
  8
DEFPOINTS
 10
4653.5472
 20
2310.020575
 30
0.0
  0
POINT
  5
D5
  8
DEFPOINTS
 10
5242.7472
 20
2310.020575
 30
0.0
  0
POINT
  5
D6
  8
DEFPOINTS
 10
4984.005466
 20
2610.34493
 30
0.0
  0
LINE
  5
D7
  8
2
  6
CONTINUOUS
 10
4653.5472
 20
2316.020575
 30
0.0
 11
4653.5472
 21
2615.34493
 31
0.0
  0
LINE
  5
D8
  8
2
  6
CONTINUOUS
 10
5242.7472
 20
2316.020575
 30
0.0
 11
5242.7472
 21
2615.34493
 31
0.0
  0
LINE
  5
D9
  8
2
  6
CONTINUOUS
 10
4653.5472
 20
2610.34493
 30
0.0
 11
5242.7472
 21
2610.34493
 31
0.0
  0
LINE
  5
DA
  8
2
  6
CONTINUOUS
 10
4681.614221
 20
2615.293903
 30
0.0
 11
4653.5472
 21
2610.34493
 31
0.0
  0
LINE
  5
DB
  8
2
  6
CONTINUOUS
 10
4681.614221
 20
2605.395957
 30
0.0
 11
4653.5472
 21
2610.34493
 31
0.0
  0
LINE
  5
DC
  8
2
  6
CONTINUOUS
 10
5214.68018
 20
2605.395955
 30
0.0
 11
5242.7472
 21
2610.34493
 31
0.0
  0
LINE
  5
DD
  8
2
  6
CONTINUOUS
 10
5214.680179
 20
2615.293901
 30
0.0
 11
5242.7472
 21
2610.34493
 31
0.0
  0
TEXT
  5
DE
  8
2
  6
CONTINUOUS
 10
4885.74707
 20
2614.344971
 30
0.0
 40
52.0
  1
６００
 41
0.9
  7
MONOTXT
  0
ENDBLK
  5
DF
  8
0
  0
BLOCK
  5
E1
  8
2
  2
*D15
 70
    65
 10
0.0
 20
0.0
 30
0.0
  3
*D15
  1

  0
POINT
  5
E2
  8
DEFPOINTS
 10
4948.1472
 20
2410.742249
 30
0.0
  0
POINT
  5
E3
  8
DEFPOINTS
 10
5003.147172
 20
2157.360385
 30
0.0
  0
POINT
  5
E4
  8
DEFPOINTS
 10
4929.4967
 20
2400.971451
 30
0.0
  0
LINE
  5
E5
  8
2
  6
CONTINUOUS
 10
4948.1472
 20
2404.742249
 30
0.0
 11
4948.1472
 21
2395.971451
 31
0.0
  0
LINE
  5
E6
  8
2
  6
CONTINUOUS
 10
5003.147172
 20
2163.360385
 30
0.0
 11
5003.147172
 21
2405.971451
 31
0.0
  0
LINE
  5
E7
  8
2
  6
CONTINUOUS
 10
4925.989026
 20
2400.971451
 30
0.0
 11
5206.049271
 21
2400.971451
 31
0.0
  0
CIRCLE
  5
E8
  8
2
  6
CONTINUOUS
 10
4948.1472
 20
2400.971451
 30
0.0
 40
3.75
  0
CIRCLE
  5
E9
  8
2
  6
CONTINUOUS
 10
4948.1472
 20
2400.971451
 30
0.0
 40
2.25
  0
LINE
  5
EA
  8
2
  6
CONTINUOUS
 10
5031.214192
 20
2405.920429
 30
0.0
 11
5003.147172
 21
2400.971451
 31
0.0
  0
LINE
  5
EB
  8
2
  6
CONTINUOUS
 10
5031.214193
 20
2396.022483
 30
0.0
 11
5003.147172
 21
2400.971451
 31
0.0
  0
TEXT
  5
EC
  8
2
  6
CONTINUOUS
 10
5102.049316
 20
2404.971436
 30
0.0
 40
52.0
  1
５５
 41
0.9
  7
MONOTXT
  0
ENDBLK
  5
ED
  8
0
  0
BLOCK
  5
EF
  8
2
  2
*D16
 70
    65
 10
0.0
 20
0.0
 30
0.0
  3
*D16
  1

  0
POINT
  5
F0
  8
DEFPOINTS
 10
5288.1472
 20
1961.020575
 30
0.0
  0
POINT
  5
F1
  8
DEFPOINTS
 10
5102.226615
 20
2255.996046
 30
0.0
  0
POINT
  5
F2
  8
DEFPOINTS
 10
5486.749115
 20
2125.538663
 30
0.0
  0
LINE
  5
F3
  8
2
  6
CONTINUOUS
 10
5294.1472
 20
1961.020575
 30
0.0
 11
5491.749115
 21
1961.020575
 31
0.0
  0
LINE
  5
F4
  8
2
  6
CONTINUOUS
 10
5108.226615
 20
2255.996046
 30
0.0
 11
5491.749115
 21
2255.996046
 31
0.0
  0
LINE
  5
F5
  8
2
  6
CONTINUOUS
 10
5486.749115
 20
1961.020575
 30
0.0
 11
5486.749115
 21
2255.996046
 31
0.0
  0
LINE
  5
F6
  8
2
  6
CONTINUOUS
 10
5481.80014
 20
1989.087595
 30
0.0
 11
5486.749115
 21
1961.020575
 31
0.0
  0
LINE
  5
F7
  8
2
  6
CONTINUOUS
 10
5491.698086
 20
1989.087596
 30
0.0
 11
5486.749115
 21
1961.020575
 31
0.0
  0
LINE
  5
F8
  8
2
  6
CONTINUOUS
 10
5491.698088
 20
2227.929025
 30
0.0
 11
5486.749115
 21
2255.996046
 31
0.0
  0
LINE
  5
F9
  8
2
  6
CONTINUOUS
 10
5481.800142
 20
2227.929025
 30
0.0
 11
5486.749115
 21
2255.996046
 31
0.0
  0
TEXT
  5
FA
  8
2
  6
CONTINUOUS
 10
5482.749023
 20
2046.108276
 30
0.0
 40
52.0
  1
２９０
 50
90.000003
 41
0.9
  7
MONOTXT
  0
ENDBLK
  5
FB
  8
0
  0
BLOCK
  5
FD
  8
2
  2
*D17
 70
    65
 10
0.0
 20
0.0
 30
0.0
  3
*D17
  1

  0
POINT
  5
FE
  8
DEFPOINTS
 10
4903.147272
 20
2153.904144
 30
0.0
  0
POINT
  5
FF
  8
DEFPOINTS
 10
4948.1472
 20
2394.250489
 30
0.0
  0
POINT
  5
100
  8
DEFPOINTS
 10
4929.4967
 20
2400.971451
 30
0.0
  0
LINE
  5
101
  8
2
  6
CONTINUOUS
 10
4903.147272
 20
2159.904144
 30
0.0
 11
4903.147272
 21
2405.971451
 31
0.0
  0
LINE
  5
102
  8
2
  6
CONTINUOUS
 10
4948.1472
 20
2400.250489
 30
0.0
 11
4948.1472
 21
2405.971451
 31
0.0
  0
LINE
  5
103
  8
2
  6
CONTINUOUS
 10
4738.509333
 20
2400.971451
 30
0.0
 11
4970.305375
 21
2400.971451
 31
0.0
  0
LINE
  5
104
  8
2
  6
CONTINUOUS
 10
4875.080251
 20
2396.022476
 30
0.0
 11
4903.147272
 21
2400.971451
 31
0.0
  0
LINE
  5
105
  8
2
  6
CONTINUOUS
 10
4875.080251
 20
2405.920422
 30
0.0
 11
4903.147272
 21
2400.971451
 31
0.0
  0
CIRCLE
  5
106
  8
2
  6
CONTINUOUS
 10
4948.1472
 20
2400.971451
 30
0.0
 40
3.75
  0
CIRCLE
  5
107
  8
2
  6
CONTINUOUS
 10
4948.1472
 20
2400.971451
 30
0.0
 40
2.25
  0
TEXT
  5
108
  8
2
  6
CONTINUOUS
 10
4759.30957
 20
2404.971436
 30
0.0
 40
52.0
  1
４５
 41
0.9
  7
MONOTXT
  0
ENDBLK
  5
109
  8
0
  0
BLOCK
  5
10B
  8
2
  2
*D18
 70
    65
 10
0.0
 20
0.0
 30
0.0
  3
*D18
  1

  0
POINT
  5
10C
  8
DEFPOINTS
 10
5288.1472
 20
1961.020575
 30
0.0
  0
POINT
  5
10D
  8
DEFPOINTS
 10
5014.79961
 20
2136.298075
 30
0.0
  0
POINT
  5
10E
  8
DEFPOINTS
 10
5399.366391
 20
2090.421134
 30
0.0
  0
LINE
  5
10F
  8
2
  6
CONTINUOUS
 10
5294.1472
 20
1961.020575
 30
0.0
 11
5404.366391
 21
1961.020575
 31
0.0
  0
LINE
  5
110
  8
2
  6
CONTINUOUS
 10
5020.79961
 20
2136.298075
 30
0.0
 11
5404.366391
 21
2136.298075
 31
0.0
  0
LINE
  5
111
  8
2
  6
CONTINUOUS
 10
5399.366391
 20
1961.020575
 30
0.0
 11
5399.366391
 21
2136.298075
 31
0.0
  0
LINE
  5
112
  8
2
  6
CONTINUOUS
 10
5394.417417
 20
1989.087595
 30
0.0
 11
5399.366391
 21
1961.020575
 31
0.0
  0
LINE
  5
113
  8
2
  6
CONTINUOUS
 10
5404.315363
 20
1989.087596
 30
0.0
 11
5399.366391
 21
1961.020575
 31
0.0
  0
LINE
  5
114
  8
2
  6
CONTINUOUS
 10
5404.315364
 20
2108.231054
 30
0.0
 11
5399.366391
 21
2136.298075
 31
0.0
  0
LINE
  5
115
  8
2
  6
CONTINUOUS
 10
5394.417418
 20
2108.231054
 30
0.0
 11
5399.366391
 21
2136.298075
 31
0.0
  0
TEXT
  5
116
  8
2
  6
CONTINUOUS
 10
5395.366211
 20
1986.259277
 30
0.0
 40
52.0
  1
１７５
 50
90.000003
 41
0.9
  7
MONOTXT
  0
ENDBLK
  5
117
  8
0
  0
BLOCK
  5
119
  8
2
  2
*D19
 70
    65
 10
0.0
 20
0.0
 30
0.0
  3
*D19
  1

  0
POINT
  5
11A
  8
DEFPOINTS
 10
4608.1472
 20
1961.020575
 30
0.0
  0
POINT
  5
11B
  8
DEFPOINTS
 10
4650.1472
 20
2121.020575
 30
0.0
  0
POINT
  5
11C
  8
DEFPOINTS
 10
4518.671435
 20
2026.504894
 30
0.0
  0
LINE
  5
11D
  8
2
  6
CONTINUOUS
 10
4602.1472
 20
1961.020575
 30
0.0
 11
4513.671435
 21
1961.020575
 31
0.0
  0
LINE
  5
11E
  8
2
  6
CONTINUOUS
 10
4644.1472
 20
2121.020575
 30
0.0
 11
4513.671435
 21
2121.020575
 31
0.0
  0
LINE
  5
11F
  8
2
  6
CONTINUOUS
 10
4518.671435
 20
1961.020575
 30
0.0
 11
4518.671435
 21
2121.020575
 31
0.0
  0
LINE
  5
120
  8
2
  6
CONTINUOUS
 10
4513.722461
 20
1989.087595
 30
0.0
 11
4518.671435
 21
1961.020575
 31
0.0
  0
LINE
  5
121
  8
2
  6
CONTINUOUS
 10
4523.620407
 20
1989.087596
 30
0.0
 11
4518.671435
 21
1961.020575
 31
0.0
  0
LINE
  5
122
  8
2
  6
CONTINUOUS
 10
4523.620409
 20
2092.953554
 30
0.0
 11
4518.671435
 21
2121.020575
 31
0.0
  0
LINE
  5
123
  8
2
  6
CONTINUOUS
 10
4513.722462
 20
2092.953554
 30
0.0
 11
4518.671435
 21
2121.020575
 31
0.0
  0
TEXT
  5
124
  8
2
  6
CONTINUOUS
 10
4514.671387
 20
1978.620605
 30
0.0
 40
52.0
  1
１６０
 50
90.000003
 41
0.9
  7
MONOTXT
  0
ENDBLK
  5
125
  8
0
  0
BLOCK
  5
127
  8
2
  2
*D20
 70
    65
 10
0.0
 20
0.0
 30
0.0
  3
*D20
  1

  0
POINT
  5
128
  8
DEFPOINTS
 10
4608.1472
 20
1961.020575
 30
0.0
  0
POINT
  5
129
  8
DEFPOINTS
 10
4896.132786
 20
2136.020575
 30
0.0
  0
POINT
  5
12A
  8
DEFPOINTS
 10
4442.361386
 20
2031.150562
 30
0.0
  0
LINE
  5
12B
  8
2
  6
CONTINUOUS
 10
4602.1472
 20
1961.020575
 30
0.0
 11
4437.361386
 21
1961.020575
 31
0.0
  0
LINE
  5
12C
  8
2
  6
CONTINUOUS
 10
4890.132786
 20
2136.020575
 30
0.0
 11
4437.361386
 21
2136.020575
 31
0.0
  0
LINE
  5
12D
  8
2
  6
CONTINUOUS
 10
4442.361386
 20
1961.020575
 30
0.0
 11
4442.361386
 21
2136.020575
 31
0.0
  0
LINE
  5
12E
  8
2
  6
CONTINUOUS
 10
4437.412412
 20
1989.087595
 30
0.0
 11
4442.361386
 21
1961.020575
 31
0.0
  0
LINE
  5
12F
  8
2
  6
CONTINUOUS
 10
4447.310358
 20
1989.087596
 30
0.0
 11
4442.361386
 21
1961.020575
 31
0.0
  0
LINE
  5
130
  8
2
  6
CONTINUOUS
 10
4447.310359
 20
2107.953554
 30
0.0
 11
4442.361386
 21
2136.020575
 31
0.0
  0
LINE
  5
131
  8
2
  6
CONTINUOUS
 10
4437.412413
 20
2107.953554
 30
0.0
 11
4442.361386
 21
2136.020575
 31
0.0
  0
TEXT
  5
132
  8
2
  6
CONTINUOUS
 10
4438.361328
 20
1986.120605
 30
0.0
 40
52.0
  1
１７５
 50
90.000003
 41
0.9
  7
MONOTXT
  0
ENDBLK
  5
133
  8
0
  0
BLOCK
  5
135
  8
2
  2
*D21
 70
    65
 10
0.0
 20
0.0
 30
0.0
  3
*D21
  1

  0
POINT
  5
136
  8
DEFPOINTS
 10
4948.1472
 20
2330.1621
 30
0.0
  0
POINT
  5
137
  8
DEFPOINTS
 10
5073.1904
 20
2280.847665
 30
0.0
  0
POINT
  5
138
  8
DEFPOINTS
 10
5107.045696
 20
2496.598316
 30
0.0
  0
LINE
  5
139
  8
2
  6
CONTINUOUS
 10
4948.1472
 20
2336.1621
 30
0.0
 11
4948.1472
 21
2501.598316
 31
0.0
  0
LINE
  5
13A
  8
2
  6
CONTINUOUS
 10
5073.1904
 20
2286.847665
 30
0.0
 11
5073.1904
 21
2501.598316
 31
0.0
  0
LINE
  5
13B
  8
2
  6
CONTINUOUS
 10
4948.1472
 20
2496.598316
 30
0.0
 11
5073.1904
 21
2496.598316
 31
0.0
  0
LINE
  5
13C
  8
2
  6
CONTINUOUS
 10
4976.214221
 20
2501.547289
 30
0.0
 11
4948.1472
 21
2496.598316
 31
0.0
  0
LINE
  5
13D
  8
2
  6
CONTINUOUS
 10
4976.214221
 20
2491.649343
 30
0.0
 11
4948.1472
 21
2496.598316
 31
0.0
  0
LINE
  5
13E
  8
2
  6
CONTINUOUS
 10
5045.12338
 20
2491.649341
 30
0.0
 11
5073.1904
 21
2496.598316
 31
0.0
  0
LINE
  5
13F
  8
2
  6
CONTINUOUS
 10
5045.123379
 20
2501.547287
 30
0.0
 11
5073.1904
 21
2496.598316
 31
0.0
  0
TEXT
  5
140
  8
2
  6
CONTINUOUS
 10
4947.177246
 20
2500.598389
 30
0.0
 40
52.0
  1
１２５
 41
0.9
  7
MONOTXT
  0
ENDBLK
  5
141
  8
0
  0
BLOCK
  5
143
  8
2
  2
*D22
 70
    65
 10
0.0
 20
0.0
 30
0.0
  3
*D22
  1

  0
POINT
  5
144
  8
DEFPOINTS
 10
4608.1472
 20
1961.020575
 30
0.0
  0
POINT
  5
145
  8
DEFPOINTS
 10
4653.5472
 20
2310.020575
 30
0.0
  0
POINT
  5
146
  8
DEFPOINTS
 10
4653.5472
 20
2610.34493
 30
0.0
  0
LINE
  5
147
  8
2
  6
CONTINUOUS
 10
4608.1472
 20
1967.020575
 30
0.0
 11
4608.1472
 21
2615.34493
 31
0.0
  0
LINE
  5
148
  8
2
  6
CONTINUOUS
 10
4653.5472
 20
2316.020575
 30
0.0
 11
4653.5472
 21
2615.34493
 31
0.0
  0
LINE
  5
149
  8
2
  6
CONTINUOUS
 10
4483.347205
 20
2610.34493
 30
0.0
 11
4695.647733
 21
2610.34493
 31
0.0
  0
LINE
  5
14A
  8
2
  6
CONTINUOUS
 10
4580.08018
 20
2605.395955
 30
0.0
 11
4608.1472
 21
2610.34493
 31
0.0
  0
LINE
  5
14B
  8
2
  6
CONTINUOUS
 10
4580.080179
 20
2615.293901
 30
0.0
 11
4608.1472
 21
2610.34493
 31
0.0
  0
LINE
  5
14C
  8
2
  6
CONTINUOUS
 10
4681.614221
 20
2615.293908
 30
0.0
 11
4653.5472
 21
2610.34493
 31
0.0
  0
LINE
  5
14D
  8
2
  6
CONTINUOUS
 10
4681.614222
 20
2605.395962
 30
0.0
 11
4653.5472
 21
2610.34493
 31
0.0
  0
TEXT
  5
14E
  8
2
  6
CONTINUOUS
 10
4504.146973
 20
2614.344971
 30
0.0
 40
52.0
  1
４０
 41
0.9
  7
MONOTXT
  0
ENDBLK
  5
14F
  8
0
  0
BLOCK
  5
151
  8
2
  2
*D23
 70
    65
 10
0.0
 20
0.0
 30
0.0
  3
*D23
  1

  0
POINT
  5
152
  8
DEFPOINTS
 10
5242.7472
 20
2310.020575
 30
0.0
  0
POINT
  5
153
  8
DEFPOINTS
 10
5288.1472
 20
1961.020575
 30
0.0
  0
POINT
  5
154
  8
DEFPOINTS
 10
5242.7472
 20
2610.34493
 30
0.0
  0
LINE
  5
155
  8
2
  6
CONTINUOUS
 10
5242.7472
 20
2316.020575
 30
0.0
 11
5242.7472
 21
2615.34493
 31
0.0
  0
LINE
  5
156
  8
2
  6
CONTINUOUS
 10
5288.1472
 20
1967.020575
 30
0.0
 11
5288.1472
 21
2615.34493
 31
0.0
  0
LINE
  5
157
  8
2
  6
CONTINUOUS
 10
5200.646668
 20
2610.34493
 30
0.0
 11
5412.947196
 21
2610.34493
 31
0.0
  0
LINE
  5
158
  8
2
  6
CONTINUOUS
 10
5214.68018
 20
2605.395955
 30
0.0
 11
5242.7472
 21
2610.34493
 31
0.0
  0
LINE
  5
159
  8
2
  6
CONTINUOUS
 10
5214.680179
 20
2615.293901
 30
0.0
 11
5242.7472
 21
2610.34493
 31
0.0
  0
LINE
  5
15A
  8
2
  6
CONTINUOUS
 10
5316.214221
 20
2615.293908
 30
0.0
 11
5288.1472
 21
2610.34493
 31
0.0
  0
LINE
  5
15B
  8
2
  6
CONTINUOUS
 10
5316.214222
 20
2605.395962
 30
0.0
 11
5288.1472
 21
2610.34493
 31
0.0
  0
TEXT
  5
15C
  8
2
  6
CONTINUOUS
 10
5308.947266
 20
2614.344971
 30
0.0
 40
52.0
  1
４０
 41
0.9
  7
MONOTXT
  0
ENDBLK
  5
15D
  8
0
  0
BLOCK
  5
15F
  8
2
  2
*D24
 70
    65
 10
0.0
 20
0.0
 30
0.0
  3
*D24
  1

  0
POINT
  5
160
  8
DEFPOINTS
 10
2975.690586
 20
2121.220575
 30
0.0
  0
POINT
  5
161
  8
DEFPOINTS
 10
2975.690586
 20
2201.220575
 30
0.0
  0
POINT
  5
162
  8
DEFPOINTS
 10
3403.289415
 20
2034.182916
 30
0.0
  0
LINE
  5
163
  8
2
  6
CONTINUOUS
 10
2981.690586
 20
2121.220575
 30
0.0
 11
3408.289415
 21
2121.220575
 31
0.0
  0
LINE
  5
164
  8
2
  6
CONTINUOUS
 10
2981.690586
 20
2201.220575
 30
0.0
 11
3408.289415
 21
2201.220575
 31
0.0
  0
LINE
  5
165
  8
2
  6
CONTINUOUS
 10
3403.289415
 20
1996.420579
 30
0.0
 11
3403.289415
 21
2243.321107
 31
0.0
  0
LINE
  5
166
  8
2
  6
CONTINUOUS
 10
3408.238388
 20
2093.153554
 30
0.0
 11
3403.289415
 21
2121.220575
 31
0.0
  0
LINE
  5
167
  8
2
  6
CONTINUOUS
 10
3398.340442
 20
2093.153554
 30
0.0
 11
3403.289415
 21
2121.220575
 31
0.0
  0
LINE
  5
168
  8
2
  6
CONTINUOUS
 10
3398.340446
 20
2229.287596
 30
0.0
 11
3403.289415
 21
2201.220575
 31
0.0
  0
LINE
  5
169
  8
2
  6
CONTINUOUS
 10
3408.238392
 20
2229.287595
 30
0.0
 11
3403.289415
 21
2201.220575
 31
0.0
  0
TEXT
  5
16A
  8
2
  6
CONTINUOUS
 10
3399.289307
 20
2017.220581
 30
0.0
 40
52.0
  1
８０
 50
90.000003
 41
0.9
  7
MONOTXT
  0
ENDBLK
  5
16B
  8
0
  0
BLOCK
  5
16D
  8
2
  2
*D25
 70
    65
 10
0.0
 20
0.0
 30
0.0
  3
*D25
  1

  0
POINT
  5
16E
  8
DEFPOINTS
 10
3410.190517
 20
1961.020675
 30
0.0
  0
POINT
  5
16F
  8
DEFPOINTS
 10
3378.790586
 20
2255.996046
 30
0.0
  0
POINT
  5
170
  8
DEFPOINTS
 10
3757.999722
 20
2269.518952
 30
0.0
  0
LINE
  5
171
  8
2
  6
CONTINUOUS
 10
3416.190517
 20
1961.020675
 30
0.0
 11
3762.999722
 21
1961.020675
 31
0.0
  0
LINE
  5
172
  8
2
  6
CONTINUOUS
 10
3384.790586
 20
2255.996046
 30
0.0
 11
3762.999722
 21
2255.996046
 31
0.0
  0
LINE
  5
173
  8
2
  6
CONTINUOUS
 10
3757.999722
 20
1961.020675
 30
0.0
 11
3757.999722
 21
2255.996046
 31
0.0
  0
LINE
  5
174
  8
2
  6
CONTINUOUS
 10
3753.050747
 20
1989.087695
 30
0.0
 11
3757.999722
 21
1961.020675
 31
0.0
  0
LINE
  5
175
  8
2
  6
CONTINUOUS
 10
3762.948693
 20
1989.087696
 30
0.0
 11
3757.999722
 21
1961.020675
 31
0.0
  0
LINE
  5
176
  8
2
  6
CONTINUOUS
 10
3762.948695
 20
2227.929025
 30
0.0
 11
3757.999722
 21
2255.996046
 31
0.0
  0
LINE
  5
177
  8
2
  6
CONTINUOUS
 10
3753.050749
 20
2227.929025
 30
0.0
 11
3757.999722
 21
2255.996046
 31
0.0
  0
TEXT
  5
178
  8
2
  6
CONTINUOUS
 10
3753.999756
 20
2046.108398
 30
0.0
 40
52.0
  1
２９０
 50
90.000003
 41
0.9
  7
MONOTXT
  0
ENDBLK
  5
179
  8
0
  0
BLOCK
  5
17B
  8
2
  2
*D26
 70
    65
 10
0.0
 20
0.0
 30
0.0
  3
*D26
  1

  0
POINT
  5
17C
  8
DEFPOINTS
 10
3410.190517
 20
1961.020675
 30
0.0
  0
POINT
  5
17D
  8
DEFPOINTS
 10
2988.387146
 20
2161.220575
 30
0.0
  0
POINT
  5
17E
  8
DEFPOINTS
 10
3622.145415
 20
1907.110843
 30
0.0
  0
LINE
  5
17F
  8
2
  6
CONTINUOUS
 10
3416.190517
 20
1961.020675
 30
0.0
 11
3627.145415
 21
1961.020675
 31
0.0
  0
LINE
  5
180
  8
2
  6
CONTINUOUS
 10
2994.387146
 20
2161.220575
 30
0.0
 11
3627.145415
 21
2161.220575
 31
0.0
  0
LINE
  5
181
  8
2
  6
CONTINUOUS
 10
3622.145415
 20
1961.020675
 30
0.0
 11
3622.145415
 21
2161.220575
 31
0.0
  0
LINE
  5
182
  8
2
  6
CONTINUOUS
 10
3617.196441
 20
1989.087695
 30
0.0
 11
3622.145415
 21
1961.020675
 31
0.0
  0
LINE
  5
183
  8
2
  6
CONTINUOUS
 10
3627.094387
 20
1989.087696
 30
0.0
 11
3622.145415
 21
1961.020675
 31
0.0
  0
LINE
  5
184
  8
2
  6
CONTINUOUS
 10
3627.094388
 20
2133.153554
 30
0.0
 11
3622.145415
 21
2161.220575
 31
0.0
  0
LINE
  5
185
  8
2
  6
CONTINUOUS
 10
3617.196442
 20
2133.153554
 30
0.0
 11
3622.145415
 21
2161.220575
 31
0.0
  0
TEXT
  5
186
  8
2
  6
CONTINUOUS
 10
3618.145508
 20
2014.029541
 30
0.0
 40
52.0
  1
２００
 50
90.000003
 41
0.9
  7
MONOTXT
  0
ENDBLK
  5
187
  8
0
  0
BLOCK
  5
189
  8
2
  2
*D27
 70
    65
 10
0.0
 20
0.0
 30
0.0
  3
*D27
  1

  0
POINT
  5
18A
  8
DEFPOINTS
 10
3225.190943
 20
1946.021235
 30
0.0
  0
POINT
  5
18B
  8
DEFPOINTS
 10
3410.190517
 20
1961.020675
 30
0.0
  0
POINT
  5
18C
  8
DEFPOINTS
 10
3622.145415
 20
1907.110843
 30
0.0
  0
LINE
  5
18D
  8
2
  6
CONTINUOUS
 10
3231.190943
 20
1946.021235
 30
0.0
 11
3627.145415
 21
1946.021235
 31
0.0
  0
LINE
  5
18E
  8
2
  6
CONTINUOUS
 10
3416.190517
 20
1961.020675
 30
0.0
 11
3627.145415
 21
1961.020675
 31
0.0
  0
LINE
  5
18F
  8
2
  6
CONTINUOUS
 10
3622.145415
 20
1817.935969
 30
0.0
 11
3622.145415
 21
2003.121207
 31
0.0
  0
LINE
  5
190
  8
2
  6
CONTINUOUS
 10
3627.094388
 20
1917.954214
 30
0.0
 11
3622.145415
 21
1946.021235
 31
0.0
  0
LINE
  5
191
  8
2
  6
CONTINUOUS
 10
3617.196442
 20
1917.954214
 30
0.0
 11
3622.145415
 21
1946.021235
 31
0.0
  0
LINE
  5
192
  8
2
  6
CONTINUOUS
 10
3617.196446
 20
1989.087696
 30
0.0
 11
3622.145415
 21
1961.020675
 31
0.0
  0
LINE
  5
193
  8
2
  6
CONTINUOUS
 10
3627.094392
 20
1989.087695
 30
0.0
 11
3622.145415
 21
1961.020675
 31
0.0
  0
TEXT
  5
194
  8
2
  6
CONTINUOUS
 10
3618.145508
 20
1838.735962
 30
0.0
 40
52.0
  1
８
 50
90.000003
 41
0.9
  7
MONOTXT
  0
ENDBLK
  5
195
  8
0
  0
BLOCK
  5
197
  8
2
  2
*D28
 70
    65
 10
0.0
 20
0.0
 30
0.0
  3
*D28
  1

  0
POINT
  5
198
  8
DEFPOINTS
 10
3210.190517
 20
1961.020675
 30
0.0
  0
POINT
  5
199
  8
DEFPOINTS
 10
3230.190517
 20
1951.020575
 30
0.0
  0
POINT
  5
19A
  8
DEFPOINTS
 10
3226.904984
 20
1751.295428
 30
0.0
  0
LINE
  5
19B
  8
2
  6
CONTINUOUS
 10
3210.190517
 20
1955.020675
 30
0.0
 11
3210.190517
 21
1746.295428
 31
0.0
  0
LINE
  5
19C
  8
2
  6
CONTINUOUS
 10
3230.190517
 20
1945.020575
 30
0.0
 11
3230.190517
 21
1746.295428
 31
0.0
  0
LINE
  5
19D
  8
2
  6
CONTINUOUS
 10
3188.032342
 20
1751.295428
 30
0.0
 11
3354.990512
 21
1751.295428
 31
0.0
  0
CIRCLE
  5
19E
  8
2
  6
CONTINUOUS
 10
3210.190517
 20
1751.295428
 30
0.0
 40
3.75
  0
CIRCLE
  5
19F
  8
2
  6
CONTINUOUS
 10
3210.190517
 20
1751.295428
 30
0.0
 40
2.25
  0
LINE
  5
1A0
  8
2
  6
CONTINUOUS
 10
3258.257537
 20
1756.244406
 30
0.0
 11
3230.190517
 21
1751.295428
 31
0.0
  0
LINE
  5
1A1
  8
2
  6
CONTINUOUS
 10
3258.257539
 20
1746.34646
 30
0.0
 11
3230.190517
 21
1751.295428
 31
0.0
  0
TEXT
  5
1A2
  8
2
  6
CONTINUOUS
 10
3250.990479
 20
1755.29541
 30
0.0
 40
52.0
  1
２０
 41
0.9
  7
MONOTXT
  0
ENDBLK
  5
1A3
  8
0
  0
BLOCK
  5
1A5
  8
2
  2
*D29
 70
    65
 10
0.0
 20
0.0
 30
0.0
  3
*D29
  1

  0
POINT
  5
1A6
  8
DEFPOINTS
 10
3190.190936
 20
1961.021202
 30
0.0
  0
POINT
  5
1A7
  8
DEFPOINTS
 10
3210.190517
 20
1961.020675
 30
0.0
  0
POINT
  5
1A8
  8
DEFPOINTS
 10
3226.904984
 20
1751.295428
 30
0.0
  0
LINE
  5
1A9
  8
2
  6
CONTINUOUS
 10
3190.190936
 20
1955.021202
 30
0.0
 11
3190.190936
 21
1746.295428
 31
0.0
  0
LINE
  5
1AA
  8
2
  6
CONTINUOUS
 10
3210.190517
 20
1955.020675
 30
0.0
 11
3210.190517
 21
1746.295428
 31
0.0
  0
LINE
  5
1AB
  8
2
  6
CONTINUOUS
 10
3065.39094
 20
1751.295428
 30
0.0
 11
3232.348691
 21
1751.295428
 31
0.0
  0
LINE
  5
1AC
  8
2
  6
CONTINUOUS
 10
3162.123915
 20
1746.346453
 30
0.0
 11
3190.190936
 21
1751.295428
 31
0.0
  0
LINE
  5
1AD
  8
2
  6
CONTINUOUS
 10
3162.123914
 20
1756.244399
 30
0.0
 11
3190.190936
 21
1751.295428
 31
0.0
  0
CIRCLE
  5
1AE
  8
2
  6
CONTINUOUS
 10
3210.190517
 20
1751.295428
 30
0.0
 40
3.75
  0
CIRCLE
  5
1AF
  8
2
  6
CONTINUOUS
 10
3210.190517
 20
1751.295428
 30
0.0
 40
2.25
  0
TEXT
  5
1B0
  8
2
  6
CONTINUOUS
 10
3086.190918
 20
1755.29541
 30
0.0
 40
52.0
  1
２０
 41
0.9
  7
MONOTXT
  0
ENDBLK
  5
1B1
  8
0
  0
BLOCK
  5
1B3
  8
2
  2
*D30
 70
    65
 10
0.0
 20
0.0
 30
0.0
  3
*D30
  1

  0
POINT
  5
1B4
  8
DEFPOINTS
 10
2020.190817
 20
1961.020475
 30
0.0
  0
POINT
  5
1B5
  8
DEFPOINTS
 10
2400.173442
 20
2199.720575
 30
0.0
  0
POINT
  5
1B6
  8
DEFPOINTS
 10
1836.562649
 20
2087.914744
 30
0.0
  0
LINE
  5
1B7
  8
2
  6
CONTINUOUS
 10
2014.190817
 20
1961.020475
 30
0.0
 11
1831.562649
 21
1961.020475
 31
0.0
  0
LINE
  5
1B8
  8
2
  6
CONTINUOUS
 10
2394.173442
 20
2199.720575
 30
0.0
 11
1831.562649
 21
2199.720575
 31
0.0
  0
LINE
  5
1B9
  8
2
  6
CONTINUOUS
 10
1836.562649
 20
1748.304456
 30
0.0
 11
1836.562649
 21
2241.821107
 31
0.0
  0
LINE
  5
1BA
  8
2
  6
CONTINUOUS
 10
1841.511622
 20
1932.953454
 30
0.0
 11
1836.562649
 21
1961.020475
 31
0.0
  0
LINE
  5
1BB
  8
2
  6
CONTINUOUS
 10
1831.613676
 20
1932.953454
 30
0.0
 11
1836.562649
 21
1961.020475
 31
0.0
  0
LINE
  5
1BC
  8
2
  6
CONTINUOUS
 10
1831.61368
 20
2227.787596
 30
0.0
 11
1836.562649
 21
2199.720575
 31
0.0
  0
LINE
  5
1BD
  8
2
  6
CONTINUOUS
 10
1841.511626
 20
2227.787595
 30
0.0
 11
1836.562649
 21
2199.720575
 31
0.0
  0
TEXT
  5
1BE
  8
2
  6
CONTINUOUS
 10
1832.562622
 20
1769.104492
 30
0.0
 40
52.0
  1
２４０
 50
90.000003
 41
0.9
  7
MONOTXT
  0
ENDBLK
  5
1BF
  8
0
  0
BLOCK
  5
1C1
  8
2
  2
*D31
 70
    65
 10
0.0
 20
0.0
 30
0.0
  3
*D31
  1

  0
POINT
  5
1C2
  8
DEFPOINTS
 10
2433.190517
 20
2132.220575
 30
0.0
  0
POINT
  5
1C3
  8
DEFPOINTS
 10
2433.190517
 20
2267.220575
 30
0.0
  0
POINT
  5
1C4
  8
DEFPOINTS
 10
1935.364392
 20
2143.649061
 30
0.0
  0
LINE
  5
1C5
  8
2
  6
CONTINUOUS
 10
2427.190517
 20
2132.220575
 30
0.0
 11
1930.364392
 21
2132.220575
 31
0.0
  0
LINE
  5
1C6
  8
2
  6
CONTINUOUS
 10
2427.190517
 20
2267.220575
 30
0.0
 11
1930.364392
 21
2267.220575
 31
0.0
  0
LINE
  5
1C7
  8
2
  6
CONTINUOUS
 10
1935.364392
 20
1746.536493
 30
0.0
 11
1935.364392
 21
2309.321107
 31
0.0
  0
LINE
  5
1C8
  8
2
  6
CONTINUOUS
 10
1940.313366
 20
2104.153554
 30
0.0
 11
1935.364392
 21
2132.220575
 31
0.0
  0
LINE
  5
1C9
  8
2
  6
CONTINUOUS
 10
1930.41542
 20
2104.153554
 30
0.0
 11
1935.364392
 21
2132.220575
 31
0.0
  0
LINE
  5
1CA
  8
2
  6
CONTINUOUS
 10
1930.415423
 20
2295.287596
 30
0.0
 11
1935.364392
 21
2267.220575
 31
0.0
  0
LINE
  5
1CB
  8
2
  6
CONTINUOUS
 10
1940.313369
 20
2295.287595
 30
0.0
 11
1935.364392
 21
2267.220575
 31
0.0
  0
TEXT
  5
1CC
  8
2
  6
CONTINUOUS
 10
1931.36438
 20
1767.336548
 30
0.0
 40
52.0
  1
１３５
 50
90.000003
 41
0.9
  7
MONOTXT
  0
ENDBLK
  5
1CD
  8
0
  0
BLOCK
  5
1CF
  8
2
  2
*D32
 70
    65
 10
0.0
 20
0.0
 30
0.0
  3
*D32
  1

  0
POINT
  5
1D0
  8
DEFPOINTS
 10
2220.190417
 20
1961.020675
 30
0.0
  0
POINT
  5
1D1
  8
DEFPOINTS
 10
2261.090936
 20
1961.019966
 30
0.0
  0
POINT
  5
1D2
  8
DEFPOINTS
 10
2231.776121
 20
1788.635117
 30
0.0
  0
LINE
  5
1D3
  8
2
  6
CONTINUOUS
 10
2220.190417
 20
1955.020675
 30
0.0
 11
2220.190417
 21
1783.635117
 31
0.0
  0
LINE
  5
1D4
  8
2
  6
CONTINUOUS
 10
2261.090936
 20
1955.019966
 30
0.0
 11
2261.090936
 21
1783.635117
 31
0.0
  0
LINE
  5
1D5
  8
2
  6
CONTINUOUS
 10
2198.032242
 20
1788.635117
 30
0.0
 11
2385.890931
 21
1788.635117
 31
0.0
  0
CIRCLE
  5
1D6
  8
2
  6
CONTINUOUS
 10
2220.190417
 20
1788.635117
 30
0.0
 40
3.75
  0
CIRCLE
  5
1D7
  8
2
  6
CONTINUOUS
 10
2220.190417
 20
1788.635117
 30
0.0
 40
2.25
  0
LINE
  5
1D8
  8
2
  6
CONTINUOUS
 10
2289.157956
 20
1793.584095
 30
0.0
 11
2261.090936
 21
1788.635117
 31
0.0
  0
LINE
  5
1D9
  8
2
  6
CONTINUOUS
 10
2289.157957
 20
1783.686148
 30
0.0
 11
2261.090936
 21
1788.635117
 31
0.0
  0
TEXT
  5
1DA
  8
2
  6
CONTINUOUS
 10
2281.890869
 20
1792.635132
 30
0.0
 40
52.0
  1
４０
 41
0.9
  7
MONOTXT
  0
ENDBLK
  5
1DB
  8
0
  0
BLOCK
  5
1DD
  8
2
  2
*D33
 70
    65
 10
0.0
 20
0.0
 30
0.0
  3
*D33
  1

  0
POINT
  5
1DE
  8
DEFPOINTS
 10
2200.190517
 20
1951.020575
 30
0.0
  0
POINT
  5
1DF
  8
DEFPOINTS
 10
2220.190417
 20
1961.020675
 30
0.0
  0
POINT
  5
1E0
  8
DEFPOINTS
 10
2231.776121
 20
1788.635117
 30
0.0
  0
LINE
  5
1E1
  8
2
  6
CONTINUOUS
 10
2200.190517
 20
1945.020575
 30
0.0
 11
2200.190517
 21
1783.635117
 31
0.0
  0
LINE
  5
1E2
  8
2
  6
CONTINUOUS
 10
2220.190417
 20
1955.020675
 30
0.0
 11
2220.190417
 21
1783.635117
 31
0.0
  0
LINE
  5
1E3
  8
2
  6
CONTINUOUS
 10
2075.390521
 20
1788.635117
 30
0.0
 11
2242.348591
 21
1788.635117
 31
0.0
  0
LINE
  5
1E4
  8
2
  6
CONTINUOUS
 10
2172.123496
 20
1783.686141
 30
0.0
 11
2200.190517
 21
1788.635117
 31
0.0
  0
LINE
  5
1E5
  8
2
  6
CONTINUOUS
 10
2172.123495
 20
1793.584087
 30
0.0
 11
2200.190517
 21
1788.635117
 31
0.0
  0
CIRCLE
  5
1E6
  8
2
  6
CONTINUOUS
 10
2220.190417
 20
1788.635117
 30
0.0
 40
3.75
  0
CIRCLE
  5
1E7
  8
2
  6
CONTINUOUS
 10
2220.190417
 20
1788.635117
 30
0.0
 40
2.25
  0
TEXT
  5
1E8
  8
2
  6
CONTINUOUS
 10
2096.19043
 20
1792.635132
 30
0.0
 40
52.0
  1
２０
 41
0.9
  7
MONOTXT
  0
ENDBLK
  5
1E9
  8
0
  0
BLOCK
  5
1EB
  8
2
  2
*D34
 70
    65
 10
0.0
 20
0.0
 30
0.0
  3
*D34
  1

  0
POINT
  5
1EC
  8
DEFPOINTS
 10
2020.190817
 20
1961.020475
 30
0.0
  0
POINT
  5
1ED
  8
DEFPOINTS
 10
2261.090888
 20
2012.019966
 30
0.0
  0
POINT
  5
1EE
  8
DEFPOINTS
 10
1721.654669
 20
2041.328224
 30
0.0
  0
LINE
  5
1EF
  8
2
  6
CONTINUOUS
 10
2014.190817
 20
1961.020475
 30
0.0
 11
1716.654669
 21
1961.020475
 31
0.0
  0
LINE
  5
1F0
  8
2
  6
CONTINUOUS
 10
2255.090888
 20
2012.019966
 30
0.0
 11
1716.654669
 21
2012.019966
 31
0.0
  0
LINE
  5
1F1
  8
2
  6
CONTINUOUS
 10
1721.654669
 20
1787.517408
 30
0.0
 11
1721.654669
 21
2054.120498
 31
0.0
  0
LINE
  5
1F2
  8
2
  6
CONTINUOUS
 10
1726.603642
 20
1932.953454
 30
0.0
 11
1721.654669
 21
1961.020475
 31
0.0
  0
LINE
  5
1F3
  8
2
  6
CONTINUOUS
 10
1716.705696
 20
1932.953454
 30
0.0
 11
1721.654669
 21
1961.020475
 31
0.0
  0
LINE
  5
1F4
  8
2
  6
CONTINUOUS
 10
1716.7057
 20
2040.086988
 30
0.0
 11
1721.654669
 21
2012.019966
 31
0.0
  0
LINE
  5
1F5
  8
2
  6
CONTINUOUS
 10
1726.603646
 20
2040.086986
 30
0.0
 11
1721.654669
 21
2012.019966
 31
0.0
  0
TEXT
  5
1F6
  8
2
  6
CONTINUOUS
 10
1717.654663
 20
1808.317383
 30
0.0
 40
52.0
  1
４５
 50
90.000003
 41
0.9
  7
MONOTXT
  0
ENDBLK
  5
1F7
  8
0
  0
BLOCK
  5
1F9
  8
2
  2
*D35
 70
    65
 10
0.0
 20
0.0
 30
0.0
  3
*D35
  1

  0
POINT
  5
1FA
  8
DEFPOINTS
 10
2261.090888
 20
2012.019966
 30
0.0
  0
POINT
  5
1FB
  8
DEFPOINTS
 10
2330.590586
 20
2310.020575
 30
0.0
  0
POINT
  5
1FC
  8
DEFPOINTS
 10
1721.654669
 20
2041.328224
 30
0.0
  0
LINE
  5
1FD
  8
2
  6
CONTINUOUS
 10
2255.090888
 20
2012.019966
 30
0.0
 11
1716.654669
 21
2012.019966
 31
0.0
  0
LINE
  5
1FE
  8
2
  6
CONTINUOUS
 10
2324.590586
 20
2310.020575
 30
0.0
 11
1716.654669
 21
2310.020575
 31
0.0
  0
LINE
  5
1FF
  8
2
  6
CONTINUOUS
 10
1721.654669
 20
2012.019966
 30
0.0
 11
1721.654669
 21
2310.020575
 31
0.0
  0
LINE
  5
200
  8
2
  6
CONTINUOUS
 10
1716.705695
 20
2040.086987
 30
0.0
 11
1721.654669
 21
2012.019966
 31
0.0
  0
LINE
  5
201
  8
2
  6
CONTINUOUS
 10
1726.603641
 20
2040.086987
 30
0.0
 11
1721.654669
 21
2012.019966
 31
0.0
  0
LINE
  5
202
  8
2
  6
CONTINUOUS
 10
1726.603642
 20
2281.953554
 30
0.0
 11
1721.654669
 21
2310.020575
 31
0.0
  0
LINE
  5
203
  8
2
  6
CONTINUOUS
 10
1716.705696
 20
2281.953554
 30
0.0
 11
1721.654669
 21
2310.020575
 31
0.0
  0
TEXT
  5
204
  8
2
  6
CONTINUOUS
 10
1717.654663
 20
2098.620361
 30
0.0
 40
52.0
  1
３０５
 50
90.000003
 41
0.9
  7
MONOTXT
  0
ENDBLK
  5
205
  8
0
  0
BLOCK
  5
207
  8
2
  2
*D36
 70
    65
 10
0.0
 20
0.0
 30
0.0
  3
*D36
  1

  0
POINT
  5
208
  8
DEFPOINTS
 10
2715.190517
 20
1880.338643
 30
0.0
  0
POINT
  5
209
  8
DEFPOINTS
 10
2933.190586
 20
2105.75909
 30
0.0
  0
POINT
  5
20A
  8
DEFPOINTS
 10
3190.190936
 20
1751.295428
 30
0.0
  0
LINE
  5
20B
  8
2
  6
CONTINUOUS
 10
2715.190517
 20
1874.338643
 30
0.0
 11
2715.190517
 21
1746.295428
 31
0.0
  0
LINE
  5
20C
  8
2
  6
CONTINUOUS
 10
2933.190586
 20
2099.75909
 30
0.0
 11
2933.190586
 21
1746.295428
 31
0.0
  0
LINE
  5
20D
  8
2
  6
CONTINUOUS
 10
2715.190517
 20
1751.295428
 30
0.0
 11
2933.190586
 21
1751.295428
 31
0.0
  0
LINE
  5
20E
  8
2
  6
CONTINUOUS
 10
2743.257538
 20
1756.244401
 30
0.0
 11
2715.190517
 21
1751.295428
 31
0.0
  0
LINE
  5
20F
  8
2
  6
CONTINUOUS
 10
2743.257538
 20
1746.346455
 30
0.0
 11
2715.190517
 21
1751.295428
 31
0.0
  0
LINE
  5
210
  8
2
  6
CONTINUOUS
 10
2905.123565
 20
1746.346453
 30
0.0
 11
2933.190586
 21
1751.295428
 31
0.0
  0
LINE
  5
211
  8
2
  6
CONTINUOUS
 10
2905.123564
 20
1756.244399
 30
0.0
 11
2933.190586
 21
1751.295428
 31
0.0
  0
TEXT
  5
212
  8
2
  6
CONTINUOUS
 10
2754.158447
 20
1755.29541
 30
0.0
 40
52.0
  1
２２０
 41
0.9
  7
MONOTXT
  0
ENDBLK
  5
213
  8
0
  0
BLOCK
  5
215
  8
2
  2
*D37
 70
    65
 10
0.0
 20
0.0
 30
0.0
  3
*D37
  1

  0
POINT
  5
216
  8
DEFPOINTS
 10
2566.690551
 20
2096.222422
 30
0.0
  0
POINT
  5
217
  8
DEFPOINTS
 10
2715.190517
 20
1909.8752
 30
0.0
  0
POINT
  5
218
  8
DEFPOINTS
 10
3190.190936
 20
1751.295428
 30
0.0
  0
LINE
  5
219
  8
2
  6
CONTINUOUS
 10
2566.690551
 20
2090.222422
 30
0.0
 11
2566.690551
 21
1746.295428
 31
0.0
  0
LINE
  5
21A
  8
2
  6
CONTINUOUS
 10
2715.190517
 20
1903.8752
 30
0.0
 11
2715.190517
 21
1746.295428
 31
0.0
  0
LINE
  5
21B
  8
2
  6
CONTINUOUS
 10
2400.290557
 20
1751.295428
 30
0.0
 11
2757.291049
 21
1751.295428
 31
0.0
  0
LINE
  5
21C
  8
2
  6
CONTINUOUS
 10
2538.623531
 20
1746.346453
 30
0.0
 11
2566.690551
 21
1751.295428
 31
0.0
  0
LINE
  5
21D
  8
2
  6
CONTINUOUS
 10
2538.62353
 20
1756.244399
 30
0.0
 11
2566.690551
 21
1751.295428
 31
0.0
  0
LINE
  5
21E
  8
2
  6
CONTINUOUS
 10
2743.257537
 20
1756.244406
 30
0.0
 11
2715.190517
 21
1751.295428
 31
0.0
  0
LINE
  5
21F
  8
2
  6
CONTINUOUS
 10
2743.257539
 20
1746.34646
 30
0.0
 11
2715.190517
 21
1751.295428
 31
0.0
  0
TEXT
  5
220
  8
2
  6
CONTINUOUS
 10
2421.090576
 20
1755.29541
 30
0.0
 40
52.0
  1
１５０
 41
0.9
  7
MONOTXT
  0
ENDBLK
  5
221
  8
0
  0
BLOCK
  5
223
  8
2
  2
*D38
 70
    65
 10
0.0
 20
0.0
 30
0.0
  3
*D38
  1

  0
POINT
  5
224
  8
DEFPOINTS
 10
2890.690586
 20
2201.220575
 30
0.0
  0
POINT
  5
225
  8
DEFPOINTS
 10
2975.690586
 20
2201.220575
 30
0.0
  0
POINT
  5
226
  8
DEFPOINTS
 10
4948.1472
 20
2496.598316
 30
0.0
  0
LINE
  5
227
  8
2
  6
CONTINUOUS
 10
2890.690586
 20
2207.220575
 30
0.0
 11
2890.690586
 21
2501.598316
 31
0.0
  0
LINE
  5
228
  8
2
  6
CONTINUOUS
 10
2975.690586
 20
2207.220575
 30
0.0
 11
2975.690586
 21
2501.598316
 31
0.0
  0
LINE
  5
229
  8
2
  6
CONTINUOUS
 10
2848.590053
 20
2496.598316
 30
0.0
 11
3017.791118
 21
2496.598316
 31
0.0
  0
LINE
  5
22A
  8
2
  6
CONTINUOUS
 10
2862.623565
 20
2491.649341
 30
0.0
 11
2890.690586
 21
2496.598316
 31
0.0
  0
LINE
  5
22B
  8
2
  6
CONTINUOUS
 10
2862.623564
 20
2501.547287
 30
0.0
 11
2890.690586
 21
2496.598316
 31
0.0
  0
LINE
  5
22C
  8
2
  6
CONTINUOUS
 10
3003.757606
 20
2501.547294
 30
0.0
 11
2975.690586
 21
2496.598316
 31
0.0
  0
LINE
  5
22D
  8
2
  6
CONTINUOUS
 10
3003.757608
 20
2491.649348
 30
0.0
 11
2975.690586
 21
2496.598316
 31
0.0
  0
TEXT
  5
22E
  8
2
  6
CONTINUOUS
 10
2887.686279
 20
2500.598389
 30
0.0
 40
52.0
  1
８５
 41
0.9
  7
MONOTXT
  0
ENDBLK
  5
22F
  8
0
  0
BLOCK
  5
231
  8
2
  2
*D39
 70
    65
 10
0.0
 20
0.0
 30
0.0
  3
*D39
  1

  0
POINT
  5
232
  8
DEFPOINTS
 10
2433.190517
 20
2267.220575
 30
0.0
  0
POINT
  5
233
  8
DEFPOINTS
 10
2700.190586
 20
2267.220575
 30
0.0
  0
POINT
  5
234
  8
DEFPOINTS
 10
4948.1472
 20
2496.598316
 30
0.0
  0
LINE
  5
235
  8
2
  6
CONTINUOUS
 10
2433.190517
 20
2273.220575
 30
0.0
 11
2433.190517
 21
2501.598316
 31
0.0
  0
LINE
  5
236
  8
2
  6
CONTINUOUS
 10
2700.190586
 20
2273.220575
 30
0.0
 11
2700.190586
 21
2501.598316
 31
0.0
  0
LINE
  5
237
  8
2
  6
CONTINUOUS
 10
2433.190517
 20
2496.598316
 30
0.0
 11
2700.190586
 21
2496.598316
 31
0.0
  0
LINE
  5
238
  8
2
  6
CONTINUOUS
 10
2461.257538
 20
2501.547289
 30
0.0
 11
2433.190517
 21
2496.598316
 31
0.0
  0
LINE
  5
239
  8
2
  6
CONTINUOUS
 10
2461.257538
 20
2491.649343
 30
0.0
 11
2433.190517
 21
2496.598316
 31
0.0
  0
LINE
  5
23A
  8
2
  6
CONTINUOUS
 10
2672.123565
 20
2491.649341
 30
0.0
 11
2700.190586
 21
2496.598316
 31
0.0
  0
LINE
  5
23B
  8
2
  6
CONTINUOUS
 10
2672.123564
 20
2501.547287
 30
0.0
 11
2700.190586
 21
2496.598316
 31
0.0
  0
TEXT
  5
23C
  8
2
  6
CONTINUOUS
 10
2504.290527
 20
2500.598389
 30
0.0
 40
52.0
  1
２６５
 41
0.9
  7
MONOTXT
  0
ENDBLK
  5
23D
  8
0
  0
BLOCK
  5
23F
  8
2
  2
*D40
 70
    65
 10
0.0
 20
0.0
 30
0.0
  3
*D40
  1

  0
POINT
  5
240
  8
DEFPOINTS
 10
3099.790586
 20
2310.020575
 30
0.0
  0
POINT
  5
241
  8
DEFPOINTS
 10
3230.190517
 20
1961.020575
 30
0.0
  0
POINT
  5
242
  8
DEFPOINTS
 10
4653.5472
 20
2610.34493
 30
0.0
  0
LINE
  5
243
  8
2
  6
CONTINUOUS
 10
3099.790586
 20
2316.020575
 30
0.0
 11
3099.790586
 21
2615.34493
 31
0.0
  0
LINE
  5
244
  8
2
  6
CONTINUOUS
 10
3230.190517
 20
1967.020575
 30
0.0
 11
3230.190517
 21
2615.34493
 31
0.0
  0
LINE
  5
245
  8
2
  6
CONTINUOUS
 10
3099.790586
 20
2610.34493
 30
0.0
 11
3230.190517
 21
2610.34493
 31
0.0
  0
LINE
  5
246
  8
2
  6
CONTINUOUS
 10
3127.857607
 20
2615.293903
 30
0.0
 11
3099.790586
 21
2610.34493
 31
0.0
  0
LINE
  5
247
  8
2
  6
CONTINUOUS
 10
3127.857607
 20
2605.395957
 30
0.0
 11
3099.790586
 21
2610.34493
 31
0.0
  0
LINE
  5
248
  8
2
  6
CONTINUOUS
 10
3202.123496
 20
2605.395955
 30
0.0
 11
3230.190517
 21
2610.34493
 31
0.0
  0
LINE
  5
249
  8
2
  6
CONTINUOUS
 10
3202.123495
 20
2615.293901
 30
0.0
 11
3230.190517
 21
2610.34493
 31
0.0
  0
TEXT
  5
24A
  8
2
  6
CONTINUOUS
 10
3099.457275
 20
2614.344971
 30
0.0
 40
52.0
  1
１２５
 41
0.9
  7
MONOTXT
  0
ENDBLK
  5
24B
  8
0
  0
BLOCK
  5
24D
  8
2
  2
*D41
 70
    65
 10
0.0
 20
0.0
 30
0.0
  3
*D41
  1

  0
POINT
  5
24E
  8
DEFPOINTS
 10
2330.590586
 20
2310.020575
 30
0.0
  0
POINT
  5
24F
  8
DEFPOINTS
 10
3099.790586
 20
2310.020575
 30
0.0
  0
POINT
  5
250
  8
DEFPOINTS
 10
4653.5472
 20
2610.34493
 30
0.0
  0
LINE
  5
251
  8
2
  6
CONTINUOUS
 10
2330.590586
 20
2316.020575
 30
0.0
 11
2330.590586
 21
2615.34493
 31
0.0
  0
LINE
  5
252
  8
2
  6
CONTINUOUS
 10
3099.790586
 20
2316.020575
 30
0.0
 11
3099.790586
 21
2615.34493
 31
0.0
  0
LINE
  5
253
  8
2
  6
CONTINUOUS
 10
2330.590586
 20
2610.34493
 30
0.0
 11
3099.790586
 21
2610.34493
 31
0.0
  0
LINE
  5
254
  8
2
  6
CONTINUOUS
 10
2358.657607
 20
2615.293903
 30
0.0
 11
2330.590586
 21
2610.34493
 31
0.0
  0
LINE
  5
255
  8
2
  6
CONTINUOUS
 10
2358.657607
 20
2605.395957
 30
0.0
 11
2330.590586
 21
2610.34493
 31
0.0
  0
LINE
  5
256
  8
2
  6
CONTINUOUS
 10
3071.723565
 20
2605.395955
 30
0.0
 11
3099.790586
 21
2610.34493
 31
0.0
  0
LINE
  5
257
  8
2
  6
CONTINUOUS
 10
3071.723564
 20
2615.293901
 30
0.0
 11
3099.790586
 21
2610.34493
 31
0.0
  0
TEXT
  5
258
  8
2
  6
CONTINUOUS
 10
2652.790527
 20
2614.344971
 30
0.0
 40
52.0
  1
７８０
 41
0.9
  7
MONOTXT
  0
ENDBLK
  5
259
  8
0
  0
BLOCK
  5
25B
  8
2
  2
*D42
 70
    65
 10
0.0
 20
0.0
 30
0.0
  3
*D42
  1

  0
POINT
  5
25C
  8
DEFPOINTS
 10
2200.190517
 20
1961.020575
 30
0.0
  0
POINT
  5
25D
  8
DEFPOINTS
 10
2330.590586
 20
2310.020575
 30
0.0
  0
POINT
  5
25E
  8
DEFPOINTS
 10
4653.5472
 20
2610.34493
 30
0.0
  0
LINE
  5
25F
  8
2
  6
CONTINUOUS
 10
2200.190517
 20
1967.020575
 30
0.0
 11
2200.190517
 21
2615.34493
 31
0.0
  0
LINE
  5
260
  8
2
  6
CONTINUOUS
 10
2330.590586
 20
2316.020575
 30
0.0
 11
2330.590586
 21
2615.34493
 31
0.0
  0
LINE
  5
261
  8
2
  6
CONTINUOUS
 10
2200.190517
 20
2610.34493
 30
0.0
 11
2330.590586
 21
2610.34493
 31
0.0
  0
LINE
  5
262
  8
2
  6
CONTINUOUS
 10
2228.257538
 20
2615.293903
 30
0.0
 11
2200.190517
 21
2610.34493
 31
0.0
  0
LINE
  5
263
  8
2
  6
CONTINUOUS
 10
2228.257538
 20
2605.395957
 30
0.0
 11
2200.190517
 21
2610.34493
 31
0.0
  0
LINE
  5
264
  8
2
  6
CONTINUOUS
 10
2302.523565
 20
2605.395955
 30
0.0
 11
2330.590586
 21
2610.34493
 31
0.0
  0
LINE
  5
265
  8
2
  6
CONTINUOUS
 10
2302.523564
 20
2615.293901
 30
0.0
 11
2330.590586
 21
2610.34493
 31
0.0
  0
TEXT
  5
266
  8
2
  6
CONTINUOUS
 10
2203.559082
 20
2614.344971
 30
0.0
 40
52.0
  1
１２５
 41
0.9
  7
MONOTXT
  0
ENDBLK
  5
267
  8
0
  0
BLOCK
  5
269
  8
1
  2
*U43
 70
    65
 10
0.0
 20
0.0
 30
0.0
  3
*U43
  1

  0
LINE
  5
26A
  8
1
 10
3142.619449
 20
1113.503876
 30
0.0
 11
3152.490517
 21
1123.374944
 31
0.0
  0
LINE
  5
26B
  8
1
 10
3128.477314
 20
1113.503876
 30
0.0
 11
3152.490517
 21
1137.51708
 31
0.0
  0
LINE
  5
26C
  8
1
 10
3113.274518
 20
1113.503876
 30
0.0
 11
3151.374517
 21
1151.603876
 31
0.0
  0
LINE
  5
26D
  8
1
 10
3099.132383
 20
1113.503876
 30
0.0
 11
3137.232381
 21
1151.603876
 31
0.0
  0
LINE
  5
26E
  8
1
 10
3084.990248
 20
1113.503876
 30
0.0
 11
3123.090246
 21
1151.603876
 31
0.0
  0
LINE
  5
26F
  8
1
 10
3070.848112
 20
1113.503876
 30
0.0
 11
3108.948111
 21
1151.603876
 31
0.0
  0
LINE
  5
270
  8
1
 10
3056.705977
 20
1113.503876
 30
0.0
 11
3094.805975
 21
1151.603876
 31
0.0
  0
LINE
  5
271
  8
1
 10
3043.890517
 20
1114.830551
 30
0.0
 11
3080.66384
 21
1151.603876
 31
0.0
  0
LINE
  5
272
  8
1
 10
3043.890517
 20
1128.972687
 30
0.0
 11
3066.521705
 21
1151.603876
 31
0.0
  0
LINE
  5
273
  8
1
 10
3043.890517
 20
1143.114823
 30
0.0
 11
3052.37957
 21
1151.603876
 31
0.0
  0
ENDBLK
  5
274
  8
0
  0
BLOCK
  5
276
  8
1
  2
*U44
 70
    65
 10
0.0
 20
0.0
 30
0.0
  3
*U44
  1

  0
LINE
  5
277
  8
1
 10
2650.811581
 20
739.303876
 30
0.0
 11
2679.789356
 21
768.281652
 31
0.0
  0
LINE
  5
278
  8
1
 10
2608.385175
 20
739.303876
 30
0.0
 11
2695.318499
 21
826.237203
 31
0.0
  0
LINE
  5
279
  8
1
 10
2565.95877
 20
739.303876
 30
0.0
 11
2710.847643
 21
884.192755
 31
0.0
  0
LINE
  5
27A
  8
1
 10
2523.532364
 20
739.303876
 30
0.0
 11
2726.376786
 21
942.148307
 31
0.0
  0
LINE
  5
27B
  8
1
 10
2481.105958
 20
739.303876
 30
0.0
 11
2741.105946
 21
999.303876
 31
0.0
  0
LINE
  5
27C
  8
1
 10
2438.679552
 20
739.303876
 30
0.0
 11
2698.67954
 21
999.303876
 31
0.0
  0
LINE
  5
27D
  8
1
 10
2396.253146
 20
739.303876
 30
0.0
 11
2656.253134
 21
999.303876
 31
0.0
  0
LINE
  5
27E
  8
1
 10
2353.82674
 20
739.303876
 30
0.0
 11
2613.826728
 21
999.303876
 31
0.0
  0
LINE
  5
27F
  8
1
 10
2311.400334
 20
739.303876
 30
0.0
 11
2571.400323
 21
999.303876
 31
0.0
  0
LINE
  5
280
  8
1
 10
2297.590517
 20
767.920466
 30
0.0
 11
2528.973917
 21
999.303876
 31
0.0
  0
LINE
  5
281
  8
1
 10
2297.590517
 20
810.346874
 30
0.0
 11
2486.547511
 21
999.303876
 31
0.0
  0
LINE
  5
282
  8
1
 10
2297.590517
 20
852.773281
 30
0.0
 11
2444.121105
 21
999.303876
 31
0.0
  0
LINE
  5
283
  8
1
 10
2297.590517
 20
895.199689
 30
0.0
 11
2401.694699
 21
999.303876
 31
0.0
  0
LINE
  5
284
  8
1
 10
2297.590517
 20
937.626097
 30
0.0
 11
2359.268293
 21
999.303876
 31
0.0
  0
LINE
  5
285
  8
1
 10
2297.590517
 20
980.052505
 30
0.0
 11
2316.841887
 21
999.303876
 31
0.0
  0
ENDBLK
  5
286
  8
0
  0
BLOCK
  5
288
  8
2
  2
*D45
 70
    65
 10
0.0
 20
0.0
 30
0.0
  3
*D45
  1

  0
POINT
  5
289
  8
DEFPOINTS
 10
2297.590517
 20
739.303876
 30
0.0
  0
POINT
  5
28A
  8
DEFPOINTS
 10
2297.590517
 20
999.303876
 30
0.0
  0
POINT
  5
28B
  8
DEFPOINTS
 10
2052.871794
 20
575.989569
 30
0.0
  0
LINE
  5
28C
  8
2
  6
CONTINUOUS
 10
2291.590517
 20
739.303876
 30
0.0
 11
2047.871794
 21
739.303876
 31
0.0
  0
LINE
  5
28D
  8
2
  6
CONTINUOUS
 10
2291.590517
 20
999.303876
 30
0.0
 11
2047.871794
 21
999.303876
 31
0.0
  0
LINE
  5
28E
  8
2
  6
CONTINUOUS
 10
2052.871794
 20
115.479718
 30
0.0
 11
2052.871794
 21
1041.404408
 31
0.0
  0
LINE
  5
28F
  8
2
  6
CONTINUOUS
 10
2057.820767
 20
711.236855
 30
0.0
 11
2052.871794
 21
739.303876
 31
0.0
  0
LINE
  5
290
  8
2
  6
CONTINUOUS
 10
2047.922821
 20
711.236855
 30
0.0
 11
2052.871794
 21
739.303876
 31
0.0
  0
LINE
  5
291
  8
2
  6
CONTINUOUS
 10
2047.922825
 20
1027.370897
 30
0.0
 11
2052.871794
 21
999.303876
 31
0.0
  0
LINE
  5
292
  8
2
  6
CONTINUOUS
 10
2057.820771
 20
1027.370896
 30
0.0
 11
2052.871794
 21
999.303876
 31
0.0
  0
TEXT
  5
293
  8
2
  6
CONTINUOUS
 10
2048.871826
 20
136.279724
 30
0.0
 40
52.0
  1
２６０（天井材部）
 50
90.000003
 41
0.9
  7
MONOTXT
  0
ENDBLK
  5
294
  8
0
  0
BLOCK
  5
296
  8
2
  2
*D46
 70
    65
 10
0.0
 20
0.0
 30
0.0
  3
*D46
  1

  0
POINT
  5
297
  8
DEFPOINTS
 10
2215.190517
 20
529.303876
 30
0.0
  0
POINT
  5
298
  8
DEFPOINTS
 10
2215.190517
 20
1209.303876
 30
0.0
  0
POINT
  5
299
  8
DEFPOINTS
 10
1954.243373
 20
833.127951
 30
0.0
  0
LINE
  5
29A
  8
2
  6
CONTINUOUS
 10
2209.190517
 20
529.303876
 30
0.0
 11
1949.243373
 21
529.303876
 31
0.0
  0
LINE
  5
29B
  8
2
  6
CONTINUOUS
 10
2209.190517
 20
1209.303876
 30
0.0
 11
1949.243373
 21
1209.303876
 31
0.0
  0
LINE
  5
29C
  8
2
  6
CONTINUOUS
 10
1954.243373
 20
529.303876
 30
0.0
 11
1954.243373
 21
1209.303876
 31
0.0
  0
LINE
  5
29D
  8
2
  6
CONTINUOUS
 10
1949.294399
 20
557.370897
 30
0.0
 11
1954.243373
 21
529.303876
 31
0.0
  0
LINE
  5
29E
  8
2
  6
CONTINUOUS
 10
1959.192345
 20
557.370897
 30
0.0
 11
1954.243373
 21
529.303876
 31
0.0
  0
LINE
  5
29F
  8
2
  6
CONTINUOUS
 10
1959.192347
 20
1181.236855
 30
0.0
 11
1954.243373
 21
1209.303876
 31
0.0
  0
LINE
  5
2A0
  8
2
  6
CONTINUOUS
 10
1949.294401
 20
1181.236855
 30
0.0
 11
1954.243373
 21
1209.303876
 31
0.0
  0
TEXT
  5
2A1
  8
2
  6
CONTINUOUS
 10
1950.243408
 20
806.90387
 30
0.0
 40
52.0
  1
６８０
 50
90.000003
 41
0.9
  7
MONOTXT
  0
ENDBLK
  5
2A2
  8
0
  0
BLOCK
  5
2A4
  8
2
  2
*D47
 70
    65
 10
0.0
 20
0.0
 30
0.0
  3
*D47
  1

  0
POINT
  5
2A5
  8
DEFPOINTS
 10
2200.190517
 20
544.303876
 30
0.0
  0
POINT
  5
2A6
  8
DEFPOINTS
 10
3230.190517
 20
544.303876
 30
0.0
  0
POINT
  5
2A7
  8
DEFPOINTS
 10
2937.928978
 20
245.279146
 30
0.0
  0
LINE
  5
2A8
  8
2
  6
CONTINUOUS
 10
2200.190517
 20
538.303876
 30
0.0
 11
2200.190517
 21
240.279146
 31
0.0
  0
LINE
  5
2A9
  8
2
  6
CONTINUOUS
 10
3230.190517
 20
538.303876
 30
0.0
 11
3230.190517
 21
240.279146
 31
0.0
  0
LINE
  5
2AA
  8
2
  6
CONTINUOUS
 10
2200.190517
 20
245.279146
 30
0.0
 11
3230.190517
 21
245.279146
 31
0.0
  0
LINE
  5
2AB
  8
2
  6
CONTINUOUS
 10
2228.257538
 20
250.228119
 30
0.0
 11
2200.190517
 21
245.279146
 31
0.0
  0
LINE
  5
2AC
  8
2
  6
CONTINUOUS
 10
2228.257538
 20
240.330173
 30
0.0
 11
2200.190517
 21
245.279146
 31
0.0
  0
LINE
  5
2AD
  8
2
  6
CONTINUOUS
 10
3202.123496
 20
240.330171
 30
0.0
 11
3230.190517
 21
245.279146
 31
0.0
  0
LINE
  5
2AE
  8
2
  6
CONTINUOUS
 10
3202.123495
 20
250.228117
 30
0.0
 11
3230.190517
 21
245.279146
 31
0.0
  0
TEXT
  5
2AF
  8
2
  6
CONTINUOUS
 10
2631.990479
 20
249.279144
 30
0.0
 40
52.0
  1
１０３０
 41
0.9
  7
MONOTXT
  0
ENDBLK
  5
2B0
  8
0
  0
ENDSEC
  0
SECTION
  2
ENTITIES
  0
DIMENSION
  5
2B1
  8
2
  6
CONTINUOUS
 62
     7
  2
*D2
 10
1024.6688
 20
2124.856308
 30
0.0
 11
994.668821
 21
2075.728856
 31
0.0
  1
２３０
 13
857.349262
 23
1961.020575
 33
0.0
 14
618.213364
 24
2190.437121
 34
0.0
 50
90.000003
  0
DIMENSION
  5
2B2
  8
2
  6
CONTINUOUS
 62
     7
  2
*D3
 10
2433.190517
 20
2496.598316
 30
0.0
 11
454.949274
 21
2526.598389
 31
0.0
  1
５０
 13
517.349262
 23
2389.773687
 33
0.0
 14
567.670145
 24
2279.855899
 34
0.0
  0
DIMENSION
  5
2B3
  8
2
  6
CONTINUOUS
 62
     7
  2
*D4
 10
3284.153091
 20
3113.716299
 30
0.0
 11
3297.87002
 21
3143.716309
 31
0.0
  1
６０
 13
3099.790586
 23
3255.433781
 33
0.0
 14
3160.390586
 24
3506.033781
 34
0.0
  0
DIMENSION
  5
2B4
  8
2
  6
CONTINUOUS
 62
     7
  2
*D5
 10
3278.131808
 20
4000.013568
 30
0.0
 11
3256.049951
 21
4030.013672
 31
0.0
  1
５０
 13
3099.790586
 23
3855.433781
 33
0.0
 14
3152.190586
 24
3686.033781
 34
0.0
  0
DIMENSION
  5
2B5
  8
2
  6
CONTINUOUS
 62
     7
  2
*D6
 10
2016.808076
 20
3502.527807
 30
0.0
 11
1986.808097
 21
3555.833788
 31
0.0
  1
５２０（吊り位置）
 13
2282.514284
 23
3295.833781
 33
0.0
 14
2284.064495
 24
3815.833781
 34
0.0
 50
90.000003
  0
DIMENSION
  5
2B6
  8
2
  6
CONTINUOUS
 62
     7
  2
*D7
 10
1919.817349
 20
3348.088972
 30
0.0
 11
1889.817374
 21
3555.433837
 31
0.0
  1
６４０（天井開口部）
 13
2220.190586
 23
3235.433781
 33
0.0
 14
2220.190586
 24
3875.433781
 34
0.0
 50
90.000003
  0
DIMENSION
  5
2B7
  8
2
  6
CONTINUOUS
 62
     7
  2
*D8
 10
2682.396991
 20
2954.871031
 30
0.0
 11
2715.190674
 21
2984.871094
 31
0.0
  1
９９０（天井開口部）
 13
2220.190586
 23
3235.433781
 33
0.0
 14
3210.190586
 24
3235.433781
 34
0.0
  0
DIMENSION
  5
2B8
  8
2
  6
CONTINUOUS
 62
     7
  2
*D9
 10
2676.306985
 20
3040.131116
 30
0.0
 11
2715.190479
 21
3070.131104
 31
0.0
  1
８２０（吊り位置）
 13
2305.590586
 23
3268.149792
 33
0.0
 14
3124.790586
 24
3268.545635
 34
0.0
  0
DIMENSION
  5
2B9
  8
2
  6
CONTINUOUS
 62
     7
  2
*D10
 10
3977.364466
 20
3487.365286
 30
0.0
 11
3947.364499
 21
3329.146581
 31
0.0
  1
１３５
 13
4330.11298
 23
3433.708993
 33
0.0
 14
4330.11298
 24
3568.708993
 34
0.0
 50
90.000003
  0
DIMENSION
  5
2BA
  8
2
  6
CONTINUOUS
 62
     7
  2
*D11
 10
3895.942066
 20
3636.926752
 30
0.0
 11
3865.942136
 21
3620.559423
 31
0.0
  1
２４０
 13
4294.069734
 23
3501.208993
 33
0.0
 14
4097.113269
 24
3739.909634
 34
0.0
 50
90.000003
  0
DIMENSION
  5
2BB
  8
2
  6
CONTINUOUS
 62
     7
  2
*D12
 10
4627.635686
 20
3119.961644
 30
0.0
 11
4463.612891
 21
3149.96167
 31
0.0
  1
２６５
 13
4330.11298
 23
3433.708993
 33
0.0
 14
4597.112919
 24
3433.708969
 34
0.0
  0
DIMENSION
  5
2BC
  8
2
  6
CONTINUOUS
 62
     7
  2
*D13
 10
4706.493156
 20
3215.717144
 30
0.0
 11
4227.07041
 21
3245.717041
 31
0.0
  1
１５０
 13
4463.61295
 23
3404.588931
 33
0.0
 14
4612.112869
 24
3330.009158
 34
0.0
  0
DIMENSION
  5
2BD
  8
2
  6
CONTINUOUS
 62
     7
  2
*D14
 10
4984.005466
 20
2610.34493
 30
0.0
 11
4948.14707
 21
2640.344971
 31
0.0
  1
６００
 13
4653.5472
 23
2310.020575
 33
0.0
 14
5242.7472
 24
2310.020575
 34
0.0
  0
DIMENSION
  5
2BE
  8
2
  6
CONTINUOUS
 62
     7
  2
*D15
 10
4929.4967
 20
2400.971451
 30
0.0
 11
5143.649316
 21
2430.971436
 31
0.0
  1
５５
 13
4948.1472
 23
2410.742249
 33
0.0
 14
5003.147172
 24
2157.360385
 34
0.0
  0
DIMENSION
  5
2BF
  8
2
  6
CONTINUOUS
 62
     7
  2
*D16
 10
5486.749115
 20
2125.538663
 30
0.0
 11
5456.749021
 21
2108.508275
 31
0.0
  1
２９０
 13
5288.1472
 23
1961.020575
 33
0.0
 14
5102.226615
 24
2255.996046
 34
0.0
 50
90.000003
  0
DIMENSION
  5
2C0
  8
2
  6
CONTINUOUS
 62
     7
  2
*D17
 10
4929.4967
 20
2400.971451
 30
0.0
 11
4800.90957
 21
2430.971436
 31
0.0
  1
４５
 13
4903.147272
 23
2153.904144
 33
0.0
 14
4948.1472
 24
2394.250489
 34
0.0
  0
DIMENSION
  5
2C1
  8
2
  6
CONTINUOUS
 62
     7
  2
*D18
 10
5399.366391
 20
2090.421134
 30
0.0
 11
5369.366208
 21
2048.659276
 31
0.0
  1
１７５
 13
5288.1472
 23
1961.020575
 33
0.0
 14
5014.79961
 24
2136.298075
 34
0.0
 50
90.000003
  0
DIMENSION
  5
2C2
  8
2
  6
CONTINUOUS
 62
     7
  2
*D19
 10
4518.671435
 20
2026.504894
 30
0.0
 11
4488.671384
 21
2041.020604
 31
0.0
  1
１６０
 13
4608.1472
 23
1961.020575
 33
0.0
 14
4650.1472
 24
2121.020575
 34
0.0
 50
90.000003
  0
DIMENSION
  5
2C3
  8
2
  6
CONTINUOUS
 62
     7
  2
*D20
 10
4442.361386
 20
2031.150562
 30
0.0
 11
4412.361325
 21
2048.520604
 31
0.0
  1
１７５
 13
4608.1472
 23
1961.020575
 33
0.0
 14
4896.132786
 24
2136.020575
 34
0.0
 50
90.000003
  0
DIMENSION
  5
2C4
  8
2
  6
CONTINUOUS
 62
     7
  2
*D21
 10
5107.045696
 20
2496.598316
 30
0.0
 11
5009.577246
 21
2526.598389
 31
0.0
  1
１２５
 13
4948.1472
 23
2330.1621
 33
0.0
 14
5073.1904
 24
2280.847665
 34
0.0
  0
DIMENSION
  5
2C5
  8
2
  6
CONTINUOUS
 62
     7
  2
*D22
 10
4653.5472
 20
2610.34493
 30
0.0
 11
4545.746973
 21
2640.344971
 31
0.0
  1
４０
 13
4608.1472
 23
1961.020575
 33
0.0
 14
4653.5472
 24
2310.020575
 34
0.0
  0
DIMENSION
  5
2C6
  8
2
  6
CONTINUOUS
 62
     7
  2
*D23
 10
5242.7472
 20
2610.34493
 30
0.0
 11
5350.547266
 21
2640.344971
 31
0.0
  1
４０
 13
5242.7472
 23
2310.020575
 33
0.0
 14
5288.1472
 24
1961.020575
 34
0.0
  0
DIMENSION
  5
2C7
  8
2
  6
CONTINUOUS
 62
     7
  2
*D24
 10
3403.289415
 20
2034.182916
 30
0.0
 11
3373.289305
 21
2058.82058
 31
0.0
  1
８０
 13
2975.690586
 23
2121.220575
 33
0.0
 14
2975.690586
 24
2201.220575
 34
0.0
 50
90.000003
  0
DIMENSION
  5
2C8
  8
2
  6
CONTINUOUS
 62
     7
  2
*D25
 10
3757.999722
 20
2269.518952
 30
0.0
 11
3727.999753
 21
2108.508397
 31
0.0
  1
２９０
 13
3410.190517
 23
1961.020675
 33
0.0
 14
3378.790586
 24
2255.996046
 34
0.0
 50
90.000003
  0
DIMENSION
  5
2C9
  8
2
  6
CONTINUOUS
 62
     7
  2
*D26
 10
3622.145415
 20
1907.110843
 30
0.0
 11
3592.145505
 21
2076.42954
 31
0.0
  1
２００
 13
3410.190517
 23
1961.020675
 33
0.0
 14
2988.387146
 24
2161.220575
 34
0.0
 50
90.000003
  0
DIMENSION
  5
2CA
  8
2
  6
CONTINUOUS
 62
     7
  2
*D27
 10
3622.145415
 20
1907.110843
 30
0.0
 11
3592.145507
 21
1859.535961
 31
0.0
  1
８
 13
3225.190943
 23
1946.021235
 33
0.0
 14
3410.190517
 24
1961.020675
 34
0.0
 50
90.000003
  0
DIMENSION
  5
2CB
  8
2
  6
CONTINUOUS
 62
     7
  2
*D28
 10
3226.904984
 20
1751.295428
 30
0.0
 11
3292.590479
 21
1781.29541
 31
0.0
  1
２０
 13
3210.190517
 23
1961.020675
 33
0.0
 14
3230.190517
 24
1951.020575
 34
0.0
  0
DIMENSION
  5
2CC
  8
2
  6
CONTINUOUS
 62
     7
  2
*D29
 10
3226.904984
 20
1751.295428
 30
0.0
 11
3127.790918
 21
1781.29541
 31
0.0
  1
２０
 13
3190.190936
 23
1961.021202
 33
0.0
 14
3210.190517
 24
1961.020675
 34
0.0
  0
DIMENSION
  5
2CD
  8
2
  6
CONTINUOUS
 62
     7
  2
*D30
 10
1836.562649
 20
2087.914744
 30
0.0
 11
1806.562619
 21
1831.504491
 31
0.0
  1
２４０
 13
2020.190817
 23
1961.020475
 33
0.0
 14
2400.173442
 24
2199.720575
 34
0.0
 50
90.000003
  0
DIMENSION
  5
2CE
  8
2
  6
CONTINUOUS
 62
     7
  2
*D31
 10
1935.364392
 20
2143.649061
 30
0.0
 11
1905.364377
 21
1829.736547
 31
0.0
  1
１３５
 13
2433.190517
 23
2132.220575
 33
0.0
 14
2433.190517
 24
2267.220575
 34
0.0
 50
90.000003
  0
DIMENSION
  5
2CF
  8
2
  6
CONTINUOUS
 62
     7
  2
*D32
 10
2231.776121
 20
1788.635117
 30
0.0
 11
2323.490869
 21
1818.635132
 31
0.0
  1
４０
 13
2220.190417
 23
1961.020675
 33
0.0
 14
2261.090936
 24
1961.019966
 34
0.0
  0
DIMENSION
  5
2D0
  8
2
  6
CONTINUOUS
 62
     7
  2
*D33
 10
2231.776121
 20
1788.635117
 30
0.0
 11
2137.79043
 21
1818.635132
 31
0.0
  1
２０
 13
2200.190517
 23
1951.020575
 33
0.0
 14
2220.190417
 24
1961.020675
 34
0.0
  0
DIMENSION
  5
2D1
  8
2
  6
CONTINUOUS
 62
     7
  2
*D34
 10
1721.654669
 20
2041.328224
 30
0.0
 11
1691.654661
 21
1849.917382
 31
0.0
  1
４５
 13
2020.190817
 23
1961.020475
 33
0.0
 14
2261.090888
 24
2012.019966
 34
0.0
 50
90.000003
  0
DIMENSION
  5
2D2
  8
2
  6
CONTINUOUS
 62
     7
  2
*D35
 10
1721.654669
 20
2041.328224
 30
0.0
 11
1691.65466
 21
2161.02036
 31
0.0
  1
３０５
 13
2261.090888
 23
2012.019966
 33
0.0
 14
2330.590586
 24
2310.020575
 34
0.0
 50
90.000003
  0
DIMENSION
  5
2D3
  8
2
  6
CONTINUOUS
 62
     7
  2
*D36
 10
3190.190936
 20
1751.295428
 30
0.0
 11
2816.558447
 21
1781.29541
 31
0.0
  1
２２０
 13
2715.190517
 23
1880.338643
 33
0.0
 14
2933.190586
 24
2105.75909
 34
0.0
  0
DIMENSION
  5
2D4
  8
2
  6
CONTINUOUS
 62
     7
  2
*D37
 10
3190.190936
 20
1751.295428
 30
0.0
 11
2483.490576
 21
1781.29541
 31
0.0
  1
１５０
 13
2566.690551
 23
2096.222422
 33
0.0
 14
2715.190517
 24
1909.8752
 34
0.0
  0
DIMENSION
  5
2D5
  8
2
  6
CONTINUOUS
 62
     7
  2
*D38
 10
4948.1472
 20
2496.598316
 30
0.0
 11
2929.286279
 21
2526.598389
 31
0.0
  1
８５
 13
2890.690586
 23
2201.220575
 33
0.0
 14
2975.690586
 24
2201.220575
 34
0.0
  0
DIMENSION
  5
2D6
  8
2
  6
CONTINUOUS
 62
     7
  2
*D39
 10
4948.1472
 20
2496.598316
 30
0.0
 11
2566.690527
 21
2526.598389
 31
0.0
  1
２６５
 13
2433.190517
 23
2267.220575
 33
0.0
 14
2700.190586
 24
2267.220575
 34
0.0
  0
DIMENSION
  5
2D7
  8
2
  6
CONTINUOUS
 62
     7
  2
*D40
 10
4653.5472
 20
2610.34493
 30
0.0
 11
3161.857275
 21
2640.344971
 31
0.0
  1
１２５
 13
3099.790586
 23
2310.020575
 33
0.0
 14
3230.190517
 24
1961.020575
 34
0.0
  0
DIMENSION
  5
2D8
  8
2
  6
CONTINUOUS
 62
     7
  2
*D41
 10
4653.5472
 20
2610.34493
 30
0.0
 11
2715.190527
 21
2640.344971
 31
0.0
  1
７８０
 13
2330.590586
 23
2310.020575
 33
0.0
 14
3099.790586
 24
2310.020575
 34
0.0
  0
DIMENSION
  5
2D9
  8
2
  6
CONTINUOUS
 62
     7
  2
*D42
 10
4653.5472
 20
2610.34493
 30
0.0
 11
2265.959082
 21
2640.344971
 31
0.0
  1
１２５
 13
2200.190517
 23
1961.020575
 33
0.0
 14
2330.590586
 24
2310.020575
 34
0.0
  0
INSERT
  5
2DA
  8
1
  2
*U43
 10
0.0
 20
0.0
 30
0.0
  0
INSERT
  5
2DB
  8
1
  2
*U44
 10
0.0
 20
0.0
 30
0.0
  0
DIMENSION
  5
2DC
  8
2
  6
CONTINUOUS
 62
     7
  2
*D45
 10
2052.871794
 20
575.989569
 30
0.0
 11
2022.871818
 21
323.479723
 31
0.0
  1
２６０（天井材部）
 13
2297.590517
 23
739.303876
 33
0.0
 14
2297.590517
 24
999.303876
 34
0.0
 50
90.000003
  0
DIMENSION
  5
2DD
  8
2
  6
CONTINUOUS
 62
     7
  2
*D46
 10
1954.243373
 20
833.127951
 30
0.0
 11
1924.243405
 21
869.303868
 31
0.0
  1
６８０
 13
2215.190517
 23
529.303876
 33
0.0
 14
2215.190517
 24
1209.303876
 34
0.0
 50
90.000003
  0
DIMENSION
  5
2DE
  8
2
  6
CONTINUOUS
 62
     7
  2
*D47
 10
2937.928978
 20
245.279146
 30
0.0
 11
2715.190479
 21
275.279144
 31
0.0
  1
１０３０
 13
2200.190517
 23
544.303876
 33
0.0
 14
3230.190517
 24
544.303876
 34
0.0
  0
LINE
  5
2DF
  8
1
 10
811.949262
 20
2310.020575
 30
0.0
 11
222.749262
 21
2310.020575
 31
0.0
  0
LINE
  5
2E0
  8
1
 10
811.949262
 20
2310.020575
 30
0.0
 11
811.949262
 21
1972.519741
 31
0.0
  0
LINE
  5
2E1
  8
1
 10
222.749262
 20
2310.020575
 30
0.0
 11
222.749262
 21
1972.519741
 31
0.0
  0
LINE
  5
2E2
  8
1
 10
739.349262
 20
2121.020575
 30
0.0
 11
815.349262
 21
2121.020575
 31
0.0
  0
LINE
  5
2E3
  8
1
 10
739.349262
 20
2118.720575
 30
0.0
 11
754.349262
 21
2118.720575
 31
0.0
  0
LINE
  5
2E4
  8
1
 10
815.349262
 20
2118.720575
 30
0.0
 11
815.349262
 21
2121.020575
 31
0.0
  0
LINE
  5
2E5
  8
1
 10
739.349262
 20
2118.720575
 30
0.0
 11
739.349262
 21
2121.020575
 31
0.0
  0
LINE
  5
2E6
  8
1
 10
754.349262
 20
2112.020575
 30
0.0
 11
754.349262
 21
2121.020575
 31
0.0
  0
LINE
  5
2E7
  8
1
 10
771.349262
 20
2112.020575
 30
0.0
 11
771.349262
 21
2121.020575
 31
0.0
  0
LINE
  5
2E8
  8
1
 10
783.349262
 20
2112.020575
 30
0.0
 11
783.349262
 21
2121.020575
 31
0.0
  0
LINE
  5
2E9
  8
1
 10
800.349262
 20
2076.754419
 30
0.0
 11
800.349262
 21
2121.020575
 31
0.0
  0
LINE
  5
2EA
  8
1
 10
757.349262
 20
2109.020575
 30
0.0
 11
768.349262
 21
2109.020575
 31
0.0
  0
ARC
  5
2EB
  8
1
 10
797.349262
 20
2112.020575
 30
0.0
 40
3.0
 50
270.0
 51
0.0
  0
ARC
  5
2EC
  8
1
 10
786.349262
 20
2112.020575
 30
0.0
 40
3.0
 50
180.0
 51
270.0
  0
ARC
  5
2ED
  8
1
 10
768.349262
 20
2112.020575
 30
0.0
 40
3.0
 50
270.0
 51
0.0
  0
ARC
  5
2EE
  8
1
 10
757.349262
 20
2112.020575
 30
0.0
 40
3.0
 50
180.0
 51
270.0
  0
LINE
  5
2EF
  8
1
 10
761.069415
 20
2066.020575
 30
0.0
 11
793.629109
 21
2066.020575
 31
0.0
  0
CIRCLE
  5
2F0
  8
1
 10
777.349262
 20
2106.020575
 30
0.0
 40
3.5
  0
CIRCLE
  5
2F1
  8
1
 10
777.349262
 20
2076.020575
 30
0.0
 40
3.5
  0
LINE
  5
2F2
  8
1
 10
798.41824
 20
2069.583835
 30
0.0
 11
800.138394
 21
2075.317679
 31
0.0
  0
LINE
  5
2F3
  8
1
 10
756.280284
 20
2069.583835
 30
0.0
 11
754.560131
 21
2075.317679
 31
0.0
  0
ARC
  5
2F4
  8
1
 10
793.629109
 20
2071.020575
 30
0.0
 40
5.0
 50
270.0
 51
343.300756
  0
ARC
  5
2F5
  8
1
 10
795.349262
 20
2076.754419
 30
0.0
 40
5.0
 50
343.300756
 51
0.0
  0
ARC
  5
2F6
  8
1
 10
761.069415
 20
2071.020575
 30
0.0
 40
5.0
 50
196.699244
 51
270.0
  0
ARC
  5
2F7
  8
1
 10
759.349262
 20
2076.754419
 30
0.0
 40
5.0
 50
180.0
 51
196.699244
  0
LINE
  5
2F8
  8
1
 10
786.349262
 20
2109.020575
 30
0.0
 11
797.349262
 21
2109.020575
 31
0.0
  0
LINE
  5
2F9
  8
1
 10
754.349262
 20
2112.020575
 30
0.0
 11
754.349262
 21
2076.754419
 31
0.0
  0
LINE
  5
2FA
  8
1
 10
800.349262
 20
2118.720575
 30
0.0
 11
815.349262
 21
2118.720575
 31
0.0
  0
LINE
  5
2FB
  8
1
 10
771.349262
 20
2118.720575
 30
0.0
 11
783.349262
 21
2118.720575
 31
0.0
  0
LINE
  5
2FC
  8
1
 10
295.349262
 20
2121.020575
 30
0.0
 11
219.349262
 21
2121.020575
 31
0.0
  0
LINE
  5
2FD
  8
1
 10
295.349262
 20
2118.720575
 30
0.0
 11
280.349262
 21
2118.720575
 31
0.0
  0
LINE
  5
2FE
  8
1
 10
219.349262
 20
2118.720575
 30
0.0
 11
219.349262
 21
2121.020575
 31
0.0
  0
LINE
  5
2FF
  8
1
 10
295.349262
 20
2118.720575
 30
0.0
 11
295.349262
 21
2121.020575
 31
0.0
  0
LINE
  5
300
  8
1
 10
280.349262
 20
2112.020575
 30
0.0
 11
280.349262
 21
2121.020575
 31
0.0
  0
LINE
  5
301
  8
1
 10
263.349262
 20
2112.020575
 30
0.0
 11
263.349262
 21
2121.020575
 31
0.0
  0
LINE
  5
302
  8
1
 10
251.349262
 20
2112.020575
 30
0.0
 11
251.349262
 21
2121.020575
 31
0.0
  0
LINE
  5
303
  8
1
 10
234.349262
 20
2076.754419
 30
0.0
 11
234.349262
 21
2121.020575
 31
0.0
  0
LINE
  5
304
  8
1
 10
277.349262
 20
2109.020575
 30
0.0
 11
266.349262
 21
2109.020575
 31
0.0
  0
ARC
  5
305
  8
1
 10
237.349262
 20
2112.020575
 30
0.0
 40
3.0
 50
180.0
 51
270.0
  0
ARC
  5
306
  8
1
 10
248.349262
 20
2112.020575
 30
0.0
 40
3.0
 50
270.0
 51
0.0
  0
ARC
  5
307
  8
1
 10
266.349262
 20
2112.020575
 30
0.0
 40
3.0
 50
180.0
 51
270.0
  0
ARC
  5
308
  8
1
 10
277.349262
 20
2112.020575
 30
0.0
 40
3.0
 50
270.0
 51
0.0
  0
LINE
  5
309
  8
1
 10
273.629109
 20
2066.020575
 30
0.0
 11
241.069415
 21
2066.020575
 31
0.0
  0
CIRCLE
  5
30A
  8
1
 10
257.349262
 20
2106.020575
 30
0.0
 40
3.5
  0
CIRCLE
  5
30B
  8
1
 10
257.349262
 20
2076.020575
 30
0.0
 40
3.5
  0
LINE
  5
30C
  8
1
 10
236.280284
 20
2069.583835
 30
0.0
 11
234.560131
 21
2075.317679
 31
0.0
  0
LINE
  5
30D
  8
1
 10
278.41824
 20
2069.583835
 30
0.0
 11
280.138394
 21
2075.317679
 31
0.0
  0
ARC
  5
30E
  8
1
 10
241.069415
 20
2071.020575
 30
0.0
 40
5.0
 50
196.699244
 51
270.0
  0
ARC
  5
30F
  8
1
 10
239.349262
 20
2076.754419
 30
0.0
 40
5.0
 50
180.0
 51
196.699244
  0
ARC
  5
310
  8
1
 10
273.629109
 20
2071.020575
 30
0.0
 40
5.0
 50
270.0
 51
343.300756
  0
ARC
  5
311
  8
1
 10
275.349262
 20
2076.754419
 30
0.0
 40
5.0
 50
343.300756
 51
0.0
  0
LINE
  5
312
  8
1
 10
248.349262
 20
2109.020575
 30
0.0
 11
237.349262
 21
2109.020575
 31
0.0
  0
LINE
  5
313
  8
1
 10
280.349262
 20
2112.020575
 30
0.0
 11
280.349262
 21
2076.754419
 31
0.0
  0
LINE
  5
314
  8
1
 10
234.349262
 20
2118.720575
 30
0.0
 11
219.349262
 21
2118.720575
 31
0.0
  0
LINE
  5
315
  8
1
 10
263.349262
 20
2118.720575
 30
0.0
 11
251.349262
 21
2118.720575
 31
0.0
  0
ARC
  5
316
  8
1
 10
222.849262
 20
1966.520575
 30
0.0
 40
6.0
 50
90.954974
 51
180.0
  0
LINE
  5
317
  8
1
 10
216.849262
 20
1961.020575
 30
0.0
 11
216.849262
 21
1966.520575
 31
0.0
  0
ARC
  5
318
  8
1
 10
811.849262
 20
1966.520575
 30
0.0
 40
6.0
 50
0.0
 51
89.045026
  0
LINE
  5
319
  8
1
 10
817.849262
 20
1961.020575
 30
0.0
 11
817.849262
 21
1966.520575
 31
0.0
  0
LINE
  5
31A
  8
1
  6
DASHDOT
 10
517.349262
 20
1937.101444
 30
0.0
 11
517.349262
 21
2410.742249
 31
0.0
  0
LINE
  5
31B
  8
1
 10
191.349262
 20
1946.020575
 30
0.0
 11
843.349262
 21
1946.020575
 31
0.0
  0
ARC
  5
31C
  8
1
 10
191.349262
 20
1976.020575
 30
0.0
 40
30.0
 50
243.985634
 51
270.0
  0
ARC
  5
31D
  8
1
 10
178.849262
 20
1950.408078
 30
0.0
 40
1.5
 50
180.0
 51
243.985634
  0
LINE
  5
31E
  8
1
 10
177.349262
 20
1950.408078
 30
0.0
 11
177.349262
 21
1961.020575
 31
0.0
  0
LINE
  5
31F
  8
1
 10
177.349262
 20
1961.020575
 30
0.0
 11
857.349262
 21
1961.020575
 31
0.0
  0
LINE
  5
320
  8
1
 10
857.349262
 20
1950.408078
 30
0.0
 11
857.349262
 21
1961.020575
 31
0.0
  0
ARC
  5
321
  8
1
 10
855.849262
 20
1950.408078
 30
0.0
 40
1.5
 50
296.014366
 51
0.0
  0
ARC
  5
322
  8
1
 10
843.349262
 20
1976.020575
 30
0.0
 40
30.0
 50
270.0
 51
296.014366
  0
ARC
  5
323
  8
1
 10
789.349262
 20
2021.020575
 30
0.0
 40
1.0
 50
0.0
 51
90.0
  0
ARC
  5
324
  8
1
 10
245.349262
 20
2021.020575
 30
0.0
 40
1.0
 50
90.0
 51
180.0
  0
LINE
  5
325
  8
1
 10
222.749262
 20
2012.020575
 30
0.0
 11
811.949262
 21
2012.020575
 31
0.0
  0
CIRCLE
  5
326
  8
1
  6
DASHDOT
 10
567.670145
 20
2190.437121
 30
0.0
 40
80.0
  0
CIRCLE
  5
327
  8
1
 10
567.670145
 20
2190.437121
 30
0.0
 40
62.5
  0
LINE
  5
328
  8
1
  6
DASHDOT
 10
567.670145
 20
2291.405318
 30
0.0
 11
567.670145
 21
2089.468924
 31
0.0
  0
LINE
  5
329
  8
1
  6
DASHDOT
 10
466.701948
 20
2190.437121
 30
0.0
 11
668.638342
 21
2190.437121
 31
0.0
  0
CIRCLE
  5
32A
  8
1
 10
527.670145
 20
2121.155089
 30
0.0
 40
3.534976
  0
CIRCLE
  5
32B
  8
1
 10
607.670145
 20
2121.155089
 30
0.0
 40
3.534976
  0
CIRCLE
  5
32C
  8
1
 10
647.670145
 20
2190.437121
 30
0.0
 40
3.534976
  0
CIRCLE
  5
32D
  8
1
 10
607.670145
 20
2259.719153
 30
0.0
 40
3.534976
  0
CIRCLE
  5
32E
  8
1
 10
527.670145
 20
2259.719153
 30
0.0
 40
3.534976
  0
CIRCLE
  5
32F
  8
1
 10
487.670145
 20
2190.437121
 30
0.0
 40
3.534976
  0
LINE
  5
330
  8
1
 10
2200.190586
 20
3230.433781
 30
0.0
 11
2200.190586
 21
3880.433781
 31
0.0
  0
LINE
  5
331
  8
1
 10
3230.190586
 20
3230.433781
 30
0.0
 11
3230.190586
 21
3880.433781
 31
0.0
  0
LINE
  5
332
  8
1
  6
DIVIDE
 10
3210.190586
 20
3235.433781
 30
0.0
 11
3210.190586
 21
3875.433781
 31
0.0
  0
LINE
  5
333
  8
1
  6
DIVIDE
 10
2220.190586
 20
3235.433781
 30
0.0
 11
2220.190586
 21
3875.433781
 31
0.0
  0
LINE
  5
334
  8
1
 10
3215.190586
 20
3895.433781
 30
0.0
 11
2215.190586
 21
3895.433781
 31
0.0
  0
LINE
  5
335
  8
1
 10
3215.190586
 20
3215.433781
 30
0.0
 11
2215.190586
 21
3215.433781
 31
0.0
  0
LINE
  5
336
  8
1
  6
DIVIDE
 10
3210.190586
 20
3235.433781
 30
0.0
 11
2220.190586
 21
3235.433781
 31
0.0
  0
LINE
  5
337
  8
1
  6
DIVIDE
 10
3210.190586
 20
3875.433781
 30
0.0
 11
2220.190586
 21
3875.433781
 31
0.0
  0
LINE
  5
338
  8
1
  6
DASHDOT
 10
2715.190586
 20
3142.094856
 30
0.0
 11
2715.190586
 21
3961.778817
 31
0.0
  0
LINE
  5
339
  8
1
  6
DASHDOT
 10
3311.443165
 20
3555.433781
 30
0.0
 11
2136.435198
 21
3555.433781
 31
0.0
  0
LINE
  5
33A
  8
1
 10
3099.790586
 20
3255.433781
 30
0.0
 11
2330.590586
 21
3255.433781
 31
0.0
  0
LINE
  5
33B
  8
1
 10
3099.790586
 20
3850.433781
 30
0.0
 11
3099.790586
 21
3849.833781
 31
0.0
  0
LINE
  5
33C
  8
1
 10
3099.790586
 20
3855.433781
 30
0.0
 11
3099.790586
 21
3255.433781
 31
0.0
  0
LINE
  5
33D
  8
1
 10
3099.790586
 20
3261.833781
 30
0.0
 11
3099.790586
 21
3261.233781
 31
0.0
  0
LINE
  5
33E
  8
1
  6
DASHDOT
 10
2265.591134
 20
3815.833781
 30
0.0
 11
2350.179566
 21
3815.833781
 31
0.0
  0
LINE
  5
33F
  8
1
 10
2302.661654
 20
3777.833781
 30
0.0
 11
2315.590586
 21
3777.833781
 31
0.0
  0
LINE
  5
340
  8
1
 10
2302.661654
 20
3853.833781
 30
0.0
 11
2315.590586
 21
3853.833781
 31
0.0
  0
LINE
  5
341
  8
1
  6
DASHED
 10
2328.290586
 20
3838.833781
 30
0.0
 11
2328.290586
 21
3792.833781
 31
0.0
  0
LINE
  5
342
  8
1
  6
DASHED
 10
2285.590586
 20
3838.833781
 30
0.0
 11
2285.590586
 21
3821.833781
 31
0.0
  0
LINE
  5
343
  8
1
 10
2283.290586
 20
3838.833781
 30
0.0
 11
2283.290586
 21
3821.833781
 31
0.0
  0
LINE
  5
344
  8
1
 10
2283.290586
 20
3809.833781
 30
0.0
 11
2296.590586
 21
3809.833781
 31
0.0
  0
LINE
  5
345
  8
1
 10
2283.290586
 20
3821.833781
 30
0.0
 11
2296.590586
 21
3821.833781
 31
0.0
  0
LINE
  5
346
  8
1
 10
2283.290586
 20
3838.833781
 30
0.0
 11
2285.590586
 21
3838.833781
 31
0.0
  0
LINE
  5
347
  8
1
 10
2283.290586
 20
3792.833781
 30
0.0
 11
2285.590586
 21
3792.833781
 31
0.0
  0
LINE
  5
348
  8
1
  6
DASHDOT
 10
2305.590586
 20
3855.833781
 30
0.0
 11
2305.590586
 21
3775.358625
 31
0.0
  0
LINE
  5
349
  8
1
 10
2311.590586
 20
3832.833781
 30
0.0
 11
2311.590586
 21
3798.833781
 31
0.0
  0
LINE
  5
34A
  8
1
 10
2299.590586
 20
3832.833781
 30
0.0
 11
2299.590586
 21
3824.833781
 31
0.0
  0
LINE
  5
34B
  8
1
 10
2285.590586
 20
3838.833781
 30
0.0
 11
2299.12612
 21
3852.369315
 31
0.0
  0
LINE
  5
34C
  8
1
 10
2285.590586
 20
3792.833781
 30
0.0
 11
2299.12612
 21
3779.298248
 31
0.0
  0
LINE
  5
34D
  8
1
 10
2320.590586
 20
3848.833781
 30
0.0
 11
2320.590586
 21
3843.833781
 31
0.0
  0
ARC
  5
34E
  8
1
 10
2325.590586
 20
3843.833781
 30
0.0
 40
5.0
 50
180.0
 51
270.0
  0
ARC
  5
34F
  8
1
 10
2315.590586
 20
3848.833781
 30
0.0
 40
5.0
 50
0.0
 51
90.0
  0
ARC
  5
350
  8
1
 10
2325.590586
 20
3787.833781
 30
0.0
 40
5.0
 50
90.0
 51
180.0
  0
ARC
  5
351
  8
1
 10
2315.590586
 20
3782.833781
 30
0.0
 40
5.0
 50
270.0
 51
0.0
  0
ARC
  5
352
  8
1
 10
2302.661654
 20
3782.833781
 30
0.0
 40
5.0
 50
225.0
 51
270.0
  0
ARC
  5
353
  8
1
 10
2302.661654
 20
3848.833781
 30
0.0
 40
5.0
 50
90.0
 51
135.0
  0
ARC
  5
354
  8
1
 10
2296.590586
 20
3824.833781
 30
0.0
 40
3.0
 50
270.0
 51
0.0
  0
ARC
  5
355
  8
1
 10
2296.590586
 20
3806.833781
 30
0.0
 40
3.0
 50
0.0
 51
90.0
  0
ARC
  5
356
  8
1
 10
2305.590586
 20
3798.833781
 30
0.0
 40
6.0
 50
180.0
 51
270.0
  0
ARC
  5
357
  8
1
 10
2305.590586
 20
3798.833781
 30
0.0
 40
6.0
 50
270.0
 51
0.0
  0
ARC
  5
358
  8
1
 10
2305.590586
 20
3832.833781
 30
0.0
 40
6.0
 50
0.0
 51
90.0
  0
ARC
  5
359
  8
1
 10
2305.590586
 20
3832.833781
 30
0.0
 40
6.0
 50
90.0
 51
180.0
  0
LINE
  5
35A
  8
1
 10
2283.290586
 20
3809.833781
 30
0.0
 11
2283.290586
 21
3792.833781
 31
0.0
  0
LINE
  5
35B
  8
1
  6
DASHED
 10
2285.590586
 20
3809.833781
 30
0.0
 11
2285.590586
 21
3792.833781
 31
0.0
  0
LINE
  5
35C
  8
1
 10
2325.590586
 20
3838.833781
 30
0.0
 11
2330.590586
 21
3838.833781
 31
0.0
  0
LINE
  5
35D
  8
1
 10
2325.590586
 20
3792.833781
 30
0.0
 11
2330.590586
 21
3792.833781
 31
0.0
  0
LINE
  5
35E
  8
1
 10
2320.590586
 20
3787.833781
 30
0.0
 11
2320.590586
 21
3782.833781
 31
0.0
  0
LINE
  5
35F
  8
1
 10
2299.590586
 20
3806.833781
 30
0.0
 11
2299.590586
 21
3798.833781
 31
0.0
  0
LINE
  5
360
  8
1
 10
2330.590586
 20
3792.833781
 30
0.0
 11
2330.590586
 21
3838.833781
 31
0.0
  0
LINE
  5
361
  8
1
  6
DASHDOT
 10
2265.591134
 20
3295.833781
 30
0.0
 11
2350.179566
 21
3295.833781
 31
0.0
  0
LINE
  5
362
  8
1
 10
2302.661654
 20
3257.833781
 30
0.0
 11
2315.590586
 21
3257.833781
 31
0.0
  0
LINE
  5
363
  8
1
 10
2302.661654
 20
3333.833781
 30
0.0
 11
2315.590586
 21
3333.833781
 31
0.0
  0
LINE
  5
364
  8
1
  6
DASHED
 10
2328.290586
 20
3318.833781
 30
0.0
 11
2328.290586
 21
3272.833781
 31
0.0
  0
LINE
  5
365
  8
1
  6
DASHED
 10
2285.590586
 20
3318.833781
 30
0.0
 11
2285.590586
 21
3301.833781
 31
0.0
  0
LINE
  5
366
  8
1
 10
2283.290586
 20
3318.833781
 30
0.0
 11
2283.290586
 21
3301.833781
 31
0.0
  0
LINE
  5
367
  8
1
 10
2283.290586
 20
3289.833781
 30
0.0
 11
2296.590586
 21
3289.833781
 31
0.0
  0
LINE
  5
368
  8
1
 10
2283.290586
 20
3301.833781
 30
0.0
 11
2296.590586
 21
3301.833781
 31
0.0
  0
LINE
  5
369
  8
1
 10
2283.290586
 20
3318.833781
 30
0.0
 11
2285.590586
 21
3318.833781
 31
0.0
  0
LINE
  5
36A
  8
1
 10
2283.290586
 20
3272.833781
 30
0.0
 11
2285.590586
 21
3272.833781
 31
0.0
  0
LINE
  5
36B
  8
1
  6
DASHDOT
 10
2305.590586
 20
3335.833781
 30
0.0
 11
2305.590586
 21
3255.358625
 31
0.0
  0
LINE
  5
36C
  8
1
 10
2311.590586
 20
3312.833781
 30
0.0
 11
2311.590586
 21
3278.833781
 31
0.0
  0
LINE
  5
36D
  8
1
 10
2299.590586
 20
3312.833781
 30
0.0
 11
2299.590586
 21
3304.833781
 31
0.0
  0
LINE
  5
36E
  8
1
 10
2285.590586
 20
3318.833781
 30
0.0
 11
2299.12612
 21
3332.369315
 31
0.0
  0
LINE
  5
36F
  8
1
 10
2285.590586
 20
3272.833781
 30
0.0
 11
2299.12612
 21
3259.298248
 31
0.0
  0
LINE
  5
370
  8
1
 10
2320.590586
 20
3328.833781
 30
0.0
 11
2320.590586
 21
3323.833781
 31
0.0
  0
ARC
  5
371
  8
1
 10
2325.590586
 20
3323.833781
 30
0.0
 40
5.0
 50
180.0
 51
270.0
  0
ARC
  5
372
  8
1
 10
2315.590586
 20
3328.833781
 30
0.0
 40
5.0
 50
0.0
 51
90.0
  0
ARC
  5
373
  8
1
 10
2325.590586
 20
3267.833781
 30
0.0
 40
5.0
 50
90.0
 51
180.0
  0
ARC
  5
374
  8
1
 10
2315.590586
 20
3262.833781
 30
0.0
 40
5.0
 50
270.0
 51
0.0
  0
ARC
  5
375
  8
1
 10
2302.661654
 20
3262.833781
 30
0.0
 40
5.0
 50
225.0
 51
270.0
  0
ARC
  5
376
  8
1
 10
2302.661654
 20
3328.833781
 30
0.0
 40
5.0
 50
90.0
 51
135.0
  0
ARC
  5
377
  8
1
 10
2296.590586
 20
3304.833781
 30
0.0
 40
3.0
 50
270.0
 51
0.0
  0
ARC
  5
378
  8
1
 10
2296.590586
 20
3286.833781
 30
0.0
 40
3.0
 50
0.0
 51
90.0
  0
ARC
  5
379
  8
1
 10
2305.590586
 20
3278.833781
 30
0.0
 40
6.0
 50
180.0
 51
270.0
  0
ARC
  5
37A
  8
1
 10
2305.590586
 20
3278.833781
 30
0.0
 40
6.0
 50
270.0
 51
0.0
  0
ARC
  5
37B
  8
1
 10
2305.590586
 20
3312.833781
 30
0.0
 40
6.0
 50
0.0
 51
90.0
  0
ARC
  5
37C
  8
1
 10
2305.590586
 20
3312.833781
 30
0.0
 40
6.0
 50
90.0
 51
180.0
  0
LINE
  5
37D
  8
1
 10
2283.290586
 20
3289.833781
 30
0.0
 11
2283.290586
 21
3272.833781
 31
0.0
  0
LINE
  5
37E
  8
1
  6
DASHED
 10
2285.590586
 20
3289.833781
 30
0.0
 11
2285.590586
 21
3272.833781
 31
0.0
  0
LINE
  5
37F
  8
1
 10
2325.590586
 20
3318.833781
 30
0.0
 11
2330.590586
 21
3318.833781
 31
0.0
  0
LINE
  5
380
  8
1
 10
2325.590586
 20
3272.833781
 30
0.0
 11
2330.590586
 21
3272.833781
 31
0.0
  0
LINE
  5
381
  8
1
 10
2320.590586
 20
3267.833781
 30
0.0
 11
2320.590586
 21
3262.833781
 31
0.0
  0
LINE
  5
382
  8
1
 10
2299.590586
 20
3286.833781
 30
0.0
 11
2299.590586
 21
3278.833781
 31
0.0
  0
LINE
  5
383
  8
1
 10
2330.590586
 20
3272.833781
 30
0.0
 11
2330.590586
 21
3318.833781
 31
0.0
  0
LINE
  5
384
  8
1
  6
DASHDOT
 10
3164.989253
 20
3295.833781
 30
0.0
 11
3082.300405
 21
3295.833781
 31
0.0
  0
LINE
  5
385
  8
1
 10
3127.719518
 20
3257.833781
 30
0.0
 11
3114.790586
 21
3257.833781
 31
0.0
  0
LINE
  5
386
  8
1
 10
3127.719518
 20
3333.833781
 30
0.0
 11
3114.790586
 21
3333.833781
 31
0.0
  0
LINE
  5
387
  8
1
  6
DASHED
 10
3102.090586
 20
3318.833781
 30
0.0
 11
3102.090586
 21
3272.833781
 31
0.0
  0
LINE
  5
388
  8
1
  6
DASHED
 10
3144.790586
 20
3318.833781
 30
0.0
 11
3144.790586
 21
3301.833781
 31
0.0
  0
LINE
  5
389
  8
1
 10
3147.090586
 20
3318.833781
 30
0.0
 11
3147.090586
 21
3301.833781
 31
0.0
  0
LINE
  5
38A
  8
1
 10
3147.090586
 20
3289.833781
 30
0.0
 11
3133.790586
 21
3289.833781
 31
0.0
  0
LINE
  5
38B
  8
1
 10
3147.090586
 20
3301.833781
 30
0.0
 11
3133.790586
 21
3301.833781
 31
0.0
  0
LINE
  5
38C
  8
1
 10
3147.090586
 20
3318.833781
 30
0.0
 11
3144.790586
 21
3318.833781
 31
0.0
  0
LINE
  5
38D
  8
1
 10
3147.090586
 20
3272.833781
 30
0.0
 11
3144.790586
 21
3272.833781
 31
0.0
  0
LINE
  5
38E
  8
1
  6
DASHDOT
 10
3124.790586
 20
3335.833781
 30
0.0
 11
3124.790586
 21
3255.358625
 31
0.0
  0
LINE
  5
38F
  8
1
 10
3118.790586
 20
3312.833781
 30
0.0
 11
3118.790586
 21
3278.833781
 31
0.0
  0
LINE
  5
390
  8
1
 10
3130.790586
 20
3312.833781
 30
0.0
 11
3130.790586
 21
3304.833781
 31
0.0
  0
LINE
  5
391
  8
1
 10
3144.790586
 20
3318.833781
 30
0.0
 11
3131.255052
 21
3332.369315
 31
0.0
  0
LINE
  5
392
  8
1
 10
3144.790586
 20
3272.833781
 30
0.0
 11
3131.255052
 21
3259.298248
 31
0.0
  0
LINE
  5
393
  8
1
 10
3109.790586
 20
3328.833781
 30
0.0
 11
3109.790586
 21
3323.833781
 31
0.0
  0
ARC
  5
394
  8
1
 10
3104.790586
 20
3323.833781
 30
0.0
 40
5.0
 50
270.0
 51
0.0
  0
ARC
  5
395
  8
1
 10
3114.790586
 20
3328.833781
 30
0.0
 40
5.0
 50
90.0
 51
180.0
  0
ARC
  5
396
  8
1
 10
3104.790586
 20
3267.833781
 30
0.0
 40
5.0
 50
0.0
 51
90.0
  0
ARC
  5
397
  8
1
 10
3114.790586
 20
3262.833781
 30
0.0
 40
5.0
 50
180.0
 51
270.0
  0
ARC
  5
398
  8
1
 10
3127.719518
 20
3262.833781
 30
0.0
 40
5.0
 50
270.0
 51
315.0
  0
ARC
  5
399
  8
1
 10
3127.719518
 20
3328.833781
 30
0.0
 40
5.0
 50
45.0
 51
90.0
  0
ARC
  5
39A
  8
1
 10
3133.790586
 20
3304.833781
 30
0.0
 40
3.0
 50
180.0
 51
270.0
  0
ARC
  5
39B
  8
1
 10
3133.790586
 20
3286.833781
 30
0.0
 40
3.0
 50
90.0
 51
180.0
  0
ARC
  5
39C
  8
1
 10
3124.790586
 20
3278.833781
 30
0.0
 40
6.0
 50
270.0
 51
0.0
  0
ARC
  5
39D
  8
1
 10
3124.790586
 20
3278.833781
 30
0.0
 40
6.0
 50
180.0
 51
270.0
  0
ARC
  5
39E
  8
1
 10
3124.790586
 20
3312.833781
 30
0.0
 40
6.0
 50
90.0
 51
180.0
  0
ARC
  5
39F
  8
1
 10
3124.790586
 20
3312.833781
 30
0.0
 40
6.0
 50
0.0
 51
90.0
  0
LINE
  5
3A0
  8
1
 10
3147.090586
 20
3289.833781
 30
0.0
 11
3147.090586
 21
3272.833781
 31
0.0
  0
LINE
  5
3A1
  8
1
  6
DASHED
 10
3144.790586
 20
3289.833781
 30
0.0
 11
3144.790586
 21
3272.833781
 31
0.0
  0
LINE
  5
3A2
  8
1
 10
3104.790586
 20
3318.833781
 30
0.0
 11
3099.790586
 21
3318.833781
 31
0.0
  0
LINE
  5
3A3
  8
1
 10
3104.790586
 20
3272.833781
 30
0.0
 11
3099.790586
 21
3272.833781
 31
0.0
  0
LINE
  5
3A4
  8
1
 10
3109.790586
 20
3267.833781
 30
0.0
 11
3109.790586
 21
3262.833781
 31
0.0
  0
LINE
  5
3A5
  8
1
 10
3130.790586
 20
3286.833781
 30
0.0
 11
3130.790586
 21
3278.833781
 31
0.0
  0
LINE
  5
3A6
  8
1
 10
3099.790586
 20
3272.833781
 30
0.0
 11
3099.790586
 21
3318.833781
 31
0.0
  0
LINE
  5
3A7
  8
1
  6
DASHDOT
 10
3164.989253
 20
3815.833781
 30
0.0
 11
3082.300405
 21
3815.833781
 31
0.0
  0
LINE
  5
3A8
  8
1
 10
3127.719518
 20
3777.833781
 30
0.0
 11
3114.790586
 21
3777.833781
 31
0.0
  0
LINE
  5
3A9
  8
1
 10
3127.719518
 20
3853.833781
 30
0.0
 11
3114.790586
 21
3853.833781
 31
0.0
  0
LINE
  5
3AA
  8
1
  6
DASHED
 10
3102.090586
 20
3838.833781
 30
0.0
 11
3102.090586
 21
3792.833781
 31
0.0
  0
LINE
  5
3AB
  8
1
  6
DASHED
 10
3144.790586
 20
3838.833781
 30
0.0
 11
3144.790586
 21
3821.833781
 31
0.0
  0
LINE
  5
3AC
  8
1
 10
3147.090586
 20
3838.833781
 30
0.0
 11
3147.090586
 21
3821.833781
 31
0.0
  0
LINE
  5
3AD
  8
1
 10
3147.090586
 20
3809.833781
 30
0.0
 11
3133.790586
 21
3809.833781
 31
0.0
  0
LINE
  5
3AE
  8
1
 10
3147.090586
 20
3821.833781
 30
0.0
 11
3133.790586
 21
3821.833781
 31
0.0
  0
LINE
  5
3AF
  8
1
 10
3147.090586
 20
3838.833781
 30
0.0
 11
3144.790586
 21
3838.833781
 31
0.0
  0
LINE
  5
3B0
  8
1
 10
3147.090586
 20
3792.833781
 30
0.0
 11
3144.790586
 21
3792.833781
 31
0.0
  0
LINE
  5
3B1
  8
1
  6
DASHDOT
 10
3124.790586
 20
3855.833781
 30
0.0
 11
3124.790586
 21
3775.358625
 31
0.0
  0
LINE
  5
3B2
  8
1
 10
3118.790586
 20
3832.833781
 30
0.0
 11
3118.790586
 21
3798.833781
 31
0.0
  0
LINE
  5
3B3
  8
1
 10
3130.790586
 20
3832.833781
 30
0.0
 11
3130.790586
 21
3824.833781
 31
0.0
  0
LINE
  5
3B4
  8
1
 10
3144.790586
 20
3838.833781
 30
0.0
 11
3131.255052
 21
3852.369315
 31
0.0
  0
LINE
  5
3B5
  8
1
 10
3144.790586
 20
3792.833781
 30
0.0
 11
3131.255052
 21
3779.298248
 31
0.0
  0
LINE
  5
3B6
  8
1
 10
3109.790586
 20
3848.833781
 30
0.0
 11
3109.790586
 21
3843.833781
 31
0.0
  0
ARC
  5
3B7
  8
1
 10
3104.790586
 20
3843.833781
 30
0.0
 40
5.0
 50
270.0
 51
0.0
  0
ARC
  5
3B8
  8
1
 10
3114.790586
 20
3848.833781
 30
0.0
 40
5.0
 50
90.0
 51
180.0
  0
ARC
  5
3B9
  8
1
 10
3104.790586
 20
3787.833781
 30
0.0
 40
5.0
 50
0.0
 51
90.0
  0
ARC
  5
3BA
  8
1
 10
3114.790586
 20
3782.833781
 30
0.0
 40
5.0
 50
180.0
 51
270.0
  0
ARC
  5
3BB
  8
1
 10
3127.719518
 20
3782.833781
 30
0.0
 40
5.0
 50
270.0
 51
315.0
  0
ARC
  5
3BC
  8
1
 10
3127.719518
 20
3848.833781
 30
0.0
 40
5.0
 50
45.0
 51
90.0
  0
ARC
  5
3BD
  8
1
 10
3133.790586
 20
3824.833781
 30
0.0
 40
3.0
 50
180.0
 51
270.0
  0
ARC
  5
3BE
  8
1
 10
3133.790586
 20
3806.833781
 30
0.0
 40
3.0
 50
90.0
 51
180.0
  0
ARC
  5
3BF
  8
1
 10
3124.790586
 20
3798.833781
 30
0.0
 40
6.0
 50
270.0
 51
0.0
  0
ARC
  5
3C0
  8
1
 10
3124.790586
 20
3798.833781
 30
0.0
 40
6.0
 50
180.0
 51
270.0
  0
ARC
  5
3C1
  8
1
 10
3124.790586
 20
3832.833781
 30
0.0
 40
6.0
 50
90.0
 51
180.0
  0
ARC
  5
3C2
  8
1
 10
3124.790586
 20
3832.833781
 30
0.0
 40
6.0
 50
0.0
 51
90.0
  0
LINE
  5
3C3
  8
1
 10
3147.090586
 20
3809.833781
 30
0.0
 11
3147.090586
 21
3792.833781
 31
0.0
  0
LINE
  5
3C4
  8
1
  6
DASHED
 10
3144.790586
 20
3809.833781
 30
0.0
 11
3144.790586
 21
3792.833781
 31
0.0
  0
LINE
  5
3C5
  8
1
 10
3104.790586
 20
3838.833781
 30
0.0
 11
3099.790586
 21
3838.833781
 31
0.0
  0
LINE
  5
3C6
  8
1
 10
3104.790586
 20
3792.833781
 30
0.0
 11
3099.790586
 21
3792.833781
 31
0.0
  0
LINE
  5
3C7
  8
1
 10
3109.790586
 20
3787.833781
 30
0.0
 11
3109.790586
 21
3782.833781
 31
0.0
  0
LINE
  5
3C8
  8
1
 10
3130.790586
 20
3806.833781
 30
0.0
 11
3130.790586
 21
3798.833781
 31
0.0
  0
LINE
  5
3C9
  8
1
 10
3099.790586
 20
3792.833781
 30
0.0
 11
3099.790586
 21
3838.833781
 31
0.0
  0
LINE
  5
3CA
  8
1
 10
2330.590586
 20
3261.833781
 30
0.0
 11
2330.590586
 21
3261.233781
 31
0.0
  0
LINE
  5
3CB
  8
1
 10
2330.590586
 20
3855.433781
 30
0.0
 11
2330.590586
 21
3255.433781
 31
0.0
  0
LINE
  5
3CC
  8
1
 10
2330.590586
 20
3850.433781
 30
0.0
 11
2330.590586
 21
3849.833781
 31
0.0
  0
LINE
  5
3CD
  8
1
  6
DASHDOT
 10
3164.989253
 20
3670.033781
 30
0.0
 11
3082.602765
 21
3670.033781
 31
0.0
  0
LINE
  5
3CE
  8
1
 10
3152.190586
 20
3654.033781
 30
0.0
 11
3152.190586
 21
3686.033781
 31
0.0
  0
LINE
  5
3CF
  8
1
 10
3152.190586
 20
3686.033781
 30
0.0
 11
3099.790586
 21
3686.557781
 31
0.0
  0
LINE
  5
3D0
  8
1
 10
3152.190586
 20
3654.033781
 30
0.0
 11
3099.790586
 21
3653.509781
 31
0.0
  0
LINE
  5
3D1
  8
1
 10
3099.790586
 20
3473.833781
 30
0.0
 11
3099.790586
 21
3623.833781
 31
0.0
  0
LINE
  5
3D2
  8
1
 10
3099.790586
 20
3618.033781
 30
0.0
 11
3123.890586
 21
3618.033781
 31
0.0
  0
LINE
  5
3D3
  8
1
 10
3099.790586
 20
3602.033781
 30
0.0
 11
3123.890586
 21
3602.033781
 31
0.0
  0
LINE
  5
3D4
  8
1
  6
DASHDOT
 10
3164.370041
 20
3610.033781
 30
0.0
 11
3079.41199
 21
3610.033781
 31
0.0
  0
LINE
  5
3D5
  8
1
 10
3135.390586
 20
3596.183781
 30
0.0
 11
3129.390586
 21
3596.183781
 31
0.0
  0
LINE
  5
3D6
  8
1
 10
3135.390586
 20
3623.883781
 30
0.0
 11
3129.390586
 21
3623.883781
 31
0.0
  0
LINE
  5
3D7
  8
1
 10
3160.390586
 20
3603.283781
 30
0.0
 11
3160.390586
 21
3616.783781
 31
0.0
  0
LINE
  5
3D8
  8
1
 10
3157.640586
 20
3600.533781
 30
0.0
 11
3157.640586
 21
3619.533781
 31
0.0
  0
LINE
  5
3D9
  8
1
 10
3140.890586
 20
3600.533781
 30
0.0
 11
3137.890586
 21
3600.533781
 31
0.0
  0
LINE
  5
3DA
  8
1
 10
3140.890586
 20
3619.533781
 30
0.0
 11
3137.890586
 21
3619.533781
 31
0.0
  0
LINE
  5
3DB
  8
1
 10
3153.390586
 20
3599.533781
 30
0.0
 11
3140.890586
 21
3599.533781
 31
0.0
  0
LINE
  5
3DC
  8
1
 10
3153.390586
 20
3620.533781
 30
0.0
 11
3140.890586
 21
3620.533781
 31
0.0
  0
LINE
  5
3DD
  8
1
 10
3160.390586
 20
3603.283781
 30
0.0
 11
3157.640586
 21
3600.533781
 31
0.0
  0
LINE
  5
3DE
  8
1
 10
3160.390586
 20
3616.783781
 30
0.0
 11
3157.640586
 21
3619.533781
 31
0.0
  0
LINE
  5
3DF
  8
1
 10
3153.390586
 20
3599.533781
 30
0.0
 11
3153.390586
 21
3620.533781
 31
0.0
  0
LINE
  5
3E0
  8
1
 10
3140.890586
 20
3599.533781
 30
0.0
 11
3140.890586
 21
3620.533781
 31
0.0
  0
LINE
  5
3E1
  8
1
 10
3137.890586
 20
3598.683781
 30
0.0
 11
3137.890586
 21
3621.383781
 31
0.0
  0
LINE
  5
3E2
  8
1
 10
3123.890586
 20
3598.933781
 30
0.0
 11
3123.890586
 21
3621.133781
 31
0.0
  0
LINE
  5
3E3
  8
1
 10
3126.890586
 20
3598.683781
 30
0.0
 11
3126.890586
 21
3621.383781
 31
0.0
  0
LINE
  5
3E4
  8
1
 10
3126.890586
 20
3598.933781
 30
0.0
 11
3123.890586
 21
3598.933781
 31
0.0
  0
LINE
  5
3E5
  8
1
 10
3126.890586
 20
3621.133781
 30
0.0
 11
3123.890586
 21
3621.133781
 31
0.0
  0
LINE
  5
3E6
  8
1
 10
3157.640586
 20
3600.533781
 30
0.0
 11
3153.390586
 21
3600.533781
 31
0.0
  0
LINE
  5
3E7
  8
1
 10
3157.640586
 20
3619.533781
 30
0.0
 11
3153.390586
 21
3619.533781
 31
0.0
  0
LINE
  5
3E8
  8
1
 10
3135.390586
 20
3603.105578
 30
0.0
 11
3129.390586
 21
3603.105578
 31
0.0
  0
LINE
  5
3E9
  8
1
 10
3135.390586
 20
3616.961985
 30
0.0
 11
3129.390586
 21
3616.961985
 31
0.0
  0
ARC
  5
3EA
  8
1
 10
3135.390586
 20
3600.605578
 30
0.0
 40
2.5
 50
0.0
 51
90.0
  0
ARC
  5
3EB
  8
1
 10
3135.390586
 20
3619.461985
 30
0.0
 40
2.5
 50
270.0
 51
0.0
  0
ARC
  5
3EC
  8
1
 10
3135.390586
 20
3614.461985
 30
0.0
 40
2.5
 50
0.0
 51
90.0
  0
ARC
  5
3ED
  8
1
 10
3135.390586
 20
3605.605578
 30
0.0
 40
2.5
 50
270.0
 51
0.0
  0
ARC
  5
3EE
  8
1
 10
3129.390586
 20
3600.605578
 30
0.0
 40
2.5
 50
90.0
 51
180.0
  0
ARC
  5
3EF
  8
1
 10
3129.390586
 20
3605.605578
 30
0.0
 40
2.5
 50
180.0
 51
270.0
  0
ARC
  5
3F0
  8
1
 10
3129.390586
 20
3614.461985
 30
0.0
 40
2.5
 50
90.0
 51
180.0
  0
ARC
  5
3F1
  8
1
 10
3129.390586
 20
3619.461985
 30
0.0
 40
2.5
 50
180.0
 51
270.0
  0
LINE
  5
3F2
  8
1
 10
3137.890586
 20
3598.683781
 30
0.0
 11
3135.390586
 21
3596.183781
 31
0.0
  0
LINE
  5
3F3
  8
1
 10
3137.890586
 20
3621.383781
 30
0.0
 11
3135.390586
 21
3623.883781
 31
0.0
  0
LINE
  5
3F4
  8
1
 10
3129.390586
 20
3623.883781
 30
0.0
 11
3126.890586
 21
3621.383781
 31
0.0
  0
LINE
  5
3F5
  8
1
 10
3129.390586
 20
3596.183781
 30
0.0
 11
3126.890586
 21
3598.683781
 31
0.0
  0
LINE
  5
3F6
  8
1
 10
3099.790586
 20
3514.858781
 30
0.0
 11
3134.390586
 21
3514.858781
 31
0.0
  0
LINE
  5
3F7
  8
1
 10
3099.790586
 20
3505.208781
 30
0.0
 11
3134.390586
 21
3505.208781
 31
0.0
  0
LINE
  5
3F8
  8
1
  6
DASHDOT
 10
3165.113223
 20
3510.033781
 30
0.0
 11
3079.41199
 21
3510.033781
 31
0.0
  0
LINE
  5
3F9
  8
1
 10
3160.390586
 20
3506.033781
 30
0.0
 11
3160.390586
 21
3514.033781
 31
0.0
  0
LINE
  5
3FA
  8
1
 10
3134.390586
 20
3502.083781
 30
0.0
 11
3134.390586
 21
3517.983781
 31
0.0
  0
LINE
  5
3FB
  8
1
 10
3157.640586
 20
3516.783781
 30
0.0
 11
3144.390586
 21
3516.783781
 31
0.0
  0
LINE
  5
3FC
  8
1
 10
3157.640586
 20
3503.283781
 30
0.0
 11
3144.390586
 21
3503.283781
 31
0.0
  0
LINE
  5
3FD
  8
1
 10
3157.640586
 20
3503.283781
 30
0.0
 11
3157.640586
 21
3516.783781
 31
0.0
  0
LINE
  5
3FE
  8
1
 10
3160.390586
 20
3506.033781
 30
0.0
 11
3157.640586
 21
3503.283781
 31
0.0
  0
LINE
  5
3FF
  8
1
 10
3160.390586
 20
3514.033781
 30
0.0
 11
3157.640586
 21
3516.783781
 31
0.0
  0
LINE
  5
400
  8
1
 10
3154.890586
 20
3502.283781
 30
0.0
 11
3154.890586
 21
3517.783781
 31
0.0
  0
LINE
  5
401
  8
1
 10
3146.390586
 20
3502.283781
 30
0.0
 11
3146.390586
 21
3517.783781
 31
0.0
  0
LINE
  5
402
  8
1
 10
3144.390586
 20
3502.233781
 30
0.0
 11
3144.390586
 21
3517.833781
 31
0.0
  0
LINE
  5
403
  8
1
 10
3142.390586
 20
3519.833781
 30
0.0
 11
3138.390586
 21
3519.833781
 31
0.0
  0
LINE
  5
404
  8
1
 10
3142.390586
 20
3500.233781
 30
0.0
 11
3138.390586
 21
3500.233781
 31
0.0
  0
LINE
  5
405
  8
1
 10
3154.890586
 20
3502.283781
 30
0.0
 11
3146.390586
 21
3502.283781
 31
0.0
  0
LINE
  5
406
  8
1
 10
3154.890586
 20
3517.783781
 30
0.0
 11
3146.390586
 21
3517.783781
 31
0.0
  0
LINE
  5
407
  8
1
 10
3136.390586
 20
3502.233781
 30
0.0
 11
3136.390586
 21
3517.833781
 31
0.0
  0
LINE
  5
408
  8
1
 10
3136.390586
 20
3502.083781
 30
0.0
 11
3134.390586
 21
3502.083781
 31
0.0
  0
LINE
  5
409
  8
1
 10
3136.390586
 20
3517.983781
 30
0.0
 11
3134.390586
 21
3517.983781
 31
0.0
  0
LINE
  5
40A
  8
1
 10
3144.390586
 20
3502.233781
 30
0.0
 11
3142.390586
 21
3500.233781
 31
0.0
  0
LINE
  5
40B
  8
1
 10
3138.390586
 20
3500.233781
 30
0.0
 11
3136.390586
 21
3502.233781
 31
0.0
  0
LINE
  5
40C
  8
1
 10
3144.390586
 20
3517.833781
 30
0.0
 11
3142.390586
 21
3519.833781
 31
0.0
  0
LINE
  5
40D
  8
1
 10
3138.390586
 20
3519.833781
 30
0.0
 11
3136.390586
 21
3517.833781
 31
0.0
  0
LINE
  5
40E
  8
1
 10
3142.390586
 20
3505.126304
 30
0.0
 11
3138.390586
 21
3505.126304
 31
0.0
  0
LINE
  5
40F
  8
1
 10
3142.390586
 20
3514.941259
 30
0.0
 11
3138.390586
 21
3514.941259
 31
0.0
  0
ARC
  5
410
  8
1
 10
3142.390586
 20
3516.941259
 30
0.0
 40
2.0
 50
270.0
 51
0.0
  0
ARC
  5
411
  8
1
 10
3142.390586
 20
3512.941259
 30
0.0
 40
2.0
 50
0.0
 51
90.0
  0
ARC
  5
412
  8
1
 10
3142.390586
 20
3507.126304
 30
0.0
 40
2.0
 50
270.0
 51
0.0
  0
ARC
  5
413
  8
1
 10
3142.390586
 20
3503.126304
 30
0.0
 40
2.0
 50
0.0
 51
90.0
  0
ARC
  5
414
  8
1
 10
3138.390586
 20
3503.126304
 30
0.0
 40
2.0
 50
90.0
 51
180.0
  0
ARC
  5
415
  8
1
 10
3138.390586
 20
3516.941259
 30
0.0
 40
2.0
 50
180.0
 51
270.0
  0
ARC
  5
416
  8
1
 10
3138.390586
 20
3512.941259
 30
0.0
 40
2.0
 50
90.0
 51
180.0
  0
ARC
  5
417
  8
1
 10
3138.390586
 20
3507.126304
 30
0.0
 40
2.0
 50
180.0
 51
270.0
  0
LINE
  5
418
  8
1
 10
3099.790586
 20
3855.433781
 30
0.0
 11
2330.590586
 21
3855.433781
 31
0.0
  0
ARC
  5
419
  8
1
 10
2215.190586
 20
3230.433781
 30
0.0
 40
15.0
 50
180.0
 51
270.0
  0
ARC
  5
41A
  8
1
 10
2215.190586
 20
3880.433781
 30
0.0
 40
15.0
 50
90.0
 51
180.0
  0
ARC
  5
41B
  8
1
 10
3215.190586
 20
3880.433781
 30
0.0
 40
15.0
 50
0.0
 51
90.0
  0
ARC
  5
41C
  8
1
 10
3215.190586
 20
3230.433781
 30
0.0
 40
15.0
 50
270.0
 51
0.0
  0
LINE
  5
41D
  8
1
 10
4996.712919
 20
3688.908969
 30
0.0
 11
4227.512919
 21
3688.908969
 31
0.0
  0
LINE
  5
41E
  8
1
 10
4227.512919
 20
3390.908969
 30
0.0
 11
4227.512919
 21
3688.908969
 31
0.0
  0
LINE
  5
41F
  8
1
 10
4996.712919
 20
3390.908969
 30
0.0
 11
4996.712919
 21
3688.308969
 31
0.0
  0
LINE
  5
420
  8
1
 10
4996.712919
 20
3390.908969
 30
0.0
 11
4227.512919
 21
3390.908969
 31
0.0
  0
LINE
  5
421
  8
1
  6
DASHDOT
 10
5061.911586
 20
3444.933497
 30
0.0
 11
4980.879069
 21
3444.933497
 31
0.0
  0
LINE
  5
422
  8
1
  6
DASHDOT
 10
5051.112919
 20
3444.933497
 30
0.0
 11
4985.227968
 21
3444.933497
 31
0.0
  0
LINE
  5
423
  8
1
 10
4999.112919
 20
3428.033497
 30
0.0
 11
4996.712919
 21
3428.033497
 31
0.0
  0
LINE
  5
424
  8
1
 10
4999.112919
 20
3461.833497
 30
0.0
 11
4996.712919
 21
3461.833497
 31
0.0
  0
LINE
  5
425
  8
1
 10
5049.112919
 20
3460.933497
 30
0.0
 11
4999.112919
 21
3461.433497
 31
0.0
  0
LINE
  5
426
  8
1
 10
5049.112919
 20
3460.933497
 30
0.0
 11
5049.112919
 21
3428.933497
 31
0.0
  0
LINE
  5
427
  8
1
 10
5049.112919
 20
3428.933497
 30
0.0
 11
4999.112919
 21
3428.433497
 31
0.0
  0
LINE
  5
428
  8
1
 10
4996.712919
 20
3688.908969
 30
0.0
 11
4996.712919
 21
3554.908969
 31
0.0
  0
LINE
  5
429
  8
1
 10
4996.712919
 20
3634.908969
 30
0.0
 11
4996.712919
 21
3579.908969
 31
0.0
  0
LINE
  5
42A
  8
1
 10
5000.012919
 20
3634.908969
 30
0.0
 11
5000.012919
 21
3583.208969
 31
0.0
  0
LINE
  5
42B
  8
1
 10
5041.712919
 20
3591.908969
 30
0.0
 11
5041.712919
 21
3583.208969
 31
0.0
  0
LINE
  5
42C
  8
1
 10
5045.012919
 20
3591.908969
 30
0.0
 11
5045.012919
 21
3579.908969
 31
0.0
  0
LINE
  5
42D
  8
1
  6
DASHDOT
 10
5021.712919
 20
3596.400485
 30
0.0
 11
5021.712919
 21
3568.2366
 31
0.0
  0
LINE
  5
42E
  8
1
 10
4996.712919
 20
3579.908969
 30
0.0
 11
5045.012919
 21
3579.908969
 31
0.0
  0
LINE
  5
42F
  8
1
 10
5000.012919
 20
3583.208969
 30
0.0
 11
5041.712919
 21
3583.208969
 31
0.0
  0
LINE
  5
430
  8
1
 10
5041.712919
 20
3591.908969
 30
0.0
 11
5045.012919
 21
3591.908969
 31
0.0
  0
LINE
  5
431
  8
1
 10
4996.712919
 20
3634.908969
 30
0.0
 11
5000.012919
 21
3634.908969
 31
0.0
  0
LINE
  5
432
  8
1
 10
4227.512919
 20
3634.908969
 30
0.0
 11
4227.512919
 21
3579.908969
 31
0.0
  0
LINE
  5
433
  8
1
 10
4224.212919
 20
3634.908969
 30
0.0
 11
4224.212919
 21
3583.208969
 31
0.0
  0
LINE
  5
434
  8
1
 10
4182.512919
 20
3591.908969
 30
0.0
 11
4182.512919
 21
3583.208969
 31
0.0
  0
LINE
  5
435
  8
1
 10
4179.212919
 20
3591.908969
 30
0.0
 11
4179.212919
 21
3579.908969
 31
0.0
  0
LINE
  5
436
  8
1
  6
DASHDOT
 10
4202.512919
 20
3596.400485
 30
0.0
 11
4202.512919
 21
3568.2366
 31
0.0
  0
LINE
  5
437
  8
1
 10
4227.512919
 20
3579.908969
 30
0.0
 11
4179.212919
 21
3579.908969
 31
0.0
  0
LINE
  5
438
  8
1
 10
4224.212919
 20
3583.208969
 30
0.0
 11
4182.512919
 21
3583.208969
 31
0.0
  0
LINE
  5
439
  8
1
 10
4182.512919
 20
3591.908969
 30
0.0
 11
4179.212919
 21
3591.908969
 31
0.0
  0
LINE
  5
43A
  8
1
 10
4227.512919
 20
3634.908969
 30
0.0
 11
4224.212919
 21
3634.908969
 31
0.0
  0
LINE
  5
43B
  8
1
 10
4597.112919
 20
3568.708969
 30
0.0
 11
4597.112919
 21
3433.708969
 31
0.0
  0
LINE
  5
43C
  8
1
 10
4330.11298
 20
3433.708993
 30
0.0
 11
4597.112919
 21
3433.708969
 31
0.0
  0
LINE
  5
43D
  8
1
 10
4330.11298
 20
3568.708993
 30
0.0
 11
4597.112919
 21
3568.708969
 31
0.0
  0
LINE
  5
43E
  8
1
 10
4330.11298
 20
3568.708993
 30
0.0
 11
4330.11298
 21
3433.708993
 31
0.0
  0
LINE
  5
43F
  8
1
  6
DASHDOT
 10
4612.113097
 20
3820.5909
 30
0.0
 11
4612.11285
 21
3289.626409
 31
0.0
  0
LINE
  5
440
  8
1
 10
4097.113269
 20
3739.909634
 30
0.0
 11
5127.113269
 21
3739.908304
 31
0.0
  0
LINE
  5
441
  8
1
 10
4102.113277
 20
3754.909629
 30
0.0
 11
5122.113277
 21
3754.908308
 31
0.0
  0
LINE
  5
442
  8
1
 10
4097.11285
 20
3749.908969
 30
0.0
 11
4097.11285
 21
3739.908969
 31
0.0
  0
LINE
  5
443
  8
1
 10
5127.11285
 20
3749.908969
 30
0.0
 11
5127.11285
 21
3739.908969
 31
0.0
  0
ARC
  5
444
  8
1
 10
4102.11285
 20
3749.908969
 30
0.0
 40
5.0
 50
90.0
 51
180.0
  0
ARC
  5
445
  8
1
 10
5122.11285
 20
3749.908969
 30
0.0
 40
5.0
 50
0.0
 51
90.0
  0
LINE
  5
446
  8
1
 10
4158.013222
 20
3688.909577
 30
0.0
 11
5066.213222
 21
3688.90836
 31
0.0
  0
LINE
  5
447
  8
1
 10
4158.013269
 20
3739.909577
 30
0.0
 11
4158.013222
 21
3688.909577
 31
0.0
  0
LINE
  5
448
  8
1
 10
5087.113269
 20
3739.908341
 30
0.0
 11
5087.113192
 21
3657.408341
 31
0.0
  0
LINE
  5
449
  8
1
 10
5021.613222
 20
3688.908402
 30
0.0
 11
5021.613192
 21
3657.408402
 31
0.0
  0
LINE
  5
44A
  8
1
 10
5021.613192
 20
3657.408402
 30
0.0
 11
5087.113192
 21
3657.408341
 31
0.0
  0
LINE
  5
44B
  8
1
 10
5061.613212
 20
3678.908365
 30
0.0
 11
5087.113212
 21
3678.908341
 31
0.0
  0
LINE
  5
44C
  8
1
 10
5061.613222
 20
3688.908365
 30
0.0
 11
5061.613212
 21
3678.908365
 31
0.0
  0
LINE
  5
44D
  8
1
 10
5066.213269
 20
3739.90836
 30
0.0
 11
5066.213222
 21
3688.90836
 31
0.0
  0
LINE
  5
44E
  8
1
  6
DASHDOT
 10
4673.236282
 20
3501.208969
 30
0.0
 11
4262.470727
 21
3501.208993
 31
0.0
  0
LINE
  5
44F
  8
1
  6
DASHDOT
 10
4463.61295
 20
3369.758735
 30
0.0
 11
4463.61295
 21
3599.586975
 31
0.0
  0
LINE
  5
450
  8
1
 10
4653.5472
 20
2310.020575
 30
0.0
 11
5242.7472
 21
2310.020575
 31
0.0
  0
LINE
  5
451
  8
1
 10
4653.5472
 20
2310.020575
 30
0.0
 11
4653.5472
 21
2121.020575
 31
0.0
  0
LINE
  5
452
  8
1
 10
5242.7472
 20
2310.020575
 30
0.0
 11
5242.7472
 21
2121.020575
 31
0.0
  0
LINE
  5
453
  8
1
 10
5221.1472
 20
2012.020575
 30
0.0
 11
5242.7472
 21
2012.020575
 31
0.0
  0
LINE
  5
454
  8
1
 10
4726.1472
 20
2121.020575
 30
0.0
 11
4650.1472
 21
2121.020575
 31
0.0
  0
LINE
  5
455
  8
1
 10
4726.1472
 20
2117.720575
 30
0.0
 11
4711.1472
 21
2117.720575
 31
0.0
  0
LINE
  5
456
  8
1
 10
4650.1472
 20
2117.720575
 30
0.0
 11
4650.1472
 21
2121.020575
 31
0.0
  0
LINE
  5
457
  8
1
 10
4726.1472
 20
2117.720575
 30
0.0
 11
4726.1472
 21
2121.020575
 31
0.0
  0
LINE
  5
458
  8
1
 10
4711.1472
 20
2112.020575
 30
0.0
 11
4711.1472
 21
2121.020575
 31
0.0
  0
LINE
  5
459
  8
1
 10
4694.1472
 20
2112.020575
 30
0.0
 11
4694.1472
 21
2121.020575
 31
0.0
  0
LINE
  5
45A
  8
1
 10
4682.1472
 20
2112.020575
 30
0.0
 11
4682.1472
 21
2121.020575
 31
0.0
  0
LINE
  5
45B
  8
1
 10
4665.1472
 20
2076.754419
 30
0.0
 11
4665.1472
 21
2121.020575
 31
0.0
  0
LINE
  5
45C
  8
1
 10
4708.1472
 20
2109.020575
 30
0.0
 11
4697.1472
 21
2109.020575
 31
0.0
  0
ARC
  5
45D
  8
1
 10
4668.1472
 20
2112.020575
 30
0.0
 40
3.0
 50
180.0
 51
270.0
  0
ARC
  5
45E
  8
1
 10
4679.1472
 20
2112.020575
 30
0.0
 40
3.0
 50
270.0
 51
0.0
  0
ARC
  5
45F
  8
1
 10
4697.1472
 20
2112.020575
 30
0.0
 40
3.0
 50
180.0
 51
270.0
  0
ARC
  5
460
  8
1
 10
4708.1472
 20
2112.020575
 30
0.0
 40
3.0
 50
270.0
 51
0.0
  0
LINE
  5
461
  8
1
 10
4704.427047
 20
2066.020575
 30
0.0
 11
4671.867354
 21
2066.020575
 31
0.0
  0
CIRCLE
  5
462
  8
1
 10
4688.1472
 20
2106.020575
 30
0.0
 40
3.5
  0
CIRCLE
  5
463
  8
1
 10
4688.1472
 20
2076.020575
 30
0.0
 40
3.5
  0
LINE
  5
464
  8
1
 10
4667.078222
 20
2069.583835
 30
0.0
 11
4665.358069
 21
2075.317679
 31
0.0
  0
LINE
  5
465
  8
1
 10
4709.216179
 20
2069.583835
 30
0.0
 11
4710.936332
 21
2075.317679
 31
0.0
  0
ARC
  5
466
  8
1
 10
4671.867354
 20
2071.020575
 30
0.0
 40
5.0
 50
196.699244
 51
270.0
  0
ARC
  5
467
  8
1
 10
4670.1472
 20
2076.754419
 30
0.0
 40
5.0
 50
180.0
 51
196.699244
  0
ARC
  5
468
  8
1
 10
4704.427047
 20
2071.020575
 30
0.0
 40
5.0
 50
270.0
 51
343.300756
  0
ARC
  5
469
  8
1
 10
4706.1472
 20
2076.754419
 30
0.0
 40
5.0
 50
343.300756
 51
0.0
  0
LINE
  5
46A
  8
1
 10
4679.1472
 20
2109.020575
 30
0.0
 11
4668.1472
 21
2109.020575
 31
0.0
  0
LINE
  5
46B
  8
1
 10
4711.1472
 20
2112.020575
 30
0.0
 11
4711.1472
 21
2076.754419
 31
0.0
  0
LINE
  5
46C
  8
1
 10
4665.1472
 20
2117.720575
 30
0.0
 11
4650.1472
 21
2117.720575
 31
0.0
  0
LINE
  5
46D
  8
1
 10
4694.1472
 20
2117.720575
 30
0.0
 11
4682.1472
 21
2117.720575
 31
0.0
  0
LINE
  5
46E
  8
1
 10
5170.1472
 20
2121.020575
 30
0.0
 11
5246.1472
 21
2121.020575
 31
0.0
  0
LINE
  5
46F
  8
1
 10
5170.1472
 20
2117.720575
 30
0.0
 11
5185.1472
 21
2117.720575
 31
0.0
  0
LINE
  5
470
  8
1
 10
5246.1472
 20
2117.720575
 30
0.0
 11
5246.1472
 21
2121.020575
 31
0.0
  0
LINE
  5
471
  8
1
 10
5170.1472
 20
2117.720575
 30
0.0
 11
5170.1472
 21
2121.020575
 31
0.0
  0
LINE
  5
472
  8
1
 10
5185.1472
 20
2112.020575
 30
0.0
 11
5185.1472
 21
2121.020575
 31
0.0
  0
LINE
  5
473
  8
1
 10
5202.1472
 20
2112.020575
 30
0.0
 11
5202.1472
 21
2121.020575
 31
0.0
  0
LINE
  5
474
  8
1
 10
5214.1472
 20
2112.020575
 30
0.0
 11
5214.1472
 21
2121.020575
 31
0.0
  0
LINE
  5
475
  8
1
 10
5231.1472
 20
2076.754419
 30
0.0
 11
5231.1472
 21
2121.020575
 31
0.0
  0
LINE
  5
476
  8
1
 10
5188.1472
 20
2109.020575
 30
0.0
 11
5199.1472
 21
2109.020575
 31
0.0
  0
ARC
  5
477
  8
1
 10
5228.1472
 20
2112.020575
 30
0.0
 40
3.0
 50
270.0
 51
0.0
  0
ARC
  5
478
  8
1
 10
5217.1472
 20
2112.020575
 30
0.0
 40
3.0
 50
180.0
 51
270.0
  0
ARC
  5
479
  8
1
 10
5199.1472
 20
2112.020575
 30
0.0
 40
3.0
 50
270.0
 51
0.0
  0
ARC
  5
47A
  8
1
 10
5188.1472
 20
2112.020575
 30
0.0
 40
3.0
 50
180.0
 51
270.0
  0
LINE
  5
47B
  8
1
 10
5191.867354
 20
2066.020575
 30
0.0
 11
5224.427047
 21
2066.020575
 31
0.0
  0
CIRCLE
  5
47C
  8
1
 10
5208.1472
 20
2106.020575
 30
0.0
 40
3.5
  0
CIRCLE
  5
47D
  8
1
 10
5208.1472
 20
2076.020575
 30
0.0
 40
3.5
  0
LINE
  5
47E
  8
1
 10
5229.216179
 20
2069.583835
 30
0.0
 11
5230.936332
 21
2075.317679
 31
0.0
  0
LINE
  5
47F
  8
1
 10
5187.078222
 20
2069.583835
 30
0.0
 11
5185.358069
 21
2075.317679
 31
0.0
  0
ARC
  5
480
  8
1
 10
5224.427047
 20
2071.020575
 30
0.0
 40
5.0
 50
270.0
 51
343.300756
  0
ARC
  5
481
  8
1
 10
5226.1472
 20
2076.754419
 30
0.0
 40
5.0
 50
343.300756
 51
0.0
  0
ARC
  5
482
  8
1
 10
5191.867354
 20
2071.020575
 30
0.0
 40
5.0
 50
196.699244
 51
270.0
  0
ARC
  5
483
  8
1
 10
5190.1472
 20
2076.754419
 30
0.0
 40
5.0
 50
180.0
 51
196.699244
  0
LINE
  5
484
  8
1
 10
5217.1472
 20
2109.020575
 30
0.0
 11
5228.1472
 21
2109.020575
 31
0.0
  0
LINE
  5
485
  8
1
 10
5185.1472
 20
2112.020575
 30
0.0
 11
5185.1472
 21
2076.754419
 31
0.0
  0
LINE
  5
486
  8
1
 10
5231.1472
 20
2117.720575
 30
0.0
 11
5246.1472
 21
2117.720575
 31
0.0
  0
LINE
  5
487
  8
1
 10
5202.1472
 20
2117.720575
 30
0.0
 11
5214.1472
 21
2117.720575
 31
0.0
  0
LINE
  5
488
  8
1
  6
DASHDOT
 10
5115.735788
 20
2255.996046
 30
0.0
 11
5030.645012
 21
2255.996046
 31
0.0
  0
LINE
  5
489
  8
1
  6
DASHDOT
 10
5073.1904
 20
2213.450658
 30
0.0
 11
5073.1904
 21
2298.541434
 31
0.0
  0
LINE
  5
48A
  8
1
 10
5015.1472
 20
2037.020575
 30
0.0
 11
4975.622796
 21
2037.020575
 31
0.0
  0
LINE
  5
48B
  8
1
  6
DOT
 10
5015.1472
 20
2012.020575
 30
0.0
 11
5015.1472
 21
2022.020575
 31
0.0
  0
LINE
  5
48C
  8
1
  6
DOT
 10
4895.1472
 20
2012.020575
 30
0.0
 11
4895.1472
 21
2022.020575
 31
0.0
  0
LINE
  5
48D
  8
1
 10
4675.1472
 20
1961.020575
 30
0.0
 11
4675.1472
 21
2021.020575
 31
0.0
  0
ARC
  5
48E
  8
1
 10
5242.6472
 20
1966.520575
 30
0.0
 40
6.0
 50
0.0
 51
89.045026
  0
LINE
  5
48F
  8
1
 10
5248.6472
 20
1961.020575
 30
0.0
 11
5248.6472
 21
1966.520575
 31
0.0
  0
ARC
  5
490
  8
1
 10
4653.6472
 20
1966.520575
 30
0.0
 40
6.0
 50
90.954974
 51
180.0
  0
LINE
  5
491
  8
1
 10
4647.6472
 20
1961.020575
 30
0.0
 11
4647.6472
 21
1966.520575
 31
0.0
  0
LINE
  5
492
  8
1
  6
DASHDOT
 10
4948.1472
 20
1937.101444
 30
0.0
 11
4948.1472
 21
2568.991919
 31
0.0
  0
LINE
  5
493
  8
1
 10
5274.1472
 20
1946.020575
 30
0.0
 11
4622.1472
 21
1946.020575
 31
0.0
  0
ARC
  5
494
  8
1
 10
5274.1472
 20
1976.020575
 30
0.0
 40
30.0
 50
270.0
 51
296.014366
  0
ARC
  5
495
  8
1
 10
5286.6472
 20
1950.408078
 30
0.0
 40
1.5
 50
296.014366
 51
0.0
  0
LINE
  5
496
  8
1
 10
5288.1472
 20
1950.408078
 30
0.0
 11
5288.1472
 21
1961.020575
 31
0.0
  0
LINE
  5
497
  8
1
 10
5288.1472
 20
1961.020575
 30
0.0
 11
4608.1472
 21
1961.020575
 31
0.0
  0
LINE
  5
498
  8
1
 10
4608.1472
 20
1950.408078
 30
0.0
 11
4608.1472
 21
1961.020575
 31
0.0
  0
ARC
  5
499
  8
1
 10
4609.6472
 20
1950.408078
 30
0.0
 40
1.5
 50
180.0
 51
243.985634
  0
ARC
  5
49A
  8
1
 10
4622.1472
 20
1976.020575
 30
0.0
 40
30.0
 50
243.985634
 51
270.0
  0
LINE
  5
49B
  8
1
 10
4955.1472
 20
2043.520575
 30
0.0
 11
4937.1472
 21
2043.520575
 31
0.0
  0
LINE
  5
49C
  8
1
 10
5220.1472
 20
2022.020575
 30
0.0
 11
4987.770045
 21
2022.020575
 31
0.0
  0
ARC
  5
49D
  8
1
 10
4676.1472
 20
2021.020575
 30
0.0
 40
1.0
 50
90.0
 51
180.0
  0
ARC
  5
49E
  8
1
 10
5220.1472
 20
2021.020575
 30
0.0
 40
1.0
 50
0.0
 51
90.0
  0
LINE
  5
49F
  8
1
 10
5221.1472
 20
1961.020575
 30
0.0
 11
5221.1472
 21
2021.020575
 31
0.0
  0
LINE
  5
4A0
  8
1
 10
4904.524356
 20
2022.020575
 30
0.0
 11
4676.1472
 21
2022.020575
 31
0.0
  0
ARC
  5
4A1
  8
1
 10
4937.1472
 20
2008.020575
 30
0.0
 40
35.5
 50
90.0
 51
156.773549
  0
ARC
  5
4A2
  8
1
 10
4955.1472
 20
2008.020575
 30
0.0
 40
35.5
 50
23.226451
 51
90.0
  0
LINE
  5
4A3
  8
1
 10
4955.1472
 20
2043.520575
 30
0.0
 11
4937.1472
 21
2043.520575
 31
0.0
  0
LINE
  5
4A4
  8
1
  6
DOT
 10
4895.1472
 20
2012.020575
 30
0.0
 11
5015.1472
 21
2012.020575
 31
0.0
  0
LINE
  5
4A5
  8
1
 10
4675.1472
 20
2012.020575
 30
0.0
 11
4653.5472
 21
2012.020575
 31
0.0
  0
CIRCLE
  5
4A6
  8
1
 10
5003.1472
 20
2136.020575
 30
0.0
 40
16.0
  0
LINE
  5
4A7
  8
1
 10
5026.1477
 20
2149.577075
 30
0.0
 11
5003.1477
 21
2162.856175
 31
0.0
  0
LINE
  5
4A8
  8
1
 10
5003.1477
 20
2162.856175
 30
0.0
 11
4980.1477
 21
2149.577075
 31
0.0
  0
LINE
  5
4A9
  8
1
  6
DASHDOT
 10
4973.1487
 20
2136.298075
 30
0.0
 11
5033.1465
 21
2136.298075
 31
0.0
  0
LINE
  5
4AA
  8
1
  6
DASHDOT
 10
5003.1472
 20
2166.020875
 30
0.0
 11
5003.147
 21
2106.020475
 31
0.0
  0
LINE
  5
4AB
  8
1
 10
4980.1477
 20
2123.018975
 30
0.0
 11
5003.1477
 21
2109.739975
 31
0.0
  0
LINE
  5
4AC
  8
1
 10
4980.1477
 20
2149.577075
 30
0.0
 11
4980.1477
 21
2123.018975
 31
0.0
  0
LINE
  5
4AD
  8
1
 10
5026.1477
 20
2123.018975
 30
0.0
 11
5026.1477
 21
2149.577075
 31
0.0
  0
LINE
  5
4AE
  8
1
 10
5003.1477
 20
2109.739975
 30
0.0
 11
5026.1477
 21
2123.018975
 31
0.0
  0
CIRCLE
  5
4AF
  8
1
 10
4903.147299
 20
2135.742975
 30
0.0
 40
12.0
  0
LINE
  5
4B0
  8
1
 10
4921.147299
 20
2146.412875
 30
0.0
 11
4903.147299
 21
2156.805275
 31
0.0
  0
LINE
  5
4B1
  8
1
  6
DASHDOT
 10
4928.146299
 20
2136.020575
 30
0.0
 11
4878.148799
 21
2136.020575
 31
0.0
  0
LINE
  5
4B2
  8
1
  6
DASHDOT
 10
4903.147299
 20
2160.743075
 30
0.0
 11
4903.147099
 21
2110.742875
 31
0.0
  0
LINE
  5
4B3
  8
1
 10
4903.147299
 20
2156.805275
 30
0.0
 11
4885.147299
 21
2146.412875
 31
0.0
  0
LINE
  5
4B4
  8
1
 10
4885.147299
 20
2146.412875
 30
0.0
 11
4885.147299
 21
2125.628275
 31
0.0
  0
LINE
  5
4B5
  8
1
 10
4885.147299
 20
2125.628275
 30
0.0
 11
4903.147299
 21
2115.235875
 31
0.0
  0
LINE
  5
4B6
  8
1
 10
4903.147299
 20
2115.235875
 30
0.0
 11
4921.147299
 21
2125.628275
 31
0.0
  0
LINE
  5
4B7
  8
1
 10
4921.147475
 20
2125.628376
 30
0.0
 11
4921.147299
 21
2146.412875
 31
0.0
  0
CIRCLE
  5
4B8
  8
1
 10
5073.1904
 20
2255.996046
 30
0.0
 40
16.0
  0
CIRCLE
  5
4B9
  8
1
 10
5133.1472
 20
2052.822128
 30
0.0
 40
18.538375
  0
CIRCLE
  5
4BA
  8
1
 10
4804.1473
 20
2187.020574
 30
0.0
 40
25.0
  0
LINE
  5
4BB
  8
1
 10
5015.1472
 20
2022.020575
 30
0.0
 11
5015.1472
 21
2037.020575
 31
0.0
  0
LINE
  5
4BC
  8
1
 10
4895.1472
 20
2022.020575
 30
0.0
 11
4895.1472
 21
2037.020575
 31
0.0
  0
LINE
  5
4BD
  8
1
 10
4916.671605
 20
2037.020575
 30
0.0
 11
4895.1472
 21
2037.020575
 31
0.0
  0
LINE
  5
4BE
  8
1
  6
DOT
 10
4975.622796
 20
2037.020575
 30
0.0
 11
4916.671605
 21
2037.020575
 31
0.0
  0
LINE
  5
4BF
  8
1
 10
5242.7472
 20
2117.720575
 30
0.0
 11
5242.7472
 21
1972.519741
 31
0.0
  0
LINE
  5
4C0
  8
1
 10
4653.5472
 20
2117.720575
 30
0.0
 11
4653.5472
 21
1972.519741
 31
0.0
  0
CIRCLE
  5
4C1
  8
1
 10
4804.1472
 20
2187.020574
 30
0.0
 40
18.61604
  0
LINE
  5
4C2
  8
1
 10
4785.774478
 20
2190.020574
 30
0.0
 11
4822.519923
 21
2190.020574
 31
0.0
  0
LINE
  5
4C3
  8
1
 10
4785.774478
 20
2184.020574
 30
0.0
 11
4822.519923
 21
2184.020574
 31
0.0
  0
CIRCLE
  5
4C4
  8
1
 10
5133.1472
 20
2052.822128
 30
0.0
 40
11.910391
  0
LINE
  5
4C5
  8
1
 10
3099.790586
 20
2012.020575
 30
0.0
 11
2330.590586
 21
2012.020575
 31
0.0
  0
LINE
  5
4C6
  8
1
 10
2330.590586
 20
2310.020575
 30
0.0
 11
2330.590586
 21
2012.020575
 31
0.0
  0
LINE
  5
4C7
  8
1
 10
3099.790586
 20
2310.020575
 30
0.0
 11
3099.790586
 21
2012.620575
 31
0.0
  0
LINE
  5
4C8
  8
1
 10
3099.790586
 20
2310.020575
 30
0.0
 11
2330.590586
 21
2310.020575
 31
0.0
  0
LINE
  5
4C9
  8
1
  6
DASHDOT
 10
3378.790586
 20
2255.996046
 30
0.0
 11
3088.305635
 21
2255.996046
 31
0.0
  0
LINE
  5
4CA
  8
1
 10
3102.190586
 20
2272.896046
 30
0.0
 11
3099.790586
 21
2272.896046
 31
0.0
  0
LINE
  5
4CB
  8
1
 10
3102.190586
 20
2239.096046
 30
0.0
 11
3099.790586
 21
2239.096046
 31
0.0
  0
LINE
  5
4CC
  8
1
  6
DOT
 10
3152.190586
 20
2239.996046
 30
0.0
 11
3102.190586
 21
2239.496046
 31
0.0
  0
LINE
  5
4CD
  8
1
  6
DOT
 10
3152.190586
 20
2239.996046
 30
0.0
 11
3152.190586
 21
2271.996046
 31
0.0
  0
LINE
  5
4CE
  8
1
  6
DOT
 10
3152.190586
 20
2271.996046
 30
0.0
 11
3102.190586
 21
2272.496046
 31
0.0
  0
LINE
  5
4CF
  8
1
 10
3099.790586
 20
2012.020575
 30
0.0
 11
3099.790586
 21
2146.020575
 31
0.0
  0
LINE
  5
4D0
  8
1
 10
3099.790586
 20
2066.020575
 30
0.0
 11
3099.790586
 21
2121.020575
 31
0.0
  0
LINE
  5
4D1
  8
1
 10
3103.090586
 20
2066.020575
 30
0.0
 11
3103.090586
 21
2117.720575
 31
0.0
  0
LINE
  5
4D2
  8
1
 10
3144.790586
 20
2109.020575
 30
0.0
 11
3144.790586
 21
2117.720575
 31
0.0
  0
LINE
  5
4D3
  8
1
 10
3148.090586
 20
2109.020575
 30
0.0
 11
3148.090586
 21
2121.020575
 31
0.0
  0
LINE
  5
4D4
  8
1
  6
DASHDOT
 10
3124.790586
 20
2104.529058
 30
0.0
 11
3124.790586
 21
2132.692943
 31
0.0
  0
LINE
  5
4D5
  8
1
 10
3099.790586
 20
2121.020575
 30
0.0
 11
3148.090586
 21
2121.020575
 31
0.0
  0
LINE
  5
4D6
  8
1
 10
3103.090586
 20
2117.720575
 30
0.0
 11
3144.790586
 21
2117.720575
 31
0.0
  0
LINE
  5
4D7
  8
1
 10
3144.790586
 20
2109.020575
 30
0.0
 11
3148.090586
 21
2109.020575
 31
0.0
  0
LINE
  5
4D8
  8
1
 10
3099.790586
 20
2066.020575
 30
0.0
 11
3103.090586
 21
2066.020575
 31
0.0
  0
LINE
  5
4D9
  8
1
 10
2330.590586
 20
2066.020575
 30
0.0
 11
2330.590586
 21
2121.020575
 31
0.0
  0
LINE
  5
4DA
  8
1
 10
2327.290586
 20
2066.020575
 30
0.0
 11
2327.290586
 21
2117.720575
 31
0.0
  0
LINE
  5
4DB
  8
1
 10
2285.590586
 20
2109.020575
 30
0.0
 11
2285.590586
 21
2117.720575
 31
0.0
  0
LINE
  5
4DC
  8
1
 10
2282.290586
 20
2109.020575
 30
0.0
 11
2282.290586
 21
2121.020575
 31
0.0
  0
LINE
  5
4DD
  8
1
  6
DASHDOT
 10
2305.590586
 20
2104.529058
 30
0.0
 11
2305.590586
 21
2132.692943
 31
0.0
  0
LINE
  5
4DE
  8
1
 10
2330.590586
 20
2121.020575
 30
0.0
 11
2282.290586
 21
2121.020575
 31
0.0
  0
LINE
  5
4DF
  8
1
 10
2327.290586
 20
2117.720575
 30
0.0
 11
2285.590586
 21
2117.720575
 31
0.0
  0
LINE
  5
4E0
  8
1
 10
2285.590586
 20
2109.020575
 30
0.0
 11
2282.290586
 21
2109.020575
 31
0.0
  0
LINE
  5
4E1
  8
1
 10
2330.590586
 20
2066.020575
 30
0.0
 11
2327.290586
 21
2066.020575
 31
0.0
  0
LINE
  5
4E2
  8
1
 10
2700.190586
 20
2132.220575
 30
0.0
 11
2700.190586
 21
2267.220575
 31
0.0
  0
LINE
  5
4E3
  8
1
 10
2433.190517
 20
2267.220575
 30
0.0
 11
2700.190586
 21
2267.220575
 31
0.0
  0
LINE
  5
4E4
  8
1
 10
2433.190517
 20
2132.220575
 30
0.0
 11
2700.190586
 21
2132.220575
 31
0.0
  0
LINE
  5
4E5
  8
1
 10
2433.190517
 20
2132.220575
 30
0.0
 11
2433.190517
 21
2267.220575
 31
0.0
  0
LINE
  5
4E6
  8
1
 10
2890.690586
 20
2121.220575
 30
0.0
 11
2890.690586
 21
2201.220575
 31
0.0
  0
LINE
  5
4E7
  8
1
 10
2890.690586
 20
2201.220575
 30
0.0
 11
2975.690586
 21
2201.220575
 31
0.0
  0
LINE
  5
4E8
  8
1
 10
2975.690586
 20
2121.220575
 30
0.0
 11
2975.690586
 21
2201.220575
 31
0.0
  0
LINE
  5
4E9
  8
1
 10
2890.690586
 20
2121.220575
 30
0.0
 11
2975.690586
 21
2121.220575
 31
0.0
  0
LINE
  5
4EA
  8
1
 10
2220.190517
 20
1971.020675
 30
0.0
 11
2020.190417
 21
1971.020675
 31
0.0
  0
LINE
  5
4EB
  8
1
 10
2020.190417
 20
1971.020675
 30
0.0
 11
2020.190417
 21
1961.020675
 31
0.0
  0
LINE
  5
4EC
  8
1
 10
2220.190517
 20
1961.020675
 30
0.0
 11
2020.190817
 21
1961.020475
 31
0.0
  0
LINE
  5
4ED
  8
1
 10
2169.736017
 20
1961.020675
 30
0.0
 11
2179.736017
 21
1971.020675
 31
0.0
  0
LINE
  5
4EE
  8
1
 10
2137.309617
 20
1971.020675
 30
0.0
 11
2127.309617
 21
1961.020675
 31
0.0
  0
LINE
  5
4EF
  8
1
 10
2084.883217
 20
1961.020675
 30
0.0
 11
2094.883217
 21
1971.020675
 31
0.0
  0
LINE
  5
4F0
  8
1
 10
2052.456817
 20
1971.020675
 30
0.0
 11
2042.456817
 21
1961.020675
 31
0.0
  0
LINE
  5
4F1
  8
1
 10
2220.190417
 20
1969.048775
 30
0.0
 11
2212.162317
 21
1961.020675
 31
0.0
  0
LINE
  5
4F2
  8
1
 10
2220.190417
 20
1961.020675
 30
0.0
 11
2220.190417
 21
1971.020675
 31
0.0
  0
LINE
  5
4F3
  8
1
 10
3410.190517
 20
1961.020675
 30
0.0
 11
3210.190517
 21
1961.020575
 31
0.0
  0
LINE
  5
4F4
  8
1
 10
3410.190517
 20
1971.020675
 30
0.0
 11
3210.190517
 21
1971.020675
 31
0.0
  0
LINE
  5
4F5
  8
1
 10
3410.190517
 20
1971.020675
 30
0.0
 11
3410.190517
 21
1961.020675
 31
0.0
  0
LINE
  5
4F6
  8
1
 10
3210.190517
 20
1971.020675
 30
0.0
 11
3210.190517
 21
1961.020675
 31
0.0
  0
LINE
  5
4F7
  8
1
 10
3343.893617
 20
1971.020675
 30
0.0
 11
3333.893617
 21
1961.020675
 31
0.0
  0
LINE
  5
4F8
  8
1
 10
3376.320117
 20
1961.020675
 30
0.0
 11
3386.320117
 21
1971.020675
 31
0.0
  0
LINE
  5
4F9
  8
1
 10
3291.467117
 20
1961.020575
 30
0.0
 11
3301.467117
 21
1971.020675
 31
0.0
  0
LINE
  5
4FA
  8
1
 10
3259.040617
 20
1971.020675
 30
0.0
 11
3249.040617
 21
1961.020575
 31
0.0
  0
LINE
  5
4FB
  8
1
 10
3210.190517
 20
1964.596975
 30
0.0
 11
3216.614117
 21
1971.020675
 31
0.0
  0
ARC
  5
4FC
  8
1
 10
3117.039386
 20
2099.736975
 30
0.0
 40
16.0161
 50
241.0607
 51
298.94
  0
ARC
  5
4FD
  8
1
 10
3117.039386
 20
2082.704675
 30
0.0
 40
16.0161
 50
61.0603
 51
118.9396
  0
LINE
  5
4FE
  8
1
 10
3117.039086
 20
2083.720875
 30
0.0
 11
3132.539086
 21
2083.720875
 31
0.0
  0
LINE
  5
4FF
  8
1
 10
3117.789386
 20
2083.720875
 30
0.0
 11
3117.789386
 21
2078.720875
 31
0.0
  0
ARC
  5
500
  8
1
 10
3117.039386
 20
2114.736975
 30
0.0
 40
16.0161
 50
241.0607
 51
298.94
  0
LINE
  5
501
  8
1
 10
3109.289586
 20
2113.720875
 30
0.0
 11
3109.289586
 21
2085.720675
 31
0.0
  0
ARC
  5
502
  8
1
 10
3117.039386
 20
2097.704675
 30
0.0
 40
16.0161
 50
61.0603
 51
118.9396
  0
LINE
  5
503
  8
1
 10
3107.789586
 20
2113.720875
 30
0.0
 11
3141.789386
 21
2113.720575
 31
0.0
  0
LINE
  5
504
  8
1
 10
3107.789586
 20
2117.720575
 30
0.0
 11
3107.789586
 21
2113.721075
 31
0.0
  0
LINE
  5
505
  8
1
 10
3141.789386
 20
2117.720575
 30
0.0
 11
3141.789386
 21
2113.720575
 31
0.0
  0
LINE
  5
506
  8
1
 10
3140.289386
 20
2113.720575
 30
0.0
 11
3140.289086
 21
2085.720675
 31
0.0
  0
ARC
  5
507
  8
1
 10
3132.539386
 20
2097.704675
 30
0.0
 40
16.0161
 50
61.0605
 51
118.9398
  0
ARC
  5
508
  8
1
 10
3132.539386
 20
2082.704675
 30
0.0
 40
16.0161
 50
61.0605
 51
118.9398
  0
ARC
  5
509
  8
1
 10
3132.539386
 20
2114.736975
 30
0.0
 40
16.0161
 50
241.0605
 51
298.9398
  0
ARC
  5
50A
  8
1
 10
3132.539386
 20
2099.736975
 30
0.0
 40
16.0161
 50
241.0605
 51
298.9398
  0
LINE
  5
50B
  8
1
 10
3107.789586
 20
2125.020875
 30
0.0
 11
3107.789586
 21
2121.020575
 31
0.0
  0
LINE
  5
50C
  8
1
 10
3107.789586
 20
2125.020575
 30
0.0
 11
3141.789386
 21
2125.020575
 31
0.0
  0
ARC
  5
50D
  8
1
 10
3117.039386
 20
2141.036475
 30
0.0
 40
16.0161
 50
241.0607
 51
298.94
  0
LINE
  5
50E
  8
1
 10
3109.289586
 20
2125.020375
 30
0.0
 11
3109.289586
 21
2138.020375
 31
0.0
  0
ARC
  5
50F
  8
1
 10
3117.039386
 20
2124.004275
 30
0.0
 40
16.0161
 50
61.0603
 51
118.9396
  0
LINE
  5
510
  8
1
  6
DASHDOT
 10
3124.789386
 20
2516.298175
 30
0.0
 11
3124.789386
 21
2072.944875
 31
0.0
  0
LINE
  5
511
  8
1
  6
DIVIDE
 10
3117.790086
 20
2501.297675
 30
0.0
 11
3117.789386
 21
2140.020375
 31
0.0
  0
LINE
  5
512
  8
1
  6
DIVIDE
 10
3131.789086
 20
2501.297675
 30
0.0
 11
3131.789386
 21
2140.020375
 31
0.0
  0
ARC
  5
513
  8
1
 10
3132.539386
 20
2124.004275
 30
0.0
 40
16.0161
 50
61.0605
 51
118.9398
  0
LINE
  5
514
  8
1
 10
3140.289386
 20
2125.020575
 30
0.0
 11
3140.289386
 21
2138.020575
 31
0.0
  0
ARC
  5
515
  8
1
 10
3132.539386
 20
2141.036475
 30
0.0
 40
16.0161
 50
241.0605
 51
298.9398
  0
LINE
  5
516
  8
1
 10
3141.789386
 20
2125.020375
 30
0.0
 11
3141.789386
 21
2121.020575
 31
0.0
  0
LINE
  5
517
  8
1
 10
3117.039086
 20
2140.020375
 30
0.0
 11
3132.539086
 21
2140.020375
 31
0.0
  0
LINE
  5
518
  8
1
 10
3131.789586
 20
2078.721075
 30
0.0
 11
3117.789386
 21
2078.720875
 31
0.0
  0
LINE
  5
519
  8
1
 10
3131.789386
 20
2083.720875
 30
0.0
 11
3131.789586
 21
2078.721075
 31
0.0
  0
ARC
  5
51A
  8
1
 10
2313.341894
 20
2099.736415
 30
0.0
 40
16.0161
 50
241.060053
 51
298.939353
  0
ARC
  5
51B
  8
1
 10
2313.34191
 20
2082.704115
 30
0.0
 40
16.0161
 50
61.060453
 51
118.939753
  0
LINE
  5
51C
  8
1
 10
2313.342209
 20
2083.720315
 30
0.0
 11
2297.842209
 21
2083.7203
 31
0.0
  0
LINE
  5
51D
  8
1
 10
2312.591909
 20
2083.720314
 30
0.0
 11
2312.591913
 21
2078.720314
 31
0.0
  0
ARC
  5
51E
  8
1
 10
2313.34188
 20
2114.736415
 30
0.0
 40
16.0161
 50
241.060053
 51
298.939353
  0
LINE
  5
51F
  8
1
 10
2321.091681
 20
2113.720322
 30
0.0
 11
2321.091707
 21
2085.720122
 31
0.0
  0
ARC
  5
520
  8
1
 10
2313.341896
 20
2097.704115
 30
0.0
 40
16.0161
 50
61.060453
 51
118.939753
  0
LINE
  5
521
  8
1
 10
2322.591681
 20
2113.720323
 30
0.0
 11
2288.591881
 21
2113.719991
 31
0.0
  0
LINE
  5
522
  8
1
 10
2322.591677
 20
2117.720023
 30
0.0
 11
2322.591681
 21
2113.720523
 31
0.0
  0
LINE
  5
523
  8
1
 10
2288.591877
 20
2117.719991
 30
0.0
 11
2288.591881
 21
2113.719991
 31
0.0
  0
LINE
  5
524
  8
1
 10
2290.091881
 20
2113.719993
 30
0.0
 11
2290.092207
 21
2085.720093
 31
0.0
  0
ARC
  5
525
  8
1
 10
2297.841896
 20
2097.7041
 30
0.0
 40
16.0161
 50
61.060253
 51
118.939553
  0
ARC
  5
526
  8
1
 10
2297.84191
 20
2082.7041
 30
0.0
 40
16.0161
 50
61.060253
 51
118.939553
  0
ARC
  5
527
  8
1
 10
2297.84188
 20
2114.7364
 30
0.0
 40
16.0161
 50
241.060253
 51
298.939553
  0
ARC
  5
528
  8
1
 10
2297.841894
 20
2099.7364
 30
0.0
 40
16.0161
 50
241.060253
 51
298.939553
  0
LINE
  5
529
  8
1
 10
2322.591671
 20
2125.020323
 30
0.0
 11
2322.591675
 21
2121.020023
 31
0.0
  0
LINE
  5
52A
  8
1
 10
2322.591671
 20
2125.020023
 30
0.0
 11
2288.591871
 21
2125.019991
 31
0.0
  0
ARC
  5
52B
  8
1
 10
2313.341856
 20
2141.035915
 30
0.0
 40
16.0161
 50
241.060053
 51
298.939353
  0
LINE
  5
52C
  8
1
 10
2321.091671
 20
2125.019822
 30
0.0
 11
2321.091659
 21
2138.019822
 31
0.0
  0
ARC
  5
52D
  8
1
 10
2313.341872
 20
2124.003715
 30
0.0
 40
16.0161
 50
61.060453
 51
118.939753
  0
LINE
  5
52E
  8
1
  6
DASHDOT
 10
2305.591507
 20
2516.297607
 30
0.0
 11
2305.591919
 21
2072.944307
 31
0.0
  0
LINE
  5
52F
  8
1
  6
DIVIDE
 10
2312.590821
 20
2501.297114
 30
0.0
 11
2312.591857
 21
2140.019814
 31
0.0
  0
LINE
  5
530
  8
1
  6
DIVIDE
 10
2298.591821
 20
2501.297101
 30
0.0
 11
2298.591857
 21
2140.019801
 31
0.0
  0
ARC
  5
531
  8
1
 10
2297.841872
 20
2124.0037
 30
0.0
 40
16.0161
 50
61.060253
 51
118.939553
  0
LINE
  5
532
  8
1
 10
2290.091871
 20
2125.019993
 30
0.0
 11
2290.091859
 21
2138.019993
 31
0.0
  0
ARC
  5
533
  8
1
 10
2297.841856
 20
2141.0359
 30
0.0
 40
16.0161
 50
241.060253
 51
298.939553
  0
LINE
  5
534
  8
1
 10
2288.591871
 20
2125.019791
 30
0.0
 11
2288.591875
 21
2121.019991
 31
0.0
  0
LINE
  5
535
  8
1
 10
2313.342157
 20
2140.019815
 30
0.0
 11
2297.842157
 21
2140.0198
 31
0.0
  0
LINE
  5
536
  8
1
 10
2298.591713
 20
2078.720501
 30
0.0
 11
2312.591913
 21
2078.720314
 31
0.0
  0
LINE
  5
537
  8
1
 10
2298.591909
 20
2083.720301
 30
0.0
 11
2298.591713
 21
2078.720501
 31
0.0
  0
LINE
  5
538
  8
1
 10
2200.190936
 20
1961.019909
 30
0.0
 11
3230.190936
 21
1961.021239
 31
0.0
  0
LINE
  5
539
  8
1
 10
2205.190943
 20
1946.019914
 30
0.0
 11
3225.190943
 21
1946.021235
 31
0.0
  0
LINE
  5
53A
  8
1
 10
2200.190517
 20
1951.020575
 30
0.0
 11
2200.190517
 21
1961.020575
 31
0.0
  0
LINE
  5
53B
  8
1
 10
3230.190517
 20
1951.020575
 30
0.0
 11
3230.190517
 21
1961.020575
 31
0.0
  0
ARC
  5
53C
  8
1
 10
2205.190517
 20
1951.020575
 30
0.0
 40
5.0
 50
180.0
 51
270.0
  0
ARC
  5
53D
  8
1
 10
3225.190517
 20
1951.020575
 30
0.0
 40
5.0
 50
270.0
 51
0.0
  0
LINE
  5
53E
  8
1
 10
2261.090888
 20
2012.019966
 30
0.0
 11
3169.290888
 21
2012.021183
 31
0.0
  0
LINE
  5
53F
  8
1
 10
2261.090936
 20
1961.019966
 30
0.0
 11
2261.090888
 21
2012.019966
 31
0.0
  0
LINE
  5
540
  8
1
 10
3190.190936
 20
1961.021202
 30
0.0
 11
3190.190859
 21
2043.521202
 31
0.0
  0
LINE
  5
541
  8
1
 10
3124.690888
 20
2012.021141
 30
0.0
 11
3124.690859
 21
2043.521141
 31
0.0
  0
LINE
  5
542
  8
1
 10
3124.690859
 20
2043.521141
 30
0.0
 11
3190.190859
 21
2043.521202
 31
0.0
  0
LINE
  5
543
  8
1
 10
3164.690879
 20
2022.021179
 30
0.0
 11
3190.190879
 21
2022.021202
 31
0.0
  0
LINE
  5
544
  8
1
 10
3164.690888
 20
2012.021179
 30
0.0
 11
3164.690879
 21
2022.021179
 31
0.0
  0
LINE
  5
545
  8
1
 10
3169.290936
 20
1961.021183
 30
0.0
 11
3169.290888
 21
2012.021183
 31
0.0
  0
LINE
  5
546
  8
1
  6
DASHDOT
 10
2715.190517
 20
1880.338643
 30
0.0
 11
2715.190517
 21
2454.856782
 31
0.0
  0
LINE
  5
547
  8
1
  6
DASHDOT
 10
2566.690551
 20
2068.270338
 30
0.0
 11
2566.690551
 21
2298.098579
 31
0.0
  0
LINE
  5
548
  8
1
  6
DASHDOT
 10
2776.313948
 20
2199.720575
 30
0.0
 11
2365.548264
 21
2199.720575
 31
0.0
  0
LINE
  5
549
  8
1
  6
DASHDOT
 10
3005.690586
 20
2161.220575
 30
0.0
 11
2860.690586
 21
2161.220575
 31
0.0
  0
LINE
  5
54A
  8
1
  6
DASHDOT
 10
2933.190586
 20
2091.220575
 30
0.0
 11
2933.190586
 21
2231.220575
 31
0.0
  0
LINE
  5
54B
  8
1
 10
3361.790586
 20
2271.996046
 30
0.0
 11
3361.790586
 21
2239.996046
 31
0.0
  0
LINE
  5
54C
  8
1
 10
3361.790586
 20
2271.996046
 30
0.0
 11
3304.790586
 21
2271.996046
 31
0.0
  0
LINE
  5
54D
  8
1
 10
3361.790586
 20
2239.996046
 30
0.0
 11
3304.790586
 21
2239.996046
 31
0.0
  0
LINE
  5
54E
  8
1
 10
3304.790586
 20
2280.996046
 30
0.0
 11
3304.790586
 21
2230.996046
 31
0.0
  0
LINE
  5
54F
  8
1
 10
3304.790586
 20
2280.996046
 30
0.0
 11
3099.790586
 21
2280.996046
 31
0.0
  0
LINE
  5
550
  8
1
 10
3304.790586
 20
2230.996046
 30
0.0
 11
3099.790586
 21
2230.996046
 31
0.0
  0
LINE
  5
551
  8
1
 10
2200.190517
 20
1194.303876
 30
0.0
 11
2200.190517
 21
544.303876
 31
0.0
  0
LINE
  5
552
  8
1
 10
2215.190517
 20
529.303876
 30
0.0
 11
2265.190517
 21
529.303876
 31
0.0
  0
ARC
  5
553
  8
1
 10
2215.190517
 20
544.303876
 30
0.0
 40
15.0
 50
180.0
 51
270.0
  0
LINE
  5
554
  8
1
 10
2215.190517
 20
1209.303876
 30
0.0
 11
2265.190517
 21
1209.303876
 31
0.0
  0
ARC
  5
555
  8
1
 10
2215.190517
 20
1194.303876
 30
0.0
 40
15.0
 50
90.0
 51
180.0
  0
LINE
  5
556
  8
1
 10
2265.190517
 20
1209.303876
 30
0.0
 11
2265.190517
 21
529.303876
 31
0.0
  0
LINE
  5
557
  8
1
 10
3230.190517
 20
544.303876
 30
0.0
 11
3230.190517
 21
1194.303876
 31
0.0
  0
LINE
  5
558
  8
1
 10
3215.190517
 20
1209.303876
 30
0.0
 11
3165.190517
 21
1209.303876
 31
0.0
  0
ARC
  5
559
  8
1
 10
3215.190517
 20
1194.303876
 30
0.0
 40
15.0
 50
0.0
 51
90.0
  0
LINE
  5
55A
  8
1
 10
3165.190517
 20
529.303876
 30
0.0
 11
3165.190517
 21
1209.303876
 31
0.0
  0
LINE
  5
55B
  8
1
 10
3215.190517
 20
529.303876
 30
0.0
 11
3165.190517
 21
529.303876
 31
0.0
  0
ARC
  5
55C
  8
1
 10
3215.190517
 20
544.303876
 30
0.0
 40
15.0
 50
270.0
 51
0.0
  0
LINE
  5
55D
  8
1
 10
3165.190517
 20
1164.303876
 30
0.0
 11
3165.190517
 21
1164.803876
 31
0.0
  0
LINE
  5
55E
  8
1
 10
2265.190517
 20
529.303876
 30
0.0
 11
3165.190517
 21
529.303876
 31
0.0
  0
LINE
  5
55F
  8
1
 10
2265.190517
 20
570.303876
 30
0.0
 11
3165.190517
 21
570.303876
 31
0.0
  0
LINE
  5
560
  8
1
 10
2265.190517
 20
628.803876
 30
0.0
 11
3165.190517
 21
628.803876
 31
0.0
  0
LINE
  5
561
  8
1
 10
2265.190517
 20
672.303876
 30
0.0
 11
3165.190517
 21
672.303876
 31
0.0
  0
LINE
  5
562
  8
1
 10
2265.190517
 20
1209.303876
 30
0.0
 11
3165.190517
 21
1209.303876
 31
0.0
  0
LINE
  5
563
  8
1
 10
2265.190517
 20
1168.303876
 30
0.0
 11
3165.190517
 21
1168.303876
 31
0.0
  0
LINE
  5
564
  8
1
 10
2265.190517
 20
1154.303876
 30
0.0
 11
3015.190517
 21
1154.303876
 31
0.0
  0
LINE
  5
565
  8
1
 10
2265.190517
 20
1109.803876
 30
0.0
 11
3165.190517
 21
1109.803876
 31
0.0
  0
LINE
  5
566
  8
1
 10
2265.190517
 20
1066.303876
 30
0.0
 11
3165.190517
 21
1066.303876
 31
0.0
  0
LINE
  5
567
  8
1
  6
DASHDOT
 10
2715.190517
 20
1259.303876
 30
0.0
 11
2715.190517
 21
479.303876
 31
0.0
  0
LINE
  5
568
  8
1
 10
3165.190517
 20
1110.303876
 30
0.0
 11
3165.190517
 21
1164.803876
 31
0.0
  0
LINE
  5
569
  8
1
 10
3015.190517
 20
1110.303876
 30
0.0
 11
3015.190517
 21
1164.803876
 31
0.0
  0
LINE
  5
56A
  8
1
 10
3165.190517
 20
1164.803876
 30
0.0
 11
3015.190517
 21
1164.803876
 31
0.0
  0
LINE
  5
56B
  8
1
 10
3015.190517
 20
1110.303876
 30
0.0
 11
3165.190517
 21
1110.303876
 31
0.0
  0
LINE
  5
56C
  8
1
 10
3030.190517
 20
1110.303876
 30
0.0
 11
3030.190517
 21
1164.803876
 31
0.0
  0
LINE
  5
56D
  8
1
 10
3031.190517
 20
1110.303876
 30
0.0
 11
3031.190517
 21
1164.803876
 31
0.0
  0
LINE
  5
56E
  8
1
 10
3153.490517
 20
1114.603876
 30
0.0
 11
3153.490517
 21
1150.503876
 31
0.0
  0
ARC
  5
56F
  8
1
 10
3151.390517
 20
1114.603876
 30
0.0
 40
2.1
 50
270.0
 51
0.0
  0
LINE
  5
570
  8
1
 10
3151.390517
 20
1112.503876
 30
0.0
 11
3044.990517
 21
1112.503876
 31
0.0
  0
ARC
  5
571
  8
1
 10
3044.990517
 20
1114.603876
 30
0.0
 40
2.1
 50
180.0
 51
270.0
  0
LINE
  5
572
  8
1
 10
3042.890517
 20
1114.603876
 30
0.0
 11
3042.890517
 21
1150.503876
 31
0.0
  0
ARC
  5
573
  8
1
 10
3044.990517
 20
1150.503876
 30
0.0
 40
2.1
 50
90.0
 51
180.0
  0
LINE
  5
574
  8
1
 10
3151.390517
 20
1152.603876
 30
0.0
 11
3044.990517
 21
1152.603876
 31
0.0
  0
ARC
  5
575
  8
1
 10
3151.390517
 20
1150.503876
 30
0.0
 40
2.1
 50
0.0
 51
90.0
  0
LINE
  5
576
  8
1
 10
3149.690517
 20
1113.503876
 30
0.0
 11
3044.990517
 21
1113.503876
 31
0.0
  0
LINE
  5
577
  8
1
 10
3152.490517
 20
1116.303876
 30
0.0
 11
3152.490517
 21
1150.503876
 31
0.0
  0
ARC
  5
578
  8
1
 10
3151.390517
 20
1150.503876
 30
0.0
 40
1.1
 50
0.0
 51
90.0
  0
LINE
  5
579
  8
1
 10
3151.390517
 20
1151.603876
 30
0.0
 11
3044.990517
 21
1151.603876
 31
0.0
  0
ARC
  5
57A
  8
1
 10
3044.990517
 20
1150.503876
 30
0.0
 40
1.1
 50
90.0
 51
180.0
  0
LINE
  5
57B
  8
1
 10
3043.890517
 20
1114.603876
 30
0.0
 11
3043.890517
 21
1150.503876
 31
0.0
  0
ARC
  5
57C
  8
1
 10
3044.990517
 20
1114.603876
 30
0.0
 40
1.1
 50
180.0
 51
270.0
  0
LINE
  5
57D
  8
1
 10
3149.690517
 20
1113.503876
 30
0.0
 11
3152.490517
 21
1116.303876
 31
0.0
  0
LINE
  5
57E
  8
1
 10
3165.190517
 20
1114.803876
 30
0.0
 11
3165.190517
 21
1115.803876
 31
0.0
  0
LINE
  5
57F
  8
1
 10
3165.190517
 20
1128.803876
 30
0.0
 11
3165.190517
 21
1127.803876
 31
0.0
  0
LINE
  5
580
  8
1
 10
3165.190517
 20
585.433924
 30
0.0
 11
3150.190517
 21
585.433924
 31
0.0
  0
LINE
  5
581
  8
1
 10
3165.190517
 20
628.303876
 30
0.0
 11
3165.190517
 21
585.433924
 31
0.0
  0
LINE
  5
582
  8
1
 10
3150.190517
 20
628.303876
 30
0.0
 11
3150.190517
 21
585.433924
 31
0.0
  0
LINE
  5
583
  8
1
 10
2265.190517
 20
585.433924
 30
0.0
 11
2280.190517
 21
585.433924
 31
0.0
  0
LINE
  5
584
  8
1
 10
2265.190517
 20
628.303876
 30
0.0
 11
2265.190517
 21
585.433924
 31
0.0
  0
LINE
  5
585
  8
1
 10
2280.190517
 20
628.303876
 30
0.0
 11
2280.190517
 21
585.433924
 31
0.0
  0
LINE
  5
586
  8
1
 10
2265.190517
 20
1114.803876
 30
0.0
 11
2265.190517
 21
1115.803876
 31
0.0
  0
LINE
  5
587
  8
1
 10
2265.190517
 20
1128.803876
 30
0.0
 11
2265.190517
 21
1127.803876
 31
0.0
  0
LINE
  5
588
  8
1
 10
2265.190517
 20
1110.303876
 30
0.0
 11
2265.190517
 21
1153.173828
 31
0.0
  0
LINE
  5
589
  8
1
 10
2280.190517
 20
1110.303876
 30
0.0
 11
2280.190517
 21
1153.173828
 31
0.0
  0
LINE
  5
58A
  8
1
 10
2280.190517
 20
1110.303876
 30
0.0
 11
2265.190517
 21
1110.303876
 31
0.0
  0
LINE
  5
58B
  8
1
  6
DASHDOT
 10
3280.190517
 20
869.303876
 30
0.0
 11
2150.190517
 21
869.303876
 31
0.0
  0
LINE
  5
58C
  8
1
 10
2267.590517
 20
1029.803876
 30
0.0
 11
2267.590517
 21
708.803876
 31
0.0
  0
LINE
  5
58D
  8
1
 10
3162.790517
 20
1029.803876
 30
0.0
 11
3162.790517
 21
708.803876
 31
0.0
  0
LINE
  5
58E
  8
1
 10
3162.790517
 20
1029.803876
 30
0.0
 11
2767.978294
 21
1029.803876
 31
0.0
  0
LINE
  5
58F
  8
1
 10
3162.790517
 20
708.803876
 30
0.0
 11
2681.966603
 21
708.803876
 31
0.0
  0
LINE
  5
590
  8
1
 10
2297.590517
 20
999.303876
 30
0.0
 11
2297.590517
 21
739.303876
 31
0.0
  0
LINE
  5
591
  8
1
  6
DIVIDE
 10
2663.852334
 20
708.803876
 30
0.0
 11
2749.864025
 21
1029.803876
 31
0.0
  0
LINE
  5
592
  8
1
  6
DIVIDE
 10
2681.966603
 20
708.803876
 30
0.0
 11
2767.978294
 21
1029.803876
 31
0.0
  0
LINE
  5
593
  8
1
 10
2741.691574
 20
999.303876
 30
0.0
 11
2297.590517
 21
999.303876
 31
0.0
  0
LINE
  5
594
  8
1
 10
2672.024784
 20
739.303876
 30
0.0
 11
2297.590517
 21
739.303876
 31
0.0
  0
LINE
  5
595
  8
1
 10
2663.852334
 20
708.803876
 30
0.0
 11
2267.590517
 21
708.803876
 31
0.0
  0
LINE
  5
596
  8
1
 10
2749.864025
 20
1029.803876
 30
0.0
 11
2267.590517
 21
1029.803876
 31
0.0
  0
LINE
  5
597
  8
2
  6
CONTINUOUS
 10
2297.590517
 20
733.303876
 30
0.0
 11
2297.590517
 21
324.65139
 31
0.0
  0
LINE
  5
598
  8
2
  6
CONTINUOUS
 10
2297.590517
 20
329.65139
 30
0.0
 11
2859.999409
 21
329.65139
 31
0.0
  0
LINE
  5
599
  8
2
  6
CONTINUOUS
 10
2325.657538
 20
334.600363
 30
0.0
 11
2297.590517
 21
329.65139
 31
0.0
  0
LINE
  5
59A
  8
2
  6
CONTINUOUS
 10
2325.657538
 20
324.702416
 30
0.0
 11
2297.590517
 21
329.65139
 31
0.0
  0
CIRCLE
  5
59B
  8
1
 10
2292.501872
 20
1113.423654
 30
0.0
 40
0.888911
  0
LINE
  5
59C
  8
1
 10
2265.190517
 20
584.303876
 30
0.0
 11
3165.190517
 21
584.303876
 31
0.0
  0
TEXT
  5
59D
  8
2
  6
CONTINUOUS
 10
2400.394043
 20
333.651276
 30
0.0
 40
52.0
  1
８３５（天井材部）
 41
0.6
  7
MONOTXT
  0
TEXT
  8
3
  40
100
  5
602
  72
0
  71
0
 10
4027.10
 20
593.798
 30
0.000000
  1

  0
TEXT
  8
3
  40
100
  5
603
  72
0
  71
0
 10
4027.10
 20
463.798
 30
0.000000
  1
GBC6_1
  0
TEXT
  8
3
  40
100
  5
604
  72
0
  71
0
 10
4027.10
 20
333.798
 30
0.000000
  1
FXYC20KVE
  0
TEXT
  8
3
  40
100
  5
605
  72
0
  71
0
 10
4027.10
 20
203.798
 30
0.000000
  1
FXYC25KVE
  0
TEXT
  8
3
  40
100
  5
606
  72
0
  71
0
 10
4027.10
 20
73.7981
 30
0.000000
  1
FXYC32KVE
  0
ENDSEC
  0
EOF
