  0
SECTION
  2
HEADER
  9
$ACADVER
  1
AC1009
  9
$DWGCODEPAGE
  3
dos932
  9
$INSBASE
 10
0.0
 20
0.0
 30
0.0
  9
$EXTMIN
 10
-738.300983
 20
-186.648705
 30
0.0
  9
$EXTMAX
 10
5446.64
 20
3884.000439
 30
0.0
  9
$LIMMIN
 10
-801.833789
 20
-586.356335
  9
$LIMMAX
 10
5984.763259
 20
4210.135217
  9
$ORTHOMODE
 70
     0
  9
$REGENMODE
 70
     1
  9
$FILLMODE
 70
     1
  9
$QTEXTMODE
 70
     0
  9
$MIRRTEXT
 70
     0
  9
$DRAGMODE
 70
     2
  9
$LTSCALE
 40
1.0
  9
$OSMODE
 70
     0
  9
$ATTMODE
 70
     1
  9
$TEXTSIZE
 40
0.2
  9
$TRACEWID
 40
0.05
  9
$TEXTSTYLE
  7
STANDARD
  9
$CLAYER
  8
0
  9
$CELTYPE
  6
BYLAYER
  9
$CECOLOR
 62
   256
  9
$DIMSCALE
 40
1.0
  9
$DIMASZ
 40
0.18
  9
$DIMEXO
 40
3.0
  9
$DIMDLI
 40
0.38
  9
$DIMRND
 40
0.0
  9
$DIMDLE
 40
0.0
  9
$DIMEXE
 40
5.0
  9
$DIMTP
 40
0.0
  9
$DIMTM
 40
0.0
  9
$DIMTXT
 40
0.18
  9
$DIMCEN
 40
0.09
  9
$DIMTSZ
 40
0.0
  9
$DIMTOL
 70
     0
  9
$DIMLIM
 70
     0
  9
$DIMTIH
 70
     1
  9
$DIMTOH
 70
     1
  9
$DIMSE1
 70
     0
  9
$DIMSE2
 70
     0
  9
$DIMTAD
 70
     1
  9
$DIMZIN
 70
     0
  9
$DIMBLK
  1

  9
$DIMASO
 70
     1
  9
$DIMSHO
 70
     0
  9
$DIMPOST
  1

  9
$DIMAPOST
  1

  9
$DIMALT
 70
     0
  9
$DIMALTD
 70
     2
  9
$DIMALTF
 40
25.4
  9
$DIMLFAC
 40
1.0
  9
$DIMTOFL
 70
     0
  9
$DIMTVP
 40
1.0
  9
$DIMTIX
 70
     0
  9
$DIMSOXD
 70
     0
  9
$DIMSAH
 70
     0
  9
$DIMBLK1
  1

  9
$DIMBLK2
  1

  9
$DIMSTYLE
  2
STANDARD
  9
$DIMCLRD
 70
     0
  9
$DIMCLRE
 70
     0
  9
$DIMCLRT
 70
     0
  9
$DIMTFAC
 40
1.0
  9
$DIMGAP
 40
0.09
  9
$LUNITS
 70
     2
  9
$LUPREC
 70
     4
  9
$SKETCHINC
 40
0.1
  9
$FILLETRAD
 40
0.05
  9
$AUNITS
 70
     0
  9
$AUPREC
 70
     0
  9
$MENU
  1
acad
  9
$ELEVATION
 40
0.0
  9
$PELEVATION
 40
0.0
  9
$THICKNESS
 40
0.0
  9
$LIMCHECK
 70
     0
  9
$BLIPMODE
 70
     1
  9
$CHAMFERA
 40
0.0
  9
$CHAMFERB
 40
0.0
  9
$SKPOLY
 70
     0
  9
$TDCREATE
 40
0.0
  9
$TDUPDATE
 40
0.0
  9
$TDINDWG
 40
0.0
  9
$TDUSRTIMER
 40
0.0
  9
$USRTIMER
 70
     1
  9
$ANGBASE
 50
0.0
  9
$ANGDIR
 70
     0
  9
$PDMODE
 70
     0
  9
$PDSIZE
 40
0.0
  9
$PLINEWID
 40
0.0
  9
$COORDS
 70
     0
  9
$SPLFRAME
 70
     0
  9
$SPLINETYPE
 70
     6
  9
$SPLINESEGS
 70
     8
  9
$ATTDIA
 70
     1
  9
$ATTREQ
 70
     1
  9
$HANDLING
 70
     1
  9
$HANDSEED
  5
D13
  9
$SURFTAB1
 70
     6
  9
$SURFTAB2
 70
     6
  9
$SURFTYPE
 70
     6
  9
$SURFU
 70
     6
  9
$SURFV
 70
     6
  9
$UCSNAME
  2

  9
$UCSORG
 10
0.0
 20
0.0
 30
0.0
  9
$UCSXDIR
 10
1.0
 20
0.0
 30
0.0
  9
$UCSYDIR
 10
0.0
 20
1.0
 30
0.0
  9
$PUCSNAME
  2

  9
$PUCSORG
 10
0.0
 20
0.0
 30
0.0
  9
$PUCSXDIR
 10
1.0
 20
0.0
 30
0.0
  9
$PUCSYDIR
 10
0.0
 20
1.0
 30
0.0
  9
$USERI1
 70
     0
  9
$USERI2
 70
     0
  9
$USERI3
 70
     0
  9
$USERI4
 70
     0
  9
$USERI5
 70
     0
  9
$USERR1
 40
0.0
  9
$USERR2
 40
0.0
  9
$USERR3
 40
0.0
  9
$USERR4
 40
0.0
  9
$USERR5
 40
0.0
  9
$WORLDVIEW
 70
     1
  9
$SHADEDGE
 70
     3
  9
$SHADEDIF
 70
    70
  9
$TILEMODE
 70
     1
  9
$MAXACTVP
 70
    16
  9
$PINSBASE
 10
0.0
 20
0.0
 30
0.0
  9
$PLIMCHECK
 70
     0
  9
$PEXTMIN
 10
1.000000E+020
 20
1.000000E+020
 30
1.000000E+020
  9
$PEXTMAX
 10
-1.000000E+020
 20
-1.000000E+020
 30
-1.000000E+020
  9
$PLIMMIN
 10
0.0
 20
0.0
  9
$PLIMMAX
 10
12.0
 20
9.0
  9
$UNITMODE
 70
     0
  9
$VISRETAIN
 70
     0
  9
$PLINEGEN
 70
     0
  9
$PSLTSCALE
 70
     1
  9
$TREEDEPTH
 70
  3020
  0
ENDSEC
  0
SECTION
  2
TABLES
  0
TABLE
  2
VPORT
 70
     2
  0
VPORT
  2
*ACTIVE
 70
     0
 10
0.0
 20
0.0
 11
1.0
 21
1.0
 12
4179.138207
 22
1811.889441
 13
0.0
 23
0.0
 14
1.0
 24
1.0
 15
0.0
 25
0.0
 16
0.0
 26
0.0
 36
1.0
 17
0.0
 27
0.0
 37
0.0
 40
4796.491552
 41
2.076923
 42
50.0
 43
0.0
 44
0.0
 50
0.0
 51
0.0
 71
     0
 72
   100
 73
     1
 74
     1
 75
     0
 76
     0
 77
     0
 78
     0
  0
ENDTAB
  0
TABLE
  2
LTYPE
 70
     5
  0
LTYPE
  2
CONTINUOUS
 70
    64
  3
Solid line
 72
    65
 73
     0
 40
0.0
  0
LTYPE
  2
DASHDOT
 70
    64
  3
__ . __ . __ . __ . __ . __ . __ . __ . __ . __
 72
    65
 73
     4
 40
1.0
 49
0.5
 49
-0.25
 49
0.0
 49
-0.25
  0
LTYPE
  2
DOT
 70
    64
  3
...............................................
 72
    65
 73
     2
 40
0.25
 49
0.0
 49
-0.25
  0
LTYPE
  2
DIVIDE
 70
    64
  3
__ . . __ . . __ . . __ . . __ . . __ . . __
 72
    65
 73
     6
 40
1.25
 49
0.5
 49
-0.25
 49
0.0
 49
-0.25
 49
0.0
 49
-0.25
  0
LTYPE
  2
DASHED
 70
    64
  3
__ __ __ __ __ __ __ __ __ __ __ __ __ __ __
 72
    65
 73
     2
 40
0.75
 49
0.5
 49
-0.25
  0
ENDTAB
  0
TABLE
  2
LAYER
 70
     5
  0
LAYER
  2
0
 70
     0
 62
     7
  6
CONTINUOUS
  0
LAYER
  2
DEFPOINTS
 70
     0
 62
    -7
  6
CONTINUOUS
  0
LAYER
  2
1
 70
     0
 62
     7
  6
CONTINUOUS
  0
LAYER
  2
2
 70
     0
 62
     7
  6
DOT
  0
LAYER
  2
3
 70
     0
 62
     7
  6
CONTINUOUS
  0
ENDTAB
  0
TABLE
  2
STYLE
 70
     3
  0
STYLE
  2
STANDARD
 70
    64
 40
150.0
 41
0.8
 50
0.0
 71
     0
 42
0.2
  3
txt
  4

  0
STYLE
  2
MONOTXT
 70
    64
 40
0.0
 41
0.5
 50
0.0
 71
     0
 42
4.191412
  3
monotxt
  4
BIGFONT
  0
STYLE
  2
VERTICAL
 70
    68
 40
0.0
 41
0.5
 50
0.0
 71
     0
 42
4.191412
  3
monotxt
  4
BIGFONT
  0
ENDTAB
  0
TABLE
  2
VIEW
 70
     0
  0
ENDTAB
  0
TABLE
  2
UCS
 70
     0
  0
ENDTAB
  0
TABLE
  2
APPID
 70
     1
  0
APPID
  2
ACAD
 70
     0
  0
ENDTAB
  0
TABLE
  2
DIMSTYLE
 70
     1
  0
DIMSTYLE
  2
STANDARD
 70
     0
  3

  4

  5

  6

  7

 40
1.0
 41
0.18
 42
0.0625
 43
0.38
 44
0.18
 45
0.0
 46
0.0
 47
0.0
 48
0.0
140
0.18
141
0.09
142
0.0
143
25.4
144
1.0
145
0.0
146
1.0
147
0.09
 71
     0
 72
     0
 73
     1
 74
     1
 75
     0
 76
     0
 77
     0
 78
     0
170
     0
171
     2
172
     0
173
     0
174
     0
175
     0
176
     0
177
     0
178
     0
  0
ENDTAB
  0
ENDSEC
  0
SECTION
  2
BLOCKS
  0
BLOCK
  5
C20
  8
0
  2
$MODEL_SPACE
 70
     0
 10
0.0
 20
0.0
 30
0.0
  3
$MODEL_SPACE
  1

  0
ENDBLK
  5
C21
  8
0
  0
BLOCK
  5
C1D
 67
     1
  8
0
  2
$PAPER_SPACE
 70
     0
 10
0.0
 20
0.0
 30
0.0
  3
$PAPER_SPACE
  1

  0
ENDBLK
  5
C1E
 67
     1
  8
0
  0
BLOCK
  5
2B
  8
1
  2
*U2
 70
    65
 10
0.0
 20
0.0
 30
0.0
  3
*U2
  1

  0
LINE
  5
2C
  8
1
 10
3007.034996
 20
811.375452
 30
0.0
 11
3016.906063
 21
821.24652
 31
0.0
  0
LINE
  5
2D
  8
1
 10
2992.89286
 20
811.375452
 30
0.0
 11
3016.906063
 21
835.388656
 31
0.0
  0
LINE
  5
2E
  8
1
 10
2977.690065
 20
811.375452
 30
0.0
 11
3015.790063
 21
849.475452
 31
0.0
  0
LINE
  5
2F
  8
1
 10
2963.54793
 20
811.375452
 30
0.0
 11
3001.647928
 21
849.475452
 31
0.0
  0
LINE
  5
30
  8
1
 10
2949.405794
 20
811.375452
 30
0.0
 11
2987.505793
 21
849.475452
 31
0.0
  0
LINE
  5
31
  8
1
 10
2935.263659
 20
811.375452
 30
0.0
 11
2973.363657
 21
849.475452
 31
0.0
  0
LINE
  5
32
  8
1
 10
2921.121524
 20
811.375452
 30
0.0
 11
2959.221522
 21
849.475452
 31
0.0
  0
LINE
  5
33
  8
1
 10
2908.306063
 20
812.702127
 30
0.0
 11
2945.079387
 21
849.475452
 31
0.0
  0
LINE
  5
34
  8
1
 10
2908.306063
 20
826.844263
 30
0.0
 11
2930.937251
 21
849.475452
 31
0.0
  0
LINE
  5
35
  8
1
 10
2908.306063
 20
840.986399
 30
0.0
 11
2916.795116
 21
849.475452
 31
0.0
  0
ENDBLK
  5
36
  8
0
  0
BLOCK
  5
38
  8
1
  2
*U3
 70
    65
 10
0.0
 20
0.0
 30
0.0
  3
*U3
  1

  0
CIRCLE
  5
39
  8
1
 10
1934.288531
 20
818.680752
 30
0.0
 40
0.888911
  0
CIRCLE
  5
3A
  8
1
 10
1934.288531
 20
833.451795
 30
0.0
 40
0.888911
  0
CIRCLE
  5
3B
  8
1
 10
1934.288531
 20
848.222838
 30
0.0
 40
0.888911
  0
ENDBLK
  5
3C
  8
0
  0
BLOCK
  5
3E
  8
1
  2
*U4
 70
    65
 10
0.0
 20
0.0
 30
0.0
  3
*U4
  1

  0
CIRCLE
  5
3F
  8
1
 10
1947.080629
 20
811.29523
 30
0.0
 40
0.888911
  0
CIRCLE
  5
40
  8
1
 10
1947.080629
 20
840.837317
 30
0.0
 40
0.888911
  0
CIRCLE
  5
41
  8
1
 10
1959.872728
 20
818.680752
 30
0.0
 40
0.888911
  0
CIRCLE
  5
42
  8
1
 10
1959.872728
 20
833.451795
 30
0.0
 40
0.888911
  0
CIRCLE
  5
43
  8
1
 10
1959.872728
 20
848.222838
 30
0.0
 40
0.888911
  0
CIRCLE
  5
44
  8
1
 10
1947.080629
 20
826.066274
 30
0.0
 40
0.888911
  0
ENDBLK
  5
45
  8
0
  0
BLOCK
  5
47
  8
1
  2
*U5
 70
    65
 10
0.0
 20
0.0
 30
0.0
  3
*U5
  1

  0
CIRCLE
  5
48
  8
1
 10
1972.664827
 20
811.29523
 30
0.0
 40
0.888911
  0
CIRCLE
  5
49
  8
1
 10
1972.664827
 20
840.837317
 30
0.0
 40
0.888911
  0
CIRCLE
  5
4A
  8
1
 10
1985.456925
 20
818.680752
 30
0.0
 40
0.888911
  0
CIRCLE
  5
4B
  8
1
 10
1985.456925
 20
833.451795
 30
0.0
 40
0.888911
  0
CIRCLE
  5
4C
  8
1
 10
1985.456925
 20
848.222838
 30
0.0
 40
0.888911
  0
CIRCLE
  5
4D
  8
1
 10
1972.664827
 20
826.066274
 30
0.0
 40
0.888911
  0
ENDBLK
  5
4E
  8
0
  0
BLOCK
  5
50
  8
1
  2
*U6
 70
    65
 10
0.0
 20
0.0
 30
0.0
  3
*U6
  1

  0
CIRCLE
  5
51
  8
1
 10
1998.249024
 20
811.29523
 30
0.0
 40
0.888911
  0
CIRCLE
  5
52
  8
1
 10
1998.249024
 20
840.837317
 30
0.0
 40
0.888911
  0
CIRCLE
  5
53
  8
1
 10
2011.041123
 20
818.680752
 30
0.0
 40
0.888911
  0
CIRCLE
  5
54
  8
1
 10
2011.041123
 20
833.451795
 30
0.0
 40
0.888911
  0
CIRCLE
  5
55
  8
1
 10
2011.041123
 20
848.222838
 30
0.0
 40
0.888911
  0
CIRCLE
  5
56
  8
1
 10
1998.249024
 20
826.066274
 30
0.0
 40
0.888911
  0
ENDBLK
  5
57
  8
0
  0
BLOCK
  5
59
  8
1
  2
*U7
 70
    65
 10
0.0
 20
0.0
 30
0.0
  3
*U7
  1

  0
CIRCLE
  5
5A
  8
1
 10
2023.833221
 20
811.29523
 30
0.0
 40
0.888911
  0
CIRCLE
  5
5B
  8
1
 10
2023.833221
 20
840.837317
 30
0.0
 40
0.888911
  0
CIRCLE
  5
5C
  8
1
 10
2036.62532
 20
818.680752
 30
0.0
 40
0.888911
  0
CIRCLE
  5
5D
  8
1
 10
2036.62532
 20
833.451795
 30
0.0
 40
0.888911
  0
CIRCLE
  5
5E
  8
1
 10
2036.62532
 20
848.222838
 30
0.0
 40
0.888911
  0
CIRCLE
  5
5F
  8
1
 10
2023.833221
 20
826.066274
 30
0.0
 40
0.888911
  0
ENDBLK
  5
60
  8
0
  0
BLOCK
  5
62
  8
1
  2
*U8
 70
    65
 10
0.0
 20
0.0
 30
0.0
  3
*U8
  1

  0
CIRCLE
  5
63
  8
1
 10
2049.417419
 20
811.29523
 30
0.0
 40
0.888911
  0
CIRCLE
  5
64
  8
1
 10
2049.417419
 20
840.837317
 30
0.0
 40
0.888911
  0
CIRCLE
  5
65
  8
1
 10
2062.209518
 20
818.680752
 30
0.0
 40
0.888911
  0
CIRCLE
  5
66
  8
1
 10
2062.209518
 20
833.451795
 30
0.0
 40
0.888911
  0
CIRCLE
  5
67
  8
1
 10
2062.209518
 20
848.222838
 30
0.0
 40
0.888911
  0
CIRCLE
  5
68
  8
1
 10
2049.417419
 20
826.066274
 30
0.0
 40
0.888911
  0
ENDBLK
  5
69
  8
0
  0
BLOCK
  5
6B
  8
1
  2
*U9
 70
    65
 10
0.0
 20
0.0
 30
0.0
  3
*U9
  1

  0
CIRCLE
  5
6C
  8
1
 10
2075.001616
 20
811.29523
 30
0.0
 40
0.888911
  0
CIRCLE
  5
6D
  8
1
 10
2075.001616
 20
840.837317
 30
0.0
 40
0.888911
  0
CIRCLE
  5
6E
  8
1
 10
2087.793715
 20
818.680752
 30
0.0
 40
0.888911
  0
CIRCLE
  5
6F
  8
1
 10
2087.793715
 20
833.451795
 30
0.0
 40
0.888911
  0
CIRCLE
  5
70
  8
1
 10
2087.793715
 20
848.222838
 30
0.0
 40
0.888911
  0
CIRCLE
  5
71
  8
1
 10
2075.001616
 20
826.066274
 30
0.0
 40
0.888911
  0
ENDBLK
  5
72
  8
0
  0
BLOCK
  5
74
  8
1
  2
*U10
 70
    65
 10
0.0
 20
0.0
 30
0.0
  3
*U10
  1

  0
CIRCLE
  5
75
  8
1
 10
2100.585814
 20
811.29523
 30
0.0
 40
0.888911
  0
CIRCLE
  5
76
  8
1
 10
2100.585814
 20
840.837317
 30
0.0
 40
0.888911
  0
CIRCLE
  5
77
  8
1
 10
2113.377912
 20
818.680752
 30
0.0
 40
0.888911
  0
CIRCLE
  5
78
  8
1
 10
2113.377912
 20
833.451795
 30
0.0
 40
0.888911
  0
CIRCLE
  5
79
  8
1
 10
2113.377912
 20
848.222838
 30
0.0
 40
0.888911
  0
CIRCLE
  5
7A
  8
1
 10
2100.585814
 20
826.066274
 30
0.0
 40
0.888911
  0
ENDBLK
  5
7B
  8
0
  0
BLOCK
  5
7D
  8
1
  2
*U11
 70
    65
 10
0.0
 20
0.0
 30
0.0
  3
*U11
  1

  0
CIRCLE
  5
7E
  8
1
 10
2126.170011
 20
811.29523
 30
0.0
 40
0.888911
  0
CIRCLE
  5
7F
  8
1
 10
2126.170011
 20
840.837317
 30
0.0
 40
0.888911
  0
CIRCLE
  5
80
  8
1
 10
2138.96211
 20
818.680752
 30
0.0
 40
0.888911
  0
CIRCLE
  5
81
  8
1
 10
2138.96211
 20
833.451795
 30
0.0
 40
0.888911
  0
CIRCLE
  5
82
  8
1
 10
2138.96211
 20
848.222838
 30
0.0
 40
0.888911
  0
CIRCLE
  5
83
  8
1
 10
2126.170011
 20
826.066274
 30
0.0
 40
0.888911
  0
ENDBLK
  5
84
  8
0
  0
BLOCK
  5
86
  8
1
  2
*U12
 70
    65
 10
0.0
 20
0.0
 30
0.0
  3
*U12
  1

  0
CIRCLE
  5
87
  8
1
 10
2151.754209
 20
811.29523
 30
0.0
 40
0.888911
  0
CIRCLE
  5
88
  8
1
 10
2151.754209
 20
840.837317
 30
0.0
 40
0.888911
  0
CIRCLE
  5
89
  8
1
 10
2164.546307
 20
818.680752
 30
0.0
 40
0.888911
  0
CIRCLE
  5
8A
  8
1
 10
2164.546307
 20
833.451795
 30
0.0
 40
0.888911
  0
CIRCLE
  5
8B
  8
1
 10
2164.546307
 20
848.222838
 30
0.0
 40
0.888911
  0
CIRCLE
  5
8C
  8
1
 10
2151.754209
 20
826.066274
 30
0.0
 40
0.888911
  0
ENDBLK
  5
8D
  8
0
  0
BLOCK
  5
8F
  8
1
  2
*U13
 70
    65
 10
0.0
 20
0.0
 30
0.0
  3
*U13
  1

  0
CIRCLE
  5
90
  8
1
 10
2177.338406
 20
811.29523
 30
0.0
 40
0.888911
  0
CIRCLE
  5
91
  8
1
 10
2177.338406
 20
840.837317
 30
0.0
 40
0.888911
  0
CIRCLE
  5
92
  8
1
 10
2190.130505
 20
818.680752
 30
0.0
 40
0.888911
  0
CIRCLE
  5
93
  8
1
 10
2190.130505
 20
833.451795
 30
0.0
 40
0.888911
  0
CIRCLE
  5
94
  8
1
 10
2190.130505
 20
848.222838
 30
0.0
 40
0.888911
  0
CIRCLE
  5
95
  8
1
 10
2177.338406
 20
826.066274
 30
0.0
 40
0.888911
  0
ENDBLK
  5
96
  8
0
  0
BLOCK
  5
98
  8
1
  2
*U14
 70
    65
 10
0.0
 20
0.0
 30
0.0
  3
*U14
  1

  0
CIRCLE
  5
99
  8
1
 10
2202.922603
 20
811.29523
 30
0.0
 40
0.888911
  0
CIRCLE
  5
9A
  8
1
 10
2202.922603
 20
840.837317
 30
0.0
 40
0.888911
  0
CIRCLE
  5
9B
  8
1
 10
2215.714702
 20
818.680752
 30
0.0
 40
0.888911
  0
CIRCLE
  5
9C
  8
1
 10
2215.714702
 20
833.451795
 30
0.0
 40
0.888911
  0
CIRCLE
  5
9D
  8
1
 10
2215.714702
 20
848.222838
 30
0.0
 40
0.888911
  0
CIRCLE
  5
9E
  8
1
 10
2202.922603
 20
826.066274
 30
0.0
 40
0.888911
  0
ENDBLK
  5
9F
  8
0
  0
BLOCK
  5
A1
  8
1
  2
*U15
 70
    65
 10
0.0
 20
0.0
 30
0.0
  3
*U15
  1

  0
CIRCLE
  5
A2
  8
1
 10
2228.506801
 20
811.29523
 30
0.0
 40
0.888911
  0
CIRCLE
  5
A3
  8
1
 10
2228.506801
 20
840.837317
 30
0.0
 40
0.888911
  0
CIRCLE
  5
A4
  8
1
 10
2241.298899
 20
818.680752
 30
0.0
 40
0.888911
  0
CIRCLE
  5
A5
  8
1
 10
2241.298899
 20
833.451795
 30
0.0
 40
0.888911
  0
CIRCLE
  5
A6
  8
1
 10
2241.298899
 20
848.222838
 30
0.0
 40
0.888911
  0
CIRCLE
  5
A7
  8
1
 10
2228.506801
 20
826.066274
 30
0.0
 40
0.888911
  0
ENDBLK
  5
A8
  8
0
  0
BLOCK
  5
AA
  8
1
  2
*U16
 70
    65
 10
0.0
 20
0.0
 30
0.0
  3
*U16
  1

  0
CIRCLE
  5
AB
  8
1
 10
2254.090998
 20
811.29523
 30
0.0
 40
0.888911
  0
CIRCLE
  5
AC
  8
1
 10
2254.090998
 20
840.837317
 30
0.0
 40
0.888911
  0
CIRCLE
  5
AD
  8
1
 10
2266.883097
 20
818.680752
 30
0.0
 40
0.888911
  0
CIRCLE
  5
AE
  8
1
 10
2266.883097
 20
833.451795
 30
0.0
 40
0.888911
  0
CIRCLE
  5
AF
  8
1
 10
2266.883097
 20
848.222838
 30
0.0
 40
0.888911
  0
CIRCLE
  5
B0
  8
1
 10
2254.090998
 20
826.066274
 30
0.0
 40
0.888911
  0
ENDBLK
  5
B1
  8
0
  0
BLOCK
  5
B3
  8
1
  2
*U17
 70
    65
 10
0.0
 20
0.0
 30
0.0
  3
*U17
  1

  0
CIRCLE
  5
B4
  8
1
 10
2279.675196
 20
811.29523
 30
0.0
 40
0.888911
  0
CIRCLE
  5
B5
  8
1
 10
2279.675196
 20
840.837317
 30
0.0
 40
0.888911
  0
CIRCLE
  5
B6
  8
1
 10
2292.467294
 20
818.680752
 30
0.0
 40
0.888911
  0
CIRCLE
  5
B7
  8
1
 10
2292.467294
 20
833.451795
 30
0.0
 40
0.888911
  0
CIRCLE
  5
B8
  8
1
 10
2292.467294
 20
848.222838
 30
0.0
 40
0.888911
  0
CIRCLE
  5
B9
  8
1
 10
2279.675196
 20
826.066274
 30
0.0
 40
0.888911
  0
ENDBLK
  5
BA
  8
0
  0
BLOCK
  5
BC
  8
1
  2
*U18
 70
    65
 10
0.0
 20
0.0
 30
0.0
  3
*U18
  1

  0
CIRCLE
  5
BD
  8
1
 10
2305.259393
 20
811.29523
 30
0.0
 40
0.888911
  0
CIRCLE
  5
BE
  8
1
 10
2305.259393
 20
840.837317
 30
0.0
 40
0.888911
  0
CIRCLE
  5
BF
  8
1
 10
2318.051492
 20
818.680752
 30
0.0
 40
0.888911
  0
CIRCLE
  5
C0
  8
1
 10
2318.051492
 20
833.451795
 30
0.0
 40
0.888911
  0
CIRCLE
  5
C1
  8
1
 10
2318.051492
 20
848.222838
 30
0.0
 40
0.888911
  0
CIRCLE
  5
C2
  8
1
 10
2305.259393
 20
826.066274
 30
0.0
 40
0.888911
  0
ENDBLK
  5
C3
  8
0
  0
BLOCK
  5
C5
  8
1
  2
*U19
 70
    65
 10
0.0
 20
0.0
 30
0.0
  3
*U19
  1

  0
CIRCLE
  5
C6
  8
1
 10
2330.84359
 20
811.29523
 30
0.0
 40
0.888911
  0
CIRCLE
  5
C7
  8
1
 10
2330.84359
 20
840.837317
 30
0.0
 40
0.888911
  0
CIRCLE
  5
C8
  8
1
 10
2343.635689
 20
818.680752
 30
0.0
 40
0.888911
  0
CIRCLE
  5
C9
  8
1
 10
2343.635689
 20
833.451795
 30
0.0
 40
0.888911
  0
CIRCLE
  5
CA
  8
1
 10
2343.635689
 20
848.222838
 30
0.0
 40
0.888911
  0
CIRCLE
  5
CB
  8
1
 10
2330.84359
 20
826.066274
 30
0.0
 40
0.888911
  0
ENDBLK
  5
CC
  8
0
  0
BLOCK
  5
CE
  8
1
  2
*U20
 70
    65
 10
0.0
 20
0.0
 30
0.0
  3
*U20
  1

  0
CIRCLE
  5
CF
  8
1
 10
2356.427788
 20
811.29523
 30
0.0
 40
0.888911
  0
CIRCLE
  5
D0
  8
1
 10
2356.427788
 20
840.837317
 30
0.0
 40
0.888911
  0
CIRCLE
  5
D1
  8
1
 10
2369.219887
 20
818.680752
 30
0.0
 40
0.888911
  0
CIRCLE
  5
D2
  8
1
 10
2369.219887
 20
833.451795
 30
0.0
 40
0.888911
  0
CIRCLE
  5
D3
  8
1
 10
2369.219887
 20
848.222838
 30
0.0
 40
0.888911
  0
CIRCLE
  5
D4
  8
1
 10
2356.427788
 20
826.066274
 30
0.0
 40
0.888911
  0
ENDBLK
  5
D5
  8
0
  0
BLOCK
  5
D7
  8
1
  2
*U21
 70
    65
 10
0.0
 20
0.0
 30
0.0
  3
*U21
  1

  0
CIRCLE
  5
D8
  8
1
 10
2382.011985
 20
811.29523
 30
0.0
 40
0.888911
  0
CIRCLE
  5
D9
  8
1
 10
2382.011985
 20
840.837317
 30
0.0
 40
0.888911
  0
CIRCLE
  5
DA
  8
1
 10
2394.804084
 20
818.680752
 30
0.0
 40
0.888911
  0
CIRCLE
  5
DB
  8
1
 10
2394.804084
 20
833.451795
 30
0.0
 40
0.888911
  0
CIRCLE
  5
DC
  8
1
 10
2394.804084
 20
848.222838
 30
0.0
 40
0.888911
  0
CIRCLE
  5
DD
  8
1
 10
2382.011985
 20
826.066274
 30
0.0
 40
0.888911
  0
ENDBLK
  5
DE
  8
0
  0
BLOCK
  5
E0
  8
1
  2
*U22
 70
    65
 10
0.0
 20
0.0
 30
0.0
  3
*U22
  1

  0
CIRCLE
  5
E1
  8
1
 10
2407.596183
 20
811.29523
 30
0.0
 40
0.888911
  0
CIRCLE
  5
E2
  8
1
 10
2407.596183
 20
840.837317
 30
0.0
 40
0.888911
  0
CIRCLE
  5
E3
  8
1
 10
2420.388281
 20
818.680752
 30
0.0
 40
0.888911
  0
CIRCLE
  5
E4
  8
1
 10
2420.388281
 20
833.451795
 30
0.0
 40
0.888911
  0
CIRCLE
  5
E5
  8
1
 10
2420.388281
 20
848.222838
 30
0.0
 40
0.888911
  0
CIRCLE
  5
E6
  8
1
 10
2407.596183
 20
826.066274
 30
0.0
 40
0.888911
  0
ENDBLK
  5
E7
  8
0
  0
BLOCK
  5
E9
  8
1
  2
*U23
 70
    65
 10
0.0
 20
0.0
 30
0.0
  3
*U23
  1

  0
CIRCLE
  5
EA
  8
1
 10
2433.18038
 20
811.29523
 30
0.0
 40
0.888911
  0
CIRCLE
  5
EB
  8
1
 10
2433.18038
 20
840.837317
 30
0.0
 40
0.888911
  0
CIRCLE
  5
EC
  8
1
 10
2445.972479
 20
818.680752
 30
0.0
 40
0.888911
  0
CIRCLE
  5
ED
  8
1
 10
2445.972479
 20
833.451795
 30
0.0
 40
0.888911
  0
CIRCLE
  5
EE
  8
1
 10
2445.972479
 20
848.222838
 30
0.0
 40
0.888911
  0
CIRCLE
  5
EF
  8
1
 10
2433.18038
 20
826.066274
 30
0.0
 40
0.888911
  0
ENDBLK
  5
F0
  8
0
  0
BLOCK
  5
F2
  8
1
  2
*U24
 70
    65
 10
0.0
 20
0.0
 30
0.0
  3
*U24
  1

  0
CIRCLE
  5
F3
  8
1
 10
2458.764578
 20
811.29523
 30
0.0
 40
0.888911
  0
CIRCLE
  5
F4
  8
1
 10
2458.764578
 20
840.837317
 30
0.0
 40
0.888911
  0
CIRCLE
  5
F5
  8
1
 10
2471.556676
 20
818.680752
 30
0.0
 40
0.888911
  0
CIRCLE
  5
F6
  8
1
 10
2471.556676
 20
833.451795
 30
0.0
 40
0.888911
  0
CIRCLE
  5
F7
  8
1
 10
2471.556676
 20
848.222838
 30
0.0
 40
0.888911
  0
CIRCLE
  5
F8
  8
1
 10
2458.764578
 20
826.066274
 30
0.0
 40
0.888911
  0
ENDBLK
  5
F9
  8
0
  0
BLOCK
  5
FB
  8
1
  2
*U25
 70
    65
 10
0.0
 20
0.0
 30
0.0
  3
*U25
  1

  0
CIRCLE
  5
FC
  8
1
 10
2484.348775
 20
811.29523
 30
0.0
 40
0.888911
  0
CIRCLE
  5
FD
  8
1
 10
2484.348775
 20
840.837317
 30
0.0
 40
0.888911
  0
CIRCLE
  5
FE
  8
1
 10
2497.140874
 20
818.680752
 30
0.0
 40
0.888911
  0
CIRCLE
  5
FF
  8
1
 10
2497.140874
 20
833.451795
 30
0.0
 40
0.888911
  0
CIRCLE
  5
100
  8
1
 10
2497.140874
 20
848.222838
 30
0.0
 40
0.888911
  0
CIRCLE
  5
101
  8
1
 10
2484.348775
 20
826.066274
 30
0.0
 40
0.888911
  0
ENDBLK
  5
102
  8
0
  0
BLOCK
  5
104
  8
1
  2
*U26
 70
    65
 10
0.0
 20
0.0
 30
0.0
  3
*U26
  1

  0
CIRCLE
  5
105
  8
1
 10
2509.932972
 20
811.29523
 30
0.0
 40
0.888911
  0
CIRCLE
  5
106
  8
1
 10
2509.932972
 20
840.837317
 30
0.0
 40
0.888911
  0
CIRCLE
  5
107
  8
1
 10
2522.725071
 20
818.680752
 30
0.0
 40
0.888911
  0
CIRCLE
  5
108
  8
1
 10
2522.725071
 20
833.451795
 30
0.0
 40
0.888911
  0
CIRCLE
  5
109
  8
1
 10
2522.725071
 20
848.222838
 30
0.0
 40
0.888911
  0
CIRCLE
  5
10A
  8
1
 10
2509.932972
 20
826.066274
 30
0.0
 40
0.888911
  0
ENDBLK
  5
10B
  8
0
  0
BLOCK
  5
10D
  8
1
  2
*U27
 70
    65
 10
0.0
 20
0.0
 30
0.0
  3
*U27
  1

  0
CIRCLE
  5
10E
  8
1
 10
2535.51717
 20
811.29523
 30
0.0
 40
0.888911
  0
CIRCLE
  5
10F
  8
1
 10
2535.51717
 20
840.837317
 30
0.0
 40
0.888911
  0
CIRCLE
  5
110
  8
1
 10
2548.309268
 20
818.680752
 30
0.0
 40
0.888911
  0
CIRCLE
  5
111
  8
1
 10
2548.309268
 20
833.451795
 30
0.0
 40
0.888911
  0
CIRCLE
  5
112
  8
1
 10
2548.309268
 20
848.222838
 30
0.0
 40
0.888911
  0
CIRCLE
  5
113
  8
1
 10
2535.51717
 20
826.066274
 30
0.0
 40
0.888911
  0
ENDBLK
  5
114
  8
0
  0
BLOCK
  5
116
  8
1
  2
*U28
 70
    65
 10
0.0
 20
0.0
 30
0.0
  3
*U28
  1

  0
CIRCLE
  5
117
  8
1
 10
2561.101367
 20
811.29523
 30
0.0
 40
0.888911
  0
CIRCLE
  5
118
  8
1
 10
2561.101367
 20
840.837317
 30
0.0
 40
0.888911
  0
CIRCLE
  5
119
  8
1
 10
2573.893466
 20
818.680752
 30
0.0
 40
0.888911
  0
CIRCLE
  5
11A
  8
1
 10
2573.893466
 20
833.451795
 30
0.0
 40
0.888911
  0
CIRCLE
  5
11B
  8
1
 10
2573.893466
 20
848.222838
 30
0.0
 40
0.888911
  0
CIRCLE
  5
11C
  8
1
 10
2561.101367
 20
826.066274
 30
0.0
 40
0.888911
  0
ENDBLK
  5
11D
  8
0
  0
BLOCK
  5
11F
  8
1
  2
*U29
 70
    65
 10
0.0
 20
0.0
 30
0.0
  3
*U29
  1

  0
CIRCLE
  5
120
  8
1
 10
2612.269762
 20
811.29523
 30
0.0
 40
0.888911
  0
CIRCLE
  5
121
  8
1
 10
2612.269762
 20
840.837317
 30
0.0
 40
0.888911
  0
CIRCLE
  5
122
  8
1
 10
2625.061861
 20
818.680752
 30
0.0
 40
0.888911
  0
CIRCLE
  5
123
  8
1
 10
2625.061861
 20
833.451795
 30
0.0
 40
0.888911
  0
CIRCLE
  5
124
  8
1
 10
2625.061861
 20
848.222838
 30
0.0
 40
0.888911
  0
CIRCLE
  5
125
  8
1
 10
2612.269762
 20
826.066274
 30
0.0
 40
0.888911
  0
ENDBLK
  5
126
  8
0
  0
BLOCK
  5
128
  8
1
  2
*U30
 70
    65
 10
0.0
 20
0.0
 30
0.0
  3
*U30
  1

  0
CIRCLE
  5
129
  8
1
 10
2637.853959
 20
811.29523
 30
0.0
 40
0.888911
  0
CIRCLE
  5
12A
  8
1
 10
2637.853959
 20
840.837317
 30
0.0
 40
0.888911
  0
CIRCLE
  5
12B
  8
1
 10
2650.646058
 20
818.680752
 30
0.0
 40
0.888911
  0
CIRCLE
  5
12C
  8
1
 10
2650.646058
 20
833.451795
 30
0.0
 40
0.888911
  0
CIRCLE
  5
12D
  8
1
 10
2650.646058
 20
848.222838
 30
0.0
 40
0.888911
  0
CIRCLE
  5
12E
  8
1
 10
2637.853959
 20
826.066274
 30
0.0
 40
0.888911
  0
ENDBLK
  5
12F
  8
0
  0
BLOCK
  5
131
  8
1
  2
*U31
 70
    65
 10
0.0
 20
0.0
 30
0.0
  3
*U31
  1

  0
CIRCLE
  5
132
  8
1
 10
2663.438157
 20
811.29523
 30
0.0
 40
0.888911
  0
CIRCLE
  5
133
  8
1
 10
2663.438157
 20
840.837317
 30
0.0
 40
0.888911
  0
CIRCLE
  5
134
  8
1
 10
2676.230256
 20
818.680752
 30
0.0
 40
0.888911
  0
CIRCLE
  5
135
  8
1
 10
2676.230256
 20
833.451795
 30
0.0
 40
0.888911
  0
CIRCLE
  5
136
  8
1
 10
2676.230256
 20
848.222838
 30
0.0
 40
0.888911
  0
CIRCLE
  5
137
  8
1
 10
2663.438157
 20
826.066274
 30
0.0
 40
0.888911
  0
ENDBLK
  5
138
  8
0
  0
BLOCK
  5
13A
  8
1
  2
*U32
 70
    65
 10
0.0
 20
0.0
 30
0.0
  3
*U32
  1

  0
CIRCLE
  5
13B
  8
1
 10
2689.022354
 20
811.29523
 30
0.0
 40
0.888911
  0
CIRCLE
  5
13C
  8
1
 10
2689.022354
 20
840.837317
 30
0.0
 40
0.888911
  0
CIRCLE
  5
13D
  8
1
 10
2701.814453
 20
818.680752
 30
0.0
 40
0.888911
  0
CIRCLE
  5
13E
  8
1
 10
2701.814453
 20
833.451795
 30
0.0
 40
0.888911
  0
CIRCLE
  5
13F
  8
1
 10
2701.814453
 20
848.222838
 30
0.0
 40
0.888911
  0
CIRCLE
  5
140
  8
1
 10
2689.022354
 20
826.066274
 30
0.0
 40
0.888911
  0
ENDBLK
  5
141
  8
0
  0
BLOCK
  5
143
  8
1
  2
*U33
 70
    65
 10
0.0
 20
0.0
 30
0.0
  3
*U33
  1

  0
CIRCLE
  5
144
  8
1
 10
2714.606552
 20
811.29523
 30
0.0
 40
0.888911
  0
CIRCLE
  5
145
  8
1
 10
2714.606552
 20
840.837317
 30
0.0
 40
0.888911
  0
CIRCLE
  5
146
  8
1
 10
2727.39865
 20
818.680752
 30
0.0
 40
0.888911
  0
CIRCLE
  5
147
  8
1
 10
2727.39865
 20
833.451795
 30
0.0
 40
0.888911
  0
CIRCLE
  5
148
  8
1
 10
2727.39865
 20
848.222838
 30
0.0
 40
0.888911
  0
CIRCLE
  5
149
  8
1
 10
2714.606552
 20
826.066274
 30
0.0
 40
0.888911
  0
ENDBLK
  5
14A
  8
0
  0
BLOCK
  5
14C
  8
1
  2
*U34
 70
    65
 10
0.0
 20
0.0
 30
0.0
  3
*U34
  1

  0
CIRCLE
  5
14D
  8
1
 10
2740.190749
 20
811.29523
 30
0.0
 40
0.888911
  0
CIRCLE
  5
14E
  8
1
 10
2740.190749
 20
840.837317
 30
0.0
 40
0.888911
  0
CIRCLE
  5
14F
  8
1
 10
2752.982848
 20
818.680752
 30
0.0
 40
0.888911
  0
CIRCLE
  5
150
  8
1
 10
2752.982848
 20
833.451795
 30
0.0
 40
0.888911
  0
CIRCLE
  5
151
  8
1
 10
2752.982848
 20
848.222838
 30
0.0
 40
0.888911
  0
CIRCLE
  5
152
  8
1
 10
2740.190749
 20
826.066274
 30
0.0
 40
0.888911
  0
ENDBLK
  5
153
  8
0
  0
BLOCK
  5
155
  8
1
  2
*U35
 70
    65
 10
0.0
 20
0.0
 30
0.0
  3
*U35
  1

  0
CIRCLE
  5
156
  8
1
 10
2791.359144
 20
811.29523
 30
0.0
 40
0.888911
  0
CIRCLE
  5
157
  8
1
 10
2791.359144
 20
840.837317
 30
0.0
 40
0.888911
  0
CIRCLE
  5
158
  8
1
 10
2804.151243
 20
818.680752
 30
0.0
 40
0.888911
  0
CIRCLE
  5
159
  8
1
 10
2804.151243
 20
833.451795
 30
0.0
 40
0.888911
  0
CIRCLE
  5
15A
  8
1
 10
2804.151243
 20
848.222838
 30
0.0
 40
0.888911
  0
CIRCLE
  5
15B
  8
1
 10
2791.359144
 20
826.066274
 30
0.0
 40
0.888911
  0
ENDBLK
  5
15C
  8
0
  0
BLOCK
  5
15E
  8
1
  2
*U36
 70
    65
 10
0.0
 20
0.0
 30
0.0
  3
*U36
  1

  0
CIRCLE
  5
15F
  8
1
 10
2816.943341
 20
811.29523
 30
0.0
 40
0.888911
  0
CIRCLE
  5
160
  8
1
 10
2816.943341
 20
840.837317
 30
0.0
 40
0.888911
  0
CIRCLE
  5
161
  8
1
 10
2829.73544
 20
818.680752
 30
0.0
 40
0.888911
  0
CIRCLE
  5
162
  8
1
 10
2829.73544
 20
833.451795
 30
0.0
 40
0.888911
  0
CIRCLE
  5
163
  8
1
 10
2829.73544
 20
848.222838
 30
0.0
 40
0.888911
  0
CIRCLE
  5
164
  8
1
 10
2816.943341
 20
826.066274
 30
0.0
 40
0.888911
  0
ENDBLK
  5
165
  8
0
  0
BLOCK
  5
167
  8
1
  2
*U37
 70
    65
 10
0.0
 20
0.0
 30
0.0
  3
*U37
  1

  0
CIRCLE
  5
168
  8
1
 10
2842.527539
 20
811.29523
 30
0.0
 40
0.888911
  0
CIRCLE
  5
169
  8
1
 10
2842.527539
 20
840.837317
 30
0.0
 40
0.888911
  0
CIRCLE
  5
16A
  8
1
 10
2855.319637
 20
818.680752
 30
0.0
 40
0.888911
  0
CIRCLE
  5
16B
  8
1
 10
2855.319637
 20
833.451795
 30
0.0
 40
0.888911
  0
CIRCLE
  5
16C
  8
1
 10
2855.319637
 20
848.222838
 30
0.0
 40
0.888911
  0
CIRCLE
  5
16D
  8
1
 10
2842.527539
 20
826.066274
 30
0.0
 40
0.888911
  0
ENDBLK
  5
16E
  8
0
  0
BLOCK
  5
170
  8
1
  2
*U38
 70
    65
 10
0.0
 20
0.0
 30
0.0
  3
*U38
  1

  0
CIRCLE
  5
171
  8
1
 10
2868.111736
 20
811.29523
 30
0.0
 40
0.888911
  0
CIRCLE
  5
172
  8
1
 10
2868.111736
 20
840.837317
 30
0.0
 40
0.888911
  0
CIRCLE
  5
173
  8
1
 10
2868.111736
 20
826.066274
 30
0.0
 40
0.888911
  0
ENDBLK
  5
174
  8
0
  0
BLOCK
  5
176
  8
1
  2
*U39
 70
    65
 10
0.0
 20
0.0
 30
0.0
  3
*U39
  1

  0
CIRCLE
  5
177
  8
1
 10
1934.288531
 20
315.670153
 30
0.0
 40
0.888911
  0
CIRCLE
  5
178
  8
1
 10
1934.288531
 20
300.89911
 30
0.0
 40
0.888911
  0
CIRCLE
  5
179
  8
1
 10
1934.288531
 20
286.128066
 30
0.0
 40
0.888911
  0
ENDBLK
  5
17A
  8
0
  0
BLOCK
  5
17C
  8
1
  2
*U40
 70
    65
 10
0.0
 20
0.0
 30
0.0
  3
*U40
  1

  0
CIRCLE
  5
17D
  8
1
 10
1947.080629
 20
323.055675
 30
0.0
 40
0.888911
  0
CIRCLE
  5
17E
  8
1
 10
1947.080629
 20
293.513588
 30
0.0
 40
0.888911
  0
CIRCLE
  5
17F
  8
1
 10
1959.872728
 20
315.670153
 30
0.0
 40
0.888911
  0
CIRCLE
  5
180
  8
1
 10
1959.872728
 20
300.89911
 30
0.0
 40
0.888911
  0
CIRCLE
  5
181
  8
1
 10
1959.872728
 20
286.128066
 30
0.0
 40
0.888911
  0
CIRCLE
  5
182
  8
1
 10
1947.080629
 20
308.284631
 30
0.0
 40
0.888911
  0
ENDBLK
  5
183
  8
0
  0
BLOCK
  5
185
  8
1
  2
*U41
 70
    65
 10
0.0
 20
0.0
 30
0.0
  3
*U41
  1

  0
CIRCLE
  5
186
  8
1
 10
1972.664827
 20
323.055675
 30
0.0
 40
0.888911
  0
CIRCLE
  5
187
  8
1
 10
1972.664827
 20
293.513588
 30
0.0
 40
0.888911
  0
CIRCLE
  5
188
  8
1
 10
1985.456925
 20
315.670153
 30
0.0
 40
0.888911
  0
CIRCLE
  5
189
  8
1
 10
1985.456925
 20
300.89911
 30
0.0
 40
0.888911
  0
CIRCLE
  5
18A
  8
1
 10
1985.456925
 20
286.128066
 30
0.0
 40
0.888911
  0
CIRCLE
  5
18B
  8
1
 10
1972.664827
 20
308.284631
 30
0.0
 40
0.888911
  0
ENDBLK
  5
18C
  8
0
  0
BLOCK
  5
18E
  8
1
  2
*U42
 70
    65
 10
0.0
 20
0.0
 30
0.0
  3
*U42
  1

  0
CIRCLE
  5
18F
  8
1
 10
1998.249024
 20
323.055675
 30
0.0
 40
0.888911
  0
CIRCLE
  5
190
  8
1
 10
1998.249024
 20
293.513588
 30
0.0
 40
0.888911
  0
CIRCLE
  5
191
  8
1
 10
2011.041123
 20
315.670153
 30
0.0
 40
0.888911
  0
CIRCLE
  5
192
  8
1
 10
2011.041123
 20
300.89911
 30
0.0
 40
0.888911
  0
CIRCLE
  5
193
  8
1
 10
2011.041123
 20
286.128066
 30
0.0
 40
0.888911
  0
CIRCLE
  5
194
  8
1
 10
1998.249024
 20
308.284631
 30
0.0
 40
0.888911
  0
ENDBLK
  5
195
  8
0
  0
BLOCK
  5
197
  8
1
  2
*U43
 70
    65
 10
0.0
 20
0.0
 30
0.0
  3
*U43
  1

  0
CIRCLE
  5
198
  8
1
 10
2023.833221
 20
323.055675
 30
0.0
 40
0.888911
  0
CIRCLE
  5
199
  8
1
 10
2023.833221
 20
293.513588
 30
0.0
 40
0.888911
  0
CIRCLE
  5
19A
  8
1
 10
2036.62532
 20
315.670153
 30
0.0
 40
0.888911
  0
CIRCLE
  5
19B
  8
1
 10
2036.62532
 20
300.89911
 30
0.0
 40
0.888911
  0
CIRCLE
  5
19C
  8
1
 10
2036.62532
 20
286.128066
 30
0.0
 40
0.888911
  0
CIRCLE
  5
19D
  8
1
 10
2023.833221
 20
308.284631
 30
0.0
 40
0.888911
  0
ENDBLK
  5
19E
  8
0
  0
BLOCK
  5
1A0
  8
1
  2
*U44
 70
    65
 10
0.0
 20
0.0
 30
0.0
  3
*U44
  1

  0
CIRCLE
  5
1A1
  8
1
 10
2049.417419
 20
323.055675
 30
0.0
 40
0.888911
  0
CIRCLE
  5
1A2
  8
1
 10
2049.417419
 20
293.513588
 30
0.0
 40
0.888911
  0
CIRCLE
  5
1A3
  8
1
 10
2062.209518
 20
315.670153
 30
0.0
 40
0.888911
  0
CIRCLE
  5
1A4
  8
1
 10
2062.209518
 20
300.89911
 30
0.0
 40
0.888911
  0
CIRCLE
  5
1A5
  8
1
 10
2062.209518
 20
286.128066
 30
0.0
 40
0.888911
  0
CIRCLE
  5
1A6
  8
1
 10
2049.417419
 20
308.284631
 30
0.0
 40
0.888911
  0
ENDBLK
  5
1A7
  8
0
  0
BLOCK
  5
1A9
  8
1
  2
*U45
 70
    65
 10
0.0
 20
0.0
 30
0.0
  3
*U45
  1

  0
CIRCLE
  5
1AA
  8
1
 10
2075.001616
 20
323.055675
 30
0.0
 40
0.888911
  0
CIRCLE
  5
1AB
  8
1
 10
2075.001616
 20
293.513588
 30
0.0
 40
0.888911
  0
CIRCLE
  5
1AC
  8
1
 10
2087.793715
 20
315.670153
 30
0.0
 40
0.888911
  0
CIRCLE
  5
1AD
  8
1
 10
2087.793715
 20
300.89911
 30
0.0
 40
0.888911
  0
CIRCLE
  5
1AE
  8
1
 10
2087.793715
 20
286.128066
 30
0.0
 40
0.888911
  0
CIRCLE
  5
1AF
  8
1
 10
2075.001616
 20
308.284631
 30
0.0
 40
0.888911
  0
ENDBLK
  5
1B0
  8
0
  0
BLOCK
  5
1B2
  8
1
  2
*U46
 70
    65
 10
0.0
 20
0.0
 30
0.0
  3
*U46
  1

  0
CIRCLE
  5
1B3
  8
1
 10
2100.585814
 20
323.055675
 30
0.0
 40
0.888911
  0
CIRCLE
  5
1B4
  8
1
 10
2100.585814
 20
293.513588
 30
0.0
 40
0.888911
  0
CIRCLE
  5
1B5
  8
1
 10
2113.377912
 20
315.670153
 30
0.0
 40
0.888911
  0
CIRCLE
  5
1B6
  8
1
 10
2113.377912
 20
300.89911
 30
0.0
 40
0.888911
  0
CIRCLE
  5
1B7
  8
1
 10
2113.377912
 20
286.128066
 30
0.0
 40
0.888911
  0
CIRCLE
  5
1B8
  8
1
 10
2100.585814
 20
308.284631
 30
0.0
 40
0.888911
  0
ENDBLK
  5
1B9
  8
0
  0
BLOCK
  5
1BB
  8
1
  2
*U47
 70
    65
 10
0.0
 20
0.0
 30
0.0
  3
*U47
  1

  0
CIRCLE
  5
1BC
  8
1
 10
2126.170011
 20
323.055675
 30
0.0
 40
0.888911
  0
CIRCLE
  5
1BD
  8
1
 10
2126.170011
 20
293.513588
 30
0.0
 40
0.888911
  0
CIRCLE
  5
1BE
  8
1
 10
2138.96211
 20
315.670153
 30
0.0
 40
0.888911
  0
CIRCLE
  5
1BF
  8
1
 10
2138.96211
 20
300.89911
 30
0.0
 40
0.888911
  0
CIRCLE
  5
1C0
  8
1
 10
2138.96211
 20
286.128066
 30
0.0
 40
0.888911
  0
CIRCLE
  5
1C1
  8
1
 10
2126.170011
 20
308.284631
 30
0.0
 40
0.888911
  0
ENDBLK
  5
1C2
  8
0
  0
BLOCK
  5
1C4
  8
1
  2
*U48
 70
    65
 10
0.0
 20
0.0
 30
0.0
  3
*U48
  1

  0
CIRCLE
  5
1C5
  8
1
 10
2151.754209
 20
323.055675
 30
0.0
 40
0.888911
  0
CIRCLE
  5
1C6
  8
1
 10
2151.754209
 20
293.513588
 30
0.0
 40
0.888911
  0
CIRCLE
  5
1C7
  8
1
 10
2164.546307
 20
315.670153
 30
0.0
 40
0.888911
  0
CIRCLE
  5
1C8
  8
1
 10
2164.546307
 20
300.89911
 30
0.0
 40
0.888911
  0
CIRCLE
  5
1C9
  8
1
 10
2164.546307
 20
286.128066
 30
0.0
 40
0.888911
  0
CIRCLE
  5
1CA
  8
1
 10
2151.754209
 20
308.284631
 30
0.0
 40
0.888911
  0
ENDBLK
  5
1CB
  8
0
  0
BLOCK
  5
1CD
  8
1
  2
*U49
 70
    65
 10
0.0
 20
0.0
 30
0.0
  3
*U49
  1

  0
CIRCLE
  5
1CE
  8
1
 10
2177.338406
 20
323.055675
 30
0.0
 40
0.888911
  0
CIRCLE
  5
1CF
  8
1
 10
2177.338406
 20
293.513588
 30
0.0
 40
0.888911
  0
CIRCLE
  5
1D0
  8
1
 10
2190.130505
 20
315.670153
 30
0.0
 40
0.888911
  0
CIRCLE
  5
1D1
  8
1
 10
2190.130505
 20
300.89911
 30
0.0
 40
0.888911
  0
CIRCLE
  5
1D2
  8
1
 10
2190.130505
 20
286.128066
 30
0.0
 40
0.888911
  0
CIRCLE
  5
1D3
  8
1
 10
2177.338406
 20
308.284631
 30
0.0
 40
0.888911
  0
ENDBLK
  5
1D4
  8
0
  0
BLOCK
  5
1D6
  8
1
  2
*U50
 70
    65
 10
0.0
 20
0.0
 30
0.0
  3
*U50
  1

  0
CIRCLE
  5
1D7
  8
1
 10
2202.922603
 20
323.055675
 30
0.0
 40
0.888911
  0
CIRCLE
  5
1D8
  8
1
 10
2202.922603
 20
293.513588
 30
0.0
 40
0.888911
  0
CIRCLE
  5
1D9
  8
1
 10
2215.714702
 20
315.670153
 30
0.0
 40
0.888911
  0
CIRCLE
  5
1DA
  8
1
 10
2215.714702
 20
300.89911
 30
0.0
 40
0.888911
  0
CIRCLE
  5
1DB
  8
1
 10
2215.714702
 20
286.128066
 30
0.0
 40
0.888911
  0
CIRCLE
  5
1DC
  8
1
 10
2202.922603
 20
308.284631
 30
0.0
 40
0.888911
  0
ENDBLK
  5
1DD
  8
0
  0
BLOCK
  5
1DF
  8
1
  2
*U51
 70
    65
 10
0.0
 20
0.0
 30
0.0
  3
*U51
  1

  0
CIRCLE
  5
1E0
  8
1
 10
2228.506801
 20
323.055675
 30
0.0
 40
0.888911
  0
CIRCLE
  5
1E1
  8
1
 10
2228.506801
 20
293.513588
 30
0.0
 40
0.888911
  0
CIRCLE
  5
1E2
  8
1
 10
2241.298899
 20
315.670153
 30
0.0
 40
0.888911
  0
CIRCLE
  5
1E3
  8
1
 10
2241.298899
 20
300.89911
 30
0.0
 40
0.888911
  0
CIRCLE
  5
1E4
  8
1
 10
2241.298899
 20
286.128066
 30
0.0
 40
0.888911
  0
CIRCLE
  5
1E5
  8
1
 10
2228.506801
 20
308.284631
 30
0.0
 40
0.888911
  0
ENDBLK
  5
1E6
  8
0
  0
BLOCK
  5
1E8
  8
1
  2
*U52
 70
    65
 10
0.0
 20
0.0
 30
0.0
  3
*U52
  1

  0
CIRCLE
  5
1E9
  8
1
 10
2254.090998
 20
323.055675
 30
0.0
 40
0.888911
  0
CIRCLE
  5
1EA
  8
1
 10
2254.090998
 20
293.513588
 30
0.0
 40
0.888911
  0
CIRCLE
  5
1EB
  8
1
 10
2266.883097
 20
315.670153
 30
0.0
 40
0.888911
  0
CIRCLE
  5
1EC
  8
1
 10
2266.883097
 20
300.89911
 30
0.0
 40
0.888911
  0
CIRCLE
  5
1ED
  8
1
 10
2266.883097
 20
286.128066
 30
0.0
 40
0.888911
  0
CIRCLE
  5
1EE
  8
1
 10
2254.090998
 20
308.284631
 30
0.0
 40
0.888911
  0
ENDBLK
  5
1EF
  8
0
  0
BLOCK
  5
1F1
  8
1
  2
*U53
 70
    65
 10
0.0
 20
0.0
 30
0.0
  3
*U53
  1

  0
CIRCLE
  5
1F2
  8
1
 10
2279.675196
 20
323.055675
 30
0.0
 40
0.888911
  0
CIRCLE
  5
1F3
  8
1
 10
2279.675196
 20
293.513588
 30
0.0
 40
0.888911
  0
CIRCLE
  5
1F4
  8
1
 10
2292.467294
 20
315.670153
 30
0.0
 40
0.888911
  0
CIRCLE
  5
1F5
  8
1
 10
2292.467294
 20
300.89911
 30
0.0
 40
0.888911
  0
CIRCLE
  5
1F6
  8
1
 10
2292.467294
 20
286.128066
 30
0.0
 40
0.888911
  0
CIRCLE
  5
1F7
  8
1
 10
2279.675196
 20
308.284631
 30
0.0
 40
0.888911
  0
ENDBLK
  5
1F8
  8
0
  0
BLOCK
  5
1FA
  8
1
  2
*U54
 70
    65
 10
0.0
 20
0.0
 30
0.0
  3
*U54
  1

  0
CIRCLE
  5
1FB
  8
1
 10
2305.259393
 20
323.055675
 30
0.0
 40
0.888911
  0
CIRCLE
  5
1FC
  8
1
 10
2305.259393
 20
293.513588
 30
0.0
 40
0.888911
  0
CIRCLE
  5
1FD
  8
1
 10
2318.051492
 20
315.670153
 30
0.0
 40
0.888911
  0
CIRCLE
  5
1FE
  8
1
 10
2318.051492
 20
300.89911
 30
0.0
 40
0.888911
  0
CIRCLE
  5
1FF
  8
1
 10
2318.051492
 20
286.128066
 30
0.0
 40
0.888911
  0
CIRCLE
  5
200
  8
1
 10
2305.259393
 20
308.284631
 30
0.0
 40
0.888911
  0
ENDBLK
  5
201
  8
0
  0
BLOCK
  5
203
  8
1
  2
*U55
 70
    65
 10
0.0
 20
0.0
 30
0.0
  3
*U55
  1

  0
CIRCLE
  5
204
  8
1
 10
2330.84359
 20
323.055675
 30
0.0
 40
0.888911
  0
CIRCLE
  5
205
  8
1
 10
2330.84359
 20
293.513588
 30
0.0
 40
0.888911
  0
CIRCLE
  5
206
  8
1
 10
2343.635689
 20
315.670153
 30
0.0
 40
0.888911
  0
CIRCLE
  5
207
  8
1
 10
2343.635689
 20
300.89911
 30
0.0
 40
0.888911
  0
CIRCLE
  5
208
  8
1
 10
2343.635689
 20
286.128066
 30
0.0
 40
0.888911
  0
CIRCLE
  5
209
  8
1
 10
2330.84359
 20
308.284631
 30
0.0
 40
0.888911
  0
ENDBLK
  5
20A
  8
0
  0
BLOCK
  5
20C
  8
1
  2
*U56
 70
    65
 10
0.0
 20
0.0
 30
0.0
  3
*U56
  1

  0
CIRCLE
  5
20D
  8
1
 10
2356.427788
 20
323.055675
 30
0.0
 40
0.888911
  0
CIRCLE
  5
20E
  8
1
 10
2356.427788
 20
293.513588
 30
0.0
 40
0.888911
  0
CIRCLE
  5
20F
  8
1
 10
2369.219887
 20
315.670153
 30
0.0
 40
0.888911
  0
CIRCLE
  5
210
  8
1
 10
2369.219887
 20
300.89911
 30
0.0
 40
0.888911
  0
CIRCLE
  5
211
  8
1
 10
2369.219887
 20
286.128066
 30
0.0
 40
0.888911
  0
CIRCLE
  5
212
  8
1
 10
2356.427788
 20
308.284631
 30
0.0
 40
0.888911
  0
ENDBLK
  5
213
  8
0
  0
BLOCK
  5
215
  8
1
  2
*U57
 70
    65
 10
0.0
 20
0.0
 30
0.0
  3
*U57
  1

  0
CIRCLE
  5
216
  8
1
 10
2382.011985
 20
323.055675
 30
0.0
 40
0.888911
  0
CIRCLE
  5
217
  8
1
 10
2382.011985
 20
293.513588
 30
0.0
 40
0.888911
  0
CIRCLE
  5
218
  8
1
 10
2394.804084
 20
315.670153
 30
0.0
 40
0.888911
  0
CIRCLE
  5
219
  8
1
 10
2394.804084
 20
300.89911
 30
0.0
 40
0.888911
  0
CIRCLE
  5
21A
  8
1
 10
2394.804084
 20
286.128066
 30
0.0
 40
0.888911
  0
CIRCLE
  5
21B
  8
1
 10
2382.011985
 20
308.284631
 30
0.0
 40
0.888911
  0
ENDBLK
  5
21C
  8
0
  0
BLOCK
  5
21E
  8
1
  2
*U58
 70
    65
 10
0.0
 20
0.0
 30
0.0
  3
*U58
  1

  0
CIRCLE
  5
21F
  8
1
 10
2407.596183
 20
323.055675
 30
0.0
 40
0.888911
  0
CIRCLE
  5
220
  8
1
 10
2407.596183
 20
293.513588
 30
0.0
 40
0.888911
  0
CIRCLE
  5
221
  8
1
 10
2420.388281
 20
315.670153
 30
0.0
 40
0.888911
  0
CIRCLE
  5
222
  8
1
 10
2420.388281
 20
300.89911
 30
0.0
 40
0.888911
  0
CIRCLE
  5
223
  8
1
 10
2420.388281
 20
286.128066
 30
0.0
 40
0.888911
  0
CIRCLE
  5
224
  8
1
 10
2407.596183
 20
308.284631
 30
0.0
 40
0.888911
  0
ENDBLK
  5
225
  8
0
  0
BLOCK
  5
227
  8
1
  2
*U59
 70
    65
 10
0.0
 20
0.0
 30
0.0
  3
*U59
  1

  0
CIRCLE
  5
228
  8
1
 10
2433.18038
 20
323.055675
 30
0.0
 40
0.888911
  0
CIRCLE
  5
229
  8
1
 10
2433.18038
 20
293.513588
 30
0.0
 40
0.888911
  0
CIRCLE
  5
22A
  8
1
 10
2445.972479
 20
315.670153
 30
0.0
 40
0.888911
  0
CIRCLE
  5
22B
  8
1
 10
2445.972479
 20
300.89911
 30
0.0
 40
0.888911
  0
CIRCLE
  5
22C
  8
1
 10
2445.972479
 20
286.128066
 30
0.0
 40
0.888911
  0
CIRCLE
  5
22D
  8
1
 10
2433.18038
 20
308.284631
 30
0.0
 40
0.888911
  0
ENDBLK
  5
22E
  8
0
  0
BLOCK
  5
230
  8
1
  2
*U60
 70
    65
 10
0.0
 20
0.0
 30
0.0
  3
*U60
  1

  0
CIRCLE
  5
231
  8
1
 10
2458.764578
 20
323.055675
 30
0.0
 40
0.888911
  0
CIRCLE
  5
232
  8
1
 10
2458.764578
 20
293.513588
 30
0.0
 40
0.888911
  0
CIRCLE
  5
233
  8
1
 10
2471.556676
 20
315.670153
 30
0.0
 40
0.888911
  0
CIRCLE
  5
234
  8
1
 10
2471.556676
 20
300.89911
 30
0.0
 40
0.888911
  0
CIRCLE
  5
235
  8
1
 10
2471.556676
 20
286.128066
 30
0.0
 40
0.888911
  0
CIRCLE
  5
236
  8
1
 10
2458.764578
 20
308.284631
 30
0.0
 40
0.888911
  0
ENDBLK
  5
237
  8
0
  0
BLOCK
  5
239
  8
1
  2
*U61
 70
    65
 10
0.0
 20
0.0
 30
0.0
  3
*U61
  1

  0
CIRCLE
  5
23A
  8
1
 10
2484.348775
 20
323.055675
 30
0.0
 40
0.888911
  0
CIRCLE
  5
23B
  8
1
 10
2484.348775
 20
293.513588
 30
0.0
 40
0.888911
  0
CIRCLE
  5
23C
  8
1
 10
2497.140874
 20
315.670153
 30
0.0
 40
0.888911
  0
CIRCLE
  5
23D
  8
1
 10
2497.140874
 20
300.89911
 30
0.0
 40
0.888911
  0
CIRCLE
  5
23E
  8
1
 10
2497.140874
 20
286.128066
 30
0.0
 40
0.888911
  0
CIRCLE
  5
23F
  8
1
 10
2484.348775
 20
308.284631
 30
0.0
 40
0.888911
  0
ENDBLK
  5
240
  8
0
  0
BLOCK
  5
242
  8
1
  2
*U62
 70
    65
 10
0.0
 20
0.0
 30
0.0
  3
*U62
  1

  0
CIRCLE
  5
243
  8
1
 10
2509.932972
 20
323.055675
 30
0.0
 40
0.888911
  0
CIRCLE
  5
244
  8
1
 10
2509.932972
 20
293.513588
 30
0.0
 40
0.888911
  0
CIRCLE
  5
245
  8
1
 10
2522.725071
 20
315.670153
 30
0.0
 40
0.888911
  0
CIRCLE
  5
246
  8
1
 10
2522.725071
 20
300.89911
 30
0.0
 40
0.888911
  0
CIRCLE
  5
247
  8
1
 10
2522.725071
 20
286.128066
 30
0.0
 40
0.888911
  0
CIRCLE
  5
248
  8
1
 10
2509.932972
 20
308.284631
 30
0.0
 40
0.888911
  0
ENDBLK
  5
249
  8
0
  0
BLOCK
  5
24B
  8
1
  2
*U63
 70
    65
 10
0.0
 20
0.0
 30
0.0
  3
*U63
  1

  0
CIRCLE
  5
24C
  8
1
 10
2535.51717
 20
323.055675
 30
0.0
 40
0.888911
  0
CIRCLE
  5
24D
  8
1
 10
2535.51717
 20
293.513588
 30
0.0
 40
0.888911
  0
CIRCLE
  5
24E
  8
1
 10
2548.309268
 20
315.670153
 30
0.0
 40
0.888911
  0
CIRCLE
  5
24F
  8
1
 10
2548.309268
 20
300.89911
 30
0.0
 40
0.888911
  0
CIRCLE
  5
250
  8
1
 10
2548.309268
 20
286.128066
 30
0.0
 40
0.888911
  0
CIRCLE
  5
251
  8
1
 10
2535.51717
 20
308.284631
 30
0.0
 40
0.888911
  0
ENDBLK
  5
252
  8
0
  0
BLOCK
  5
254
  8
1
  2
*U64
 70
    65
 10
0.0
 20
0.0
 30
0.0
  3
*U64
  1

  0
CIRCLE
  5
255
  8
1
 10
2561.101367
 20
323.055675
 30
0.0
 40
0.888911
  0
CIRCLE
  5
256
  8
1
 10
2561.101367
 20
293.513588
 30
0.0
 40
0.888911
  0
CIRCLE
  5
257
  8
1
 10
2573.893466
 20
315.670153
 30
0.0
 40
0.888911
  0
CIRCLE
  5
258
  8
1
 10
2573.893466
 20
300.89911
 30
0.0
 40
0.888911
  0
CIRCLE
  5
259
  8
1
 10
2573.893466
 20
286.128066
 30
0.0
 40
0.888911
  0
CIRCLE
  5
25A
  8
1
 10
2561.101367
 20
308.284631
 30
0.0
 40
0.888911
  0
ENDBLK
  5
25B
  8
0
  0
BLOCK
  5
25D
  8
1
  2
*U65
 70
    65
 10
0.0
 20
0.0
 30
0.0
  3
*U65
  1

  0
CIRCLE
  5
25E
  8
1
 10
2586.685565
 20
323.055675
 30
0.0
 40
0.888911
  0
CIRCLE
  5
25F
  8
1
 10
2586.685565
 20
293.513588
 30
0.0
 40
0.888911
  0
CIRCLE
  5
260
  8
1
 10
2599.477663
 20
315.670153
 30
0.0
 40
0.888911
  0
CIRCLE
  5
261
  8
1
 10
2599.477663
 20
300.89911
 30
0.0
 40
0.888911
  0
CIRCLE
  5
262
  8
1
 10
2599.477663
 20
286.128066
 30
0.0
 40
0.888911
  0
CIRCLE
  5
263
  8
1
 10
2586.685565
 20
308.284631
 30
0.0
 40
0.888911
  0
ENDBLK
  5
264
  8
0
  0
BLOCK
  5
266
  8
1
  2
*U66
 70
    65
 10
0.0
 20
0.0
 30
0.0
  3
*U66
  1

  0
CIRCLE
  5
267
  8
1
 10
2612.269762
 20
323.055675
 30
0.0
 40
0.888911
  0
CIRCLE
  5
268
  8
1
 10
2612.269762
 20
293.513588
 30
0.0
 40
0.888911
  0
CIRCLE
  5
269
  8
1
 10
2625.061861
 20
315.670153
 30
0.0
 40
0.888911
  0
CIRCLE
  5
26A
  8
1
 10
2625.061861
 20
300.89911
 30
0.0
 40
0.888911
  0
CIRCLE
  5
26B
  8
1
 10
2625.061861
 20
286.128066
 30
0.0
 40
0.888911
  0
CIRCLE
  5
26C
  8
1
 10
2612.269762
 20
308.284631
 30
0.0
 40
0.888911
  0
ENDBLK
  5
26D
  8
0
  0
BLOCK
  5
26F
  8
1
  2
*U67
 70
    65
 10
0.0
 20
0.0
 30
0.0
  3
*U67
  1

  0
CIRCLE
  5
270
  8
1
 10
2637.853959
 20
323.055675
 30
0.0
 40
0.888911
  0
CIRCLE
  5
271
  8
1
 10
2637.853959
 20
293.513588
 30
0.0
 40
0.888911
  0
CIRCLE
  5
272
  8
1
 10
2650.646058
 20
315.670153
 30
0.0
 40
0.888911
  0
CIRCLE
  5
273
  8
1
 10
2650.646058
 20
300.89911
 30
0.0
 40
0.888911
  0
CIRCLE
  5
274
  8
1
 10
2650.646058
 20
286.128066
 30
0.0
 40
0.888911
  0
CIRCLE
  5
275
  8
1
 10
2637.853959
 20
308.284631
 30
0.0
 40
0.888911
  0
ENDBLK
  5
276
  8
0
  0
BLOCK
  5
278
  8
1
  2
*U68
 70
    65
 10
0.0
 20
0.0
 30
0.0
  3
*U68
  1

  0
CIRCLE
  5
279
  8
1
 10
2663.438157
 20
323.055675
 30
0.0
 40
0.888911
  0
CIRCLE
  5
27A
  8
1
 10
2663.438157
 20
293.513588
 30
0.0
 40
0.888911
  0
CIRCLE
  5
27B
  8
1
 10
2676.230256
 20
315.670153
 30
0.0
 40
0.888911
  0
CIRCLE
  5
27C
  8
1
 10
2676.230256
 20
300.89911
 30
0.0
 40
0.888911
  0
CIRCLE
  5
27D
  8
1
 10
2676.230256
 20
286.128066
 30
0.0
 40
0.888911
  0
CIRCLE
  5
27E
  8
1
 10
2663.438157
 20
308.284631
 30
0.0
 40
0.888911
  0
ENDBLK
  5
27F
  8
0
  0
BLOCK
  5
281
  8
1
  2
*U69
 70
    65
 10
0.0
 20
0.0
 30
0.0
  3
*U69
  1

  0
CIRCLE
  5
282
  8
1
 10
2689.022354
 20
323.055675
 30
0.0
 40
0.888911
  0
CIRCLE
  5
283
  8
1
 10
2689.022354
 20
293.513588
 30
0.0
 40
0.888911
  0
CIRCLE
  5
284
  8
1
 10
2701.814453
 20
315.670153
 30
0.0
 40
0.888911
  0
CIRCLE
  5
285
  8
1
 10
2701.814453
 20
300.89911
 30
0.0
 40
0.888911
  0
CIRCLE
  5
286
  8
1
 10
2701.814453
 20
286.128066
 30
0.0
 40
0.888911
  0
CIRCLE
  5
287
  8
1
 10
2689.022354
 20
308.284631
 30
0.0
 40
0.888911
  0
ENDBLK
  5
288
  8
0
  0
BLOCK
  5
28A
  8
1
  2
*U70
 70
    65
 10
0.0
 20
0.0
 30
0.0
  3
*U70
  1

  0
CIRCLE
  5
28B
  8
1
 10
2714.606552
 20
323.055675
 30
0.0
 40
0.888911
  0
CIRCLE
  5
28C
  8
1
 10
2714.606552
 20
293.513588
 30
0.0
 40
0.888911
  0
CIRCLE
  5
28D
  8
1
 10
2727.39865
 20
315.670153
 30
0.0
 40
0.888911
  0
CIRCLE
  5
28E
  8
1
 10
2727.39865
 20
300.89911
 30
0.0
 40
0.888911
  0
CIRCLE
  5
28F
  8
1
 10
2727.39865
 20
286.128066
 30
0.0
 40
0.888911
  0
CIRCLE
  5
290
  8
1
 10
2714.606552
 20
308.284631
 30
0.0
 40
0.888911
  0
ENDBLK
  5
291
  8
0
  0
BLOCK
  5
293
  8
1
  2
*U71
 70
    65
 10
0.0
 20
0.0
 30
0.0
  3
*U71
  1

  0
CIRCLE
  5
294
  8
1
 10
2740.190749
 20
323.055675
 30
0.0
 40
0.888911
  0
CIRCLE
  5
295
  8
1
 10
2740.190749
 20
293.513588
 30
0.0
 40
0.888911
  0
CIRCLE
  5
296
  8
1
 10
2752.982848
 20
315.670153
 30
0.0
 40
0.888911
  0
CIRCLE
  5
297
  8
1
 10
2752.982848
 20
300.89911
 30
0.0
 40
0.888911
  0
CIRCLE
  5
298
  8
1
 10
2752.982848
 20
286.128066
 30
0.0
 40
0.888911
  0
CIRCLE
  5
299
  8
1
 10
2740.190749
 20
308.284631
 30
0.0
 40
0.888911
  0
ENDBLK
  5
29A
  8
0
  0
BLOCK
  5
29C
  8
1
  2
*U72
 70
    65
 10
0.0
 20
0.0
 30
0.0
  3
*U72
  1

  0
CIRCLE
  5
29D
  8
1
 10
2765.774946
 20
323.055675
 30
0.0
 40
0.888911
  0
CIRCLE
  5
29E
  8
1
 10
2765.774946
 20
293.513588
 30
0.0
 40
0.888911
  0
CIRCLE
  5
29F
  8
1
 10
2778.567045
 20
315.670153
 30
0.0
 40
0.888911
  0
CIRCLE
  5
2A0
  8
1
 10
2778.567045
 20
300.89911
 30
0.0
 40
0.888911
  0
CIRCLE
  5
2A1
  8
1
 10
2778.567045
 20
286.128066
 30
0.0
 40
0.888911
  0
CIRCLE
  5
2A2
  8
1
 10
2765.774946
 20
308.284631
 30
0.0
 40
0.888911
  0
ENDBLK
  5
2A3
  8
0
  0
BLOCK
  5
2A5
  8
1
  2
*U73
 70
    65
 10
0.0
 20
0.0
 30
0.0
  3
*U73
  1

  0
CIRCLE
  5
2A6
  8
1
 10
2791.359144
 20
323.055675
 30
0.0
 40
0.888911
  0
CIRCLE
  5
2A7
  8
1
 10
2791.359144
 20
293.513588
 30
0.0
 40
0.888911
  0
CIRCLE
  5
2A8
  8
1
 10
2804.151243
 20
315.670153
 30
0.0
 40
0.888911
  0
CIRCLE
  5
2A9
  8
1
 10
2804.151243
 20
300.89911
 30
0.0
 40
0.888911
  0
CIRCLE
  5
2AA
  8
1
 10
2804.151243
 20
286.128066
 30
0.0
 40
0.888911
  0
CIRCLE
  5
2AB
  8
1
 10
2791.359144
 20
308.284631
 30
0.0
 40
0.888911
  0
ENDBLK
  5
2AC
  8
0
  0
BLOCK
  5
2AE
  8
1
  2
*U74
 70
    65
 10
0.0
 20
0.0
 30
0.0
  3
*U74
  1

  0
CIRCLE
  5
2AF
  8
1
 10
2816.943341
 20
323.055675
 30
0.0
 40
0.888911
  0
CIRCLE
  5
2B0
  8
1
 10
2816.943341
 20
293.513588
 30
0.0
 40
0.888911
  0
CIRCLE
  5
2B1
  8
1
 10
2829.73544
 20
315.670153
 30
0.0
 40
0.888911
  0
CIRCLE
  5
2B2
  8
1
 10
2829.73544
 20
300.89911
 30
0.0
 40
0.888911
  0
CIRCLE
  5
2B3
  8
1
 10
2829.73544
 20
286.128066
 30
0.0
 40
0.888911
  0
CIRCLE
  5
2B4
  8
1
 10
2816.943341
 20
308.284631
 30
0.0
 40
0.888911
  0
ENDBLK
  5
2B5
  8
0
  0
BLOCK
  5
2B7
  8
1
  2
*U75
 70
    65
 10
0.0
 20
0.0
 30
0.0
  3
*U75
  1

  0
CIRCLE
  5
2B8
  8
1
 10
2842.527539
 20
323.055675
 30
0.0
 40
0.888911
  0
CIRCLE
  5
2B9
  8
1
 10
2842.527539
 20
293.513588
 30
0.0
 40
0.888911
  0
CIRCLE
  5
2BA
  8
1
 10
2855.319637
 20
315.670153
 30
0.0
 40
0.888911
  0
CIRCLE
  5
2BB
  8
1
 10
2855.319637
 20
300.89911
 30
0.0
 40
0.888911
  0
CIRCLE
  5
2BC
  8
1
 10
2855.319637
 20
286.128066
 30
0.0
 40
0.888911
  0
CIRCLE
  5
2BD
  8
1
 10
2842.527539
 20
308.284631
 30
0.0
 40
0.888911
  0
ENDBLK
  5
2BE
  8
0
  0
BLOCK
  5
2C0
  8
1
  2
*U76
 70
    65
 10
0.0
 20
0.0
 30
0.0
  3
*U76
  1

  0
CIRCLE
  5
2C1
  8
1
 10
2868.111736
 20
323.055675
 30
0.0
 40
0.888911
  0
CIRCLE
  5
2C2
  8
1
 10
2868.111736
 20
293.513588
 30
0.0
 40
0.888911
  0
CIRCLE
  5
2C3
  8
1
 10
2880.903835
 20
315.670153
 30
0.0
 40
0.888911
  0
CIRCLE
  5
2C4
  8
1
 10
2880.903835
 20
300.89911
 30
0.0
 40
0.888911
  0
CIRCLE
  5
2C5
  8
1
 10
2880.903835
 20
286.128066
 30
0.0
 40
0.888911
  0
CIRCLE
  5
2C6
  8
1
 10
2868.111736
 20
308.284631
 30
0.0
 40
0.888911
  0
ENDBLK
  5
2C7
  8
0
  0
BLOCK
  5
2C9
  8
1
  2
*U77
 70
    65
 10
0.0
 20
0.0
 30
0.0
  3
*U77
  1

  0
CIRCLE
  5
2CA
  8
1
 10
2893.695934
 20
323.055675
 30
0.0
 40
0.888911
  0
CIRCLE
  5
2CB
  8
1
 10
2893.695934
 20
293.513588
 30
0.0
 40
0.888911
  0
CIRCLE
  5
2CC
  8
1
 10
2906.488032
 20
315.670153
 30
0.0
 40
0.888911
  0
CIRCLE
  5
2CD
  8
1
 10
2906.488032
 20
300.89911
 30
0.0
 40
0.888911
  0
CIRCLE
  5
2CE
  8
1
 10
2906.488032
 20
286.128066
 30
0.0
 40
0.888911
  0
CIRCLE
  5
2CF
  8
1
 10
2893.695934
 20
308.284631
 30
0.0
 40
0.888911
  0
ENDBLK
  5
2D0
  8
0
  0
BLOCK
  5
2D2
  8
1
  2
*U78
 70
    65
 10
0.0
 20
0.0
 30
0.0
  3
*U78
  1

  0
CIRCLE
  5
2D3
  8
1
 10
2919.280131
 20
323.055675
 30
0.0
 40
0.888911
  0
CIRCLE
  5
2D4
  8
1
 10
2919.280131
 20
293.513588
 30
0.0
 40
0.888911
  0
CIRCLE
  5
2D5
  8
1
 10
2932.07223
 20
315.670153
 30
0.0
 40
0.888911
  0
CIRCLE
  5
2D6
  8
1
 10
2932.07223
 20
300.89911
 30
0.0
 40
0.888911
  0
CIRCLE
  5
2D7
  8
1
 10
2932.07223
 20
286.128066
 30
0.0
 40
0.888911
  0
CIRCLE
  5
2D8
  8
1
 10
2919.280131
 20
308.284631
 30
0.0
 40
0.888911
  0
ENDBLK
  5
2D9
  8
0
  0
BLOCK
  5
2DB
  8
1
  2
*U79
 70
    65
 10
0.0
 20
0.0
 30
0.0
  3
*U79
  1

  0
CIRCLE
  5
2DC
  8
1
 10
2944.864328
 20
323.055675
 30
0.0
 40
0.888911
  0
CIRCLE
  5
2DD
  8
1
 10
2944.864328
 20
293.513588
 30
0.0
 40
0.888911
  0
CIRCLE
  5
2DE
  8
1
 10
2957.656427
 20
315.670153
 30
0.0
 40
0.888911
  0
CIRCLE
  5
2DF
  8
1
 10
2957.656427
 20
300.89911
 30
0.0
 40
0.888911
  0
CIRCLE
  5
2E0
  8
1
 10
2957.656427
 20
286.128066
 30
0.0
 40
0.888911
  0
CIRCLE
  5
2E1
  8
1
 10
2944.864328
 20
308.284631
 30
0.0
 40
0.888911
  0
ENDBLK
  5
2E2
  8
0
  0
BLOCK
  5
2E4
  8
1
  2
*U80
 70
    65
 10
0.0
 20
0.0
 30
0.0
  3
*U80
  1

  0
CIRCLE
  5
2E5
  8
1
 10
2970.448526
 20
323.055675
 30
0.0
 40
0.888911
  0
CIRCLE
  5
2E6
  8
1
 10
2970.448526
 20
293.513588
 30
0.0
 40
0.888911
  0
CIRCLE
  5
2E7
  8
1
 10
2983.240624
 20
315.670153
 30
0.0
 40
0.888911
  0
CIRCLE
  5
2E8
  8
1
 10
2983.240624
 20
300.89911
 30
0.0
 40
0.888911
  0
CIRCLE
  5
2E9
  8
1
 10
2983.240624
 20
286.128066
 30
0.0
 40
0.888911
  0
CIRCLE
  5
2EA
  8
1
 10
2970.448526
 20
308.284631
 30
0.0
 40
0.888911
  0
ENDBLK
  5
2EB
  8
0
  0
BLOCK
  5
2ED
  8
1
  2
*U81
 70
    65
 10
0.0
 20
0.0
 30
0.0
  3
*U81
  1

  0
CIRCLE
  5
2EE
  8
1
 10
2996.032723
 20
323.055675
 30
0.0
 40
0.888911
  0
CIRCLE
  5
2EF
  8
1
 10
2996.032723
 20
293.513588
 30
0.0
 40
0.888911
  0
CIRCLE
  5
2F0
  8
1
 10
3008.824822
 20
315.670153
 30
0.0
 40
0.888911
  0
CIRCLE
  5
2F1
  8
1
 10
3008.824822
 20
300.89911
 30
0.0
 40
0.888911
  0
CIRCLE
  5
2F2
  8
1
 10
3008.824822
 20
286.128066
 30
0.0
 40
0.888911
  0
CIRCLE
  5
2F3
  8
1
 10
2996.032723
 20
308.284631
 30
0.0
 40
0.888911
  0
ENDBLK
  5
2F4
  8
0
  0
BLOCK
  5
2F6
  8
1
  2
*U82
 70
    65
 10
0.0
 20
0.0
 30
0.0
  3
*U82
  1

  0
INSERT
  5
2F7
  8
1
  2
*U39
 10
0.0
 20
0.0
 30
0.0
  0
INSERT
  5
2F8
  8
1
  2
*U40
 10
0.0
 20
0.0
 30
0.0
  0
INSERT
  5
2F9
  8
1
  2
*U41
 10
0.0
 20
0.0
 30
0.0
  0
INSERT
  5
2FA
  8
1
  2
*U42
 10
0.0
 20
0.0
 30
0.0
  0
INSERT
  5
2FB
  8
1
  2
*U43
 10
0.0
 20
0.0
 30
0.0
  0
INSERT
  5
2FC
  8
1
  2
*U44
 10
0.0
 20
0.0
 30
0.0
  0
INSERT
  5
2FD
  8
1
  2
*U45
 10
0.0
 20
0.0
 30
0.0
  0
INSERT
  5
2FE
  8
1
  2
*U46
 10
0.0
 20
0.0
 30
0.0
  0
INSERT
  5
2FF
  8
1
  2
*U47
 10
0.0
 20
0.0
 30
0.0
  0
INSERT
  5
300
  8
1
  2
*U48
 10
0.0
 20
0.0
 30
0.0
  0
INSERT
  5
301
  8
1
  2
*U49
 10
0.0
 20
0.0
 30
0.0
  0
INSERT
  5
302
  8
1
  2
*U50
 10
0.0
 20
0.0
 30
0.0
  0
INSERT
  5
303
  8
1
  2
*U51
 10
0.0
 20
0.0
 30
0.0
  0
INSERT
  5
304
  8
1
  2
*U52
 10
0.0
 20
0.0
 30
0.0
  0
INSERT
  5
305
  8
1
  2
*U53
 10
0.0
 20
0.0
 30
0.0
  0
INSERT
  5
306
  8
1
  2
*U54
 10
0.0
 20
0.0
 30
0.0
  0
INSERT
  5
307
  8
1
  2
*U55
 10
0.0
 20
0.0
 30
0.0
  0
INSERT
  5
308
  8
1
  2
*U56
 10
0.0
 20
0.0
 30
0.0
  0
INSERT
  5
309
  8
1
  2
*U57
 10
0.0
 20
0.0
 30
0.0
  0
INSERT
  5
30A
  8
1
  2
*U58
 10
0.0
 20
0.0
 30
0.0
  0
INSERT
  5
30B
  8
1
  2
*U59
 10
0.0
 20
0.0
 30
0.0
  0
INSERT
  5
30C
  8
1
  2
*U60
 10
0.0
 20
0.0
 30
0.0
  0
INSERT
  5
30D
  8
1
  2
*U61
 10
0.0
 20
0.0
 30
0.0
  0
INSERT
  5
30E
  8
1
  2
*U62
 10
0.0
 20
0.0
 30
0.0
  0
INSERT
  5
30F
  8
1
  2
*U63
 10
0.0
 20
0.0
 30
0.0
  0
INSERT
  5
310
  8
1
  2
*U64
 10
0.0
 20
0.0
 30
0.0
  0
INSERT
  5
311
  8
1
  2
*U65
 10
0.0
 20
0.0
 30
0.0
  0
INSERT
  5
312
  8
1
  2
*U66
 10
0.0
 20
0.0
 30
0.0
  0
INSERT
  5
313
  8
1
  2
*U67
 10
0.0
 20
0.0
 30
0.0
  0
INSERT
  5
314
  8
1
  2
*U68
 10
0.0
 20
0.0
 30
0.0
  0
INSERT
  5
315
  8
1
  2
*U69
 10
0.0
 20
0.0
 30
0.0
  0
INSERT
  5
316
  8
1
  2
*U70
 10
0.0
 20
0.0
 30
0.0
  0
INSERT
  5
317
  8
1
  2
*U71
 10
0.0
 20
0.0
 30
0.0
  0
INSERT
  5
318
  8
1
  2
*U72
 10
0.0
 20
0.0
 30
0.0
  0
INSERT
  5
319
  8
1
  2
*U73
 10
0.0
 20
0.0
 30
0.0
  0
INSERT
  5
31A
  8
1
  2
*U74
 10
0.0
 20
0.0
 30
0.0
  0
INSERT
  5
31B
  8
1
  2
*U75
 10
0.0
 20
0.0
 30
0.0
  0
INSERT
  5
31C
  8
1
  2
*U76
 10
0.0
 20
0.0
 30
0.0
  0
INSERT
  5
31D
  8
1
  2
*U77
 10
0.0
 20
0.0
 30
0.0
  0
INSERT
  5
31E
  8
1
  2
*U78
 10
0.0
 20
0.0
 30
0.0
  0
INSERT
  5
31F
  8
1
  2
*U79
 10
0.0
 20
0.0
 30
0.0
  0
INSERT
  5
320
  8
1
  2
*U80
 10
0.0
 20
0.0
 30
0.0
  0
INSERT
  5
321
  8
1
  2
*U81
 10
0.0
 20
0.0
 30
0.0
  0
ENDBLK
  5
322
  8
0
  0
BLOCK
  5
324
  8
1
  2
*U83
 70
    65
 10
0.0
 20
0.0
 30
0.0
  3
*U83
  1

  0
CIRCLE
  5
325
  8
1
 10
1918.162519
 20
396.300211
 30
0.0
 40
0.888911
  0
CIRCLE
  5
326
  8
1
 10
1918.162519
 20
381.529168
 30
0.0
 40
0.888911
  0
ENDBLK
  5
327
  8
0
  0
BLOCK
  5
329
  8
1
  2
*U84
 70
    65
 10
0.0
 20
0.0
 30
0.0
  3
*U84
  1

  0
CIRCLE
  5
32A
  8
1
 10
1930.954618
 20
403.685733
 30
0.0
 40
0.888911
  0
CIRCLE
  5
32B
  8
1
 10
1930.954618
 20
374.143646
 30
0.0
 40
0.888911
  0
CIRCLE
  5
32C
  8
1
 10
1943.746716
 20
396.300211
 30
0.0
 40
0.888911
  0
CIRCLE
  5
32D
  8
1
 10
1943.746716
 20
381.529168
 30
0.0
 40
0.888911
  0
CIRCLE
  5
32E
  8
1
 10
1930.954618
 20
388.914689
 30
0.0
 40
0.888911
  0
ENDBLK
  5
32F
  8
0
  0
BLOCK
  5
331
  8
1
  2
*U85
 70
    65
 10
0.0
 20
0.0
 30
0.0
  3
*U85
  1

  0
CIRCLE
  5
332
  8
1
 10
1956.538815
 20
403.685733
 30
0.0
 40
0.888911
  0
CIRCLE
  5
333
  8
1
 10
1956.538815
 20
374.143646
 30
0.0
 40
0.888911
  0
CIRCLE
  5
334
  8
1
 10
1969.330914
 20
396.300211
 30
0.0
 40
0.888911
  0
CIRCLE
  5
335
  8
1
 10
1969.330914
 20
381.529168
 30
0.0
 40
0.888911
  0
CIRCLE
  5
336
  8
1
 10
1956.538815
 20
388.914689
 30
0.0
 40
0.888911
  0
ENDBLK
  5
337
  8
0
  0
BLOCK
  5
339
  8
1
  2
*U86
 70
    65
 10
0.0
 20
0.0
 30
0.0
  3
*U86
  1

  0
CIRCLE
  5
33A
  8
1
 10
1982.123012
 20
403.685733
 30
0.0
 40
0.888911
  0
CIRCLE
  5
33B
  8
1
 10
1982.123012
 20
374.143646
 30
0.0
 40
0.888911
  0
CIRCLE
  5
33C
  8
1
 10
1994.915111
 20
396.300211
 30
0.0
 40
0.888911
  0
CIRCLE
  5
33D
  8
1
 10
1994.915111
 20
381.529168
 30
0.0
 40
0.888911
  0
CIRCLE
  5
33E
  8
1
 10
1982.123012
 20
388.914689
 30
0.0
 40
0.888911
  0
ENDBLK
  5
33F
  8
0
  0
BLOCK
  5
341
  8
1
  2
*U87
 70
    65
 10
0.0
 20
0.0
 30
0.0
  3
*U87
  1

  0
CIRCLE
  5
342
  8
1
 10
2007.70721
 20
403.685733
 30
0.0
 40
0.888911
  0
CIRCLE
  5
343
  8
1
 10
2007.70721
 20
374.143646
 30
0.0
 40
0.888911
  0
CIRCLE
  5
344
  8
1
 10
2020.499309
 20
396.300211
 30
0.0
 40
0.888911
  0
CIRCLE
  5
345
  8
1
 10
2020.499309
 20
381.529168
 30
0.0
 40
0.888911
  0
CIRCLE
  5
346
  8
1
 10
2007.70721
 20
388.914689
 30
0.0
 40
0.888911
  0
ENDBLK
  5
347
  8
0
  0
BLOCK
  5
349
  8
1
  2
*U88
 70
    65
 10
0.0
 20
0.0
 30
0.0
  3
*U88
  1

  0
CIRCLE
  5
34A
  8
1
 10
2033.291407
 20
403.685733
 30
0.0
 40
0.888911
  0
CIRCLE
  5
34B
  8
1
 10
2033.291407
 20
374.143646
 30
0.0
 40
0.888911
  0
CIRCLE
  5
34C
  8
1
 10
2046.083506
 20
396.300211
 30
0.0
 40
0.888911
  0
CIRCLE
  5
34D
  8
1
 10
2046.083506
 20
381.529168
 30
0.0
 40
0.888911
  0
CIRCLE
  5
34E
  8
1
 10
2033.291407
 20
388.914689
 30
0.0
 40
0.888911
  0
ENDBLK
  5
34F
  8
0
  0
BLOCK
  5
351
  8
1
  2
*U89
 70
    65
 10
0.0
 20
0.0
 30
0.0
  3
*U89
  1

  0
CIRCLE
  5
352
  8
1
 10
2058.875605
 20
403.685733
 30
0.0
 40
0.888911
  0
CIRCLE
  5
353
  8
1
 10
2058.875605
 20
374.143646
 30
0.0
 40
0.888911
  0
CIRCLE
  5
354
  8
1
 10
2071.667703
 20
396.300211
 30
0.0
 40
0.888911
  0
CIRCLE
  5
355
  8
1
 10
2071.667703
 20
381.529168
 30
0.0
 40
0.888911
  0
CIRCLE
  5
356
  8
1
 10
2058.875605
 20
388.914689
 30
0.0
 40
0.888911
  0
ENDBLK
  5
357
  8
0
  0
BLOCK
  5
359
  8
1
  2
*U90
 70
    65
 10
0.0
 20
0.0
 30
0.0
  3
*U90
  1

  0
CIRCLE
  5
35A
  8
1
 10
2084.459802
 20
403.685733
 30
0.0
 40
0.888911
  0
CIRCLE
  5
35B
  8
1
 10
2084.459802
 20
374.143646
 30
0.0
 40
0.888911
  0
CIRCLE
  5
35C
  8
1
 10
2097.251901
 20
396.300211
 30
0.0
 40
0.888911
  0
CIRCLE
  5
35D
  8
1
 10
2097.251901
 20
381.529168
 30
0.0
 40
0.888911
  0
CIRCLE
  5
35E
  8
1
 10
2084.459802
 20
388.914689
 30
0.0
 40
0.888911
  0
ENDBLK
  5
35F
  8
0
  0
BLOCK
  5
361
  8
1
  2
*U91
 70
    65
 10
0.0
 20
0.0
 30
0.0
  3
*U91
  1

  0
CIRCLE
  5
362
  8
1
 10
2110.044
 20
403.685733
 30
0.0
 40
0.888911
  0
CIRCLE
  5
363
  8
1
 10
2110.044
 20
374.143646
 30
0.0
 40
0.888911
  0
CIRCLE
  5
364
  8
1
 10
2122.836098
 20
396.300211
 30
0.0
 40
0.888911
  0
CIRCLE
  5
365
  8
1
 10
2122.836098
 20
381.529168
 30
0.0
 40
0.888911
  0
CIRCLE
  5
366
  8
1
 10
2110.044
 20
388.914689
 30
0.0
 40
0.888911
  0
ENDBLK
  5
367
  8
0
  0
BLOCK
  5
369
  8
1
  2
*U92
 70
    65
 10
0.0
 20
0.0
 30
0.0
  3
*U92
  1

  0
CIRCLE
  5
36A
  8
1
 10
2135.628197
 20
403.685733
 30
0.0
 40
0.888911
  0
CIRCLE
  5
36B
  8
1
 10
2135.628197
 20
374.143646
 30
0.0
 40
0.888911
  0
CIRCLE
  5
36C
  8
1
 10
2148.420296
 20
396.300211
 30
0.0
 40
0.888911
  0
CIRCLE
  5
36D
  8
1
 10
2148.420296
 20
381.529168
 30
0.0
 40
0.888911
  0
CIRCLE
  5
36E
  8
1
 10
2135.628197
 20
388.914689
 30
0.0
 40
0.888911
  0
ENDBLK
  5
36F
  8
0
  0
BLOCK
  5
371
  8
1
  2
*U93
 70
    65
 10
0.0
 20
0.0
 30
0.0
  3
*U93
  1

  0
CIRCLE
  5
372
  8
1
 10
2161.212394
 20
403.685733
 30
0.0
 40
0.888911
  0
CIRCLE
  5
373
  8
1
 10
2161.212394
 20
374.143646
 30
0.0
 40
0.888911
  0
CIRCLE
  5
374
  8
1
 10
2174.004493
 20
396.300211
 30
0.0
 40
0.888911
  0
CIRCLE
  5
375
  8
1
 10
2174.004493
 20
381.529168
 30
0.0
 40
0.888911
  0
CIRCLE
  5
376
  8
1
 10
2161.212394
 20
388.914689
 30
0.0
 40
0.888911
  0
ENDBLK
  5
377
  8
0
  0
BLOCK
  5
379
  8
1
  2
*U94
 70
    65
 10
0.0
 20
0.0
 30
0.0
  3
*U94
  1

  0
CIRCLE
  5
37A
  8
1
 10
2186.796592
 20
403.685733
 30
0.0
 40
0.888911
  0
CIRCLE
  5
37B
  8
1
 10
2186.796592
 20
374.143646
 30
0.0
 40
0.888911
  0
CIRCLE
  5
37C
  8
1
 10
2199.58869
 20
396.300211
 30
0.0
 40
0.888911
  0
CIRCLE
  5
37D
  8
1
 10
2199.58869
 20
381.529168
 30
0.0
 40
0.888911
  0
CIRCLE
  5
37E
  8
1
 10
2186.796592
 20
388.914689
 30
0.0
 40
0.888911
  0
ENDBLK
  5
37F
  8
0
  0
BLOCK
  5
381
  8
1
  2
*U95
 70
    65
 10
0.0
 20
0.0
 30
0.0
  3
*U95
  1

  0
CIRCLE
  5
382
  8
1
 10
2212.380789
 20
403.685733
 30
0.0
 40
0.888911
  0
CIRCLE
  5
383
  8
1
 10
2212.380789
 20
374.143646
 30
0.0
 40
0.888911
  0
CIRCLE
  5
384
  8
1
 10
2225.172888
 20
396.300211
 30
0.0
 40
0.888911
  0
CIRCLE
  5
385
  8
1
 10
2225.172888
 20
381.529168
 30
0.0
 40
0.888911
  0
CIRCLE
  5
386
  8
1
 10
2212.380789
 20
388.914689
 30
0.0
 40
0.888911
  0
ENDBLK
  5
387
  8
0
  0
BLOCK
  5
389
  8
1
  2
*U96
 70
    65
 10
0.0
 20
0.0
 30
0.0
  3
*U96
  1

  0
CIRCLE
  5
38A
  8
1
 10
2237.964987
 20
403.685733
 30
0.0
 40
0.888911
  0
CIRCLE
  5
38B
  8
1
 10
2237.964987
 20
374.143646
 30
0.0
 40
0.888911
  0
CIRCLE
  5
38C
  8
1
 10
2250.757085
 20
396.300211
 30
0.0
 40
0.888911
  0
CIRCLE
  5
38D
  8
1
 10
2250.757085
 20
381.529168
 30
0.0
 40
0.888911
  0
CIRCLE
  5
38E
  8
1
 10
2237.964987
 20
388.914689
 30
0.0
 40
0.888911
  0
ENDBLK
  5
38F
  8
0
  0
BLOCK
  5
391
  8
1
  2
*U97
 70
    65
 10
0.0
 20
0.0
 30
0.0
  3
*U97
  1

  0
CIRCLE
  5
392
  8
1
 10
2263.549184
 20
403.685733
 30
0.0
 40
0.888911
  0
CIRCLE
  5
393
  8
1
 10
2263.549184
 20
374.143646
 30
0.0
 40
0.888911
  0
CIRCLE
  5
394
  8
1
 10
2276.341283
 20
396.300211
 30
0.0
 40
0.888911
  0
CIRCLE
  5
395
  8
1
 10
2276.341283
 20
381.529168
 30
0.0
 40
0.888911
  0
CIRCLE
  5
396
  8
1
 10
2263.549184
 20
388.914689
 30
0.0
 40
0.888911
  0
ENDBLK
  5
397
  8
0
  0
BLOCK
  5
399
  8
1
  2
*U98
 70
    65
 10
0.0
 20
0.0
 30
0.0
  3
*U98
  1

  0
CIRCLE
  5
39A
  8
1
 10
2289.133381
 20
403.685733
 30
0.0
 40
0.888911
  0
CIRCLE
  5
39B
  8
1
 10
2289.133381
 20
374.143646
 30
0.0
 40
0.888911
  0
CIRCLE
  5
39C
  8
1
 10
2301.92548
 20
396.300211
 30
0.0
 40
0.888911
  0
CIRCLE
  5
39D
  8
1
 10
2301.92548
 20
381.529168
 30
0.0
 40
0.888911
  0
CIRCLE
  5
39E
  8
1
 10
2289.133381
 20
388.914689
 30
0.0
 40
0.888911
  0
ENDBLK
  5
39F
  8
0
  0
BLOCK
  5
3A1
  8
1
  2
*U99
 70
    65
 10
0.0
 20
0.0
 30
0.0
  3
*U99
  1

  0
CIRCLE
  5
3A2
  8
1
 10
2314.717579
 20
403.685733
 30
0.0
 40
0.888911
  0
CIRCLE
  5
3A3
  8
1
 10
2314.717579
 20
374.143646
 30
0.0
 40
0.888911
  0
CIRCLE
  5
3A4
  8
1
 10
2327.509678
 20
396.300211
 30
0.0
 40
0.888911
  0
CIRCLE
  5
3A5
  8
1
 10
2327.509678
 20
381.529168
 30
0.0
 40
0.888911
  0
CIRCLE
  5
3A6
  8
1
 10
2314.717579
 20
388.914689
 30
0.0
 40
0.888911
  0
ENDBLK
  5
3A7
  8
0
  0
BLOCK
  5
3A9
  8
1
  2
*U100
 70
    65
 10
0.0
 20
0.0
 30
0.0
  3
*U100
  1

  0
CIRCLE
  5
3AA
  8
1
 10
2340.301776
 20
403.685733
 30
0.0
 40
0.888911
  0
CIRCLE
  5
3AB
  8
1
 10
2340.301776
 20
374.143646
 30
0.0
 40
0.888911
  0
CIRCLE
  5
3AC
  8
1
 10
2353.093875
 20
396.300211
 30
0.0
 40
0.888911
  0
CIRCLE
  5
3AD
  8
1
 10
2353.093875
 20
381.529168
 30
0.0
 40
0.888911
  0
CIRCLE
  5
3AE
  8
1
 10
2340.301776
 20
388.914689
 30
0.0
 40
0.888911
  0
ENDBLK
  5
3AF
  8
0
  0
BLOCK
  5
3B1
  8
1
  2
*U101
 70
    65
 10
0.0
 20
0.0
 30
0.0
  3
*U101
  1

  0
CIRCLE
  5
3B2
  8
1
 10
2365.885974
 20
403.685733
 30
0.0
 40
0.888911
  0
CIRCLE
  5
3B3
  8
1
 10
2365.885974
 20
374.143646
 30
0.0
 40
0.888911
  0
CIRCLE
  5
3B4
  8
1
 10
2378.678072
 20
396.300211
 30
0.0
 40
0.888911
  0
CIRCLE
  5
3B5
  8
1
 10
2378.678072
 20
381.529168
 30
0.0
 40
0.888911
  0
CIRCLE
  5
3B6
  8
1
 10
2365.885974
 20
388.914689
 30
0.0
 40
0.888911
  0
ENDBLK
  5
3B7
  8
0
  0
BLOCK
  5
3B9
  8
1
  2
*U102
 70
    65
 10
0.0
 20
0.0
 30
0.0
  3
*U102
  1

  0
CIRCLE
  5
3BA
  8
1
 10
2391.470171
 20
403.685733
 30
0.0
 40
0.888911
  0
CIRCLE
  5
3BB
  8
1
 10
2391.470171
 20
374.143646
 30
0.0
 40
0.888911
  0
CIRCLE
  5
3BC
  8
1
 10
2404.26227
 20
396.300211
 30
0.0
 40
0.888911
  0
CIRCLE
  5
3BD
  8
1
 10
2404.26227
 20
381.529168
 30
0.0
 40
0.888911
  0
CIRCLE
  5
3BE
  8
1
 10
2391.470171
 20
388.914689
 30
0.0
 40
0.888911
  0
ENDBLK
  5
3BF
  8
0
  0
BLOCK
  5
3C1
  8
1
  2
*U103
 70
    65
 10
0.0
 20
0.0
 30
0.0
  3
*U103
  1

  0
CIRCLE
  5
3C2
  8
1
 10
2417.054368
 20
403.685733
 30
0.0
 40
0.888911
  0
CIRCLE
  5
3C3
  8
1
 10
2417.054368
 20
374.143646
 30
0.0
 40
0.888911
  0
CIRCLE
  5
3C4
  8
1
 10
2429.846467
 20
396.300211
 30
0.0
 40
0.888911
  0
CIRCLE
  5
3C5
  8
1
 10
2429.846467
 20
381.529168
 30
0.0
 40
0.888911
  0
CIRCLE
  5
3C6
  8
1
 10
2417.054368
 20
388.914689
 30
0.0
 40
0.888911
  0
ENDBLK
  5
3C7
  8
0
  0
BLOCK
  5
3C9
  8
1
  2
*U104
 70
    65
 10
0.0
 20
0.0
 30
0.0
  3
*U104
  1

  0
CIRCLE
  5
3CA
  8
1
 10
2442.638566
 20
403.685733
 30
0.0
 40
0.888911
  0
CIRCLE
  5
3CB
  8
1
 10
2442.638566
 20
374.143646
 30
0.0
 40
0.888911
  0
CIRCLE
  5
3CC
  8
1
 10
2455.430665
 20
396.300211
 30
0.0
 40
0.888911
  0
CIRCLE
  5
3CD
  8
1
 10
2455.430665
 20
381.529168
 30
0.0
 40
0.888911
  0
CIRCLE
  5
3CE
  8
1
 10
2442.638566
 20
388.914689
 30
0.0
 40
0.888911
  0
ENDBLK
  5
3CF
  8
0
  0
BLOCK
  5
3D1
  8
1
  2
*U105
 70
    65
 10
0.0
 20
0.0
 30
0.0
  3
*U105
  1

  0
CIRCLE
  5
3D2
  8
1
 10
2468.222763
 20
403.685733
 30
0.0
 40
0.888911
  0
CIRCLE
  5
3D3
  8
1
 10
2468.222763
 20
374.143646
 30
0.0
 40
0.888911
  0
CIRCLE
  5
3D4
  8
1
 10
2481.014862
 20
396.300211
 30
0.0
 40
0.888911
  0
CIRCLE
  5
3D5
  8
1
 10
2481.014862
 20
381.529168
 30
0.0
 40
0.888911
  0
CIRCLE
  5
3D6
  8
1
 10
2468.222763
 20
388.914689
 30
0.0
 40
0.888911
  0
ENDBLK
  5
3D7
  8
0
  0
BLOCK
  5
3D9
  8
1
  2
*U106
 70
    65
 10
0.0
 20
0.0
 30
0.0
  3
*U106
  1

  0
CIRCLE
  5
3DA
  8
1
 10
2493.806961
 20
403.685733
 30
0.0
 40
0.888911
  0
CIRCLE
  5
3DB
  8
1
 10
2493.806961
 20
374.143646
 30
0.0
 40
0.888911
  0
CIRCLE
  5
3DC
  8
1
 10
2506.599059
 20
396.300211
 30
0.0
 40
0.888911
  0
CIRCLE
  5
3DD
  8
1
 10
2506.599059
 20
381.529168
 30
0.0
 40
0.888911
  0
CIRCLE
  5
3DE
  8
1
 10
2493.806961
 20
388.914689
 30
0.0
 40
0.888911
  0
ENDBLK
  5
3DF
  8
0
  0
BLOCK
  5
3E1
  8
1
  2
*U107
 70
    65
 10
0.0
 20
0.0
 30
0.0
  3
*U107
  1

  0
CIRCLE
  5
3E2
  8
1
 10
2519.391158
 20
403.685733
 30
0.0
 40
0.888911
  0
CIRCLE
  5
3E3
  8
1
 10
2519.391158
 20
374.143646
 30
0.0
 40
0.888911
  0
CIRCLE
  5
3E4
  8
1
 10
2532.183257
 20
396.300211
 30
0.0
 40
0.888911
  0
CIRCLE
  5
3E5
  8
1
 10
2532.183257
 20
381.529168
 30
0.0
 40
0.888911
  0
CIRCLE
  5
3E6
  8
1
 10
2519.391158
 20
388.914689
 30
0.0
 40
0.888911
  0
ENDBLK
  5
3E7
  8
0
  0
BLOCK
  5
3E9
  8
1
  2
*U108
 70
    65
 10
0.0
 20
0.0
 30
0.0
  3
*U108
  1

  0
CIRCLE
  5
3EA
  8
1
 10
2544.975356
 20
403.685733
 30
0.0
 40
0.888911
  0
CIRCLE
  5
3EB
  8
1
 10
2544.975356
 20
374.143646
 30
0.0
 40
0.888911
  0
CIRCLE
  5
3EC
  8
1
 10
2557.767454
 20
396.300211
 30
0.0
 40
0.888911
  0
CIRCLE
  5
3ED
  8
1
 10
2557.767454
 20
381.529168
 30
0.0
 40
0.888911
  0
CIRCLE
  5
3EE
  8
1
 10
2544.975356
 20
388.914689
 30
0.0
 40
0.888911
  0
ENDBLK
  5
3EF
  8
0
  0
BLOCK
  5
3F1
  8
1
  2
*U109
 70
    65
 10
0.0
 20
0.0
 30
0.0
  3
*U109
  1

  0
CIRCLE
  5
3F2
  8
1
 10
2570.559553
 20
403.685733
 30
0.0
 40
0.888911
  0
CIRCLE
  5
3F3
  8
1
 10
2570.559553
 20
374.143646
 30
0.0
 40
0.888911
  0
CIRCLE
  5
3F4
  8
1
 10
2583.351652
 20
396.300211
 30
0.0
 40
0.888911
  0
CIRCLE
  5
3F5
  8
1
 10
2583.351652
 20
381.529168
 30
0.0
 40
0.888911
  0
CIRCLE
  5
3F6
  8
1
 10
2570.559553
 20
388.914689
 30
0.0
 40
0.888911
  0
ENDBLK
  5
3F7
  8
0
  0
BLOCK
  5
3F9
  8
1
  2
*U110
 70
    65
 10
0.0
 20
0.0
 30
0.0
  3
*U110
  1

  0
CIRCLE
  5
3FA
  8
1
 10
2596.14375
 20
403.685733
 30
0.0
 40
0.888911
  0
CIRCLE
  5
3FB
  8
1
 10
2596.14375
 20
374.143646
 30
0.0
 40
0.888911
  0
CIRCLE
  5
3FC
  8
1
 10
2608.935849
 20
396.300211
 30
0.0
 40
0.888911
  0
CIRCLE
  5
3FD
  8
1
 10
2608.935849
 20
381.529168
 30
0.0
 40
0.888911
  0
CIRCLE
  5
3FE
  8
1
 10
2596.14375
 20
388.914689
 30
0.0
 40
0.888911
  0
ENDBLK
  5
3FF
  8
0
  0
BLOCK
  5
401
  8
1
  2
*U111
 70
    65
 10
0.0
 20
0.0
 30
0.0
  3
*U111
  1

  0
CIRCLE
  5
402
  8
1
 10
2621.727948
 20
403.685733
 30
0.0
 40
0.888911
  0
CIRCLE
  5
403
  8
1
 10
2621.727948
 20
374.143646
 30
0.0
 40
0.888911
  0
CIRCLE
  5
404
  8
1
 10
2634.520046
 20
396.300211
 30
0.0
 40
0.888911
  0
CIRCLE
  5
405
  8
1
 10
2634.520046
 20
381.529168
 30
0.0
 40
0.888911
  0
CIRCLE
  5
406
  8
1
 10
2621.727948
 20
388.914689
 30
0.0
 40
0.888911
  0
ENDBLK
  5
407
  8
0
  0
BLOCK
  5
409
  8
1
  2
*U112
 70
    65
 10
0.0
 20
0.0
 30
0.0
  3
*U112
  1

  0
CIRCLE
  5
40A
  8
1
 10
2647.312145
 20
403.685733
 30
0.0
 40
0.888911
  0
CIRCLE
  5
40B
  8
1
 10
2647.312145
 20
374.143646
 30
0.0
 40
0.888911
  0
CIRCLE
  5
40C
  8
1
 10
2660.104244
 20
396.300211
 30
0.0
 40
0.888911
  0
CIRCLE
  5
40D
  8
1
 10
2660.104244
 20
381.529168
 30
0.0
 40
0.888911
  0
CIRCLE
  5
40E
  8
1
 10
2647.312145
 20
388.914689
 30
0.0
 40
0.888911
  0
ENDBLK
  5
40F
  8
0
  0
BLOCK
  5
411
  8
1
  2
*U113
 70
    65
 10
0.0
 20
0.0
 30
0.0
  3
*U113
  1

  0
CIRCLE
  5
412
  8
1
 10
2672.896343
 20
403.685733
 30
0.0
 40
0.888911
  0
CIRCLE
  5
413
  8
1
 10
2672.896343
 20
374.143646
 30
0.0
 40
0.888911
  0
CIRCLE
  5
414
  8
1
 10
2685.688441
 20
396.300211
 30
0.0
 40
0.888911
  0
CIRCLE
  5
415
  8
1
 10
2685.688441
 20
381.529168
 30
0.0
 40
0.888911
  0
CIRCLE
  5
416
  8
1
 10
2672.896343
 20
388.914689
 30
0.0
 40
0.888911
  0
ENDBLK
  5
417
  8
0
  0
BLOCK
  5
419
  8
1
  2
*U114
 70
    65
 10
0.0
 20
0.0
 30
0.0
  3
*U114
  1

  0
CIRCLE
  5
41A
  8
1
 10
2698.48054
 20
403.685733
 30
0.0
 40
0.888911
  0
CIRCLE
  5
41B
  8
1
 10
2698.48054
 20
374.143646
 30
0.0
 40
0.888911
  0
CIRCLE
  5
41C
  8
1
 10
2711.272639
 20
396.300211
 30
0.0
 40
0.888911
  0
CIRCLE
  5
41D
  8
1
 10
2711.272639
 20
381.529168
 30
0.0
 40
0.888911
  0
CIRCLE
  5
41E
  8
1
 10
2698.48054
 20
388.914689
 30
0.0
 40
0.888911
  0
ENDBLK
  5
41F
  8
0
  0
BLOCK
  5
421
  8
1
  2
*U115
 70
    65
 10
0.0
 20
0.0
 30
0.0
  3
*U115
  1

  0
CIRCLE
  5
422
  8
1
 10
2724.064737
 20
403.685733
 30
0.0
 40
0.888911
  0
CIRCLE
  5
423
  8
1
 10
2724.064737
 20
374.143646
 30
0.0
 40
0.888911
  0
CIRCLE
  5
424
  8
1
 10
2736.856836
 20
396.300211
 30
0.0
 40
0.888911
  0
CIRCLE
  5
425
  8
1
 10
2736.856836
 20
381.529168
 30
0.0
 40
0.888911
  0
CIRCLE
  5
426
  8
1
 10
2724.064737
 20
388.914689
 30
0.0
 40
0.888911
  0
ENDBLK
  5
427
  8
0
  0
BLOCK
  5
429
  8
1
  2
*U116
 70
    65
 10
0.0
 20
0.0
 30
0.0
  3
*U116
  1

  0
CIRCLE
  5
42A
  8
1
 10
2749.648935
 20
403.685733
 30
0.0
 40
0.888911
  0
CIRCLE
  5
42B
  8
1
 10
2749.648935
 20
374.143646
 30
0.0
 40
0.888911
  0
CIRCLE
  5
42C
  8
1
 10
2762.441034
 20
396.300211
 30
0.0
 40
0.888911
  0
CIRCLE
  5
42D
  8
1
 10
2762.441034
 20
381.529168
 30
0.0
 40
0.888911
  0
CIRCLE
  5
42E
  8
1
 10
2749.648935
 20
388.914689
 30
0.0
 40
0.888911
  0
ENDBLK
  5
42F
  8
0
  0
BLOCK
  5
431
  8
1
  2
*U117
 70
    65
 10
0.0
 20
0.0
 30
0.0
  3
*U117
  1

  0
CIRCLE
  5
432
  8
1
 10
2775.233132
 20
403.685733
 30
0.0
 40
0.888911
  0
CIRCLE
  5
433
  8
1
 10
2775.233132
 20
374.143646
 30
0.0
 40
0.888911
  0
CIRCLE
  5
434
  8
1
 10
2788.025231
 20
396.300211
 30
0.0
 40
0.888911
  0
CIRCLE
  5
435
  8
1
 10
2788.025231
 20
381.529168
 30
0.0
 40
0.888911
  0
CIRCLE
  5
436
  8
1
 10
2775.233132
 20
388.914689
 30
0.0
 40
0.888911
  0
ENDBLK
  5
437
  8
0
  0
BLOCK
  5
439
  8
1
  2
*U118
 70
    65
 10
0.0
 20
0.0
 30
0.0
  3
*U118
  1

  0
CIRCLE
  5
43A
  8
1
 10
2800.81733
 20
403.685733
 30
0.0
 40
0.888911
  0
CIRCLE
  5
43B
  8
1
 10
2800.81733
 20
374.143646
 30
0.0
 40
0.888911
  0
CIRCLE
  5
43C
  8
1
 10
2813.609428
 20
396.300211
 30
0.0
 40
0.888911
  0
CIRCLE
  5
43D
  8
1
 10
2813.609428
 20
381.529168
 30
0.0
 40
0.888911
  0
CIRCLE
  5
43E
  8
1
 10
2800.81733
 20
388.914689
 30
0.0
 40
0.888911
  0
ENDBLK
  5
43F
  8
0
  0
BLOCK
  5
441
  8
1
  2
*U119
 70
    65
 10
0.0
 20
0.0
 30
0.0
  3
*U119
  1

  0
CIRCLE
  5
442
  8
1
 10
2826.401527
 20
403.685733
 30
0.0
 40
0.888911
  0
CIRCLE
  5
443
  8
1
 10
2826.401527
 20
374.143646
 30
0.0
 40
0.888911
  0
CIRCLE
  5
444
  8
1
 10
2839.193626
 20
396.300211
 30
0.0
 40
0.888911
  0
CIRCLE
  5
445
  8
1
 10
2839.193626
 20
381.529168
 30
0.0
 40
0.888911
  0
CIRCLE
  5
446
  8
1
 10
2826.401527
 20
388.914689
 30
0.0
 40
0.888911
  0
ENDBLK
  5
447
  8
0
  0
BLOCK
  5
449
  8
1
  2
*U120
 70
    65
 10
0.0
 20
0.0
 30
0.0
  3
*U120
  1

  0
CIRCLE
  5
44A
  8
1
 10
2851.985724
 20
403.685733
 30
0.0
 40
0.888911
  0
CIRCLE
  5
44B
  8
1
 10
2851.985724
 20
374.143646
 30
0.0
 40
0.888911
  0
CIRCLE
  5
44C
  8
1
 10
2864.777823
 20
396.300211
 30
0.0
 40
0.888911
  0
CIRCLE
  5
44D
  8
1
 10
2864.777823
 20
381.529168
 30
0.0
 40
0.888911
  0
CIRCLE
  5
44E
  8
1
 10
2851.985724
 20
388.914689
 30
0.0
 40
0.888911
  0
ENDBLK
  5
44F
  8
0
  0
BLOCK
  5
451
  8
1
  2
*U121
 70
    65
 10
0.0
 20
0.0
 30
0.0
  3
*U121
  1

  0
CIRCLE
  5
452
  8
1
 10
2877.569922
 20
403.685733
 30
0.0
 40
0.888911
  0
CIRCLE
  5
453
  8
1
 10
2877.569922
 20
374.143646
 30
0.0
 40
0.888911
  0
CIRCLE
  5
454
  8
1
 10
2890.362021
 20
396.300211
 30
0.0
 40
0.888911
  0
CIRCLE
  5
455
  8
1
 10
2890.362021
 20
381.529168
 30
0.0
 40
0.888911
  0
CIRCLE
  5
456
  8
1
 10
2877.569922
 20
388.914689
 30
0.0
 40
0.888911
  0
ENDBLK
  5
457
  8
0
  0
BLOCK
  5
459
  8
1
  2
*U122
 70
    65
 10
0.0
 20
0.0
 30
0.0
  3
*U122
  1

  0
CIRCLE
  5
45A
  8
1
 10
2903.154119
 20
403.685733
 30
0.0
 40
0.888911
  0
CIRCLE
  5
45B
  8
1
 10
2903.154119
 20
374.143646
 30
0.0
 40
0.888911
  0
CIRCLE
  5
45C
  8
1
 10
2915.946218
 20
396.300211
 30
0.0
 40
0.888911
  0
CIRCLE
  5
45D
  8
1
 10
2915.946218
 20
381.529168
 30
0.0
 40
0.888911
  0
CIRCLE
  5
45E
  8
1
 10
2903.154119
 20
388.914689
 30
0.0
 40
0.888911
  0
ENDBLK
  5
45F
  8
0
  0
BLOCK
  5
461
  8
1
  2
*U123
 70
    65
 10
0.0
 20
0.0
 30
0.0
  3
*U123
  1

  0
CIRCLE
  5
462
  8
1
 10
2928.738317
 20
403.685733
 30
0.0
 40
0.888911
  0
CIRCLE
  5
463
  8
1
 10
2928.738317
 20
374.143646
 30
0.0
 40
0.888911
  0
CIRCLE
  5
464
  8
1
 10
2941.530415
 20
396.300211
 30
0.0
 40
0.888911
  0
CIRCLE
  5
465
  8
1
 10
2941.530415
 20
381.529168
 30
0.0
 40
0.888911
  0
CIRCLE
  5
466
  8
1
 10
2928.738317
 20
388.914689
 30
0.0
 40
0.888911
  0
ENDBLK
  5
467
  8
0
  0
BLOCK
  5
469
  8
1
  2
*U124
 70
    65
 10
0.0
 20
0.0
 30
0.0
  3
*U124
  1

  0
CIRCLE
  5
46A
  8
1
 10
2954.322514
 20
403.685733
 30
0.0
 40
0.888911
  0
CIRCLE
  5
46B
  8
1
 10
2954.322514
 20
374.143646
 30
0.0
 40
0.888911
  0
CIRCLE
  5
46C
  8
1
 10
2967.114613
 20
396.300211
 30
0.0
 40
0.888911
  0
CIRCLE
  5
46D
  8
1
 10
2967.114613
 20
381.529168
 30
0.0
 40
0.888911
  0
CIRCLE
  5
46E
  8
1
 10
2954.322514
 20
388.914689
 30
0.0
 40
0.888911
  0
ENDBLK
  5
46F
  8
0
  0
BLOCK
  5
471
  8
1
  2
*U125
 70
    65
 10
0.0
 20
0.0
 30
0.0
  3
*U125
  1

  0
CIRCLE
  5
472
  8
1
 10
2979.906712
 20
403.685733
 30
0.0
 40
0.888911
  0
CIRCLE
  5
473
  8
1
 10
2979.906712
 20
374.143646
 30
0.0
 40
0.888911
  0
CIRCLE
  5
474
  8
1
 10
2992.69881
 20
396.300211
 30
0.0
 40
0.888911
  0
CIRCLE
  5
475
  8
1
 10
2992.69881
 20
381.529168
 30
0.0
 40
0.888911
  0
CIRCLE
  5
476
  8
1
 10
2979.906712
 20
388.914689
 30
0.0
 40
0.888911
  0
ENDBLK
  5
477
  8
0
  0
BLOCK
  5
479
  8
1
  2
*U126
 70
    65
 10
0.0
 20
0.0
 30
0.0
  3
*U126
  1

  0
CIRCLE
  5
47A
  8
1
 10
3005.490909
 20
403.685733
 30
0.0
 40
0.888911
  0
CIRCLE
  5
47B
  8
1
 10
3005.490909
 20
374.143646
 30
0.0
 40
0.888911
  0
CIRCLE
  5
47C
  8
1
 10
3018.283008
 20
396.300211
 30
0.0
 40
0.888911
  0
CIRCLE
  5
47D
  8
1
 10
3018.283008
 20
381.529168
 30
0.0
 40
0.888911
  0
CIRCLE
  5
47E
  8
1
 10
3005.490909
 20
388.914689
 30
0.0
 40
0.888911
  0
ENDBLK
  5
47F
  8
0
  0
BLOCK
  5
481
  8
1
  2
*U127
 70
    65
 10
0.0
 20
0.0
 30
0.0
  3
*U127
  1

  0
INSERT
  5
482
  8
1
  2
*U83
 10
0.0
 20
0.0
 30
0.0
  0
INSERT
  5
483
  8
1
  2
*U84
 10
0.0
 20
0.0
 30
0.0
  0
INSERT
  5
484
  8
1
  2
*U85
 10
0.0
 20
0.0
 30
0.0
  0
INSERT
  5
485
  8
1
  2
*U86
 10
0.0
 20
0.0
 30
0.0
  0
INSERT
  5
486
  8
1
  2
*U87
 10
0.0
 20
0.0
 30
0.0
  0
INSERT
  5
487
  8
1
  2
*U88
 10
0.0
 20
0.0
 30
0.0
  0
INSERT
  5
488
  8
1
  2
*U89
 10
0.0
 20
0.0
 30
0.0
  0
INSERT
  5
489
  8
1
  2
*U90
 10
0.0
 20
0.0
 30
0.0
  0
INSERT
  5
48A
  8
1
  2
*U91
 10
0.0
 20
0.0
 30
0.0
  0
INSERT
  5
48B
  8
1
  2
*U92
 10
0.0
 20
0.0
 30
0.0
  0
INSERT
  5
48C
  8
1
  2
*U93
 10
0.0
 20
0.0
 30
0.0
  0
INSERT
  5
48D
  8
1
  2
*U94
 10
0.0
 20
0.0
 30
0.0
  0
INSERT
  5
48E
  8
1
  2
*U95
 10
0.0
 20
0.0
 30
0.0
  0
INSERT
  5
48F
  8
1
  2
*U96
 10
0.0
 20
0.0
 30
0.0
  0
INSERT
  5
490
  8
1
  2
*U97
 10
0.0
 20
0.0
 30
0.0
  0
INSERT
  5
491
  8
1
  2
*U98
 10
0.0
 20
0.0
 30
0.0
  0
INSERT
  5
492
  8
1
  2
*U99
 10
0.0
 20
0.0
 30
0.0
  0
INSERT
  5
493
  8
1
  2
*U100
 10
0.0
 20
0.0
 30
0.0
  0
INSERT
  5
494
  8
1
  2
*U101
 10
0.0
 20
0.0
 30
0.0
  0
INSERT
  5
495
  8
1
  2
*U102
 10
0.0
 20
0.0
 30
0.0
  0
INSERT
  5
496
  8
1
  2
*U103
 10
0.0
 20
0.0
 30
0.0
  0
INSERT
  5
497
  8
1
  2
*U104
 10
0.0
 20
0.0
 30
0.0
  0
INSERT
  5
498
  8
1
  2
*U105
 10
0.0
 20
0.0
 30
0.0
  0
INSERT
  5
499
  8
1
  2
*U106
 10
0.0
 20
0.0
 30
0.0
  0
INSERT
  5
49A
  8
1
  2
*U107
 10
0.0
 20
0.0
 30
0.0
  0
INSERT
  5
49B
  8
1
  2
*U108
 10
0.0
 20
0.0
 30
0.0
  0
INSERT
  5
49C
  8
1
  2
*U109
 10
0.0
 20
0.0
 30
0.0
  0
INSERT
  5
49D
  8
1
  2
*U110
 10
0.0
 20
0.0
 30
0.0
  0
INSERT
  5
49E
  8
1
  2
*U111
 10
0.0
 20
0.0
 30
0.0
  0
INSERT
  5
49F
  8
1
  2
*U112
 10
0.0
 20
0.0
 30
0.0
  0
INSERT
  5
4A0
  8
1
  2
*U113
 10
0.0
 20
0.0
 30
0.0
  0
INSERT
  5
4A1
  8
1
  2
*U114
 10
0.0
 20
0.0
 30
0.0
  0
INSERT
  5
4A2
  8
1
  2
*U115
 10
0.0
 20
0.0
 30
0.0
  0
INSERT
  5
4A3
  8
1
  2
*U116
 10
0.0
 20
0.0
 30
0.0
  0
INSERT
  5
4A4
  8
1
  2
*U117
 10
0.0
 20
0.0
 30
0.0
  0
INSERT
  5
4A5
  8
1
  2
*U118
 10
0.0
 20
0.0
 30
0.0
  0
INSERT
  5
4A6
  8
1
  2
*U119
 10
0.0
 20
0.0
 30
0.0
  0
INSERT
  5
4A7
  8
1
  2
*U120
 10
0.0
 20
0.0
 30
0.0
  0
INSERT
  5
4A8
  8
1
  2
*U121
 10
0.0
 20
0.0
 30
0.0
  0
INSERT
  5
4A9
  8
1
  2
*U122
 10
0.0
 20
0.0
 30
0.0
  0
INSERT
  5
4AA
  8
1
  2
*U123
 10
0.0
 20
0.0
 30
0.0
  0
INSERT
  5
4AB
  8
1
  2
*U124
 10
0.0
 20
0.0
 30
0.0
  0
INSERT
  5
4AC
  8
1
  2
*U125
 10
0.0
 20
0.0
 30
0.0
  0
INSERT
  5
4AD
  8
1
  2
*U126
 10
0.0
 20
0.0
 30
0.0
  0
ENDBLK
  5
4AE
  8
0
  0
BLOCK
  5
4B0
  8
1
  2
*U128
 70
    65
 10
0.0
 20
0.0
 30
0.0
  3
*U128
  1

  0
CIRCLE
  5
4B1
  8
1
 10
1918.162519
 20
738.050694
 30
0.0
 40
0.888911
  0
CIRCLE
  5
4B2
  8
1
 10
1918.162519
 20
752.821737
 30
0.0
 40
0.888911
  0
ENDBLK
  5
4B3
  8
0
  0
BLOCK
  5
4B5
  8
1
  2
*U129
 70
    65
 10
0.0
 20
0.0
 30
0.0
  3
*U129
  1

  0
CIRCLE
  5
4B6
  8
1
 10
1930.954618
 20
730.665172
 30
0.0
 40
0.888911
  0
CIRCLE
  5
4B7
  8
1
 10
1930.954618
 20
760.207259
 30
0.0
 40
0.888911
  0
CIRCLE
  5
4B8
  8
1
 10
1943.746716
 20
738.050694
 30
0.0
 40
0.888911
  0
CIRCLE
  5
4B9
  8
1
 10
1943.746716
 20
752.821737
 30
0.0
 40
0.888911
  0
CIRCLE
  5
4BA
  8
1
 10
1930.954618
 20
745.436215
 30
0.0
 40
0.888911
  0
ENDBLK
  5
4BB
  8
0
  0
BLOCK
  5
4BD
  8
1
  2
*U130
 70
    65
 10
0.0
 20
0.0
 30
0.0
  3
*U130
  1

  0
CIRCLE
  5
4BE
  8
1
 10
1956.538815
 20
730.665172
 30
0.0
 40
0.888911
  0
CIRCLE
  5
4BF
  8
1
 10
1956.538815
 20
760.207259
 30
0.0
 40
0.888911
  0
CIRCLE
  5
4C0
  8
1
 10
1969.330914
 20
738.050694
 30
0.0
 40
0.888911
  0
CIRCLE
  5
4C1
  8
1
 10
1969.330914
 20
752.821737
 30
0.0
 40
0.888911
  0
CIRCLE
  5
4C2
  8
1
 10
1956.538815
 20
745.436215
 30
0.0
 40
0.888911
  0
ENDBLK
  5
4C3
  8
0
  0
BLOCK
  5
4C5
  8
1
  2
*U131
 70
    65
 10
0.0
 20
0.0
 30
0.0
  3
*U131
  1

  0
CIRCLE
  5
4C6
  8
1
 10
1982.123012
 20
730.665172
 30
0.0
 40
0.888911
  0
CIRCLE
  5
4C7
  8
1
 10
1982.123012
 20
760.207259
 30
0.0
 40
0.888911
  0
CIRCLE
  5
4C8
  8
1
 10
1994.915111
 20
738.050694
 30
0.0
 40
0.888911
  0
CIRCLE
  5
4C9
  8
1
 10
1994.915111
 20
752.821737
 30
0.0
 40
0.888911
  0
CIRCLE
  5
4CA
  8
1
 10
1982.123012
 20
745.436215
 30
0.0
 40
0.888911
  0
ENDBLK
  5
4CB
  8
0
  0
BLOCK
  5
4CD
  8
1
  2
*U132
 70
    65
 10
0.0
 20
0.0
 30
0.0
  3
*U132
  1

  0
CIRCLE
  5
4CE
  8
1
 10
2007.70721
 20
730.665172
 30
0.0
 40
0.888911
  0
CIRCLE
  5
4CF
  8
1
 10
2007.70721
 20
760.207259
 30
0.0
 40
0.888911
  0
CIRCLE
  5
4D0
  8
1
 10
2020.499309
 20
738.050694
 30
0.0
 40
0.888911
  0
CIRCLE
  5
4D1
  8
1
 10
2020.499309
 20
752.821737
 30
0.0
 40
0.888911
  0
CIRCLE
  5
4D2
  8
1
 10
2007.70721
 20
745.436215
 30
0.0
 40
0.888911
  0
ENDBLK
  5
4D3
  8
0
  0
BLOCK
  5
4D5
  8
1
  2
*U133
 70
    65
 10
0.0
 20
0.0
 30
0.0
  3
*U133
  1

  0
CIRCLE
  5
4D6
  8
1
 10
2033.291407
 20
730.665172
 30
0.0
 40
0.888911
  0
CIRCLE
  5
4D7
  8
1
 10
2033.291407
 20
760.207259
 30
0.0
 40
0.888911
  0
CIRCLE
  5
4D8
  8
1
 10
2046.083506
 20
738.050694
 30
0.0
 40
0.888911
  0
CIRCLE
  5
4D9
  8
1
 10
2046.083506
 20
752.821737
 30
0.0
 40
0.888911
  0
CIRCLE
  5
4DA
  8
1
 10
2033.291407
 20
745.436215
 30
0.0
 40
0.888911
  0
ENDBLK
  5
4DB
  8
0
  0
BLOCK
  5
4DD
  8
1
  2
*U134
 70
    65
 10
0.0
 20
0.0
 30
0.0
  3
*U134
  1

  0
CIRCLE
  5
4DE
  8
1
 10
2058.875605
 20
730.665172
 30
0.0
 40
0.888911
  0
CIRCLE
  5
4DF
  8
1
 10
2058.875605
 20
760.207259
 30
0.0
 40
0.888911
  0
CIRCLE
  5
4E0
  8
1
 10
2071.667703
 20
738.050694
 30
0.0
 40
0.888911
  0
CIRCLE
  5
4E1
  8
1
 10
2071.667703
 20
752.821737
 30
0.0
 40
0.888911
  0
CIRCLE
  5
4E2
  8
1
 10
2058.875605
 20
745.436215
 30
0.0
 40
0.888911
  0
ENDBLK
  5
4E3
  8
0
  0
BLOCK
  5
4E5
  8
1
  2
*U135
 70
    65
 10
0.0
 20
0.0
 30
0.0
  3
*U135
  1

  0
CIRCLE
  5
4E6
  8
1
 10
2084.459802
 20
730.665172
 30
0.0
 40
0.888911
  0
CIRCLE
  5
4E7
  8
1
 10
2084.459802
 20
760.207259
 30
0.0
 40
0.888911
  0
CIRCLE
  5
4E8
  8
1
 10
2097.251901
 20
738.050694
 30
0.0
 40
0.888911
  0
CIRCLE
  5
4E9
  8
1
 10
2097.251901
 20
752.821737
 30
0.0
 40
0.888911
  0
CIRCLE
  5
4EA
  8
1
 10
2084.459802
 20
745.436215
 30
0.0
 40
0.888911
  0
ENDBLK
  5
4EB
  8
0
  0
BLOCK
  5
4ED
  8
1
  2
*U136
 70
    65
 10
0.0
 20
0.0
 30
0.0
  3
*U136
  1

  0
CIRCLE
  5
4EE
  8
1
 10
2110.044
 20
730.665172
 30
0.0
 40
0.888911
  0
CIRCLE
  5
4EF
  8
1
 10
2110.044
 20
760.207259
 30
0.0
 40
0.888911
  0
CIRCLE
  5
4F0
  8
1
 10
2122.836098
 20
738.050694
 30
0.0
 40
0.888911
  0
CIRCLE
  5
4F1
  8
1
 10
2122.836098
 20
752.821737
 30
0.0
 40
0.888911
  0
CIRCLE
  5
4F2
  8
1
 10
2110.044
 20
745.436215
 30
0.0
 40
0.888911
  0
ENDBLK
  5
4F3
  8
0
  0
BLOCK
  5
4F5
  8
1
  2
*U137
 70
    65
 10
0.0
 20
0.0
 30
0.0
  3
*U137
  1

  0
CIRCLE
  5
4F6
  8
1
 10
2135.628197
 20
730.665172
 30
0.0
 40
0.888911
  0
CIRCLE
  5
4F7
  8
1
 10
2135.628197
 20
760.207259
 30
0.0
 40
0.888911
  0
CIRCLE
  5
4F8
  8
1
 10
2148.420296
 20
738.050694
 30
0.0
 40
0.888911
  0
CIRCLE
  5
4F9
  8
1
 10
2148.420296
 20
752.821737
 30
0.0
 40
0.888911
  0
CIRCLE
  5
4FA
  8
1
 10
2135.628197
 20
745.436215
 30
0.0
 40
0.888911
  0
ENDBLK
  5
4FB
  8
0
  0
BLOCK
  5
4FD
  8
1
  2
*U138
 70
    65
 10
0.0
 20
0.0
 30
0.0
  3
*U138
  1

  0
CIRCLE
  5
4FE
  8
1
 10
2161.212394
 20
730.665172
 30
0.0
 40
0.888911
  0
CIRCLE
  5
4FF
  8
1
 10
2161.212394
 20
760.207259
 30
0.0
 40
0.888911
  0
CIRCLE
  5
500
  8
1
 10
2174.004493
 20
738.050694
 30
0.0
 40
0.888911
  0
CIRCLE
  5
501
  8
1
 10
2174.004493
 20
752.821737
 30
0.0
 40
0.888911
  0
CIRCLE
  5
502
  8
1
 10
2161.212394
 20
745.436215
 30
0.0
 40
0.888911
  0
ENDBLK
  5
503
  8
0
  0
BLOCK
  5
505
  8
1
  2
*U139
 70
    65
 10
0.0
 20
0.0
 30
0.0
  3
*U139
  1

  0
CIRCLE
  5
506
  8
1
 10
2186.796592
 20
730.665172
 30
0.0
 40
0.888911
  0
CIRCLE
  5
507
  8
1
 10
2186.796592
 20
760.207259
 30
0.0
 40
0.888911
  0
CIRCLE
  5
508
  8
1
 10
2199.58869
 20
738.050694
 30
0.0
 40
0.888911
  0
CIRCLE
  5
509
  8
1
 10
2199.58869
 20
752.821737
 30
0.0
 40
0.888911
  0
CIRCLE
  5
50A
  8
1
 10
2186.796592
 20
745.436215
 30
0.0
 40
0.888911
  0
ENDBLK
  5
50B
  8
0
  0
BLOCK
  5
50D
  8
1
  2
*U140
 70
    65
 10
0.0
 20
0.0
 30
0.0
  3
*U140
  1

  0
CIRCLE
  5
50E
  8
1
 10
2212.380789
 20
730.665172
 30
0.0
 40
0.888911
  0
CIRCLE
  5
50F
  8
1
 10
2212.380789
 20
760.207259
 30
0.0
 40
0.888911
  0
CIRCLE
  5
510
  8
1
 10
2225.172888
 20
738.050694
 30
0.0
 40
0.888911
  0
CIRCLE
  5
511
  8
1
 10
2225.172888
 20
752.821737
 30
0.0
 40
0.888911
  0
CIRCLE
  5
512
  8
1
 10
2212.380789
 20
745.436215
 30
0.0
 40
0.888911
  0
ENDBLK
  5
513
  8
0
  0
BLOCK
  5
515
  8
1
  2
*U141
 70
    65
 10
0.0
 20
0.0
 30
0.0
  3
*U141
  1

  0
CIRCLE
  5
516
  8
1
 10
2237.964987
 20
730.665172
 30
0.0
 40
0.888911
  0
CIRCLE
  5
517
  8
1
 10
2237.964987
 20
760.207259
 30
0.0
 40
0.888911
  0
CIRCLE
  5
518
  8
1
 10
2250.757085
 20
738.050694
 30
0.0
 40
0.888911
  0
CIRCLE
  5
519
  8
1
 10
2250.757085
 20
752.821737
 30
0.0
 40
0.888911
  0
CIRCLE
  5
51A
  8
1
 10
2237.964987
 20
745.436215
 30
0.0
 40
0.888911
  0
ENDBLK
  5
51B
  8
0
  0
BLOCK
  5
51D
  8
1
  2
*U142
 70
    65
 10
0.0
 20
0.0
 30
0.0
  3
*U142
  1

  0
CIRCLE
  5
51E
  8
1
 10
2263.549184
 20
730.665172
 30
0.0
 40
0.888911
  0
CIRCLE
  5
51F
  8
1
 10
2263.549184
 20
760.207259
 30
0.0
 40
0.888911
  0
CIRCLE
  5
520
  8
1
 10
2276.341283
 20
738.050694
 30
0.0
 40
0.888911
  0
CIRCLE
  5
521
  8
1
 10
2276.341283
 20
752.821737
 30
0.0
 40
0.888911
  0
CIRCLE
  5
522
  8
1
 10
2263.549184
 20
745.436215
 30
0.0
 40
0.888911
  0
ENDBLK
  5
523
  8
0
  0
BLOCK
  5
525
  8
1
  2
*U143
 70
    65
 10
0.0
 20
0.0
 30
0.0
  3
*U143
  1

  0
CIRCLE
  5
526
  8
1
 10
2289.133381
 20
730.665172
 30
0.0
 40
0.888911
  0
CIRCLE
  5
527
  8
1
 10
2289.133381
 20
760.207259
 30
0.0
 40
0.888911
  0
CIRCLE
  5
528
  8
1
 10
2301.92548
 20
738.050694
 30
0.0
 40
0.888911
  0
CIRCLE
  5
529
  8
1
 10
2301.92548
 20
752.821737
 30
0.0
 40
0.888911
  0
CIRCLE
  5
52A
  8
1
 10
2289.133381
 20
745.436215
 30
0.0
 40
0.888911
  0
ENDBLK
  5
52B
  8
0
  0
BLOCK
  5
52D
  8
1
  2
*U144
 70
    65
 10
0.0
 20
0.0
 30
0.0
  3
*U144
  1

  0
CIRCLE
  5
52E
  8
1
 10
2314.717579
 20
730.665172
 30
0.0
 40
0.888911
  0
CIRCLE
  5
52F
  8
1
 10
2314.717579
 20
760.207259
 30
0.0
 40
0.888911
  0
CIRCLE
  5
530
  8
1
 10
2327.509678
 20
738.050694
 30
0.0
 40
0.888911
  0
CIRCLE
  5
531
  8
1
 10
2327.509678
 20
752.821737
 30
0.0
 40
0.888911
  0
CIRCLE
  5
532
  8
1
 10
2314.717579
 20
745.436215
 30
0.0
 40
0.888911
  0
ENDBLK
  5
533
  8
0
  0
BLOCK
  5
535
  8
1
  2
*U145
 70
    65
 10
0.0
 20
0.0
 30
0.0
  3
*U145
  1

  0
CIRCLE
  5
536
  8
1
 10
2340.301776
 20
730.665172
 30
0.0
 40
0.888911
  0
CIRCLE
  5
537
  8
1
 10
2340.301776
 20
760.207259
 30
0.0
 40
0.888911
  0
CIRCLE
  5
538
  8
1
 10
2353.093875
 20
738.050694
 30
0.0
 40
0.888911
  0
CIRCLE
  5
539
  8
1
 10
2353.093875
 20
752.821737
 30
0.0
 40
0.888911
  0
CIRCLE
  5
53A
  8
1
 10
2340.301776
 20
745.436215
 30
0.0
 40
0.888911
  0
ENDBLK
  5
53B
  8
0
  0
BLOCK
  5
53D
  8
1
  2
*U146
 70
    65
 10
0.0
 20
0.0
 30
0.0
  3
*U146
  1

  0
CIRCLE
  5
53E
  8
1
 10
2365.885974
 20
730.665172
 30
0.0
 40
0.888911
  0
CIRCLE
  5
53F
  8
1
 10
2365.885974
 20
760.207259
 30
0.0
 40
0.888911
  0
CIRCLE
  5
540
  8
1
 10
2378.678072
 20
738.050694
 30
0.0
 40
0.888911
  0
CIRCLE
  5
541
  8
1
 10
2378.678072
 20
752.821737
 30
0.0
 40
0.888911
  0
CIRCLE
  5
542
  8
1
 10
2365.885974
 20
745.436215
 30
0.0
 40
0.888911
  0
ENDBLK
  5
543
  8
0
  0
BLOCK
  5
545
  8
1
  2
*U147
 70
    65
 10
0.0
 20
0.0
 30
0.0
  3
*U147
  1

  0
CIRCLE
  5
546
  8
1
 10
2391.470171
 20
730.665172
 30
0.0
 40
0.888911
  0
CIRCLE
  5
547
  8
1
 10
2391.470171
 20
760.207259
 30
0.0
 40
0.888911
  0
CIRCLE
  5
548
  8
1
 10
2404.26227
 20
738.050694
 30
0.0
 40
0.888911
  0
CIRCLE
  5
549
  8
1
 10
2404.26227
 20
752.821737
 30
0.0
 40
0.888911
  0
CIRCLE
  5
54A
  8
1
 10
2391.470171
 20
745.436215
 30
0.0
 40
0.888911
  0
ENDBLK
  5
54B
  8
0
  0
BLOCK
  5
54D
  8
1
  2
*U148
 70
    65
 10
0.0
 20
0.0
 30
0.0
  3
*U148
  1

  0
CIRCLE
  5
54E
  8
1
 10
2417.054368
 20
730.665172
 30
0.0
 40
0.888911
  0
CIRCLE
  5
54F
  8
1
 10
2417.054368
 20
760.207259
 30
0.0
 40
0.888911
  0
CIRCLE
  5
550
  8
1
 10
2429.846467
 20
738.050694
 30
0.0
 40
0.888911
  0
CIRCLE
  5
551
  8
1
 10
2429.846467
 20
752.821737
 30
0.0
 40
0.888911
  0
CIRCLE
  5
552
  8
1
 10
2417.054368
 20
745.436215
 30
0.0
 40
0.888911
  0
ENDBLK
  5
553
  8
0
  0
BLOCK
  5
555
  8
1
  2
*U149
 70
    65
 10
0.0
 20
0.0
 30
0.0
  3
*U149
  1

  0
CIRCLE
  5
556
  8
1
 10
2442.638566
 20
730.665172
 30
0.0
 40
0.888911
  0
CIRCLE
  5
557
  8
1
 10
2442.638566
 20
760.207259
 30
0.0
 40
0.888911
  0
CIRCLE
  5
558
  8
1
 10
2455.430665
 20
738.050694
 30
0.0
 40
0.888911
  0
CIRCLE
  5
559
  8
1
 10
2455.430665
 20
752.821737
 30
0.0
 40
0.888911
  0
CIRCLE
  5
55A
  8
1
 10
2442.638566
 20
745.436215
 30
0.0
 40
0.888911
  0
ENDBLK
  5
55B
  8
0
  0
BLOCK
  5
55D
  8
1
  2
*U150
 70
    65
 10
0.0
 20
0.0
 30
0.0
  3
*U150
  1

  0
CIRCLE
  5
55E
  8
1
 10
2468.222763
 20
730.665172
 30
0.0
 40
0.888911
  0
CIRCLE
  5
55F
  8
1
 10
2468.222763
 20
760.207259
 30
0.0
 40
0.888911
  0
CIRCLE
  5
560
  8
1
 10
2481.014862
 20
738.050694
 30
0.0
 40
0.888911
  0
CIRCLE
  5
561
  8
1
 10
2481.014862
 20
752.821737
 30
0.0
 40
0.888911
  0
CIRCLE
  5
562
  8
1
 10
2468.222763
 20
745.436215
 30
0.0
 40
0.888911
  0
ENDBLK
  5
563
  8
0
  0
BLOCK
  5
565
  8
1
  2
*U151
 70
    65
 10
0.0
 20
0.0
 30
0.0
  3
*U151
  1

  0
CIRCLE
  5
566
  8
1
 10
2493.806961
 20
730.665172
 30
0.0
 40
0.888911
  0
CIRCLE
  5
567
  8
1
 10
2493.806961
 20
760.207259
 30
0.0
 40
0.888911
  0
CIRCLE
  5
568
  8
1
 10
2506.599059
 20
738.050694
 30
0.0
 40
0.888911
  0
CIRCLE
  5
569
  8
1
 10
2506.599059
 20
752.821737
 30
0.0
 40
0.888911
  0
CIRCLE
  5
56A
  8
1
 10
2493.806961
 20
745.436215
 30
0.0
 40
0.888911
  0
ENDBLK
  5
56B
  8
0
  0
BLOCK
  5
56D
  8
1
  2
*U152
 70
    65
 10
0.0
 20
0.0
 30
0.0
  3
*U152
  1

  0
CIRCLE
  5
56E
  8
1
 10
2519.391158
 20
730.665172
 30
0.0
 40
0.888911
  0
CIRCLE
  5
56F
  8
1
 10
2519.391158
 20
760.207259
 30
0.0
 40
0.888911
  0
CIRCLE
  5
570
  8
1
 10
2532.183257
 20
738.050694
 30
0.0
 40
0.888911
  0
CIRCLE
  5
571
  8
1
 10
2532.183257
 20
752.821737
 30
0.0
 40
0.888911
  0
CIRCLE
  5
572
  8
1
 10
2519.391158
 20
745.436215
 30
0.0
 40
0.888911
  0
ENDBLK
  5
573
  8
0
  0
BLOCK
  5
575
  8
1
  2
*U153
 70
    65
 10
0.0
 20
0.0
 30
0.0
  3
*U153
  1

  0
CIRCLE
  5
576
  8
1
 10
2544.975356
 20
730.665172
 30
0.0
 40
0.888911
  0
CIRCLE
  5
577
  8
1
 10
2544.975356
 20
760.207259
 30
0.0
 40
0.888911
  0
CIRCLE
  5
578
  8
1
 10
2557.767454
 20
738.050694
 30
0.0
 40
0.888911
  0
CIRCLE
  5
579
  8
1
 10
2557.767454
 20
752.821737
 30
0.0
 40
0.888911
  0
CIRCLE
  5
57A
  8
1
 10
2544.975356
 20
745.436215
 30
0.0
 40
0.888911
  0
ENDBLK
  5
57B
  8
0
  0
BLOCK
  5
57D
  8
1
  2
*U154
 70
    65
 10
0.0
 20
0.0
 30
0.0
  3
*U154
  1

  0
CIRCLE
  5
57E
  8
1
 10
2570.559553
 20
730.665172
 30
0.0
 40
0.888911
  0
CIRCLE
  5
57F
  8
1
 10
2570.559553
 20
760.207259
 30
0.0
 40
0.888911
  0
CIRCLE
  5
580
  8
1
 10
2583.351652
 20
738.050694
 30
0.0
 40
0.888911
  0
CIRCLE
  5
581
  8
1
 10
2583.351652
 20
752.821737
 30
0.0
 40
0.888911
  0
CIRCLE
  5
582
  8
1
 10
2570.559553
 20
745.436215
 30
0.0
 40
0.888911
  0
ENDBLK
  5
583
  8
0
  0
BLOCK
  5
585
  8
1
  2
*U155
 70
    65
 10
0.0
 20
0.0
 30
0.0
  3
*U155
  1

  0
CIRCLE
  5
586
  8
1
 10
2596.14375
 20
730.665172
 30
0.0
 40
0.888911
  0
CIRCLE
  5
587
  8
1
 10
2596.14375
 20
760.207259
 30
0.0
 40
0.888911
  0
CIRCLE
  5
588
  8
1
 10
2608.935849
 20
738.050694
 30
0.0
 40
0.888911
  0
CIRCLE
  5
589
  8
1
 10
2608.935849
 20
752.821737
 30
0.0
 40
0.888911
  0
CIRCLE
  5
58A
  8
1
 10
2596.14375
 20
745.436215
 30
0.0
 40
0.888911
  0
ENDBLK
  5
58B
  8
0
  0
BLOCK
  5
58D
  8
1
  2
*U156
 70
    65
 10
0.0
 20
0.0
 30
0.0
  3
*U156
  1

  0
CIRCLE
  5
58E
  8
1
 10
2621.727948
 20
730.665172
 30
0.0
 40
0.888911
  0
CIRCLE
  5
58F
  8
1
 10
2621.727948
 20
760.207259
 30
0.0
 40
0.888911
  0
CIRCLE
  5
590
  8
1
 10
2634.520046
 20
738.050694
 30
0.0
 40
0.888911
  0
CIRCLE
  5
591
  8
1
 10
2634.520046
 20
752.821737
 30
0.0
 40
0.888911
  0
CIRCLE
  5
592
  8
1
 10
2621.727948
 20
745.436215
 30
0.0
 40
0.888911
  0
ENDBLK
  5
593
  8
0
  0
BLOCK
  5
595
  8
1
  2
*U157
 70
    65
 10
0.0
 20
0.0
 30
0.0
  3
*U157
  1

  0
CIRCLE
  5
596
  8
1
 10
2647.312145
 20
730.665172
 30
0.0
 40
0.888911
  0
CIRCLE
  5
597
  8
1
 10
2647.312145
 20
760.207259
 30
0.0
 40
0.888911
  0
CIRCLE
  5
598
  8
1
 10
2660.104244
 20
738.050694
 30
0.0
 40
0.888911
  0
CIRCLE
  5
599
  8
1
 10
2660.104244
 20
752.821737
 30
0.0
 40
0.888911
  0
CIRCLE
  5
59A
  8
1
 10
2647.312145
 20
745.436215
 30
0.0
 40
0.888911
  0
ENDBLK
  5
59B
  8
0
  0
BLOCK
  5
59D
  8
1
  2
*U158
 70
    65
 10
0.0
 20
0.0
 30
0.0
  3
*U158
  1

  0
CIRCLE
  5
59E
  8
1
 10
2672.896343
 20
730.665172
 30
0.0
 40
0.888911
  0
CIRCLE
  5
59F
  8
1
 10
2672.896343
 20
760.207259
 30
0.0
 40
0.888911
  0
CIRCLE
  5
5A0
  8
1
 10
2685.688441
 20
738.050694
 30
0.0
 40
0.888911
  0
CIRCLE
  5
5A1
  8
1
 10
2685.688441
 20
752.821737
 30
0.0
 40
0.888911
  0
CIRCLE
  5
5A2
  8
1
 10
2672.896343
 20
745.436215
 30
0.0
 40
0.888911
  0
ENDBLK
  5
5A3
  8
0
  0
BLOCK
  5
5A5
  8
1
  2
*U159
 70
    65
 10
0.0
 20
0.0
 30
0.0
  3
*U159
  1

  0
CIRCLE
  5
5A6
  8
1
 10
2698.48054
 20
730.665172
 30
0.0
 40
0.888911
  0
CIRCLE
  5
5A7
  8
1
 10
2698.48054
 20
760.207259
 30
0.0
 40
0.888911
  0
CIRCLE
  5
5A8
  8
1
 10
2711.272639
 20
738.050694
 30
0.0
 40
0.888911
  0
CIRCLE
  5
5A9
  8
1
 10
2711.272639
 20
752.821737
 30
0.0
 40
0.888911
  0
CIRCLE
  5
5AA
  8
1
 10
2698.48054
 20
745.436215
 30
0.0
 40
0.888911
  0
ENDBLK
  5
5AB
  8
0
  0
BLOCK
  5
5AD
  8
1
  2
*U160
 70
    65
 10
0.0
 20
0.0
 30
0.0
  3
*U160
  1

  0
CIRCLE
  5
5AE
  8
1
 10
2724.064737
 20
730.665172
 30
0.0
 40
0.888911
  0
CIRCLE
  5
5AF
  8
1
 10
2724.064737
 20
760.207259
 30
0.0
 40
0.888911
  0
CIRCLE
  5
5B0
  8
1
 10
2736.856836
 20
738.050694
 30
0.0
 40
0.888911
  0
CIRCLE
  5
5B1
  8
1
 10
2736.856836
 20
752.821737
 30
0.0
 40
0.888911
  0
CIRCLE
  5
5B2
  8
1
 10
2724.064737
 20
745.436215
 30
0.0
 40
0.888911
  0
ENDBLK
  5
5B3
  8
0
  0
BLOCK
  5
5B5
  8
1
  2
*U161
 70
    65
 10
0.0
 20
0.0
 30
0.0
  3
*U161
  1

  0
CIRCLE
  5
5B6
  8
1
 10
2749.648935
 20
730.665172
 30
0.0
 40
0.888911
  0
CIRCLE
  5
5B7
  8
1
 10
2749.648935
 20
760.207259
 30
0.0
 40
0.888911
  0
CIRCLE
  5
5B8
  8
1
 10
2762.441034
 20
738.050694
 30
0.0
 40
0.888911
  0
CIRCLE
  5
5B9
  8
1
 10
2762.441034
 20
752.821737
 30
0.0
 40
0.888911
  0
CIRCLE
  5
5BA
  8
1
 10
2749.648935
 20
745.436215
 30
0.0
 40
0.888911
  0
ENDBLK
  5
5BB
  8
0
  0
BLOCK
  5
5BD
  8
1
  2
*U162
 70
    65
 10
0.0
 20
0.0
 30
0.0
  3
*U162
  1

  0
CIRCLE
  5
5BE
  8
1
 10
2775.233132
 20
730.665172
 30
0.0
 40
0.888911
  0
CIRCLE
  5
5BF
  8
1
 10
2775.233132
 20
760.207259
 30
0.0
 40
0.888911
  0
CIRCLE
  5
5C0
  8
1
 10
2788.025231
 20
738.050694
 30
0.0
 40
0.888911
  0
CIRCLE
  5
5C1
  8
1
 10
2788.025231
 20
752.821737
 30
0.0
 40
0.888911
  0
CIRCLE
  5
5C2
  8
1
 10
2775.233132
 20
745.436215
 30
0.0
 40
0.888911
  0
ENDBLK
  5
5C3
  8
0
  0
BLOCK
  5
5C5
  8
1
  2
*U163
 70
    65
 10
0.0
 20
0.0
 30
0.0
  3
*U163
  1

  0
CIRCLE
  5
5C6
  8
1
 10
2800.81733
 20
730.665172
 30
0.0
 40
0.888911
  0
CIRCLE
  5
5C7
  8
1
 10
2800.81733
 20
760.207259
 30
0.0
 40
0.888911
  0
CIRCLE
  5
5C8
  8
1
 10
2813.609428
 20
738.050694
 30
0.0
 40
0.888911
  0
CIRCLE
  5
5C9
  8
1
 10
2813.609428
 20
752.821737
 30
0.0
 40
0.888911
  0
CIRCLE
  5
5CA
  8
1
 10
2800.81733
 20
745.436215
 30
0.0
 40
0.888911
  0
ENDBLK
  5
5CB
  8
0
  0
BLOCK
  5
5CD
  8
1
  2
*U164
 70
    65
 10
0.0
 20
0.0
 30
0.0
  3
*U164
  1

  0
CIRCLE
  5
5CE
  8
1
 10
2826.401527
 20
730.665172
 30
0.0
 40
0.888911
  0
CIRCLE
  5
5CF
  8
1
 10
2826.401527
 20
760.207259
 30
0.0
 40
0.888911
  0
CIRCLE
  5
5D0
  8
1
 10
2839.193626
 20
738.050694
 30
0.0
 40
0.888911
  0
CIRCLE
  5
5D1
  8
1
 10
2839.193626
 20
752.821737
 30
0.0
 40
0.888911
  0
CIRCLE
  5
5D2
  8
1
 10
2826.401527
 20
745.436215
 30
0.0
 40
0.888911
  0
ENDBLK
  5
5D3
  8
0
  0
BLOCK
  5
5D5
  8
1
  2
*U165
 70
    65
 10
0.0
 20
0.0
 30
0.0
  3
*U165
  1

  0
CIRCLE
  5
5D6
  8
1
 10
2851.985724
 20
730.665172
 30
0.0
 40
0.888911
  0
CIRCLE
  5
5D7
  8
1
 10
2851.985724
 20
760.207259
 30
0.0
 40
0.888911
  0
CIRCLE
  5
5D8
  8
1
 10
2864.777823
 20
738.050694
 30
0.0
 40
0.888911
  0
CIRCLE
  5
5D9
  8
1
 10
2864.777823
 20
752.821737
 30
0.0
 40
0.888911
  0
CIRCLE
  5
5DA
  8
1
 10
2851.985724
 20
745.436215
 30
0.0
 40
0.888911
  0
ENDBLK
  5
5DB
  8
0
  0
BLOCK
  5
5DD
  8
1
  2
*U166
 70
    65
 10
0.0
 20
0.0
 30
0.0
  3
*U166
  1

  0
CIRCLE
  5
5DE
  8
1
 10
2877.569922
 20
730.665172
 30
0.0
 40
0.888911
  0
CIRCLE
  5
5DF
  8
1
 10
2877.569922
 20
760.207259
 30
0.0
 40
0.888911
  0
CIRCLE
  5
5E0
  8
1
 10
2890.362021
 20
738.050694
 30
0.0
 40
0.888911
  0
CIRCLE
  5
5E1
  8
1
 10
2890.362021
 20
752.821737
 30
0.0
 40
0.888911
  0
CIRCLE
  5
5E2
  8
1
 10
2877.569922
 20
745.436215
 30
0.0
 40
0.888911
  0
ENDBLK
  5
5E3
  8
0
  0
BLOCK
  5
5E5
  8
1
  2
*U167
 70
    65
 10
0.0
 20
0.0
 30
0.0
  3
*U167
  1

  0
CIRCLE
  5
5E6
  8
1
 10
2903.154119
 20
730.665172
 30
0.0
 40
0.888911
  0
CIRCLE
  5
5E7
  8
1
 10
2903.154119
 20
760.207259
 30
0.0
 40
0.888911
  0
CIRCLE
  5
5E8
  8
1
 10
2915.946218
 20
738.050694
 30
0.0
 40
0.888911
  0
CIRCLE
  5
5E9
  8
1
 10
2915.946218
 20
752.821737
 30
0.0
 40
0.888911
  0
CIRCLE
  5
5EA
  8
1
 10
2903.154119
 20
745.436215
 30
0.0
 40
0.888911
  0
ENDBLK
  5
5EB
  8
0
  0
BLOCK
  5
5ED
  8
1
  2
*U168
 70
    65
 10
0.0
 20
0.0
 30
0.0
  3
*U168
  1

  0
CIRCLE
  5
5EE
  8
1
 10
2928.738317
 20
730.665172
 30
0.0
 40
0.888911
  0
CIRCLE
  5
5EF
  8
1
 10
2928.738317
 20
760.207259
 30
0.0
 40
0.888911
  0
CIRCLE
  5
5F0
  8
1
 10
2941.530415
 20
738.050694
 30
0.0
 40
0.888911
  0
CIRCLE
  5
5F1
  8
1
 10
2941.530415
 20
752.821737
 30
0.0
 40
0.888911
  0
CIRCLE
  5
5F2
  8
1
 10
2928.738317
 20
745.436215
 30
0.0
 40
0.888911
  0
ENDBLK
  5
5F3
  8
0
  0
BLOCK
  5
5F5
  8
1
  2
*U169
 70
    65
 10
0.0
 20
0.0
 30
0.0
  3
*U169
  1

  0
CIRCLE
  5
5F6
  8
1
 10
2954.322514
 20
730.665172
 30
0.0
 40
0.888911
  0
CIRCLE
  5
5F7
  8
1
 10
2954.322514
 20
760.207259
 30
0.0
 40
0.888911
  0
CIRCLE
  5
5F8
  8
1
 10
2967.114613
 20
738.050694
 30
0.0
 40
0.888911
  0
CIRCLE
  5
5F9
  8
1
 10
2967.114613
 20
752.821737
 30
0.0
 40
0.888911
  0
CIRCLE
  5
5FA
  8
1
 10
2954.322514
 20
745.436215
 30
0.0
 40
0.888911
  0
ENDBLK
  5
5FB
  8
0
  0
BLOCK
  5
5FD
  8
1
  2
*U170
 70
    65
 10
0.0
 20
0.0
 30
0.0
  3
*U170
  1

  0
CIRCLE
  5
5FE
  8
1
 10
2979.906712
 20
730.665172
 30
0.0
 40
0.888911
  0
CIRCLE
  5
5FF
  8
1
 10
2979.906712
 20
760.207259
 30
0.0
 40
0.888911
  0
CIRCLE
  5
600
  8
1
 10
2992.69881
 20
738.050694
 30
0.0
 40
0.888911
  0
CIRCLE
  5
601
  8
1
 10
2992.69881
 20
752.821737
 30
0.0
 40
0.888911
  0
CIRCLE
  5
602
  8
1
 10
2979.906712
 20
745.436215
 30
0.0
 40
0.888911
  0
ENDBLK
  5
603
  8
0
  0
BLOCK
  5
605
  8
1
  2
*U171
 70
    65
 10
0.0
 20
0.0
 30
0.0
  3
*U171
  1

  0
CIRCLE
  5
606
  8
1
 10
3005.490909
 20
730.665172
 30
0.0
 40
0.888911
  0
CIRCLE
  5
607
  8
1
 10
3005.490909
 20
760.207259
 30
0.0
 40
0.888911
  0
CIRCLE
  5
608
  8
1
 10
3018.283008
 20
738.050694
 30
0.0
 40
0.888911
  0
CIRCLE
  5
609
  8
1
 10
3018.283008
 20
752.821737
 30
0.0
 40
0.888911
  0
CIRCLE
  5
60A
  8
1
 10
3005.490909
 20
745.436215
 30
0.0
 40
0.888911
  0
ENDBLK
  5
60B
  8
0
  0
BLOCK
  5
60D
  8
1
  2
*U172
 70
    65
 10
0.0
 20
0.0
 30
0.0
  3
*U172
  1

  0
INSERT
  5
60E
  8
1
  2
*U128
 10
0.0
 20
0.0
 30
0.0
  0
INSERT
  5
60F
  8
1
  2
*U129
 10
0.0
 20
0.0
 30
0.0
  0
INSERT
  5
610
  8
1
  2
*U130
 10
0.0
 20
0.0
 30
0.0
  0
INSERT
  5
611
  8
1
  2
*U131
 10
0.0
 20
0.0
 30
0.0
  0
INSERT
  5
612
  8
1
  2
*U132
 10
0.0
 20
0.0
 30
0.0
  0
INSERT
  5
613
  8
1
  2
*U133
 10
0.0
 20
0.0
 30
0.0
  0
INSERT
  5
614
  8
1
  2
*U134
 10
0.0
 20
0.0
 30
0.0
  0
INSERT
  5
615
  8
1
  2
*U135
 10
0.0
 20
0.0
 30
0.0
  0
INSERT
  5
616
  8
1
  2
*U136
 10
0.0
 20
0.0
 30
0.0
  0
INSERT
  5
617
  8
1
  2
*U137
 10
0.0
 20
0.0
 30
0.0
  0
INSERT
  5
618
  8
1
  2
*U138
 10
0.0
 20
0.0
 30
0.0
  0
INSERT
  5
619
  8
1
  2
*U139
 10
0.0
 20
0.0
 30
0.0
  0
INSERT
  5
61A
  8
1
  2
*U140
 10
0.0
 20
0.0
 30
0.0
  0
INSERT
  5
61B
  8
1
  2
*U141
 10
0.0
 20
0.0
 30
0.0
  0
INSERT
  5
61C
  8
1
  2
*U142
 10
0.0
 20
0.0
 30
0.0
  0
INSERT
  5
61D
  8
1
  2
*U143
 10
0.0
 20
0.0
 30
0.0
  0
INSERT
  5
61E
  8
1
  2
*U144
 10
0.0
 20
0.0
 30
0.0
  0
INSERT
  5
61F
  8
1
  2
*U145
 10
0.0
 20
0.0
 30
0.0
  0
INSERT
  5
620
  8
1
  2
*U146
 10
0.0
 20
0.0
 30
0.0
  0
INSERT
  5
621
  8
1
  2
*U147
 10
0.0
 20
0.0
 30
0.0
  0
INSERT
  5
622
  8
1
  2
*U148
 10
0.0
 20
0.0
 30
0.0
  0
INSERT
  5
623
  8
1
  2
*U149
 10
0.0
 20
0.0
 30
0.0
  0
INSERT
  5
624
  8
1
  2
*U150
 10
0.0
 20
0.0
 30
0.0
  0
INSERT
  5
625
  8
1
  2
*U151
 10
0.0
 20
0.0
 30
0.0
  0
INSERT
  5
626
  8
1
  2
*U152
 10
0.0
 20
0.0
 30
0.0
  0
INSERT
  5
627
  8
1
  2
*U153
 10
0.0
 20
0.0
 30
0.0
  0
INSERT
  5
628
  8
1
  2
*U154
 10
0.0
 20
0.0
 30
0.0
  0
INSERT
  5
629
  8
1
  2
*U155
 10
0.0
 20
0.0
 30
0.0
  0
INSERT
  5
62A
  8
1
  2
*U156
 10
0.0
 20
0.0
 30
0.0
  0
INSERT
  5
62B
  8
1
  2
*U157
 10
0.0
 20
0.0
 30
0.0
  0
INSERT
  5
62C
  8
1
  2
*U158
 10
0.0
 20
0.0
 30
0.0
  0
INSERT
  5
62D
  8
1
  2
*U159
 10
0.0
 20
0.0
 30
0.0
  0
INSERT
  5
62E
  8
1
  2
*U160
 10
0.0
 20
0.0
 30
0.0
  0
INSERT
  5
62F
  8
1
  2
*U161
 10
0.0
 20
0.0
 30
0.0
  0
INSERT
  5
630
  8
1
  2
*U162
 10
0.0
 20
0.0
 30
0.0
  0
INSERT
  5
631
  8
1
  2
*U163
 10
0.0
 20
0.0
 30
0.0
  0
INSERT
  5
632
  8
1
  2
*U164
 10
0.0
 20
0.0
 30
0.0
  0
INSERT
  5
633
  8
1
  2
*U165
 10
0.0
 20
0.0
 30
0.0
  0
INSERT
  5
634
  8
1
  2
*U166
 10
0.0
 20
0.0
 30
0.0
  0
INSERT
  5
635
  8
1
  2
*U167
 10
0.0
 20
0.0
 30
0.0
  0
INSERT
  5
636
  8
1
  2
*U168
 10
0.0
 20
0.0
 30
0.0
  0
INSERT
  5
637
  8
1
  2
*U169
 10
0.0
 20
0.0
 30
0.0
  0
INSERT
  5
638
  8
1
  2
*U170
 10
0.0
 20
0.0
 30
0.0
  0
INSERT
  5
639
  8
1
  2
*U171
 10
0.0
 20
0.0
 30
0.0
  0
ENDBLK
  5
63A
  8
0
  0
BLOCK
  5
63C
  8
1
  2
*U173
 70
    65
 10
0.0
 20
0.0
 30
0.0
  3
*U173
  1

  0
LINE
  5
63D
  8
1
 10
2407.727128
 20
437.175452
 30
0.0
 11
2436.704903
 21
466.153228
 31
0.0
  0
LINE
  5
63E
  8
1
 10
2365.300722
 20
437.175452
 30
0.0
 11
2452.234046
 21
524.10878
 31
0.0
  0
LINE
  5
63F
  8
1
 10
2322.874316
 20
437.175452
 30
0.0
 11
2467.763189
 21
582.064332
 31
0.0
  0
LINE
  5
640
  8
1
 10
2280.44791
 20
437.175452
 30
0.0
 11
2483.292332
 21
640.019884
 31
0.0
  0
LINE
  5
641
  8
1
 10
2238.021504
 20
437.175452
 30
0.0
 11
2498.021493
 21
697.175452
 31
0.0
  0
LINE
  5
642
  8
1
 10
2195.595098
 20
437.175452
 30
0.0
 11
2455.595087
 21
697.175452
 31
0.0
  0
LINE
  5
643
  8
1
 10
2153.168692
 20
437.175452
 30
0.0
 11
2413.168681
 21
697.175452
 31
0.0
  0
LINE
  5
644
  8
1
 10
2110.742286
 20
437.175452
 30
0.0
 11
2370.742275
 21
697.175452
 31
0.0
  0
LINE
  5
645
  8
1
 10
2068.31588
 20
437.175452
 30
0.0
 11
2328.315869
 21
697.175452
 31
0.0
  0
LINE
  5
646
  8
1
 10
2025.889474
 20
437.175452
 30
0.0
 11
2285.889463
 21
697.175452
 31
0.0
  0
LINE
  5
647
  8
1
 10
1983.463068
 20
437.175452
 30
0.0
 11
2243.463057
 21
697.175452
 31
0.0
  0
LINE
  5
648
  8
1
 10
1947.006063
 20
443.144853
 30
0.0
 11
2201.036651
 21
697.175452
 31
0.0
  0
LINE
  5
649
  8
1
 10
1947.006063
 20
485.571261
 30
0.0
 11
2158.610245
 21
697.175452
 31
0.0
  0
LINE
  5
64A
  8
1
 10
1947.006063
 20
527.997669
 30
0.0
 11
2116.183839
 21
697.175452
 31
0.0
  0
LINE
  5
64B
  8
1
 10
1947.006063
 20
570.424077
 30
0.0
 11
2073.757433
 21
697.175452
 31
0.0
  0
LINE
  5
64C
  8
1
 10
1947.006063
 20
612.850485
 30
0.0
 11
2031.331027
 21
697.175452
 31
0.0
  0
LINE
  5
64D
  8
1
 10
1947.006063
 20
655.276892
 30
0.0
 11
1988.904621
 21
697.175452
 31
0.0
  0
ENDBLK
  5
64E
  8
0
  0
BLOCK
  5
650
  8
2
  2
*D174
 70
    65
 10
0.0
 20
0.0
 30
0.0
  3
*D174
  1

  0
POINT
  5
651
  8
DEFPOINTS
 10
2755.106132
 20
1899.092151
 30
0.0
  0
POINT
  5
652
  8
DEFPOINTS
 10
2840.106132
 20
1899.092151
 30
0.0
  0
POINT
  5
653
  8
DEFPOINTS
 10
2694.224995
 20
2203.814048
 30
0.0
  0
LINE
  5
654
  8
2
  6
CONTINUOUS
 10
2755.106132
 20
1905.092151
 30
0.0
 11
2755.106132
 21
2208.814048
 31
0.0
  0
LINE
  5
655
  8
2
  6
CONTINUOUS
 10
2840.106132
 20
1905.092151
 30
0.0
 11
2840.106132
 21
2208.814048
 31
0.0
  0
LINE
  5
656
  8
2
  6
CONTINUOUS
 10
2630.306137
 20
2203.814048
 30
0.0
 11
2882.206665
 21
2203.814048
 31
0.0
  0
LINE
  5
657
  8
2
  6
CONTINUOUS
 10
2727.039112
 20
2198.865072
 30
0.0
 11
2755.106132
 21
2203.814048
 31
0.0
  0
LINE
  5
658
  8
2
  6
CONTINUOUS
 10
2727.039111
 20
2208.763018
 30
0.0
 11
2755.106132
 21
2203.814048
 31
0.0
  0
LINE
  5
659
  8
2
  6
CONTINUOUS
 10
2868.173152
 20
2208.763026
 30
0.0
 11
2840.106132
 21
2203.814048
 31
0.0
  0
LINE
  5
65A
  8
2
  6
CONTINUOUS
 10
2868.173154
 20
2198.86508
 30
0.0
 11
2840.106132
 21
2203.814048
 31
0.0
  0
TEXT
  5
65B
  8
2
  6
CONTINUOUS
 10
2651.106201
 20
2207.813965
 30
0.0
 40
52.0
  1
８５
 41
0.9
  7
MONOTXT
  0
ENDBLK
  5
65C
  8
0
  0
BLOCK
  5
65E
  8
2
  2
*D175
 70
    65
 10
0.0
 20
0.0
 30
0.0
  3
*D175
  1

  0
POINT
  5
65F
  8
DEFPOINTS
 10
2840.106132
 20
1819.092151
 30
0.0
  0
POINT
  5
660
  8
DEFPOINTS
 10
2840.106132
 20
1899.092151
 30
0.0
  0
POINT
  5
661
  8
DEFPOINTS
 10
3267.704961
 20
1732.054493
 30
0.0
  0
LINE
  5
662
  8
2
  6
CONTINUOUS
 10
2846.106132
 20
1819.092151
 30
0.0
 11
3272.704961
 21
1819.092151
 31
0.0
  0
LINE
  5
663
  8
2
  6
CONTINUOUS
 10
2846.106132
 20
1899.092151
 30
0.0
 11
3272.704961
 21
1899.092151
 31
0.0
  0
LINE
  5
664
  8
2
  6
CONTINUOUS
 10
3267.704961
 20
1694.292156
 30
0.0
 11
3267.704961
 21
1941.192684
 31
0.0
  0
LINE
  5
665
  8
2
  6
CONTINUOUS
 10
3272.653935
 20
1791.02513
 30
0.0
 11
3267.704961
 21
1819.092151
 31
0.0
  0
LINE
  5
666
  8
2
  6
CONTINUOUS
 10
3262.755989
 20
1791.02513
 30
0.0
 11
3267.704961
 21
1819.092151
 31
0.0
  0
LINE
  5
667
  8
2
  6
CONTINUOUS
 10
3262.755992
 20
1927.159173
 30
0.0
 11
3267.704961
 21
1899.092151
 31
0.0
  0
LINE
  5
668
  8
2
  6
CONTINUOUS
 10
3272.653938
 20
1927.159172
 30
0.0
 11
3267.704961
 21
1899.092151
 31
0.0
  0
TEXT
  5
669
  8
2
  6
CONTINUOUS
 10
3263.705078
 20
1715.092163
 30
0.0
 40
52.0
  1
８０
 50
90.000003
 41
0.9
  7
MONOTXT
  0
ENDBLK
  5
66A
  8
0
  0
BLOCK
  5
66C
  8
2
  2
*D176
 70
    65
 10
0.0
 20
0.0
 30
0.0
  3
*D176
  1

  0
POINT
  5
66D
  8
DEFPOINTS
 10
3274.606063
 20
1658.892251
 30
0.0
  0
POINT
  5
66E
  8
DEFPOINTS
 10
3243.206132
 20
1953.867622
 30
0.0
  0
POINT
  5
66F
  8
DEFPOINTS
 10
3622.415268
 20
1967.390528
 30
0.0
  0
LINE
  5
670
  8
2
  6
CONTINUOUS
 10
3280.606063
 20
1658.892251
 30
0.0
 11
3627.415268
 21
1658.892251
 31
0.0
  0
LINE
  5
671
  8
2
  6
CONTINUOUS
 10
3249.206132
 20
1953.867622
 30
0.0
 11
3627.415268
 21
1953.867622
 31
0.0
  0
LINE
  5
672
  8
2
  6
CONTINUOUS
 10
3622.415268
 20
1658.892251
 30
0.0
 11
3622.415268
 21
1953.867622
 31
0.0
  0
LINE
  5
673
  8
2
  6
CONTINUOUS
 10
3617.466294
 20
1686.959272
 30
0.0
 11
3622.415268
 21
1658.892251
 31
0.0
  0
LINE
  5
674
  8
2
  6
CONTINUOUS
 10
3627.36424
 20
1686.959272
 30
0.0
 11
3622.415268
 21
1658.892251
 31
0.0
  0
LINE
  5
675
  8
2
  6
CONTINUOUS
 10
3627.364242
 20
1925.800601
 30
0.0
 11
3622.415268
 21
1953.867622
 31
0.0
  0
LINE
  5
676
  8
2
  6
CONTINUOUS
 10
3617.466295
 20
1925.800601
 30
0.0
 11
3622.415268
 21
1953.867622
 31
0.0
  0
TEXT
  5
677
  8
2
  6
CONTINUOUS
 10
3618.415283
 20
1743.97998
 30
0.0
 40
52.0
  1
２９０
 50
90.000003
 41
0.9
  7
MONOTXT
  0
ENDBLK
  5
678
  8
0
  0
BLOCK
  5
67A
  8
2
  2
*D177
 70
    65
 10
0.0
 20
0.0
 30
0.0
  3
*D177
  1

  0
POINT
  5
67B
  8
DEFPOINTS
 10
3274.606063
 20
1658.892251
 30
0.0
  0
POINT
  5
67C
  8
DEFPOINTS
 10
2852.802693
 20
1859.092151
 30
0.0
  0
POINT
  5
67D
  8
DEFPOINTS
 10
3486.560962
 20
1604.982419
 30
0.0
  0
LINE
  5
67E
  8
2
  6
CONTINUOUS
 10
3280.606063
 20
1658.892251
 30
0.0
 11
3491.560962
 21
1658.892251
 31
0.0
  0
LINE
  5
67F
  8
2
  6
CONTINUOUS
 10
2858.802693
 20
1859.092151
 30
0.0
 11
3491.560962
 21
1859.092151
 31
0.0
  0
LINE
  5
680
  8
2
  6
CONTINUOUS
 10
3486.560962
 20
1658.892251
 30
0.0
 11
3486.560962
 21
1859.092151
 31
0.0
  0
LINE
  5
681
  8
2
  6
CONTINUOUS
 10
3481.611987
 20
1686.959272
 30
0.0
 11
3486.560962
 21
1658.892251
 31
0.0
  0
LINE
  5
682
  8
2
  6
CONTINUOUS
 10
3491.509933
 20
1686.959272
 30
0.0
 11
3486.560962
 21
1658.892251
 31
0.0
  0
LINE
  5
683
  8
2
  6
CONTINUOUS
 10
3491.509935
 20
1831.02513
 30
0.0
 11
3486.560962
 21
1859.092151
 31
0.0
  0
LINE
  5
684
  8
2
  6
CONTINUOUS
 10
3481.611989
 20
1831.02513
 30
0.0
 11
3486.560962
 21
1859.092151
 31
0.0
  0
TEXT
  5
685
  8
2
  6
CONTINUOUS
 10
3482.561035
 20
1711.901123
 30
0.0
 40
52.0
  1
２００
 50
90.000003
 41
0.9
  7
MONOTXT
  0
ENDBLK
  5
686
  8
0
  0
BLOCK
  5
688
  8
2
  2
*D178
 70
    65
 10
0.0
 20
0.0
 30
0.0
  3
*D178
  1

  0
POINT
  5
689
  8
DEFPOINTS
 10
3089.60649
 20
1643.892812
 30
0.0
  0
POINT
  5
68A
  8
DEFPOINTS
 10
3274.606063
 20
1658.892251
 30
0.0
  0
POINT
  5
68B
  8
DEFPOINTS
 10
3486.560962
 20
1604.982419
 30
0.0
  0
LINE
  5
68C
  8
2
  6
CONTINUOUS
 10
3095.60649
 20
1643.892812
 30
0.0
 11
3491.560962
 21
1643.892812
 31
0.0
  0
LINE
  5
68D
  8
2
  6
CONTINUOUS
 10
3280.606063
 20
1658.892251
 30
0.0
 11
3491.560962
 21
1658.892251
 31
0.0
  0
LINE
  5
68E
  8
2
  6
CONTINUOUS
 10
3486.560962
 20
1515.807545
 30
0.0
 11
3486.560962
 21
1700.992784
 31
0.0
  0
LINE
  5
68F
  8
2
  6
CONTINUOUS
 10
3491.509935
 20
1615.825791
 30
0.0
 11
3486.560962
 21
1643.892812
 31
0.0
  0
LINE
  5
690
  8
2
  6
CONTINUOUS
 10
3481.611989
 20
1615.825791
 30
0.0
 11
3486.560962
 21
1643.892812
 31
0.0
  0
LINE
  5
691
  8
2
  6
CONTINUOUS
 10
3481.611992
 20
1686.959273
 30
0.0
 11
3486.560962
 21
1658.892251
 31
0.0
  0
LINE
  5
692
  8
2
  6
CONTINUOUS
 10
3491.509938
 20
1686.959272
 30
0.0
 11
3486.560962
 21
1658.892251
 31
0.0
  0
TEXT
  5
693
  8
2
  6
CONTINUOUS
 10
3482.561035
 20
1536.607544
 30
0.0
 40
52.0
  1
８
 50
90.000003
 41
0.9
  7
MONOTXT
  0
ENDBLK
  5
694
  8
0
  0
BLOCK
  5
696
  8
2
  2
*D179
 70
    65
 10
0.0
 20
0.0
 30
0.0
  3
*D179
  1

  0
POINT
  5
697
  8
DEFPOINTS
 10
3074.606063
 20
1658.892251
 30
0.0
  0
POINT
  5
698
  8
DEFPOINTS
 10
3094.606063
 20
1648.892151
 30
0.0
  0
POINT
  5
699
  8
DEFPOINTS
 10
3091.320531
 20
1449.167005
 30
0.0
  0
LINE
  5
69A
  8
2
  6
CONTINUOUS
 10
3074.606063
 20
1652.892251
 30
0.0
 11
3074.606063
 21
1444.167005
 31
0.0
  0
LINE
  5
69B
  8
2
  6
CONTINUOUS
 10
3094.606063
 20
1642.892151
 30
0.0
 11
3094.606063
 21
1444.167005
 31
0.0
  0
LINE
  5
69C
  8
2
  6
CONTINUOUS
 10
3052.447889
 20
1449.167005
 30
0.0
 11
3219.406059
 21
1449.167005
 31
0.0
  0
CIRCLE
  5
69D
  8
2
  6
CONTINUOUS
 10
3074.606063
 20
1449.167005
 30
0.0
 40
3.75
  0
CIRCLE
  5
69E
  8
2
  6
CONTINUOUS
 10
3074.606063
 20
1449.167005
 30
0.0
 40
2.25
  0
LINE
  5
69F
  8
2
  6
CONTINUOUS
 10
3122.673083
 20
1454.115983
 30
0.0
 11
3094.606063
 21
1449.167005
 31
0.0
  0
LINE
  5
6A0
  8
2
  6
CONTINUOUS
 10
3122.673085
 20
1444.218037
 30
0.0
 11
3094.606063
 21
1449.167005
 31
0.0
  0
TEXT
  5
6A1
  8
2
  6
CONTINUOUS
 10
3115.406006
 20
1453.166992
 30
0.0
 40
52.0
  1
２０
 41
0.9
  7
MONOTXT
  0
ENDBLK
  5
6A2
  8
0
  0
BLOCK
  5
6A4
  8
2
  2
*D180
 70
    65
 10
0.0
 20
0.0
 30
0.0
  3
*D180
  1

  0
POINT
  5
6A5
  8
DEFPOINTS
 10
3054.606482
 20
1658.892779
 30
0.0
  0
POINT
  5
6A6
  8
DEFPOINTS
 10
3074.606063
 20
1658.892251
 30
0.0
  0
POINT
  5
6A7
  8
DEFPOINTS
 10
3091.320531
 20
1449.167005
 30
0.0
  0
LINE
  5
6A8
  8
2
  6
CONTINUOUS
 10
3054.606482
 20
1652.892779
 30
0.0
 11
3054.606482
 21
1444.167005
 31
0.0
  0
LINE
  5
6A9
  8
2
  6
CONTINUOUS
 10
3074.606063
 20
1652.892251
 30
0.0
 11
3074.606063
 21
1444.167005
 31
0.0
  0
LINE
  5
6AA
  8
2
  6
CONTINUOUS
 10
2929.806487
 20
1449.167005
 30
0.0
 11
3096.764238
 21
1449.167005
 31
0.0
  0
LINE
  5
6AB
  8
2
  6
CONTINUOUS
 10
3026.539462
 20
1444.21803
 30
0.0
 11
3054.606482
 21
1449.167005
 31
0.0
  0
LINE
  5
6AC
  8
2
  6
CONTINUOUS
 10
3026.539461
 20
1454.115976
 30
0.0
 11
3054.606482
 21
1449.167005
 31
0.0
  0
CIRCLE
  5
6AD
  8
2
  6
CONTINUOUS
 10
3074.606063
 20
1449.167005
 30
0.0
 40
3.75
  0
CIRCLE
  5
6AE
  8
2
  6
CONTINUOUS
 10
3074.606063
 20
1449.167005
 30
0.0
 40
2.25
  0
TEXT
  5
6AF
  8
2
  6
CONTINUOUS
 10
2950.606445
 20
1453.166992
 30
0.0
 40
52.0
  1
２０
 41
0.9
  7
MONOTXT
  0
ENDBLK
  5
6B0
  8
0
  0
BLOCK
  5
6B2
  8
2
  2
*D181
 70
    65
 10
0.0
 20
0.0
 30
0.0
  3
*D181
  1

  0
POINT
  5
6B3
  8
DEFPOINTS
 10
1669.606363
 20
1658.892051
 30
0.0
  0
POINT
  5
6B4
  8
DEFPOINTS
 10
1568.106959
 20
2017.892151
 30
0.0
  0
POINT
  5
6B5
  8
DEFPOINTS
 10
1268.881233
 20
1683.45381
 30
0.0
  0
LINE
  5
6B6
  8
2
  6
CONTINUOUS
 10
1663.606363
 20
1658.892051
 30
0.0
 11
1263.881233
 21
1658.892051
 31
0.0
  0
LINE
  5
6B7
  8
2
  6
CONTINUOUS
 10
1562.106959
 20
2017.892151
 30
0.0
 11
1263.881233
 21
2017.892151
 31
0.0
  0
LINE
  5
6B8
  8
2
  6
CONTINUOUS
 10
1268.881233
 20
1658.892051
 30
0.0
 11
1268.881233
 21
2017.892151
 31
0.0
  0
LINE
  5
6B9
  8
2
  6
CONTINUOUS
 10
1263.932259
 20
1686.959072
 30
0.0
 11
1268.881233
 21
1658.892051
 31
0.0
  0
LINE
  5
6BA
  8
2
  6
CONTINUOUS
 10
1273.830205
 20
1686.959072
 30
0.0
 11
1268.881233
 21
1658.892051
 31
0.0
  0
LINE
  5
6BB
  8
2
  6
CONTINUOUS
 10
1273.830207
 20
1989.82513
 30
0.0
 11
1268.881233
 21
2017.892151
 31
0.0
  0
LINE
  5
6BC
  8
2
  6
CONTINUOUS
 10
1263.93226
 20
1989.82513
 30
0.0
 11
1268.881233
 21
2017.892151
 31
0.0
  0
TEXT
  5
6BD
  8
2
  6
CONTINUOUS
 10
1264.881226
 20
1734.39209
 30
0.0
 40
52.0
  1
３５０以上
 50
90.000003
 41
0.9
  7
MONOTXT
  0
ENDBLK
  5
6BE
  8
0
  0
BLOCK
  5
6C0
  8
2
  2
*D182
 70
    65
 10
0.0
 20
0.0
 30
0.0
  3
*D182
  1

  0
POINT
  5
6C1
  8
DEFPOINTS
 10
1669.606363
 20
1658.892051
 30
0.0
  0
POINT
  5
6C2
  8
DEFPOINTS
 10
2101.589058
 20
1897.592151
 30
0.0
  0
POINT
  5
6C3
  8
DEFPOINTS
 10
1485.978196
 20
1785.786321
 30
0.0
  0
LINE
  5
6C4
  8
2
  6
CONTINUOUS
 10
1663.606363
 20
1658.892051
 30
0.0
 11
1480.978196
 21
1658.892051
 31
0.0
  0
LINE
  5
6C5
  8
2
  6
CONTINUOUS
 10
2095.589058
 20
1897.592151
 30
0.0
 11
1480.978196
 21
1897.592151
 31
0.0
  0
LINE
  5
6C6
  8
2
  6
CONTINUOUS
 10
1485.978196
 20
1446.176033
 30
0.0
 11
1485.978196
 21
1939.692684
 31
0.0
  0
LINE
  5
6C7
  8
2
  6
CONTINUOUS
 10
1490.927169
 20
1630.82503
 30
0.0
 11
1485.978196
 21
1658.892051
 31
0.0
  0
LINE
  5
6C8
  8
2
  6
CONTINUOUS
 10
1481.029223
 20
1630.82503
 30
0.0
 11
1485.978196
 21
1658.892051
 31
0.0
  0
LINE
  5
6C9
  8
2
  6
CONTINUOUS
 10
1481.029226
 20
1925.659173
 30
0.0
 11
1485.978196
 21
1897.592151
 31
0.0
  0
LINE
  5
6CA
  8
2
  6
CONTINUOUS
 10
1490.927173
 20
1925.659172
 30
0.0
 11
1485.978196
 21
1897.592151
 31
0.0
  0
TEXT
  5
6CB
  8
2
  6
CONTINUOUS
 10
1481.978149
 20
1466.976074
 30
0.0
 40
52.0
  1
２４０
 50
90.000003
 41
0.9
  7
MONOTXT
  0
ENDBLK
  5
6CC
  8
0
  0
BLOCK
  5
6CE
  8
2
  2
*D183
 70
    65
 10
0.0
 20
0.0
 30
0.0
  3
*D183
  1

  0
POINT
  5
6CF
  8
DEFPOINTS
 10
1869.605963
 20
1658.892251
 30
0.0
  0
POINT
  5
6D0
  8
DEFPOINTS
 10
1910.506482
 20
1658.891543
 30
0.0
  0
POINT
  5
6D1
  8
DEFPOINTS
 10
1854.849236
 20
1454.744902
 30
0.0
  0
LINE
  5
6D2
  8
2
  6
CONTINUOUS
 10
1869.605963
 20
1652.892251
 30
0.0
 11
1869.605963
 21
1449.744902
 31
0.0
  0
LINE
  5
6D3
  8
2
  6
CONTINUOUS
 10
1910.506482
 20
1652.891543
 30
0.0
 11
1910.506482
 21
1449.744902
 31
0.0
  0
LINE
  5
6D4
  8
2
  6
CONTINUOUS
 10
1847.447789
 20
1454.744902
 30
0.0
 11
2035.306478
 21
1454.744902
 31
0.0
  0
CIRCLE
  5
6D5
  8
2
  6
CONTINUOUS
 10
1869.605963
 20
1454.744902
 30
0.0
 40
3.75
  0
CIRCLE
  5
6D6
  8
2
  6
CONTINUOUS
 10
1869.605963
 20
1454.744902
 30
0.0
 40
2.25
  0
LINE
  5
6D7
  8
2
  6
CONTINUOUS
 10
1938.573502
 20
1459.69388
 30
0.0
 11
1910.506482
 21
1454.744902
 31
0.0
  0
LINE
  5
6D8
  8
2
  6
CONTINUOUS
 10
1938.573504
 20
1449.795934
 30
0.0
 11
1910.506482
 21
1454.744902
 31
0.0
  0
TEXT
  5
6D9
  8
2
  6
CONTINUOUS
 10
1931.306519
 20
1458.744873
 30
0.0
 40
52.0
  1
４０
 41
0.9
  7
MONOTXT
  0
ENDBLK
  5
6DA
  8
0
  0
BLOCK
  5
6DC
  8
2
  2
*D184
 70
    65
 10
0.0
 20
0.0
 30
0.0
  3
*D184
  1

  0
POINT
  5
6DD
  8
DEFPOINTS
 10
1849.606063
 20
1648.892151
 30
0.0
  0
POINT
  5
6DE
  8
DEFPOINTS
 10
1869.605963
 20
1658.892251
 30
0.0
  0
POINT
  5
6DF
  8
DEFPOINTS
 10
1854.849236
 20
1454.744902
 30
0.0
  0
LINE
  5
6E0
  8
2
  6
CONTINUOUS
 10
1849.606063
 20
1642.892151
 30
0.0
 11
1849.606063
 21
1449.744902
 31
0.0
  0
LINE
  5
6E1
  8
2
  6
CONTINUOUS
 10
1869.605963
 20
1652.892251
 30
0.0
 11
1869.605963
 21
1449.744902
 31
0.0
  0
LINE
  5
6E2
  8
2
  6
CONTINUOUS
 10
1724.806068
 20
1454.744902
 30
0.0
 11
1891.764138
 21
1454.744902
 31
0.0
  0
LINE
  5
6E3
  8
2
  6
CONTINUOUS
 10
1821.539043
 20
1449.795927
 30
0.0
 11
1849.606063
 21
1454.744902
 31
0.0
  0
LINE
  5
6E4
  8
2
  6
CONTINUOUS
 10
1821.539042
 20
1459.693873
 30
0.0
 11
1849.606063
 21
1454.744902
 31
0.0
  0
CIRCLE
  5
6E5
  8
2
  6
CONTINUOUS
 10
1869.605963
 20
1454.744902
 30
0.0
 40
3.75
  0
CIRCLE
  5
6E6
  8
2
  6
CONTINUOUS
 10
1869.605963
 20
1454.744902
 30
0.0
 40
2.25
  0
TEXT
  5
6E7
  8
2
  6
CONTINUOUS
 10
1745.606079
 20
1458.744873
 30
0.0
 40
52.0
  1
２０
 41
0.9
  7
MONOTXT
  0
ENDBLK
  5
6E8
  8
0
  0
BLOCK
  5
6EA
  8
2
  2
*D185
 70
    65
 10
0.0
 20
0.0
 30
0.0
  3
*D185
  1

  0
POINT
  5
6EB
  8
DEFPOINTS
 10
1947.006063
 20
437.175452
 30
0.0
  0
POINT
  5
6EC
  8
DEFPOINTS
 10
1947.006063
 20
697.175452
 30
0.0
  0
POINT
  5
6ED
  8
DEFPOINTS
 10
1702.287341
 20
273.861145
 30
0.0
  0
LINE
  5
6EE
  8
2
  6
CONTINUOUS
 10
1941.006063
 20
437.175452
 30
0.0
 11
1697.287341
 21
437.175452
 31
0.0
  0
LINE
  5
6EF
  8
2
  6
CONTINUOUS
 10
1941.006063
 20
697.175452
 30
0.0
 11
1697.287341
 21
697.175452
 31
0.0
  0
LINE
  5
6F0
  8
2
  6
CONTINUOUS
 10
1702.287341
 20
-186.648705
 30
0.0
 11
1702.287341
 21
739.275985
 31
0.0
  0
LINE
  5
6F1
  8
2
  6
CONTINUOUS
 10
1707.236314
 20
409.108432
 30
0.0
 11
1702.287341
 21
437.175452
 31
0.0
  0
LINE
  5
6F2
  8
2
  6
CONTINUOUS
 10
1697.338368
 20
409.108431
 30
0.0
 11
1702.287341
 21
437.175452
 31
0.0
  0
LINE
  5
6F3
  8
2
  6
CONTINUOUS
 10
1697.338371
 20
725.242474
 30
0.0
 11
1702.287341
 21
697.175452
 31
0.0
  0
LINE
  5
6F4
  8
2
  6
CONTINUOUS
 10
1707.236317
 20
725.242473
 30
0.0
 11
1702.287341
 21
697.175452
 31
0.0
  0
TEXT
  5
6F5
  8
2
  6
CONTINUOUS
 10
1698.287354
 20
-165.848709
 30
0.0
 40
52.0
  1
２６０（天井材部）
 50
90.000003
 41
0.9
  7
MONOTXT
  0
ENDBLK
  5
6F6
  8
0
  0
BLOCK
  5
6F8
  8
2
  2
*D186
 70
    65
 10
0.0
 20
0.0
 30
0.0
  3
*D186
  1

  0
POINT
  5
6F9
  8
DEFPOINTS
 10
1864.606063
 20
227.175452
 30
0.0
  0
POINT
  5
6FA
  8
DEFPOINTS
 10
1864.606063
 20
907.175452
 30
0.0
  0
POINT
  5
6FB
  8
DEFPOINTS
 10
1603.65892
 20
530.999528
 30
0.0
  0
LINE
  5
6FC
  8
2
  6
CONTINUOUS
 10
1858.606063
 20
227.175452
 30
0.0
 11
1598.65892
 21
227.175452
 31
0.0
  0
LINE
  5
6FD
  8
2
  6
CONTINUOUS
 10
1858.606063
 20
907.175452
 30
0.0
 11
1598.65892
 21
907.175452
 31
0.0
  0
LINE
  5
6FE
  8
2
  6
CONTINUOUS
 10
1603.65892
 20
227.175452
 30
0.0
 11
1603.65892
 21
907.175452
 31
0.0
  0
LINE
  5
6FF
  8
2
  6
CONTINUOUS
 10
1598.709946
 20
255.242473
 30
0.0
 11
1603.65892
 21
227.175452
 31
0.0
  0
LINE
  5
700
  8
2
  6
CONTINUOUS
 10
1608.607892
 20
255.242474
 30
0.0
 11
1603.65892
 21
227.175452
 31
0.0
  0
LINE
  5
701
  8
2
  6
CONTINUOUS
 10
1608.607893
 20
879.108432
 30
0.0
 11
1603.65892
 21
907.175452
 31
0.0
  0
LINE
  5
702
  8
2
  6
CONTINUOUS
 10
1598.709947
 20
879.108431
 30
0.0
 11
1603.65892
 21
907.175452
 31
0.0
  0
TEXT
  5
703
  8
2
  6
CONTINUOUS
 10
1599.658936
 20
504.775452
 30
0.0
 40
52.0
  1
６８０
 50
90.000003
 41
0.9
  7
MONOTXT
  0
ENDBLK
  5
704
  8
0
  0
BLOCK
  5
706
  8
2
  2
*D187
 70
    65
 10
0.0
 20
0.0
 30
0.0
  3
*D187
  1

  0
POINT
  5
707
  8
DEFPOINTS
 10
1849.606063
 20
242.175452
 30
0.0
  0
POINT
  5
708
  8
DEFPOINTS
 10
3094.606063
 20
242.175452
 30
0.0
  0
POINT
  5
709
  8
DEFPOINTS
 10
2694.844525
 20
-56.849277
 30
0.0
  0
LINE
  5
70A
  8
2
  6
CONTINUOUS
 10
1849.606063
 20
236.175452
 30
0.0
 11
1849.606063
 21
-61.849277
 31
0.0
  0
LINE
  5
70B
  8
2
  6
CONTINUOUS
 10
3094.606063
 20
236.175452
 30
0.0
 11
3094.606063
 21
-61.849277
 31
0.0
  0
LINE
  5
70C
  8
2
  6
CONTINUOUS
 10
1849.606063
 20
-56.849277
 30
0.0
 11
3094.606063
 21
-56.849277
 31
0.0
  0
LINE
  5
70D
  8
2
  6
CONTINUOUS
 10
1877.673084
 20
-51.900304
 30
0.0
 11
1849.606063
 21
-56.849277
 31
0.0
  0
LINE
  5
70E
  8
2
  6
CONTINUOUS
 10
1877.673084
 20
-61.79825
 30
0.0
 11
1849.606063
 21
-56.849277
 31
0.0
  0
LINE
  5
70F
  8
2
  6
CONTINUOUS
 10
3066.539043
 20
-61.798253
 30
0.0
 11
3094.606063
 21
-56.849277
 31
0.0
  0
LINE
  5
710
  8
2
  6
CONTINUOUS
 10
3066.539042
 20
-51.900307
 30
0.0
 11
3094.606063
 21
-56.849277
 31
0.0
  0
TEXT
  5
711
  8
2
  6
CONTINUOUS
 10
2388.906006
 20
-52.849277
 30
0.0
 40
52.0
  1
１２４５
 41
0.9
  7
MONOTXT
  0
ENDBLK
  5
712
  8
0
  0
BLOCK
  5
714
  8
2
  2
*D188
 70
    65
 10
0.0
 20
0.0
 30
0.0
  3
*D188
  1

  0
POINT
  5
715
  8
DEFPOINTS
 10
4065.485281
 20
3199.080513
 30
0.0
  0
POINT
  5
716
  8
DEFPOINTS
 10
3746.528816
 20
3437.781211
 30
0.0
  0
POINT
  5
717
  8
DEFPOINTS
 10
3545.357613
 20
3334.798329
 30
0.0
  0
LINE
  5
718
  8
2
  6
CONTINUOUS
 10
4059.485281
 20
3199.080513
 30
0.0
 11
3540.357613
 21
3199.080513
 31
0.0
  0
LINE
  5
719
  8
2
  6
CONTINUOUS
 10
3740.528816
 20
3437.781211
 30
0.0
 11
3540.357613
 21
3437.781211
 31
0.0
  0
LINE
  5
71A
  8
2
  6
CONTINUOUS
 10
3545.357613
 20
3199.080513
 30
0.0
 11
3545.357613
 21
3437.781211
 31
0.0
  0
LINE
  5
71B
  8
2
  6
CONTINUOUS
 10
3540.408638
 20
3227.147533
 30
0.0
 11
3545.357613
 21
3199.080513
 31
0.0
  0
LINE
  5
71C
  8
2
  6
CONTINUOUS
 10
3550.306584
 20
3227.147534
 30
0.0
 11
3545.357613
 21
3199.080513
 31
0.0
  0
LINE
  5
71D
  8
2
  6
CONTINUOUS
 10
3550.306586
 20
3409.71419
 30
0.0
 11
3545.357613
 21
3437.781211
 31
0.0
  0
LINE
  5
71E
  8
2
  6
CONTINUOUS
 10
3540.40864
 20
3409.714189
 30
0.0
 11
3545.357613
 21
3437.781211
 31
0.0
  0
TEXT
  5
71F
  8
2
  6
CONTINUOUS
 10
3541.357666
 20
3256.030762
 30
0.0
 40
52.0
  1
２４０
 50
90.000003
 41
0.9
  7
MONOTXT
  0
ENDBLK
  5
720
  8
0
  0
BLOCK
  5
722
  8
2
  2
*D189
 70
    65
 10
0.0
 20
0.0
 30
0.0
  3
*D189
  1

  0
POINT
  5
723
  8
DEFPOINTS
 10
2110.606063
 20
1830.092151
 30
0.0
  0
POINT
  5
724
  8
DEFPOINTS
 10
2110.606063
 20
1965.092151
 30
0.0
  0
POINT
  5
725
  8
DEFPOINTS
 10
1584.779939
 20
1841.520638
 30
0.0
  0
LINE
  5
726
  8
2
  6
CONTINUOUS
 10
2104.606063
 20
1830.092151
 30
0.0
 11
1579.779939
 21
1830.092151
 31
0.0
  0
LINE
  5
727
  8
2
  6
CONTINUOUS
 10
2104.606063
 20
1965.092151
 30
0.0
 11
1579.779939
 21
1965.092151
 31
0.0
  0
LINE
  5
728
  8
2
  6
CONTINUOUS
 10
1584.779939
 20
1444.408069
 30
0.0
 11
1584.779939
 21
2007.192684
 31
0.0
  0
LINE
  5
729
  8
2
  6
CONTINUOUS
 10
1589.728912
 20
1802.02513
 30
0.0
 11
1584.779939
 21
1830.092151
 31
0.0
  0
LINE
  5
72A
  8
2
  6
CONTINUOUS
 10
1579.830966
 20
1802.02513
 30
0.0
 11
1584.779939
 21
1830.092151
 31
0.0
  0
LINE
  5
72B
  8
2
  6
CONTINUOUS
 10
1579.83097
 20
1993.159173
 30
0.0
 11
1584.779939
 21
1965.092151
 31
0.0
  0
LINE
  5
72C
  8
2
  6
CONTINUOUS
 10
1589.728916
 20
1993.159172
 30
0.0
 11
1584.779939
 21
1965.092151
 31
0.0
  0
TEXT
  5
72D
  8
2
  6
CONTINUOUS
 10
1580.779907
 20
1465.20813
 30
0.0
 40
52.0
  1
１３５
 50
90.000003
 41
0.9
  7
MONOTXT
  0
ENDBLK
  5
72E
  8
0
  0
BLOCK
  5
730
  8
2
  2
*D190
 70
    65
 10
0.0
 20
0.0
 30
0.0
  3
*D190
  1

  0
POINT
  5
731
  8
DEFPOINTS
 10
2964.206132
 20
3599.44792
 30
0.0
  0
POINT
  5
732
  8
DEFPOINTS
 10
3016.606132
 20
3430.04792
 30
0.0
  0
POINT
  5
733
  8
DEFPOINTS
 10
3142.547355
 20
3744.027707
 30
0.0
  0
LINE
  5
734
  8
2
  6
CONTINUOUS
 10
2964.206132
 20
3605.44792
 30
0.0
 11
2964.206132
 21
3749.027707
 31
0.0
  0
LINE
  5
735
  8
2
  6
CONTINUOUS
 10
3016.606132
 20
3436.04792
 30
0.0
 11
3016.606132
 21
3749.027707
 31
0.0
  0
LINE
  5
736
  8
2
  6
CONTINUOUS
 10
2922.1056
 20
3744.027707
 30
0.0
 11
3182.865516
 21
3744.027707
 31
0.0
  0
LINE
  5
737
  8
2
  6
CONTINUOUS
 10
2936.139112
 20
3739.078731
 30
0.0
 11
2964.206132
 21
3744.027707
 31
0.0
  0
LINE
  5
738
  8
2
  6
CONTINUOUS
 10
2936.139111
 20
3748.976677
 30
0.0
 11
2964.206132
 21
3744.027707
 31
0.0
  0
LINE
  5
739
  8
2
  6
CONTINUOUS
 10
3044.673152
 20
3748.976684
 30
0.0
 11
3016.606132
 21
3744.027707
 31
0.0
  0
LINE
  5
73A
  8
2
  6
CONTINUOUS
 10
3044.673154
 20
3739.078738
 30
0.0
 11
3016.606132
 21
3744.027707
 31
0.0
  0
TEXT
  5
73B
  8
2
  6
CONTINUOUS
 10
3078.865479
 20
3748.027588
 30
0.0
 40
52.0
  1
５０
 41
0.9
  7
MONOTXT
  0
ENDBLK
  5
73C
  8
0
  0
BLOCK
  5
73E
  8
2
  2
*D191
 70
    65
 10
0.0
 20
0.0
 30
0.0
  3
*D191
  1

  0
POINT
  5
73F
  8
DEFPOINTS
 10
1931.92983
 20
3039.84792
 30
0.0
  0
POINT
  5
740
  8
DEFPOINTS
 10
1933.480041
 20
3559.84792
 30
0.0
  0
POINT
  5
741
  8
DEFPOINTS
 10
1666.223623
 20
3246.541945
 30
0.0
  0
LINE
  5
742
  8
2
  6
CONTINUOUS
 10
1925.92983
 20
3039.84792
 30
0.0
 11
1661.223623
 21
3039.84792
 31
0.0
  0
LINE
  5
743
  8
2
  6
CONTINUOUS
 10
1927.480041
 20
3559.84792
 30
0.0
 11
1661.223623
 21
3559.84792
 31
0.0
  0
LINE
  5
744
  8
2
  6
CONTINUOUS
 10
1666.223623
 20
3039.84792
 30
0.0
 11
1666.223623
 21
3559.84792
 31
0.0
  0
LINE
  5
745
  8
2
  6
CONTINUOUS
 10
1661.274649
 20
3067.91494
 30
0.0
 11
1666.223623
 21
3039.84792
 31
0.0
  0
LINE
  5
746
  8
2
  6
CONTINUOUS
 10
1671.172595
 20
3067.914941
 30
0.0
 11
1666.223623
 21
3039.84792
 31
0.0
  0
LINE
  5
747
  8
2
  6
CONTINUOUS
 10
1671.172596
 20
3531.780899
 30
0.0
 11
1666.223623
 21
3559.84792
 31
0.0
  0
LINE
  5
748
  8
2
  6
CONTINUOUS
 10
1661.27465
 20
3531.780899
 30
0.0
 11
1666.223623
 21
3559.84792
 31
0.0
  0
TEXT
  5
749
  8
2
  6
CONTINUOUS
 10
1662.223633
 20
3112.647949
 30
0.0
 40
52.0
  1
５２０（吊り位置）
 50
90.000003
 41
0.9
  7
MONOTXT
  0
ENDBLK
  5
74A
  8
0
  0
BLOCK
  5
74C
  8
2
  2
*D192
 70
    65
 10
0.0
 20
0.0
 30
0.0
  3
*D192
  1

  0
POINT
  5
74D
  8
DEFPOINTS
 10
1869.606132
 20
2979.44792
 30
0.0
  0
POINT
  5
74E
  8
DEFPOINTS
 10
1869.606132
 20
3619.44792
 30
0.0
  0
POINT
  5
74F
  8
DEFPOINTS
 10
1569.232896
 20
3092.10311
 30
0.0
  0
LINE
  5
750
  8
2
  6
CONTINUOUS
 10
1863.606132
 20
2979.44792
 30
0.0
 11
1564.232896
 21
2979.44792
 31
0.0
  0
LINE
  5
751
  8
2
  6
CONTINUOUS
 10
1863.606132
 20
3619.44792
 30
0.0
 11
1564.232896
 21
3619.44792
 31
0.0
  0
LINE
  5
752
  8
2
  6
CONTINUOUS
 10
1569.232896
 20
2979.44792
 30
0.0
 11
1569.232896
 21
3619.44792
 31
0.0
  0
LINE
  5
753
  8
2
  6
CONTINUOUS
 10
1564.283922
 20
3007.51494
 30
0.0
 11
1569.232896
 21
2979.44792
 31
0.0
  0
LINE
  5
754
  8
2
  6
CONTINUOUS
 10
1574.181868
 20
3007.514941
 30
0.0
 11
1569.232896
 21
2979.44792
 31
0.0
  0
LINE
  5
755
  8
2
  6
CONTINUOUS
 10
1574.181869
 20
3591.380899
 30
0.0
 11
1569.232896
 21
3619.44792
 31
0.0
  0
LINE
  5
756
  8
2
  6
CONTINUOUS
 10
1564.283923
 20
3591.380899
 30
0.0
 11
1569.232896
 21
3619.44792
 31
0.0
  0
TEXT
  5
757
  8
2
  6
CONTINUOUS
 10
1565.23291
 20
3091.447998
 30
0.0
 40
52.0
  1
６４０（天井開口部）
 50
90.000003
 41
0.9
  7
MONOTXT
  0
ENDBLK
  5
758
  8
0
  0
BLOCK
  5
75A
  8
2
  2
*D193
 70
    65
 10
0.0
 20
0.0
 30
0.0
  3
*D193
  1

  0
POINT
  5
75B
  8
DEFPOINTS
 10
2964.206132
 20
2999.44792
 30
0.0
  0
POINT
  5
75C
  8
DEFPOINTS
 10
3024.806132
 20
3250.04792
 30
0.0
  0
POINT
  5
75D
  8
DEFPOINTS
 10
3144.912925
 20
2878.97348
 30
0.0
  0
LINE
  5
75E
  8
2
  6
CONTINUOUS
 10
2964.206132
 20
2993.44792
 30
0.0
 11
2964.206132
 21
2873.97348
 31
0.0
  0
LINE
  5
75F
  8
2
  6
CONTINUOUS
 10
3024.806132
 20
3244.04792
 30
0.0
 11
3024.806132
 21
2873.97348
 31
0.0
  0
LINE
  5
760
  8
2
  6
CONTINUOUS
 10
2922.1056
 20
2878.97348
 30
0.0
 11
3224.685573
 21
2878.97348
 31
0.0
  0
LINE
  5
761
  8
2
  6
CONTINUOUS
 10
2936.139112
 20
2874.024505
 30
0.0
 11
2964.206132
 21
2878.97348
 31
0.0
  0
LINE
  5
762
  8
2
  6
CONTINUOUS
 10
2936.139111
 20
2883.922451
 30
0.0
 11
2964.206132
 21
2878.97348
 31
0.0
  0
LINE
  5
763
  8
2
  6
CONTINUOUS
 10
3052.873152
 20
2883.922458
 30
0.0
 11
3024.806132
 21
2878.97348
 31
0.0
  0
LINE
  5
764
  8
2
  6
CONTINUOUS
 10
3052.873154
 20
2874.024512
 30
0.0
 11
3024.806132
 21
2878.97348
 31
0.0
  0
TEXT
  5
765
  8
2
  6
CONTINUOUS
 10
3120.685547
 20
2882.973389
 30
0.0
 40
52.0
  1
６０
 41
0.9
  7
MONOTXT
  0
ENDBLK
  5
766
  8
0
  0
BLOCK
  5
768
  8
2
  2
*D194
 70
    65
 10
0.0
 20
0.0
 30
0.0
  3
*D194
  1

  0
POINT
  5
769
  8
DEFPOINTS
 10
1955.006132
 20
3012.16393
 30
0.0
  0
POINT
  5
76A
  8
DEFPOINTS
 10
2989.206132
 20
3012.559773
 30
0.0
  0
POINT
  5
76B
  8
DEFPOINTS
 10
2872.492134
 20
2813.454556
 30
0.0
  0
LINE
  5
76C
  8
2
  6
CONTINUOUS
 10
1955.006132
 20
3006.16393
 30
0.0
 11
1955.006132
 21
2808.454556
 31
0.0
  0
LINE
  5
76D
  8
2
  6
CONTINUOUS
 10
2989.206132
 20
3006.559773
 30
0.0
 11
2989.206132
 21
2808.454556
 31
0.0
  0
LINE
  5
76E
  8
2
  6
CONTINUOUS
 10
1955.006132
 20
2813.454556
 30
0.0
 11
2989.206132
 21
2813.454556
 31
0.0
  0
LINE
  5
76F
  8
2
  6
CONTINUOUS
 10
1983.073153
 20
2818.403529
 30
0.0
 11
1955.006132
 21
2813.454556
 31
0.0
  0
LINE
  5
770
  8
2
  6
CONTINUOUS
 10
1983.073153
 20
2808.505583
 30
0.0
 11
1955.006132
 21
2813.454556
 31
0.0
  0
LINE
  5
771
  8
2
  6
CONTINUOUS
 10
2961.139112
 20
2808.50558
 30
0.0
 11
2989.206132
 21
2813.454556
 31
0.0
  0
LINE
  5
772
  8
2
  6
CONTINUOUS
 10
2961.139111
 20
2818.403526
 30
0.0
 11
2989.206132
 21
2813.454556
 31
0.0
  0
TEXT
  5
773
  8
2
  6
CONTINUOUS
 10
2264.106201
 20
2817.45459
 30
0.0
 40
52.0
  1
１０３５（吊り位置）
 41
0.9
  7
MONOTXT
  0
ENDBLK
  5
774
  8
0
  0
BLOCK
  5
776
  8
2
  2
*D195
 70
    65
 10
0.0
 20
0.0
 30
0.0
  3
*D195
  1

  0
POINT
  5
777
  8
DEFPOINTS
 10
1869.606132
 20
2979.44792
 30
0.0
  0
POINT
  5
778
  8
DEFPOINTS
 10
3074.606132
 20
2979.44792
 30
0.0
  0
POINT
  5
779
  8
DEFPOINTS
 10
2800.076481
 20
2730.693809
 30
0.0
  0
LINE
  5
77A
  8
2
  6
CONTINUOUS
 10
1869.606132
 20
2973.44792
 30
0.0
 11
1869.606132
 21
2725.693809
 31
0.0
  0
LINE
  5
77B
  8
2
  6
CONTINUOUS
 10
3074.606132
 20
2973.44792
 30
0.0
 11
3074.606132
 21
2725.693809
 31
0.0
  0
LINE
  5
77C
  8
2
  6
CONTINUOUS
 10
1869.606132
 20
2730.693809
 30
0.0
 11
3074.606132
 21
2730.693809
 31
0.0
  0
LINE
  5
77D
  8
2
  6
CONTINUOUS
 10
1897.673153
 20
2735.642782
 30
0.0
 11
1869.606132
 21
2730.693809
 31
0.0
  0
LINE
  5
77E
  8
2
  6
CONTINUOUS
 10
1897.673153
 20
2725.744836
 30
0.0
 11
1869.606132
 21
2730.693809
 31
0.0
  0
LINE
  5
77F
  8
2
  6
CONTINUOUS
 10
3046.539112
 20
2725.744834
 30
0.0
 11
3074.606132
 21
2730.693809
 31
0.0
  0
LINE
  5
780
  8
2
  6
CONTINUOUS
 10
3046.539111
 20
2735.64278
 30
0.0
 11
3074.606132
 21
2730.693809
 31
0.0
  0
TEXT
  5
781
  8
2
  6
CONTINUOUS
 10
2243.306152
 20
2734.693848
 30
0.0
 40
52.0
  1
１２０５（天井開口部）
 41
0.9
  7
MONOTXT
  0
ENDBLK
  5
782
  8
0
  0
BLOCK
  5
784
  8
2
  2
*D196
 70
    65
 10
0.0
 20
0.0
 30
0.0
  3
*D196
  1

  0
POINT
  5
785
  8
DEFPOINTS
 10
2964.206132
 20
2007.892151
 30
0.0
  0
POINT
  5
786
  8
DEFPOINTS
 10
3094.606063
 20
1658.892151
 30
0.0
  0
POINT
  5
787
  8
DEFPOINTS
 10
2426.62228
 20
2539.026203
 30
0.0
  0
LINE
  5
788
  8
2
  6
CONTINUOUS
 10
2964.206132
 20
2013.892151
 30
0.0
 11
2964.206132
 21
2544.026203
 31
0.0
  0
LINE
  5
789
  8
2
  6
CONTINUOUS
 10
3094.606063
 20
1664.892151
 30
0.0
 11
3094.606063
 21
2544.026203
 31
0.0
  0
LINE
  5
78A
  8
2
  6
CONTINUOUS
 10
2922.1056
 20
2539.026203
 30
0.0
 11
3266.016143
 21
2539.026203
 31
0.0
  0
LINE
  5
78B
  8
2
  6
CONTINUOUS
 10
2936.139112
 20
2534.077227
 30
0.0
 11
2964.206132
 21
2539.026203
 31
0.0
  0
LINE
  5
78C
  8
2
  6
CONTINUOUS
 10
2936.139111
 20
2543.975173
 30
0.0
 11
2964.206132
 21
2539.026203
 31
0.0
  0
LINE
  5
78D
  8
2
  6
CONTINUOUS
 10
3122.673083
 20
2543.975181
 30
0.0
 11
3094.606063
 21
2539.026203
 31
0.0
  0
LINE
  5
78E
  8
2
  6
CONTINUOUS
 10
3122.673085
 20
2534.077235
 30
0.0
 11
3094.606063
 21
2539.026203
 31
0.0
  0
TEXT
  5
78F
  8
2
  6
CONTINUOUS
 10
3120.41626
 20
2543.026123
 30
0.0
 40
52.0
  1
１２５
 41
0.9
  7
MONOTXT
  0
ENDBLK
  5
790
  8
0
  0
BLOCK
  5
792
  8
2
  2
*D197
 70
    65
 10
0.0
 20
0.0
 30
0.0
  3
*D197
  1

  0
POINT
  5
793
  8
DEFPOINTS
 10
1980.006132
 20
2007.892151
 30
0.0
  0
POINT
  5
794
  8
DEFPOINTS
 10
2964.206132
 20
2007.892151
 30
0.0
  0
POINT
  5
795
  8
DEFPOINTS
 10
2426.62228
 20
2539.026203
 30
0.0
  0
LINE
  5
796
  8
2
  6
CONTINUOUS
 10
1980.006132
 20
2013.892151
 30
0.0
 11
1980.006132
 21
2544.026203
 31
0.0
  0
LINE
  5
797
  8
2
  6
CONTINUOUS
 10
2964.206132
 20
2013.892151
 30
0.0
 11
2964.206132
 21
2544.026203
 31
0.0
  0
LINE
  5
798
  8
2
  6
CONTINUOUS
 10
1980.006132
 20
2539.026203
 30
0.0
 11
2964.206132
 21
2539.026203
 31
0.0
  0
LINE
  5
799
  8
2
  6
CONTINUOUS
 10
2008.073153
 20
2543.975176
 30
0.0
 11
1980.006132
 21
2539.026203
 31
0.0
  0
LINE
  5
79A
  8
2
  6
CONTINUOUS
 10
2008.073153
 20
2534.07723
 30
0.0
 11
1980.006132
 21
2539.026203
 31
0.0
  0
LINE
  5
79B
  8
2
  6
CONTINUOUS
 10
2936.139112
 20
2534.077227
 30
0.0
 11
2964.206132
 21
2539.026203
 31
0.0
  0
LINE
  5
79C
  8
2
  6
CONTINUOUS
 10
2936.139111
 20
2543.975173
 30
0.0
 11
2964.206132
 21
2539.026203
 31
0.0
  0
TEXT
  5
79D
  8
2
  6
CONTINUOUS
 10
2409.706055
 20
2543.026123
 30
0.0
 40
52.0
  1
９９５
 41
0.9
  7
MONOTXT
  0
ENDBLK
  5
79E
  8
0
  0
BLOCK
  5
7A0
  8
2
  2
*D198
 70
    65
 10
0.0
 20
0.0
 30
0.0
  3
*D198
  1

  0
POINT
  5
7A1
  8
DEFPOINTS
 10
1849.606063
 20
1658.892151
 30
0.0
  0
POINT
  5
7A2
  8
DEFPOINTS
 10
1980.006132
 20
2007.892151
 30
0.0
  0
POINT
  5
7A3
  8
DEFPOINTS
 10
2426.62228
 20
2539.026203
 30
0.0
  0
LINE
  5
7A4
  8
2
  6
CONTINUOUS
 10
1849.606063
 20
1664.892151
 30
0.0
 11
1849.606063
 21
2544.026203
 31
0.0
  0
LINE
  5
7A5
  8
2
  6
CONTINUOUS
 10
1980.006132
 20
2013.892151
 30
0.0
 11
1980.006132
 21
2544.026203
 31
0.0
  0
LINE
  5
7A6
  8
2
  6
CONTINUOUS
 10
1683.206069
 20
2539.026203
 30
0.0
 11
2022.106665
 21
2539.026203
 31
0.0
  0
LINE
  5
7A7
  8
2
  6
CONTINUOUS
 10
1821.539043
 20
2534.077227
 30
0.0
 11
1849.606063
 21
2539.026203
 31
0.0
  0
LINE
  5
7A8
  8
2
  6
CONTINUOUS
 10
1821.539042
 20
2543.975173
 30
0.0
 11
1849.606063
 21
2539.026203
 31
0.0
  0
LINE
  5
7A9
  8
2
  6
CONTINUOUS
 10
2008.073152
 20
2543.975181
 30
0.0
 11
1980.006132
 21
2539.026203
 31
0.0
  0
LINE
  5
7AA
  8
2
  6
CONTINUOUS
 10
2008.073154
 20
2534.077235
 30
0.0
 11
1980.006132
 21
2539.026203
 31
0.0
  0
TEXT
  5
7AB
  8
2
  6
CONTINUOUS
 10
1704.006104
 20
2543.026123
 30
0.0
 40
52.0
  1
１２５
 41
0.9
  7
MONOTXT
  0
ENDBLK
  5
7AC
  8
0
  0
BLOCK
  5
7AE
  8
2
  2
*D199
 70
    65
 10
0.0
 20
0.0
 30
0.0
  3
*D199
  1

  0
POINT
  5
7AF
  8
DEFPOINTS
 10
2204.606063
 20
1965.092151
 30
0.0
  0
POINT
  5
7B0
  8
DEFPOINTS
 10
2564.606132
 20
1965.092151
 30
0.0
  0
POINT
  5
7B1
  8
DEFPOINTS
 10
2443.92574
 20
2273.706474
 30
0.0
  0
LINE
  5
7B2
  8
2
  6
CONTINUOUS
 10
2204.606063
 20
1971.092151
 30
0.0
 11
2204.606063
 21
2278.706474
 31
0.0
  0
LINE
  5
7B3
  8
2
  6
CONTINUOUS
 10
2564.606132
 20
1971.092151
 30
0.0
 11
2564.606132
 21
2278.706474
 31
0.0
  0
LINE
  5
7B4
  8
2
  6
CONTINUOUS
 10
2204.606063
 20
2273.706474
 30
0.0
 11
2564.606132
 21
2273.706474
 31
0.0
  0
LINE
  5
7B5
  8
2
  6
CONTINUOUS
 10
2232.673084
 20
2278.655447
 30
0.0
 11
2204.606063
 21
2273.706474
 31
0.0
  0
LINE
  5
7B6
  8
2
  6
CONTINUOUS
 10
2232.673084
 20
2268.757501
 30
0.0
 11
2204.606063
 21
2273.706474
 31
0.0
  0
LINE
  5
7B7
  8
2
  6
CONTINUOUS
 10
2536.539112
 20
2268.757499
 30
0.0
 11
2564.606132
 21
2273.706474
 31
0.0
  0
LINE
  5
7B8
  8
2
  6
CONTINUOUS
 10
2536.539111
 20
2278.655445
 30
0.0
 11
2564.606132
 21
2273.706474
 31
0.0
  0
TEXT
  5
7B9
  8
2
  6
CONTINUOUS
 10
2322.206055
 20
2277.706543
 30
0.0
 40
52.0
  1
３６０
 41
0.9
  7
MONOTXT
  0
ENDBLK
  5
7BA
  8
0
  0
BLOCK
  5
7BC
  8
2
  2
*D200
 70
    65
 10
0.0
 20
0.0
 30
0.0
  3
*D200
  1

  0
POINT
  5
7BD
  8
DEFPOINTS
 10
2472.106063
 20
1578.21022
 30
0.0
  0
POINT
  5
7BE
  8
DEFPOINTS
 10
2797.606132
 20
1803.630666
 30
0.0
  0
POINT
  5
7BF
  8
DEFPOINTS
 10
2486.117668
 20
1451.839046
 30
0.0
  0
LINE
  5
7C0
  8
2
  6
CONTINUOUS
 10
2472.106063
 20
1572.21022
 30
0.0
 11
2472.106063
 21
1446.839046
 31
0.0
  0
LINE
  5
7C1
  8
2
  6
CONTINUOUS
 10
2797.606132
 20
1797.630666
 30
0.0
 11
2797.606132
 21
1446.839046
 31
0.0
  0
LINE
  5
7C2
  8
2
  6
CONTINUOUS
 10
2472.106063
 20
1451.839046
 30
0.0
 11
2797.606132
 21
1451.839046
 31
0.0
  0
LINE
  5
7C3
  8
2
  6
CONTINUOUS
 10
2500.173084
 20
1456.788019
 30
0.0
 11
2472.106063
 21
1451.839046
 31
0.0
  0
LINE
  5
7C4
  8
2
  6
CONTINUOUS
 10
2500.173084
 20
1446.890073
 30
0.0
 11
2472.106063
 21
1451.839046
 31
0.0
  0
LINE
  5
7C5
  8
2
  6
CONTINUOUS
 10
2769.539112
 20
1446.89007
 30
0.0
 11
2797.606132
 21
1451.839046
 31
0.0
  0
LINE
  5
7C6
  8
2
  6
CONTINUOUS
 10
2769.539111
 20
1456.788016
 30
0.0
 11
2797.606132
 21
1451.839046
 31
0.0
  0
TEXT
  5
7C7
  8
2
  6
CONTINUOUS
 10
2564.823975
 20
1455.838989
 30
0.0
 40
52.0
  1
３２５
 41
0.9
  7
MONOTXT
  0
ENDBLK
  5
7C8
  8
0
  0
BLOCK
  5
7CA
  8
2
  2
*D201
 70
    65
 10
0.0
 20
0.0
 30
0.0
  3
*D201
  1

  0
POINT
  5
7CB
  8
DEFPOINTS
 10
1669.606363
 20
1658.892051
 30
0.0
  0
POINT
  5
7CC
  8
DEFPOINTS
 10
1910.506435
 20
1709.891543
 30
0.0
  0
POINT
  5
7CD
  8
DEFPOINTS
 10
1371.070215
 20
1739.1998
 30
0.0
  0
LINE
  5
7CE
  8
2
  6
CONTINUOUS
 10
1663.606363
 20
1658.892051
 30
0.0
 11
1366.070215
 21
1658.892051
 31
0.0
  0
LINE
  5
7CF
  8
2
  6
CONTINUOUS
 10
1904.506435
 20
1709.891543
 30
0.0
 11
1366.070215
 21
1709.891543
 31
0.0
  0
LINE
  5
7D0
  8
2
  6
CONTINUOUS
 10
1371.070215
 20
1485.388984
 30
0.0
 11
1371.070215
 21
1751.992075
 31
0.0
  0
LINE
  5
7D1
  8
2
  6
CONTINUOUS
 10
1376.019189
 20
1630.82503
 30
0.0
 11
1371.070215
 21
1658.892051
 31
0.0
  0
LINE
  5
7D2
  8
2
  6
CONTINUOUS
 10
1366.121243
 20
1630.82503
 30
0.0
 11
1371.070215
 21
1658.892051
 31
0.0
  0
LINE
  5
7D3
  8
2
  6
CONTINUOUS
 10
1366.121246
 20
1737.958564
 30
0.0
 11
1371.070215
 21
1709.891543
 31
0.0
  0
LINE
  5
7D4
  8
2
  6
CONTINUOUS
 10
1376.019192
 20
1737.958563
 30
0.0
 11
1371.070215
 21
1709.891543
 31
0.0
  0
TEXT
  5
7D5
  8
2
  6
CONTINUOUS
 10
1367.07019
 20
1506.188965
 30
0.0
 40
52.0
  1
４５
 50
90.000003
 41
0.9
  7
MONOTXT
  0
ENDBLK
  5
7D6
  8
0
  0
BLOCK
  5
7D8
  8
2
  2
*D202
 70
    65
 10
0.0
 20
0.0
 30
0.0
  3
*D202
  1

  0
POINT
  5
7D9
  8
DEFPOINTS
 10
1910.506435
 20
1709.891543
 30
0.0
  0
POINT
  5
7DA
  8
DEFPOINTS
 10
1980.006132
 20
2007.892151
 30
0.0
  0
POINT
  5
7DB
  8
DEFPOINTS
 10
1371.070215
 20
1739.1998
 30
0.0
  0
LINE
  5
7DC
  8
2
  6
CONTINUOUS
 10
1904.506435
 20
1709.891543
 30
0.0
 11
1366.070215
 21
1709.891543
 31
0.0
  0
LINE
  5
7DD
  8
2
  6
CONTINUOUS
 10
1974.006132
 20
2007.892151
 30
0.0
 11
1366.070215
 21
2007.892151
 31
0.0
  0
LINE
  5
7DE
  8
2
  6
CONTINUOUS
 10
1371.070215
 20
1709.891543
 30
0.0
 11
1371.070215
 21
2007.892151
 31
0.0
  0
LINE
  5
7DF
  8
2
  6
CONTINUOUS
 10
1366.121241
 20
1737.958563
 30
0.0
 11
1371.070215
 21
1709.891543
 31
0.0
  0
LINE
  5
7E0
  8
2
  6
CONTINUOUS
 10
1376.019187
 20
1737.958564
 30
0.0
 11
1371.070215
 21
1709.891543
 31
0.0
  0
LINE
  5
7E1
  8
2
  6
CONTINUOUS
 10
1376.019189
 20
1979.82513
 30
0.0
 11
1371.070215
 21
2007.892151
 31
0.0
  0
LINE
  5
7E2
  8
2
  6
CONTINUOUS
 10
1366.121243
 20
1979.82513
 30
0.0
 11
1371.070215
 21
2007.892151
 31
0.0
  0
TEXT
  5
7E3
  8
2
  6
CONTINUOUS
 10
1367.07019
 20
1796.491821
 30
0.0
 40
52.0
  1
３０５
 50
90.000003
 41
0.9
  7
MONOTXT
  0
ENDBLK
  5
7E4
  8
0
  0
BLOCK
  5
7E6
  8
2
  2
*D203
 70
    65
 10
0.0
 20
0.0
 30
0.0
  3
*D203
  1

  0
POINT
  5
7E7
  8
DEFPOINTS
 10
2472.106063
 20
1598.513043
 30
0.0
  0
POINT
  5
7E8
  8
DEFPOINTS
 10
2564.606132
 20
1830.092151
 30
0.0
  0
POINT
  5
7E9
  8
DEFPOINTS
 10
2577.510639
 20
1533.639487
 30
0.0
  0
LINE
  5
7EA
  8
2
  6
CONTINUOUS
 10
2472.106063
 20
1592.513043
 30
0.0
 11
2472.106063
 21
1528.639487
 31
0.0
  0
LINE
  5
7EB
  8
2
  6
CONTINUOUS
 10
2564.606132
 20
1824.092151
 30
0.0
 11
2564.606132
 21
1528.639487
 31
0.0
  0
LINE
  5
7EC
  8
2
  6
CONTINUOUS
 10
2430.005531
 20
1533.639487
 30
0.0
 11
2716.89579
 21
1533.639487
 31
0.0
  0
LINE
  5
7ED
  8
2
  6
CONTINUOUS
 10
2444.039043
 20
1528.690512
 30
0.0
 11
2472.106063
 21
1533.639487
 31
0.0
  0
LINE
  5
7EE
  8
2
  6
CONTINUOUS
 10
2444.039042
 20
1538.588458
 30
0.0
 11
2472.106063
 21
1533.639487
 31
0.0
  0
LINE
  5
7EF
  8
2
  6
CONTINUOUS
 10
2592.673152
 20
1538.588465
 30
0.0
 11
2564.606132
 21
1533.639487
 31
0.0
  0
LINE
  5
7F0
  8
2
  6
CONTINUOUS
 10
2592.673154
 20
1528.690519
 30
0.0
 11
2564.606132
 21
1533.639487
 31
0.0
  0
TEXT
  5
7F1
  8
2
  6
CONTINUOUS
 10
2612.895752
 20
1537.639526
 30
0.0
 40
52.0
  1
９５
 41
0.9
  7
MONOTXT
  0
ENDBLK
  5
7F2
  8
0
  0
BLOCK
  5
7F4
  8
2
  2
*D204
 70
    65
 10
0.0
 20
0.0
 30
0.0
  3
*D204
  1

  0
POINT
  5
7F5
  8
DEFPOINTS
 10
2110.606063
 20
1965.092151
 30
0.0
  0
POINT
  5
7F6
  8
DEFPOINTS
 10
2564.606132
 20
1965.092151
 30
0.0
  0
POINT
  5
7F7
  8
DEFPOINTS
 10
2368.944078
 20
2464.04454
 30
0.0
  0
LINE
  5
7F8
  8
2
  6
CONTINUOUS
 10
2110.606063
 20
1971.092151
 30
0.0
 11
2110.606063
 21
2469.04454
 31
0.0
  0
LINE
  5
7F9
  8
2
  6
CONTINUOUS
 10
2564.606132
 20
1971.092151
 30
0.0
 11
2564.606132
 21
2469.04454
 31
0.0
  0
LINE
  5
7FA
  8
2
  6
CONTINUOUS
 10
2110.606063
 20
2464.04454
 30
0.0
 11
2564.606132
 21
2464.04454
 31
0.0
  0
LINE
  5
7FB
  8
2
  6
CONTINUOUS
 10
2138.673084
 20
2468.993513
 30
0.0
 11
2110.606063
 21
2464.04454
 31
0.0
  0
LINE
  5
7FC
  8
2
  6
CONTINUOUS
 10
2138.673084
 20
2459.095567
 30
0.0
 11
2110.606063
 21
2464.04454
 31
0.0
  0
LINE
  5
7FD
  8
2
  6
CONTINUOUS
 10
2536.539112
 20
2459.095565
 30
0.0
 11
2564.606132
 21
2464.04454
 31
0.0
  0
LINE
  5
7FE
  8
2
  6
CONTINUOUS
 10
2536.539111
 20
2468.993511
 30
0.0
 11
2564.606132
 21
2464.04454
 31
0.0
  0
TEXT
  5
7FF
  8
2
  6
CONTINUOUS
 10
2275.206055
 20
2468.044434
 30
0.0
 40
52.0
  1
４５５
 41
0.9
  7
MONOTXT
  0
ENDBLK
  5
800
  8
0
  0
BLOCK
  5
802
  8
2
  2
*D205
 70
    65
 10
0.0
 20
0.0
 30
0.0
  3
*D205
  1

  0
POINT
  5
803
  8
DEFPOINTS
 10
614.264809
 20
1658.892151
 30
0.0
  0
POINT
  5
804
  8
DEFPOINTS
 10
375.12891
 20
1888.308698
 30
0.0
  0
POINT
  5
805
  8
DEFPOINTS
 10
781.584347
 20
1822.727885
 30
0.0
  0
LINE
  5
806
  8
2
  6
CONTINUOUS
 10
620.264809
 20
1658.892151
 30
0.0
 11
786.584347
 21
1658.892151
 31
0.0
  0
LINE
  5
807
  8
2
  6
CONTINUOUS
 10
381.12891
 20
1888.308698
 30
0.0
 11
786.584347
 21
1888.308698
 31
0.0
  0
LINE
  5
808
  8
2
  6
CONTINUOUS
 10
781.584347
 20
1658.892151
 30
0.0
 11
781.584347
 21
1888.308698
 31
0.0
  0
LINE
  5
809
  8
2
  6
CONTINUOUS
 10
776.635373
 20
1686.959172
 30
0.0
 11
781.584347
 21
1658.892151
 31
0.0
  0
LINE
  5
80A
  8
2
  6
CONTINUOUS
 10
786.533319
 20
1686.959172
 30
0.0
 11
781.584347
 21
1658.892151
 31
0.0
  0
LINE
  5
80B
  8
2
  6
CONTINUOUS
 10
786.53332
 20
1860.241677
 30
0.0
 11
781.584347
 21
1888.308698
 31
0.0
  0
LINE
  5
80C
  8
2
  6
CONTINUOUS
 10
776.635374
 20
1860.241677
 30
0.0
 11
781.584347
 21
1888.308698
 31
0.0
  0
TEXT
  5
80D
  8
2
  6
CONTINUOUS
 10
777.584351
 20
1711.200439
 30
0.0
 40
52.0
  1
２３０
 50
90.000003
 41
0.9
  7
MONOTXT
  0
ENDBLK
  5
80E
  8
0
  0
BLOCK
  5
810
  8
2
  2
*D206
 70
    65
 10
0.0
 20
0.0
 30
0.0
  3
*D206
  1

  0
POINT
  5
811
  8
DEFPOINTS
 10
274.264809
 20
2087.645263
 30
0.0
  0
POINT
  5
812
  8
DEFPOINTS
 10
324.585691
 20
1977.727476
 30
0.0
  0
POINT
  5
813
  8
DEFPOINTS
 10
95.575232
 20
2239.839123
 30
0.0
  0
LINE
  5
814
  8
2
  6
CONTINUOUS
 10
274.264809
 20
2093.645263
 30
0.0
 11
274.264809
 21
2244.839123
 31
0.0
  0
LINE
  5
815
  8
2
  6
CONTINUOUS
 10
324.585691
 20
1983.727476
 30
0.0
 11
324.585691
 21
2244.839123
 31
0.0
  0
LINE
  5
816
  8
2
  6
CONTINUOUS
 10
149.464813
 20
2239.839123
 30
0.0
 11
366.686224
 21
2239.839123
 31
0.0
  0
LINE
  5
817
  8
2
  6
CONTINUOUS
 10
246.197788
 20
2234.890147
 30
0.0
 11
274.264809
 21
2239.839123
 31
0.0
  0
LINE
  5
818
  8
2
  6
CONTINUOUS
 10
246.197787
 20
2244.788093
 30
0.0
 11
274.264809
 21
2239.839123
 31
0.0
  0
LINE
  5
819
  8
2
  6
CONTINUOUS
 10
352.652711
 20
2244.788101
 30
0.0
 11
324.585691
 21
2239.839123
 31
0.0
  0
LINE
  5
81A
  8
2
  6
CONTINUOUS
 10
352.652713
 20
2234.890155
 30
0.0
 11
324.585691
 21
2239.839123
 31
0.0
  0
TEXT
  5
81B
  8
2
  6
CONTINUOUS
 10
170.264816
 20
2243.839111
 30
0.0
 40
52.0
  1
５０
 41
0.9
  7
MONOTXT
  0
ENDBLK
  5
81C
  8
0
  0
BLOCK
  5
81E
  8
2
  2
*D207
 70
    65
 10
0.0
 20
0.0
 30
0.0
  3
*D207
  1

  0
POINT
  5
81F
  8
DEFPOINTS
 10
4365.062747
 20
1658.892151
 30
0.0
  0
POINT
  5
820
  8
DEFPOINTS
 10
4653.048333
 20
1833.892151
 30
0.0
  0
POINT
  5
821
  8
DEFPOINTS
 10
4210.898384
 20
1781.672086
 30
0.0
  0
LINE
  5
822
  8
2
  6
CONTINUOUS
 10
4359.062747
 20
1658.892151
 30
0.0
 11
4205.898384
 21
1658.892151
 31
0.0
  0
LINE
  5
823
  8
2
  6
CONTINUOUS
 10
4647.048333
 20
1833.892151
 30
0.0
 11
4205.898384
 21
1833.892151
 31
0.0
  0
LINE
  5
824
  8
2
  6
CONTINUOUS
 10
4210.898384
 20
1616.791619
 30
0.0
 11
4210.898384
 21
1875.992684
 31
0.0
  0
LINE
  5
825
  8
2
  6
CONTINUOUS
 10
4215.847357
 20
1630.82513
 30
0.0
 11
4210.898384
 21
1658.892151
 31
0.0
  0
LINE
  5
826
  8
2
  6
CONTINUOUS
 10
4205.949411
 20
1630.82513
 30
0.0
 11
4210.898384
 21
1658.892151
 31
0.0
  0
LINE
  5
827
  8
2
  6
CONTINUOUS
 10
4205.949415
 20
1861.959173
 30
0.0
 11
4210.898384
 21
1833.892151
 31
0.0
  0
LINE
  5
828
  8
2
  6
CONTINUOUS
 10
4215.847361
 20
1861.959172
 30
0.0
 11
4210.898384
 21
1833.892151
 31
0.0
  0
TEXT
  5
829
  8
2
  6
CONTINUOUS
 10
4206.898437
 20
1683.992188
 30
0.0
 40
52.0
  1
１７５
 50
90.000003
 41
0.9
  7
MONOTXT
  0
ENDBLK
  5
82A
  8
0
  0
BLOCK
  5
82C
  8
2
  2
*D208
 70
    65
 10
0.0
 20
0.0
 30
0.0
  3
*D208
  1

  0
POINT
  5
82D
  8
DEFPOINTS
 10
4365.062747
 20
1658.892151
 30
0.0
  0
POINT
  5
82E
  8
DEFPOINTS
 10
4407.062747
 20
1818.892151
 30
0.0
  0
POINT
  5
82F
  8
DEFPOINTS
 10
4275.586982
 20
1724.376471
 30
0.0
  0
LINE
  5
830
  8
2
  6
CONTINUOUS
 10
4359.062747
 20
1658.892151
 30
0.0
 11
4270.586982
 21
1658.892151
 31
0.0
  0
LINE
  5
831
  8
2
  6
CONTINUOUS
 10
4401.062747
 20
1818.892151
 30
0.0
 11
4270.586982
 21
1818.892151
 31
0.0
  0
LINE
  5
832
  8
2
  6
CONTINUOUS
 10
4275.586982
 20
1616.791619
 30
0.0
 11
4275.586982
 21
1860.992684
 31
0.0
  0
LINE
  5
833
  8
2
  6
CONTINUOUS
 10
4280.535955
 20
1630.82513
 30
0.0
 11
4275.586982
 21
1658.892151
 31
0.0
  0
LINE
  5
834
  8
2
  6
CONTINUOUS
 10
4270.638009
 20
1630.82513
 30
0.0
 11
4275.586982
 21
1658.892151
 31
0.0
  0
LINE
  5
835
  8
2
  6
CONTINUOUS
 10
4270.638013
 20
1846.959173
 30
0.0
 11
4275.586982
 21
1818.892151
 31
0.0
  0
LINE
  5
836
  8
2
  6
CONTINUOUS
 10
4280.535959
 20
1846.959172
 30
0.0
 11
4275.586982
 21
1818.892151
 31
0.0
  0
TEXT
  5
837
  8
2
  6
CONTINUOUS
 10
4271.586914
 20
1676.492187
 30
0.0
 40
52.0
  1
１６０
 50
90.000003
 41
0.9
  7
MONOTXT
  0
ENDBLK
  5
838
  8
0
  0
BLOCK
  5
83A
  8
2
  2
*D209
 70
    65
 10
0.0
 20
0.0
 30
0.0
  3
*D209
  1

  0
POINT
  5
83B
  8
DEFPOINTS
 10
4410.462747
 20
2007.892151
 30
0.0
  0
POINT
  5
83C
  8
DEFPOINTS
 10
4999.662747
 20
2007.892151
 30
0.0
  0
POINT
  5
83D
  8
DEFPOINTS
 10
4740.921013
 20
2308.216507
 30
0.0
  0
LINE
  5
83E
  8
2
  6
CONTINUOUS
 10
4410.462747
 20
2013.892151
 30
0.0
 11
4410.462747
 21
2313.216507
 31
0.0
  0
LINE
  5
83F
  8
2
  6
CONTINUOUS
 10
4999.662747
 20
2013.892151
 30
0.0
 11
4999.662747
 21
2313.216507
 31
0.0
  0
LINE
  5
840
  8
2
  6
CONTINUOUS
 10
4410.462747
 20
2308.216507
 30
0.0
 11
4999.662747
 21
2308.216507
 31
0.0
  0
LINE
  5
841
  8
2
  6
CONTINUOUS
 10
4438.529768
 20
2313.16548
 30
0.0
 11
4410.462747
 21
2308.216507
 31
0.0
  0
LINE
  5
842
  8
2
  6
CONTINUOUS
 10
4438.529768
 20
2303.267534
 30
0.0
 11
4410.462747
 21
2308.216507
 31
0.0
  0
LINE
  5
843
  8
2
  6
CONTINUOUS
 10
4971.595726
 20
2303.267532
 30
0.0
 11
4999.662747
 21
2308.216507
 31
0.0
  0
LINE
  5
844
  8
2
  6
CONTINUOUS
 10
4971.595726
 20
2313.165478
 30
0.0
 11
4999.662747
 21
2308.216507
 31
0.0
  0
TEXT
  5
845
  8
2
  6
CONTINUOUS
 10
4642.662598
 20
2312.216553
 30
0.0
 40
52.0
  1
６００
 41
0.9
  7
MONOTXT
  0
ENDBLK
  5
846
  8
0
  0
BLOCK
  5
848
  8
2
  2
*D210
 70
    65
 10
0.0
 20
0.0
 30
0.0
  3
*D210
  1

  0
POINT
  5
849
  8
DEFPOINTS
 10
4705.062747
 20
2108.613826
 30
0.0
  0
POINT
  5
84A
  8
DEFPOINTS
 10
4760.062718
 20
1855.231961
 30
0.0
  0
POINT
  5
84B
  8
DEFPOINTS
 10
4686.412247
 20
2098.843028
 30
0.0
  0
LINE
  5
84C
  8
2
  6
CONTINUOUS
 10
4705.062747
 20
2102.613826
 30
0.0
 11
4705.062747
 21
2093.843028
 31
0.0
  0
LINE
  5
84D
  8
2
  6
CONTINUOUS
 10
4760.062718
 20
1861.231961
 30
0.0
 11
4760.062718
 21
2103.843028
 31
0.0
  0
LINE
  5
84E
  8
2
  6
CONTINUOUS
 10
4682.904572
 20
2098.843028
 30
0.0
 11
4962.964818
 21
2098.843028
 31
0.0
  0
CIRCLE
  5
84F
  8
2
  6
CONTINUOUS
 10
4705.062747
 20
2098.843028
 30
0.0
 40
3.75
  0
CIRCLE
  5
850
  8
2
  6
CONTINUOUS
 10
4705.062747
 20
2098.843028
 30
0.0
 40
2.25
  0
LINE
  5
851
  8
2
  6
CONTINUOUS
 10
4788.129738
 20
2103.792006
 30
0.0
 11
4760.062718
 21
2098.843028
 31
0.0
  0
LINE
  5
852
  8
2
  6
CONTINUOUS
 10
4788.12974
 20
2093.89406
 30
0.0
 11
4760.062718
 21
2098.843028
 31
0.0
  0
TEXT
  5
853
  8
2
  6
CONTINUOUS
 10
4858.964844
 20
2102.843018
 30
0.0
 40
52.0
  1
５５
 41
0.9
  7
MONOTXT
  0
ENDBLK
  5
854
  8
0
  0
BLOCK
  5
856
  8
2
  2
*D211
 70
    65
 10
0.0
 20
0.0
 30
0.0
  3
*D211
  1

  0
POINT
  5
857
  8
DEFPOINTS
 10
5045.062747
 20
1658.892151
 30
0.0
  0
POINT
  5
858
  8
DEFPOINTS
 10
4771.715157
 20
1834.169651
 30
0.0
  0
POINT
  5
859
  8
DEFPOINTS
 10
5156.281937
 20
1788.29271
 30
0.0
  0
LINE
  5
85A
  8
2
  6
CONTINUOUS
 10
5051.062747
 20
1658.892151
 30
0.0
 11
5161.281937
 21
1658.892151
 31
0.0
  0
LINE
  5
85B
  8
2
  6
CONTINUOUS
 10
4777.715157
 20
1834.169651
 30
0.0
 11
5161.281937
 21
1834.169651
 31
0.0
  0
LINE
  5
85C
  8
2
  6
CONTINUOUS
 10
5156.281937
 20
1616.791619
 30
0.0
 11
5156.281937
 21
1876.270184
 31
0.0
  0
LINE
  5
85D
  8
2
  6
CONTINUOUS
 10
5161.230911
 20
1630.82513
 30
0.0
 11
5156.281937
 21
1658.892151
 31
0.0
  0
LINE
  5
85E
  8
2
  6
CONTINUOUS
 10
5151.332965
 20
1630.82513
 30
0.0
 11
5156.281937
 21
1658.892151
 31
0.0
  0
LINE
  5
85F
  8
2
  6
CONTINUOUS
 10
5151.332968
 20
1862.236673
 30
0.0
 11
5156.281937
 21
1834.169651
 31
0.0
  0
LINE
  5
860
  8
2
  6
CONTINUOUS
 10
5161.230914
 20
1862.236672
 30
0.0
 11
5156.281937
 21
1834.169651
 31
0.0
  0
TEXT
  5
861
  8
2
  6
CONTINUOUS
 10
5152.281738
 20
1684.130859
 30
0.0
 40
52.0
  1
１７５
 50
90.000003
 41
0.9
  7
MONOTXT
  0
ENDBLK
  5
862
  8
0
  0
BLOCK
  5
864
  8
2
  2
*D212
 70
    65
 10
0.0
 20
0.0
 30
0.0
  3
*D212
  1

  0
POINT
  5
865
  8
DEFPOINTS
 10
5045.062747
 20
1658.892151
 30
0.0
  0
POINT
  5
866
  8
DEFPOINTS
 10
4859.142161
 20
1953.867622
 30
0.0
  0
POINT
  5
867
  8
DEFPOINTS
 10
5243.664661
 20
1823.41024
 30
0.0
  0
LINE
  5
868
  8
2
  6
CONTINUOUS
 10
5051.062747
 20
1658.892151
 30
0.0
 11
5248.664661
 21
1658.892151
 31
0.0
  0
LINE
  5
869
  8
2
  6
CONTINUOUS
 10
4865.142161
 20
1953.867622
 30
0.0
 11
5248.664661
 21
1953.867622
 31
0.0
  0
LINE
  5
86A
  8
2
  6
CONTINUOUS
 10
5243.664661
 20
1658.892151
 30
0.0
 11
5243.664661
 21
1953.867622
 31
0.0
  0
LINE
  5
86B
  8
2
  6
CONTINUOUS
 10
5238.715687
 20
1686.959172
 30
0.0
 11
5243.664661
 21
1658.892151
 31
0.0
  0
LINE
  5
86C
  8
2
  6
CONTINUOUS
 10
5248.613633
 20
1686.959172
 30
0.0
 11
5243.664661
 21
1658.892151
 31
0.0
  0
LINE
  5
86D
  8
2
  6
CONTINUOUS
 10
5248.613635
 20
1925.800601
 30
0.0
 11
5243.664661
 21
1953.867622
 31
0.0
  0
LINE
  5
86E
  8
2
  6
CONTINUOUS
 10
5238.715688
 20
1925.800601
 30
0.0
 11
5243.664661
 21
1953.867622
 31
0.0
  0
TEXT
  5
86F
  8
2
  6
CONTINUOUS
 10
5239.664551
 20
1743.979858
 30
0.0
 40
52.0
  1
２９０
 50
90.000003
 41
0.9
  7
MONOTXT
  0
ENDBLK
  5
870
  8
0
  0
BLOCK
  5
872
  8
2
  2
*D213
 70
    65
 10
0.0
 20
0.0
 30
0.0
  3
*D213
  1

  0
POINT
  5
873
  8
DEFPOINTS
 10
4705.062747
 20
2028.033676
 30
0.0
  0
POINT
  5
874
  8
DEFPOINTS
 10
4830.105947
 20
1978.719242
 30
0.0
  0
POINT
  5
875
  8
DEFPOINTS
 10
4863.961243
 20
2194.469893
 30
0.0
  0
LINE
  5
876
  8
2
  6
CONTINUOUS
 10
4705.062747
 20
2034.033676
 30
0.0
 11
4705.062747
 21
2199.469893
 31
0.0
  0
LINE
  5
877
  8
2
  6
CONTINUOUS
 10
4830.105947
 20
1984.719242
 30
0.0
 11
4830.105947
 21
2199.469893
 31
0.0
  0
LINE
  5
878
  8
2
  6
CONTINUOUS
 10
4662.962214
 20
2194.469893
 30
0.0
 11
4996.505941
 21
2194.469893
 31
0.0
  0
LINE
  5
879
  8
2
  6
CONTINUOUS
 10
4676.995726
 20
2189.520917
 30
0.0
 11
4705.062747
 21
2194.469893
 31
0.0
  0
LINE
  5
87A
  8
2
  6
CONTINUOUS
 10
4676.995726
 20
2199.418863
 30
0.0
 11
4705.062747
 21
2194.469893
 31
0.0
  0
LINE
  5
87B
  8
2
  6
CONTINUOUS
 10
4858.172967
 20
2199.418871
 30
0.0
 11
4830.105947
 21
2194.469893
 31
0.0
  0
LINE
  5
87C
  8
2
  6
CONTINUOUS
 10
4858.172969
 20
2189.520925
 30
0.0
 11
4830.105947
 21
2194.469893
 31
0.0
  0
TEXT
  5
87D
  8
2
  6
CONTINUOUS
 10
4850.905762
 20
2198.469971
 30
0.0
 40
52.0
  1
１２５
 41
0.9
  7
MONOTXT
  0
ENDBLK
  5
87E
  8
0
  0
BLOCK
  5
880
  8
2
  2
*D214
 70
    65
 10
0.0
 20
0.0
 30
0.0
  3
*D214
  1

  0
POINT
  5
881
  8
DEFPOINTS
 10
4660.062819
 20
1851.775721
 30
0.0
  0
POINT
  5
882
  8
DEFPOINTS
 10
4705.062747
 20
2092.122066
 30
0.0
  0
POINT
  5
883
  8
DEFPOINTS
 10
4686.412247
 20
2098.843028
 30
0.0
  0
LINE
  5
884
  8
2
  6
CONTINUOUS
 10
4660.062819
 20
1857.775721
 30
0.0
 11
4660.062819
 21
2103.843028
 31
0.0
  0
LINE
  5
885
  8
2
  6
CONTINUOUS
 10
4705.062747
 20
2098.122066
 30
0.0
 11
4705.062747
 21
2103.843028
 31
0.0
  0
LINE
  5
886
  8
2
  6
CONTINUOUS
 10
4495.424879
 20
2098.843028
 30
0.0
 11
4727.220922
 21
2098.843028
 31
0.0
  0
LINE
  5
887
  8
2
  6
CONTINUOUS
 10
4631.995798
 20
2093.894052
 30
0.0
 11
4660.062819
 21
2098.843028
 31
0.0
  0
LINE
  5
888
  8
2
  6
CONTINUOUS
 10
4631.995797
 20
2103.791998
 30
0.0
 11
4660.062819
 21
2098.843028
 31
0.0
  0
CIRCLE
  5
889
  8
2
  6
CONTINUOUS
 10
4705.062747
 20
2098.843028
 30
0.0
 40
3.75
  0
CIRCLE
  5
88A
  8
2
  6
CONTINUOUS
 10
4705.062747
 20
2098.843028
 30
0.0
 40
2.25
  0
TEXT
  5
88B
  8
2
  6
CONTINUOUS
 10
4516.225098
 20
2102.843018
 30
0.0
 40
52.0
  1
４５
 41
0.9
  7
MONOTXT
  0
ENDBLK
  5
88C
  8
0
  0
BLOCK
  5
88E
  8
2
  2
*D215
 70
    65
 10
0.0
 20
0.0
 30
0.0
  3
*D215
  1

  0
POINT
  5
88F
  8
DEFPOINTS
 10
4999.662747
 20
2007.892151
 30
0.0
  0
POINT
  5
890
  8
DEFPOINTS
 10
5045.062747
 20
1658.892151
 30
0.0
  0
POINT
  5
891
  8
DEFPOINTS
 10
4999.662747
 20
2308.216507
 30
0.0
  0
LINE
  5
892
  8
2
  6
CONTINUOUS
 10
4999.662747
 20
2013.892151
 30
0.0
 11
4999.662747
 21
2313.216507
 31
0.0
  0
LINE
  5
893
  8
2
  6
CONTINUOUS
 10
5045.062747
 20
1664.892151
 30
0.0
 11
5045.062747
 21
2313.216507
 31
0.0
  0
LINE
  5
894
  8
2
  6
CONTINUOUS
 10
4957.562214
 20
2308.216507
 30
0.0
 11
5169.862742
 21
2308.216507
 31
0.0
  0
LINE
  5
895
  8
2
  6
CONTINUOUS
 10
4971.595726
 20
2303.267532
 30
0.0
 11
4999.662747
 21
2308.216507
 31
0.0
  0
LINE
  5
896
  8
2
  6
CONTINUOUS
 10
4971.595726
 20
2313.165478
 30
0.0
 11
4999.662747
 21
2308.216507
 31
0.0
  0
LINE
  5
897
  8
2
  6
CONTINUOUS
 10
5073.129767
 20
2313.165485
 30
0.0
 11
5045.062747
 21
2308.216507
 31
0.0
  0
LINE
  5
898
  8
2
  6
CONTINUOUS
 10
5073.129769
 20
2303.267539
 30
0.0
 11
5045.062747
 21
2308.216507
 31
0.0
  0
TEXT
  5
899
  8
2
  6
CONTINUOUS
 10
5065.862793
 20
2312.216553
 30
0.0
 40
52.0
  1
４０
 41
0.9
  7
MONOTXT
  0
ENDBLK
  5
89A
  8
0
  0
BLOCK
  5
89C
  8
2
  2
*D216
 70
    65
 10
0.0
 20
0.0
 30
0.0
  3
*D216
  1

  0
POINT
  5
89D
  8
DEFPOINTS
 10
4365.062747
 20
1658.892151
 30
0.0
  0
POINT
  5
89E
  8
DEFPOINTS
 10
4410.462747
 20
2007.892151
 30
0.0
  0
POINT
  5
89F
  8
DEFPOINTS
 10
4410.462747
 20
2308.216507
 30
0.0
  0
LINE
  5
8A0
  8
2
  6
CONTINUOUS
 10
4365.062747
 20
1664.892151
 30
0.0
 11
4365.062747
 21
2313.216507
 31
0.0
  0
LINE
  5
8A1
  8
2
  6
CONTINUOUS
 10
4410.462747
 20
2013.892151
 30
0.0
 11
4410.462747
 21
2313.216507
 31
0.0
  0
LINE
  5
8A2
  8
2
  6
CONTINUOUS
 10
4240.262752
 20
2308.216507
 30
0.0
 11
4452.56328
 21
2308.216507
 31
0.0
  0
LINE
  5
8A3
  8
2
  6
CONTINUOUS
 10
4336.995726
 20
2303.267532
 30
0.0
 11
4365.062747
 21
2308.216507
 31
0.0
  0
LINE
  5
8A4
  8
2
  6
CONTINUOUS
 10
4336.995726
 20
2313.165478
 30
0.0
 11
4365.062747
 21
2308.216507
 31
0.0
  0
LINE
  5
8A5
  8
2
  6
CONTINUOUS
 10
4438.529767
 20
2313.165485
 30
0.0
 11
4410.462747
 21
2308.216507
 31
0.0
  0
LINE
  5
8A6
  8
2
  6
CONTINUOUS
 10
4438.529769
 20
2303.267539
 30
0.0
 11
4410.462747
 21
2308.216507
 31
0.0
  0
TEXT
  5
8A7
  8
2
  6
CONTINUOUS
 10
4261.062988
 20
2312.216553
 30
0.0
 40
52.0
  1
４０
 41
0.9
  7
MONOTXT
  0
ENDBLK
  5
8A8
  8
0
  0
BLOCK
  5
8AA
  8
2
  2
*D217
 70
    65
 10
0.0
 20
0.0
 30
0.0
  3
*D217
  1

  0
POINT
  5
8AB
  8
DEFPOINTS
 10
4101.528527
 20
3131.580513
 30
0.0
  0
POINT
  5
8AC
  8
DEFPOINTS
 10
4101.528527
 20
3266.580513
 30
0.0
  0
POINT
  5
8AD
  8
DEFPOINTS
 10
3626.780013
 20
3185.236863
 30
0.0
  0
LINE
  5
8AE
  8
2
  6
CONTINUOUS
 10
4095.528527
 20
3131.580513
 30
0.0
 11
3621.780013
 21
3131.580513
 31
0.0
  0
LINE
  5
8AF
  8
2
  6
CONTINUOUS
 10
4095.528527
 20
3266.580513
 30
0.0
 11
3621.780013
 21
3266.580513
 31
0.0
  0
LINE
  5
8B0
  8
2
  6
CONTINUOUS
 10
3626.780013
 20
2943.818077
 30
0.0
 11
3626.780013
 21
3308.681045
 31
0.0
  0
LINE
  5
8B1
  8
2
  6
CONTINUOUS
 10
3631.728986
 20
3103.513492
 30
0.0
 11
3626.780013
 21
3131.580513
 31
0.0
  0
LINE
  5
8B2
  8
2
  6
CONTINUOUS
 10
3621.83104
 20
3103.513492
 30
0.0
 11
3626.780013
 21
3131.580513
 31
0.0
  0
LINE
  5
8B3
  8
2
  6
CONTINUOUS
 10
3621.831043
 20
3294.647534
 30
0.0
 11
3626.780013
 21
3266.580513
 31
0.0
  0
LINE
  5
8B4
  8
2
  6
CONTINUOUS
 10
3631.72899
 20
3294.647533
 30
0.0
 11
3626.780013
 21
3266.580513
 31
0.0
  0
TEXT
  5
8B5
  8
2
  6
CONTINUOUS
 10
3622.780029
 20
2964.618164
 30
0.0
 40
52.0
  1
１３５
 50
90.000003
 41
0.9
  7
MONOTXT
  0
ENDBLK
  5
8B6
  8
0
  0
BLOCK
  5
8B8
  8
2
  2
*D218
 70
    65
 10
0.0
 20
0.0
 30
0.0
  3
*D218
  1

  0
POINT
  5
8B9
  8
DEFPOINTS
 10
4101.528527
 20
3131.580513
 30
0.0
  0
POINT
  5
8BA
  8
DEFPOINTS
 10
4461.528527
 20
3131.580588
 30
0.0
  0
POINT
  5
8BB
  8
DEFPOINTS
 10
4384.551232
 20
2817.833221
 30
0.0
  0
LINE
  5
8BC
  8
2
  6
CONTINUOUS
 10
4101.528527
 20
3125.580513
 30
0.0
 11
4101.528527
 21
2812.833221
 31
0.0
  0
LINE
  5
8BD
  8
2
  6
CONTINUOUS
 10
4461.528527
 20
3125.580588
 30
0.0
 11
4461.528527
 21
2812.833221
 31
0.0
  0
LINE
  5
8BE
  8
2
  6
CONTINUOUS
 10
4101.528527
 20
2817.833221
 30
0.0
 11
4461.528527
 21
2817.833221
 31
0.0
  0
LINE
  5
8BF
  8
2
  6
CONTINUOUS
 10
4129.595548
 20
2822.782194
 30
0.0
 11
4101.528527
 21
2817.833221
 31
0.0
  0
LINE
  5
8C0
  8
2
  6
CONTINUOUS
 10
4129.595548
 20
2812.884248
 30
0.0
 11
4101.528527
 21
2817.833221
 31
0.0
  0
LINE
  5
8C1
  8
2
  6
CONTINUOUS
 10
4433.461506
 20
2812.884245
 30
0.0
 11
4461.528527
 21
2817.833221
 31
0.0
  0
LINE
  5
8C2
  8
2
  6
CONTINUOUS
 10
4433.461505
 20
2822.782192
 30
0.0
 11
4461.528527
 21
2817.833221
 31
0.0
  0
TEXT
  5
8C3
  8
2
  6
CONTINUOUS
 10
4219.128418
 20
2821.833252
 30
0.0
 40
52.0
  1
３６０
 41
0.9
  7
MONOTXT
  0
ENDBLK
  5
8C4
  8
0
  0
BLOCK
  5
8C6
  8
2
  2
*D219
 70
    65
 10
0.0
 20
0.0
 30
0.0
  3
*D219
  1

  0
POINT
  5
8C7
  8
DEFPOINTS
 10
4281.528527
 20
3102.460512
 30
0.0
  0
POINT
  5
8C8
  8
DEFPOINTS
 10
4369.028416
 20
3027.880735
 30
0.0
  0
POINT
  5
8C9
  8
DEFPOINTS
 10
4463.408702
 20
2913.58872
 30
0.0
  0
LINE
  5
8CA
  8
2
  6
CONTINUOUS
 10
4281.528527
 20
3096.460512
 30
0.0
 11
4281.528527
 21
2908.58872
 31
0.0
  0
LINE
  5
8CB
  8
2
  6
CONTINUOUS
 10
4369.028416
 20
3021.880735
 30
0.0
 11
4369.028416
 21
2908.58872
 31
0.0
  0
LINE
  5
8CC
  8
2
  6
CONTINUOUS
 10
4107.587059
 20
2913.58872
 30
0.0
 11
4411.128948
 21
2913.58872
 31
0.0
  0
LINE
  5
8CD
  8
2
  6
CONTINUOUS
 10
4253.461506
 20
2908.639745
 30
0.0
 11
4281.528527
 21
2913.58872
 31
0.0
  0
LINE
  5
8CE
  8
2
  6
CONTINUOUS
 10
4253.461505
 20
2918.537691
 30
0.0
 11
4281.528527
 21
2913.58872
 31
0.0
  0
LINE
  5
8CF
  8
2
  6
CONTINUOUS
 10
4397.095436
 20
2918.537698
 30
0.0
 11
4369.028416
 21
2913.58872
 31
0.0
  0
LINE
  5
8D0
  8
2
  6
CONTINUOUS
 10
4397.095437
 20
2908.639752
 30
0.0
 11
4369.028416
 21
2913.58872
 31
0.0
  0
TEXT
  5
8D1
  8
2
  6
CONTINUOUS
 10
4128.387207
 20
2917.588623
 30
0.0
 40
52.0
  1
９０
 41
0.9
  7
MONOTXT
  0
ENDBLK
  5
8D2
  8
0
  0
ENDSEC
  0
SECTION
  2
ENTITIES
  0
INSERT
  5
8D3
  8
1
  2
*U2
 10
0.0
 20
0.0
 30
0.0
  0
INSERT
  5
8D4
  8
1
  2
*U3
 10
0.0
 20
0.0
 30
0.0
  0
INSERT
  5
8D5
  8
1
  2
*U4
 10
0.0
 20
0.0
 30
0.0
  0
INSERT
  5
8D6
  8
1
  2
*U5
 10
0.0
 20
0.0
 30
0.0
  0
INSERT
  5
8D7
  8
1
  2
*U6
 10
0.0
 20
0.0
 30
0.0
  0
INSERT
  5
8D8
  8
1
  2
*U7
 10
0.0
 20
0.0
 30
0.0
  0
INSERT
  5
8D9
  8
1
  2
*U8
 10
0.0
 20
0.0
 30
0.0
  0
INSERT
  5
8DA
  8
1
  2
*U9
 10
0.0
 20
0.0
 30
0.0
  0
INSERT
  5
8DB
  8
1
  2
*U10
 10
0.0
 20
0.0
 30
0.0
  0
INSERT
  5
8DC
  8
1
  2
*U11
 10
0.0
 20
0.0
 30
0.0
  0
INSERT
  5
8DD
  8
1
  2
*U12
 10
0.0
 20
0.0
 30
0.0
  0
INSERT
  5
8DE
  8
1
  2
*U13
 10
0.0
 20
0.0
 30
0.0
  0
INSERT
  5
8DF
  8
1
  2
*U14
 10
0.0
 20
0.0
 30
0.0
  0
INSERT
  5
8E0
  8
1
  2
*U15
 10
0.0
 20
0.0
 30
0.0
  0
INSERT
  5
8E1
  8
1
  2
*U16
 10
0.0
 20
0.0
 30
0.0
  0
INSERT
  5
8E2
  8
1
  2
*U17
 10
0.0
 20
0.0
 30
0.0
  0
INSERT
  5
8E3
  8
1
  2
*U18
 10
0.0
 20
0.0
 30
0.0
  0
INSERT
  5
8E4
  8
1
  2
*U19
 10
0.0
 20
0.0
 30
0.0
  0
INSERT
  5
8E5
  8
1
  2
*U20
 10
0.0
 20
0.0
 30
0.0
  0
INSERT
  5
8E6
  8
1
  2
*U21
 10
0.0
 20
0.0
 30
0.0
  0
INSERT
  5
8E7
  8
1
  2
*U22
 10
0.0
 20
0.0
 30
0.0
  0
INSERT
  5
8E8
  8
1
  2
*U23
 10
0.0
 20
0.0
 30
0.0
  0
INSERT
  5
8E9
  8
1
  2
*U24
 10
0.0
 20
0.0
 30
0.0
  0
INSERT
  5
8EA
  8
1
  2
*U25
 10
0.0
 20
0.0
 30
0.0
  0
INSERT
  5
8EB
  8
1
  2
*U26
 10
0.0
 20
0.0
 30
0.0
  0
INSERT
  5
8EC
  8
1
  2
*U27
 10
0.0
 20
0.0
 30
0.0
  0
INSERT
  5
8ED
  8
1
  2
*U28
 10
0.0
 20
0.0
 30
0.0
  0
INSERT
  5
8EE
  8
1
  2
*U29
 10
0.0
 20
0.0
 30
0.0
  0
INSERT
  5
8EF
  8
1
  2
*U30
 10
0.0
 20
0.0
 30
0.0
  0
INSERT
  5
8F0
  8
1
  2
*U31
 10
0.0
 20
0.0
 30
0.0
  0
INSERT
  5
8F1
  8
1
  2
*U32
 10
0.0
 20
0.0
 30
0.0
  0
INSERT
  5
8F2
  8
1
  2
*U33
 10
0.0
 20
0.0
 30
0.0
  0
INSERT
  5
8F3
  8
1
  2
*U34
 10
0.0
 20
0.0
 30
0.0
  0
INSERT
  5
8F4
  8
1
  2
*U35
 10
0.0
 20
0.0
 30
0.0
  0
INSERT
  5
8F5
  8
1
  2
*U36
 10
0.0
 20
0.0
 30
0.0
  0
INSERT
  5
8F6
  8
1
  2
*U37
 10
0.0
 20
0.0
 30
0.0
  0
INSERT
  5
8F7
  8
1
  2
*U38
 10
0.0
 20
0.0
 30
0.0
  0
INSERT
  5
8F8
  8
1
  2
*U82
 10
0.0
 20
0.0
 30
0.0
  0
INSERT
  5
8F9
  8
1
  2
*U127
 10
0.0
 20
0.0
 30
0.0
  0
INSERT
  5
8FA
  8
1
  2
*U172
 10
0.0
 20
0.0
 30
0.0
  0
INSERT
  5
8FB
  8
1
  2
*U173
 10
0.0
 20
0.0
 30
0.0
  0
DIMENSION
  5
8FC
  8
2
  6
CONTINUOUS
 62
     7
  2
*D174
 10
2694.224995
 20
2203.814048
 30
0.0
 11
2692.706201
 21
2233.813965
 31
0.0
  1
８５
 13
2755.106132
 23
1899.092151
 33
0.0
 14
2840.106132
 24
1899.092151
 34
0.0
  0
DIMENSION
  5
8FD
  8
2
  6
CONTINUOUS
 62
     7
  2
*D175
 10
3267.704961
 20
1732.054493
 30
0.0
 11
3237.705076
 21
1756.692162
 31
0.0
  1
８０
 13
2840.106132
 23
1819.092151
 33
0.0
 14
2840.106132
 24
1899.092151
 34
0.0
 50
90.000003
  0
DIMENSION
  5
8FE
  8
2
  6
CONTINUOUS
 62
     7
  2
*D176
 10
3622.415268
 20
1967.390528
 30
0.0
 11
3592.41528
 21
1806.379979
 31
0.0
  1
２９０
 13
3274.606063
 23
1658.892251
 33
0.0
 14
3243.206132
 24
1953.867622
 34
0.0
 50
90.000003
  0
DIMENSION
  5
8FF
  8
2
  6
CONTINUOUS
 62
     7
  2
*D177
 10
3486.560962
 20
1604.982419
 30
0.0
 11
3456.561032
 21
1774.301122
 31
0.0
  1
２００
 13
3274.606063
 23
1658.892251
 33
0.0
 14
2852.802693
 24
1859.092151
 34
0.0
 50
90.000003
  0
DIMENSION
  5
900
  8
2
  6
CONTINUOUS
 62
     7
  2
*D178
 10
3486.560962
 20
1604.982419
 30
0.0
 11
3456.561034
 21
1557.407543
 31
0.0
  1
８
 13
3089.60649
 23
1643.892812
 33
0.0
 14
3274.606063
 24
1658.892251
 34
0.0
 50
90.000003
  0
DIMENSION
  5
901
  8
2
  6
CONTINUOUS
 62
     7
  2
*D179
 10
3091.320531
 20
1449.167005
 30
0.0
 11
3157.006006
 21
1479.166992
 31
0.0
  1
２０
 13
3074.606063
 23
1658.892251
 33
0.0
 14
3094.606063
 24
1648.892151
 34
0.0
  0
DIMENSION
  5
902
  8
2
  6
CONTINUOUS
 62
     7
  2
*D180
 10
3091.320531
 20
1449.167005
 30
0.0
 11
2992.206445
 21
1479.166992
 31
0.0
  1
２０
 13
3054.606482
 23
1658.892779
 33
0.0
 14
3074.606063
 24
1658.892251
 34
0.0
  0
DIMENSION
  5
903
  8
2
  6
CONTINUOUS
 62
     7
  2
*D181
 10
1268.881233
 20
1683.45381
 30
0.0
 11
1238.881221
 21
1838.392089
 31
0.0
  1
３５０以上
 13
1669.606363
 23
1658.892051
 33
0.0
 14
1568.106959
 24
2017.892151
 34
0.0
 50
90.000003
  0
DIMENSION
  5
904
  8
2
  6
CONTINUOUS
 62
     7
  2
*D182
 10
1485.978196
 20
1785.786321
 30
0.0
 11
1455.978147
 21
1529.376073
 31
0.0
  1
２４０
 13
1669.606363
 23
1658.892051
 33
0.0
 14
2101.589058
 24
1897.592151
 34
0.0
 50
90.000003
  0
DIMENSION
  5
905
  8
2
  6
CONTINUOUS
 62
     7
  2
*D183
 10
1854.849236
 20
1454.744902
 30
0.0
 11
1972.906519
 21
1484.744873
 31
0.0
  1
４０
 13
1869.605963
 23
1658.892251
 33
0.0
 14
1910.506482
 24
1658.891543
 34
0.0
  0
DIMENSION
  5
906
  8
2
  6
CONTINUOUS
 62
     7
  2
*D184
 10
1854.849236
 20
1454.744902
 30
0.0
 11
1787.206079
 21
1484.744873
 31
0.0
  1
２０
 13
1849.606063
 23
1648.892151
 33
0.0
 14
1869.605963
 24
1658.892251
 34
0.0
  0
DIMENSION
  5
907
  8
2
  6
CONTINUOUS
 62
     7
  2
*D185
 10
1702.287341
 20
273.861145
 30
0.0
 11
1672.287345
 21
21.35129
 31
0.0
  1
２６０（天井材部）
 13
1947.006063
 23
437.175452
 33
0.0
 14
1947.006063
 24
697.175452
 34
0.0
 50
90.000003
  0
DIMENSION
  5
908
  8
2
  6
CONTINUOUS
 62
     7
  2
*D186
 10
1603.65892
 20
530.999528
 30
0.0
 11
1573.658933
 21
567.175451
 31
0.0
  1
６８０
 13
1864.606063
 23
227.175452
 33
0.0
 14
1864.606063
 24
907.175452
 34
0.0
 50
90.000003
  0
DIMENSION
  5
909
  8
2
  6
CONTINUOUS
 62
     7
  2
*D187
 10
2694.844525
 20
-56.849277
 30
0.0
 11
2472.106006
 21
-26.849277
 31
0.0
  1
１２４５
 13
1849.606063
 23
242.175452
 33
0.0
 14
3094.606063
 24
242.175452
 34
0.0
  0
DIMENSION
  5
90A
  8
2
  6
CONTINUOUS
 62
     7
  2
*D188
 10
3545.357613
 20
3334.798329
 30
0.0
 11
3515.357663
 21
3318.430761
 31
0.0
  1
２４０
 13
4065.485281
 23
3199.080513
 33
0.0
 14
3746.528816
 24
3437.781211
 34
0.0
 50
90.000003
  0
DIMENSION
  5
90B
  8
2
  6
CONTINUOUS
 62
     7
  2
*D189
 10
1584.779939
 20
1841.520638
 30
0.0
 11
1554.779904
 21
1527.608129
 31
0.0
  1
１３５
 13
2110.606063
 23
1830.092151
 33
0.0
 14
2110.606063
 24
1965.092151
 34
0.0
 50
90.000003
  0
DIMENSION
  5
90C
  8
2
  6
CONTINUOUS
 62
     7
  2
*D190
 10
3142.547355
 20
3744.027707
 30
0.0
 11
3120.465479
 21
3774.027588
 31
0.0
  1
５０
 13
2964.206132
 23
3599.44792
 33
0.0
 14
3016.606132
 24
3430.04792
 34
0.0
  0
DIMENSION
  5
90D
  8
2
  6
CONTINUOUS
 62
     7
  2
*D191
 10
1666.223623
 20
3246.541945
 30
0.0
 11
1636.223625
 21
3299.847948
 31
0.0
  1
５２０（吊り位置）
 13
1931.92983
 23
3039.84792
 33
0.0
 14
1933.480041
 24
3559.84792
 34
0.0
 50
90.000003
  0
DIMENSION
  5
90E
  8
2
  6
CONTINUOUS
 62
     7
  2
*D192
 10
1569.232896
 20
3092.10311
 30
0.0
 11
1539.232901
 21
3299.447997
 31
0.0
  1
６４０（天井開口部）
 13
1869.606132
 23
2979.44792
 33
0.0
 14
1869.606132
 24
3619.44792
 34
0.0
 50
90.000003
  0
DIMENSION
  5
90F
  8
2
  6
CONTINUOUS
 62
     7
  2
*D193
 10
3144.912925
 20
2878.97348
 30
0.0
 11
3162.285547
 21
2908.973389
 31
0.0
  1
６０
 13
2964.206132
 23
2999.44792
 33
0.0
 14
3024.806132
 24
3250.04792
 34
0.0
  0
DIMENSION
  5
910
  8
2
  6
CONTINUOUS
 62
     7
  2
*D194
 10
2872.492134
 20
2813.454556
 30
0.0
 11
2472.106201
 21
2843.45459
 31
0.0
  1
１０３５（吊り位置）
 13
1955.006132
 23
3012.16393
 33
0.0
 14
2989.206132
 24
3012.559773
 34
0.0
  0
DIMENSION
  5
911
  8
2
  6
CONTINUOUS
 62
     7
  2
*D195
 10
2800.076481
 20
2730.693809
 30
0.0
 11
2472.106152
 21
2760.693848
 31
0.0
  1
１２０５（天井開口部）
 13
1869.606132
 23
2979.44792
 33
0.0
 14
3074.606132
 24
2979.44792
 34
0.0
  0
DIMENSION
  5
912
  8
2
  6
CONTINUOUS
 62
     7
  2
*D196
 10
2426.62228
 20
2539.026203
 30
0.0
 11
3182.81626
 21
2569.026123
 31
0.0
  1
１２５
 13
2964.206132
 23
2007.892151
 33
0.0
 14
3094.606063
 24
1658.892151
 34
0.0
  0
DIMENSION
  5
913
  8
2
  6
CONTINUOUS
 62
     7
  2
*D197
 10
2426.62228
 20
2539.026203
 30
0.0
 11
2472.106055
 21
2569.026123
 31
0.0
  1
９９５
 13
1980.006132
 23
2007.892151
 33
0.0
 14
2964.206132
 24
2007.892151
 34
0.0
  0
DIMENSION
  5
914
  8
2
  6
CONTINUOUS
 62
     7
  2
*D198
 10
2426.62228
 20
2539.026203
 30
0.0
 11
1766.406104
 21
2569.026123
 31
0.0
  1
１２５
 13
1849.606063
 23
1658.892151
 33
0.0
 14
1980.006132
 24
2007.892151
 34
0.0
  0
DIMENSION
  5
915
  8
2
  6
CONTINUOUS
 62
     7
  2
*D199
 10
2443.92574
 20
2273.706474
 30
0.0
 11
2384.606055
 21
2303.706543
 31
0.0
  1
３６０
 13
2204.606063
 23
1965.092151
 33
0.0
 14
2564.606132
 24
1965.092151
 34
0.0
  0
DIMENSION
  5
916
  8
2
  6
CONTINUOUS
 62
     7
  2
*D200
 10
2486.117668
 20
1451.839046
 30
0.0
 11
2627.223975
 21
1481.838989
 31
0.0
  1
３２５
 13
2472.106063
 23
1578.21022
 33
0.0
 14
2797.606132
 24
1803.630666
 34
0.0
  0
DIMENSION
  5
917
  8
2
  6
CONTINUOUS
 62
     7
  2
*D201
 10
1371.070215
 20
1739.1998
 30
0.0
 11
1341.070189
 21
1547.788964
 31
0.0
  1
４５
 13
1669.606363
 23
1658.892051
 33
0.0
 14
1910.506435
 24
1709.891543
 34
0.0
 50
90.000003
  0
DIMENSION
  5
918
  8
2
  6
CONTINUOUS
 62
     7
  2
*D202
 10
1371.070215
 20
1739.1998
 30
0.0
 11
1341.070188
 21
1858.89182
 31
0.0
  1
３０５
 13
1910.506435
 23
1709.891543
 33
0.0
 14
1980.006132
 24
2007.892151
 34
0.0
 50
90.000003
  0
DIMENSION
  5
919
  8
2
  6
CONTINUOUS
 62
     7
  2
*D203
 10
2577.510639
 20
1533.639487
 30
0.0
 11
2654.495752
 21
1563.639526
 31
0.0
  1
９５
 13
2472.106063
 23
1598.513043
 33
0.0
 14
2564.606132
 24
1830.092151
 34
0.0
  0
DIMENSION
  5
91A
  8
2
  6
CONTINUOUS
 62
     7
  2
*D204
 10
2368.944078
 20
2464.04454
 30
0.0
 11
2337.606055
 21
2494.044434
 31
0.0
  1
４５５
 13
2110.606063
 23
1965.092151
 33
0.0
 14
2564.606132
 24
1965.092151
 34
0.0
  0
DIMENSION
  5
91B
  8
2
  6
CONTINUOUS
 62
     7
  2
*D205
 10
781.584347
 20
1822.727885
 30
0.0
 11
751.584348
 21
1773.600438
 31
0.0
  1
２３０
 13
614.264809
 23
1658.892151
 33
0.0
 14
375.12891
 24
1888.308698
 34
0.0
 50
90.000003
  0
DIMENSION
  5
91C
  8
2
  6
CONTINUOUS
 62
     7
  2
*D206
 10
95.575232
 20
2239.839123
 30
0.0
 11
211.864816
 21
2269.839111
 31
0.0
  1
５０
 13
274.264809
 23
2087.645263
 33
0.0
 14
324.585691
 24
1977.727476
 34
0.0
  0
DIMENSION
  5
91D
  8
2
  6
CONTINUOUS
 62
     7
  2
*D207
 10
4210.898384
 20
1781.672086
 30
0.0
 11
4180.898435
 21
1746.392186
 31
0.0
  1
１７５
 13
4365.062747
 23
1658.892151
 33
0.0
 14
4653.048333
 24
1833.892151
 34
0.0
 50
90.000003
  0
DIMENSION
  5
91E
  8
2
  6
CONTINUOUS
 62
     7
  2
*D208
 10
4275.586982
 20
1724.376471
 30
0.0
 11
4245.586911
 21
1738.892186
 31
0.0
  1
１６０
 13
4365.062747
 23
1658.892151
 33
0.0
 14
4407.062747
 24
1818.892151
 34
0.0
 50
90.000003
  0
DIMENSION
  5
91F
  8
2
  6
CONTINUOUS
 62
     7
  2
*D209
 10
4740.921013
 20
2308.216507
 30
0.0
 11
4705.062598
 21
2338.216553
 31
0.0
  1
６００
 13
4410.462747
 23
2007.892151
 33
0.0
 14
4999.662747
 24
2007.892151
 34
0.0
  0
DIMENSION
  5
920
  8
2
  6
CONTINUOUS
 62
     7
  2
*D210
 10
4686.412247
 20
2098.843028
 30
0.0
 11
4900.564844
 21
2128.843018
 31
0.0
  1
５５
 13
4705.062747
 23
2108.613826
 33
0.0
 14
4760.062718
 24
1855.231961
 34
0.0
  0
DIMENSION
  5
921
  8
2
  6
CONTINUOUS
 62
     7
  2
*D211
 10
5156.281937
 20
1788.29271
 30
0.0
 11
5126.281736
 21
1746.530858
 31
0.0
  1
１７５
 13
5045.062747
 23
1658.892151
 33
0.0
 14
4771.715157
 24
1834.169651
 34
0.0
 50
90.000003
  0
DIMENSION
  5
922
  8
2
  6
CONTINUOUS
 62
     7
  2
*D212
 10
5243.664661
 20
1823.41024
 30
0.0
 11
5213.664548
 21
1806.379857
 31
0.0
  1
２９０
 13
5045.062747
 23
1658.892151
 33
0.0
 14
4859.142161
 24
1953.867622
 34
0.0
 50
90.000003
  0
DIMENSION
  5
923
  8
2
  6
CONTINUOUS
 62
     7
  2
*D213
 10
4863.961243
 20
2194.469893
 30
0.0
 11
4913.305762
 21
2224.469971
 31
0.0
  1
１２５
 13
4705.062747
 23
2028.033676
 33
0.0
 14
4830.105947
 24
1978.719242
 34
0.0
  0
DIMENSION
  5
924
  8
2
  6
CONTINUOUS
 62
     7
  2
*D214
 10
4686.412247
 20
2098.843028
 30
0.0
 11
4557.825098
 21
2128.843018
 31
0.0
  1
４５
 13
4660.062819
 23
1851.775721
 33
0.0
 14
4705.062747
 24
2092.122066
 34
0.0
  0
DIMENSION
  5
925
  8
2
  6
CONTINUOUS
 62
     7
  2
*D215
 10
4999.662747
 20
2308.216507
 30
0.0
 11
5107.462793
 21
2338.216553
 31
0.0
  1
４０
 13
4999.662747
 23
2007.892151
 33
0.0
 14
5045.062747
 24
1658.892151
 34
0.0
  0
DIMENSION
  5
926
  8
2
  6
CONTINUOUS
 62
     7
  2
*D216
 10
4410.462747
 20
2308.216507
 30
0.0
 11
4302.662988
 21
2338.216553
 31
0.0
  1
４０
 13
4365.062747
 23
1658.892151
 33
0.0
 14
4410.462747
 24
2007.892151
 34
0.0
  0
DIMENSION
  5
927
  8
2
  6
CONTINUOUS
 62
     7
  2
*D217
 10
3626.780013
 20
3185.236863
 30
0.0
 11
3596.780027
 21
3027.018163
 31
0.0
  1
１３５
 13
4101.528527
 23
3131.580513
 33
0.0
 14
4101.528527
 24
3266.580513
 34
0.0
 50
90.000003
  0
DIMENSION
  5
928
  8
2
  6
CONTINUOUS
 62
     7
  2
*D218
 10
4384.551232
 20
2817.833221
 30
0.0
 11
4281.528418
 21
2847.833252
 31
0.0
  1
３６０
 13
4101.528527
 23
3131.580513
 33
0.0
 14
4461.528527
 24
3131.580588
 34
0.0
  0
DIMENSION
  5
929
  8
2
  6
CONTINUOUS
 62
     7
  2
*D219
 10
4463.408702
 20
2913.58872
 30
0.0
 11
4169.987207
 21
2943.588623
 31
0.0
  1
９０
 13
4281.528527
 23
3102.460512
 33
0.0
 14
4369.028416
 24
3027.880735
 34
0.0
  0
LINE
  5
92A
  8
1
 10
2964.206132
 20
1709.892151
 30
0.0
 11
1980.006132
 21
1709.892151
 31
0.0
  0
LINE
  5
92B
  8
1
 10
1980.006132
 20
2007.892151
 30
0.0
 11
1980.006132
 21
1709.892151
 31
0.0
  0
LINE
  5
92C
  8
1
 10
2964.206132
 20
2007.892151
 30
0.0
 11
2964.206132
 21
1710.492151
 31
0.0
  0
LINE
  5
92D
  8
1
 10
2964.206132
 20
2007.892151
 30
0.0
 11
1980.006132
 21
2007.892151
 31
0.0
  0
LINE
  5
92E
  8
1
  6
DASHDOT
 10
3243.206132
 20
1953.867622
 30
0.0
 11
2952.721181
 21
1953.867622
 31
0.0
  0
LINE
  5
92F
  8
1
 10
2966.606132
 20
1970.767622
 30
0.0
 11
2964.206132
 21
1970.767622
 31
0.0
  0
LINE
  5
930
  8
1
 10
2966.606132
 20
1936.967622
 30
0.0
 11
2964.206132
 21
1936.967622
 31
0.0
  0
LINE
  5
931
  8
1
  6
DOT
 10
3016.606132
 20
1937.867622
 30
0.0
 11
2966.606132
 21
1937.367622
 31
0.0
  0
LINE
  5
932
  8
1
  6
DOT
 10
3016.606132
 20
1937.867622
 30
0.0
 11
3016.606132
 21
1969.867622
 31
0.0
  0
LINE
  5
933
  8
1
  6
DOT
 10
3016.606132
 20
1969.867622
 30
0.0
 11
2966.606132
 21
1970.367622
 31
0.0
  0
LINE
  5
934
  8
1
 10
2964.206132
 20
1709.892151
 30
0.0
 11
2964.206132
 21
1843.892151
 31
0.0
  0
LINE
  5
935
  8
1
 10
2964.206132
 20
1763.892151
 30
0.0
 11
2964.206132
 21
1818.892151
 31
0.0
  0
LINE
  5
936
  8
1
 10
2967.506132
 20
1763.892151
 30
0.0
 11
2967.506132
 21
1815.592151
 31
0.0
  0
LINE
  5
937
  8
1
 10
3009.206132
 20
1806.892151
 30
0.0
 11
3009.206132
 21
1815.592151
 31
0.0
  0
LINE
  5
938
  8
1
 10
3012.506132
 20
1806.892151
 30
0.0
 11
3012.506132
 21
1818.892151
 31
0.0
  0
LINE
  5
939
  8
1
  6
DASHDOT
 10
2989.206132
 20
1802.400634
 30
0.0
 11
2989.206132
 21
1830.56452
 31
0.0
  0
LINE
  5
93A
  8
1
 10
2964.206132
 20
1818.892151
 30
0.0
 11
3012.506132
 21
1818.892151
 31
0.0
  0
LINE
  5
93B
  8
1
 10
2967.506132
 20
1815.592151
 30
0.0
 11
3009.206132
 21
1815.592151
 31
0.0
  0
LINE
  5
93C
  8
1
 10
3009.206132
 20
1806.892151
 30
0.0
 11
3012.506132
 21
1806.892151
 31
0.0
  0
LINE
  5
93D
  8
1
 10
2964.206132
 20
1763.892151
 30
0.0
 11
2967.506132
 21
1763.892151
 31
0.0
  0
LINE
  5
93E
  8
1
 10
1980.006132
 20
1763.892151
 30
0.0
 11
1980.006132
 21
1818.892151
 31
0.0
  0
LINE
  5
93F
  8
1
 10
1976.706132
 20
1763.892151
 30
0.0
 11
1976.706132
 21
1815.592151
 31
0.0
  0
LINE
  5
940
  8
1
 10
1935.006132
 20
1806.892151
 30
0.0
 11
1935.006132
 21
1815.592151
 31
0.0
  0
LINE
  5
941
  8
1
 10
1931.706132
 20
1806.892151
 30
0.0
 11
1931.706132
 21
1818.892151
 31
0.0
  0
LINE
  5
942
  8
1
  6
DASHDOT
 10
1955.006132
 20
1802.400634
 30
0.0
 11
1955.006132
 21
1830.56452
 31
0.0
  0
LINE
  5
943
  8
1
 10
1980.006132
 20
1818.892151
 30
0.0
 11
1931.706132
 21
1818.892151
 31
0.0
  0
LINE
  5
944
  8
1
 10
1976.706132
 20
1815.592151
 30
0.0
 11
1935.006132
 21
1815.592151
 31
0.0
  0
LINE
  5
945
  8
1
 10
1935.006132
 20
1806.892151
 30
0.0
 11
1931.706132
 21
1806.892151
 31
0.0
  0
LINE
  5
946
  8
1
 10
1980.006132
 20
1763.892151
 30
0.0
 11
1976.706132
 21
1763.892151
 31
0.0
  0
LINE
  5
947
  8
1
 10
2564.606132
 20
1830.092151
 30
0.0
 11
2564.606132
 21
1965.092151
 31
0.0
  0
LINE
  5
948
  8
1
 10
2110.606063
 20
1965.092151
 30
0.0
 11
2564.606132
 21
1965.092151
 31
0.0
  0
LINE
  5
949
  8
1
 10
2110.606063
 20
1830.092151
 30
0.0
 11
2564.606132
 21
1830.092151
 31
0.0
  0
LINE
  5
94A
  8
1
 10
2110.606063
 20
1830.092151
 30
0.0
 11
2110.606063
 21
1965.092151
 31
0.0
  0
LINE
  5
94B
  8
1
 10
2755.106132
 20
1819.092151
 30
0.0
 11
2755.106132
 21
1899.092151
 31
0.0
  0
LINE
  5
94C
  8
1
 10
2755.106132
 20
1899.092151
 30
0.0
 11
2840.106132
 21
1899.092151
 31
0.0
  0
LINE
  5
94D
  8
1
 10
2840.106132
 20
1819.092151
 30
0.0
 11
2840.106132
 21
1899.092151
 31
0.0
  0
LINE
  5
94E
  8
1
 10
2755.106132
 20
1819.092151
 30
0.0
 11
2840.106132
 21
1819.092151
 31
0.0
  0
LINE
  5
94F
  8
1
 10
1849.606132
 20
2974.44792
 30
0.0
 11
1849.606132
 21
3624.44792
 31
0.0
  0
LINE
  5
950
  8
1
 10
3094.606132
 20
2974.44792
 30
0.0
 11
3094.606132
 21
3624.44792
 31
0.0
  0
LINE
  5
951
  8
1
  6
DIVIDE
 10
3074.606132
 20
2979.44792
 30
0.0
 11
3074.606132
 21
3619.44792
 31
0.0
  0
LINE
  5
952
  8
1
  6
DIVIDE
 10
1869.606132
 20
2979.44792
 30
0.0
 11
1869.606132
 21
3619.44792
 31
0.0
  0
LINE
  5
953
  8
1
 10
3079.606132
 20
3639.44792
 30
0.0
 11
1864.606132
 21
3639.44792
 31
0.0
  0
LINE
  5
954
  8
1
 10
3079.606132
 20
2959.44792
 30
0.0
 11
1864.606132
 21
2959.44792
 31
0.0
  0
LINE
  5
955
  8
1
  6
DIVIDE
 10
3074.606132
 20
2979.44792
 30
0.0
 11
1869.606132
 21
2979.44792
 31
0.0
  0
LINE
  5
956
  8
1
  6
DIVIDE
 10
3074.606132
 20
3619.44792
 30
0.0
 11
1869.606132
 21
3619.44792
 31
0.0
  0
LINE
  5
957
  8
1
  6
DASHDOT
 10
2472.106132
 20
2886.108994
 30
0.0
 11
2472.106132
 21
3705.792955
 31
0.0
  0
LINE
  5
958
  8
1
  6
DASHDOT
 10
3175.858711
 20
3299.44792
 30
0.0
 11
1785.850744
 21
3299.44792
 31
0.0
  0
LINE
  5
959
  8
1
 10
2964.206132
 20
2999.44792
 30
0.0
 11
1980.006132
 21
2999.44792
 31
0.0
  0
LINE
  5
95A
  8
1
 10
2964.206132
 20
3594.44792
 30
0.0
 11
2964.206132
 21
3593.84792
 31
0.0
  0
LINE
  5
95B
  8
1
 10
2964.206132
 20
3599.44792
 30
0.0
 11
2964.206132
 21
2999.44792
 31
0.0
  0
LINE
  5
95C
  8
1
 10
2964.206132
 20
3005.84792
 30
0.0
 11
2964.206132
 21
3005.24792
 31
0.0
  0
LINE
  5
95D
  8
1
  6
DASHDOT
 10
1915.006681
 20
3559.84792
 30
0.0
 11
1999.595112
 21
3559.84792
 31
0.0
  0
LINE
  5
95E
  8
1
 10
1952.0772
 20
3521.84792
 30
0.0
 11
1965.006132
 21
3521.84792
 31
0.0
  0
LINE
  5
95F
  8
1
 10
1952.0772
 20
3597.84792
 30
0.0
 11
1965.006132
 21
3597.84792
 31
0.0
  0
LINE
  5
960
  8
1
  6
DASHED
 10
1977.706132
 20
3582.84792
 30
0.0
 11
1977.706132
 21
3536.84792
 31
0.0
  0
LINE
  5
961
  8
1
  6
DASHED
 10
1935.006132
 20
3582.84792
 30
0.0
 11
1935.006132
 21
3565.84792
 31
0.0
  0
LINE
  5
962
  8
1
 10
1932.706132
 20
3582.84792
 30
0.0
 11
1932.706132
 21
3565.84792
 31
0.0
  0
LINE
  5
963
  8
1
 10
1932.706132
 20
3553.84792
 30
0.0
 11
1946.006132
 21
3553.84792
 31
0.0
  0
LINE
  5
964
  8
1
 10
1932.706132
 20
3565.84792
 30
0.0
 11
1946.006132
 21
3565.84792
 31
0.0
  0
LINE
  5
965
  8
1
 10
1932.706132
 20
3582.84792
 30
0.0
 11
1935.006132
 21
3582.84792
 31
0.0
  0
LINE
  5
966
  8
1
 10
1932.706132
 20
3536.84792
 30
0.0
 11
1935.006132
 21
3536.84792
 31
0.0
  0
LINE
  5
967
  8
1
  6
DASHDOT
 10
1955.006132
 20
3599.84792
 30
0.0
 11
1955.006132
 21
3519.372763
 31
0.0
  0
LINE
  5
968
  8
1
 10
1961.006132
 20
3576.84792
 30
0.0
 11
1961.006132
 21
3542.84792
 31
0.0
  0
LINE
  5
969
  8
1
 10
1949.006132
 20
3576.84792
 30
0.0
 11
1949.006132
 21
3568.84792
 31
0.0
  0
LINE
  5
96A
  8
1
 10
1935.006132
 20
3582.84792
 30
0.0
 11
1948.541666
 21
3596.383454
 31
0.0
  0
LINE
  5
96B
  8
1
 10
1935.006132
 20
3536.84792
 30
0.0
 11
1948.541666
 21
3523.312386
 31
0.0
  0
LINE
  5
96C
  8
1
 10
1970.006132
 20
3592.84792
 30
0.0
 11
1970.006132
 21
3587.84792
 31
0.0
  0
ARC
  5
96D
  8
1
 10
1975.006132
 20
3587.84792
 30
0.0
 40
5.0
 50
180.0
 51
270.0
  0
ARC
  5
96E
  8
1
 10
1965.006132
 20
3592.84792
 30
0.0
 40
5.0
 50
0.0
 51
90.0
  0
ARC
  5
96F
  8
1
 10
1975.006132
 20
3531.84792
 30
0.0
 40
5.0
 50
90.0
 51
180.0
  0
ARC
  5
970
  8
1
 10
1965.006132
 20
3526.84792
 30
0.0
 40
5.0
 50
270.0
 51
0.0
  0
ARC
  5
971
  8
1
 10
1952.0772
 20
3526.84792
 30
0.0
 40
5.0
 50
225.0
 51
270.0
  0
ARC
  5
972
  8
1
 10
1952.0772
 20
3592.84792
 30
0.0
 40
5.0
 50
90.0
 51
135.0
  0
ARC
  5
973
  8
1
 10
1946.006132
 20
3568.84792
 30
0.0
 40
3.0
 50
270.0
 51
0.0
  0
ARC
  5
974
  8
1
 10
1946.006132
 20
3550.84792
 30
0.0
 40
3.0
 50
0.0
 51
90.0
  0
ARC
  5
975
  8
1
 10
1955.006132
 20
3542.84792
 30
0.0
 40
6.0
 50
180.0
 51
270.0
  0
ARC
  5
976
  8
1
 10
1955.006132
 20
3542.84792
 30
0.0
 40
6.0
 50
270.0
 51
0.0
  0
ARC
  5
977
  8
1
 10
1955.006132
 20
3576.84792
 30
0.0
 40
6.0
 50
0.0
 51
90.0
  0
ARC
  5
978
  8
1
 10
1955.006132
 20
3576.84792
 30
0.0
 40
6.0
 50
90.0
 51
180.0
  0
LINE
  5
979
  8
1
 10
1932.706132
 20
3553.84792
 30
0.0
 11
1932.706132
 21
3536.84792
 31
0.0
  0
LINE
  5
97A
  8
1
  6
DASHED
 10
1935.006132
 20
3553.84792
 30
0.0
 11
1935.006132
 21
3536.84792
 31
0.0
  0
LINE
  5
97B
  8
1
 10
1975.006132
 20
3582.84792
 30
0.0
 11
1980.006132
 21
3582.84792
 31
0.0
  0
LINE
  5
97C
  8
1
 10
1975.006132
 20
3536.84792
 30
0.0
 11
1980.006132
 21
3536.84792
 31
0.0
  0
LINE
  5
97D
  8
1
 10
1970.006132
 20
3531.84792
 30
0.0
 11
1970.006132
 21
3526.84792
 31
0.0
  0
LINE
  5
97E
  8
1
 10
1949.006132
 20
3550.84792
 30
0.0
 11
1949.006132
 21
3542.84792
 31
0.0
  0
LINE
  5
97F
  8
1
 10
1980.006132
 20
3536.84792
 30
0.0
 11
1980.006132
 21
3582.84792
 31
0.0
  0
LINE
  5
980
  8
1
  6
DASHDOT
 10
1915.006681
 20
3039.84792
 30
0.0
 11
1999.595112
 21
3039.84792
 31
0.0
  0
LINE
  5
981
  8
1
 10
1952.0772
 20
3001.84792
 30
0.0
 11
1965.006132
 21
3001.84792
 31
0.0
  0
LINE
  5
982
  8
1
 10
1952.0772
 20
3077.84792
 30
0.0
 11
1965.006132
 21
3077.84792
 31
0.0
  0
LINE
  5
983
  8
1
  6
DASHED
 10
1977.706132
 20
3062.84792
 30
0.0
 11
1977.706132
 21
3016.84792
 31
0.0
  0
LINE
  5
984
  8
1
  6
DASHED
 10
1935.006132
 20
3062.84792
 30
0.0
 11
1935.006132
 21
3045.84792
 31
0.0
  0
LINE
  5
985
  8
1
 10
1932.706132
 20
3062.84792
 30
0.0
 11
1932.706132
 21
3045.84792
 31
0.0
  0
LINE
  5
986
  8
1
 10
1932.706132
 20
3033.84792
 30
0.0
 11
1946.006132
 21
3033.84792
 31
0.0
  0
LINE
  5
987
  8
1
 10
1932.706132
 20
3045.84792
 30
0.0
 11
1946.006132
 21
3045.84792
 31
0.0
  0
LINE
  5
988
  8
1
 10
1932.706132
 20
3062.84792
 30
0.0
 11
1935.006132
 21
3062.84792
 31
0.0
  0
LINE
  5
989
  8
1
 10
1932.706132
 20
3016.84792
 30
0.0
 11
1935.006132
 21
3016.84792
 31
0.0
  0
LINE
  5
98A
  8
1
  6
DASHDOT
 10
1955.006132
 20
3079.84792
 30
0.0
 11
1955.006132
 21
2999.372763
 31
0.0
  0
LINE
  5
98B
  8
1
 10
1961.006132
 20
3056.84792
 30
0.0
 11
1961.006132
 21
3022.84792
 31
0.0
  0
LINE
  5
98C
  8
1
 10
1949.006132
 20
3056.84792
 30
0.0
 11
1949.006132
 21
3048.84792
 31
0.0
  0
LINE
  5
98D
  8
1
 10
1935.006132
 20
3062.84792
 30
0.0
 11
1948.541666
 21
3076.383454
 31
0.0
  0
LINE
  5
98E
  8
1
 10
1935.006132
 20
3016.84792
 30
0.0
 11
1948.541666
 21
3003.312386
 31
0.0
  0
LINE
  5
98F
  8
1
 10
1970.006132
 20
3072.84792
 30
0.0
 11
1970.006132
 21
3067.84792
 31
0.0
  0
ARC
  5
990
  8
1
 10
1975.006132
 20
3067.84792
 30
0.0
 40
5.0
 50
180.0
 51
270.0
  0
ARC
  5
991
  8
1
 10
1965.006132
 20
3072.84792
 30
0.0
 40
5.0
 50
0.0
 51
90.0
  0
ARC
  5
992
  8
1
 10
1975.006132
 20
3011.84792
 30
0.0
 40
5.0
 50
90.0
 51
180.0
  0
ARC
  5
993
  8
1
 10
1965.006132
 20
3006.84792
 30
0.0
 40
5.0
 50
270.0
 51
0.0
  0
ARC
  5
994
  8
1
 10
1952.0772
 20
3006.84792
 30
0.0
 40
5.0
 50
225.0
 51
270.0
  0
ARC
  5
995
  8
1
 10
1952.0772
 20
3072.84792
 30
0.0
 40
5.0
 50
90.0
 51
135.0
  0
ARC
  5
996
  8
1
 10
1946.006132
 20
3048.84792
 30
0.0
 40
3.0
 50
270.0
 51
0.0
  0
ARC
  5
997
  8
1
 10
1946.006132
 20
3030.84792
 30
0.0
 40
3.0
 50
0.0
 51
90.0
  0
ARC
  5
998
  8
1
 10
1955.006132
 20
3022.84792
 30
0.0
 40
6.0
 50
180.0
 51
270.0
  0
ARC
  5
999
  8
1
 10
1955.006132
 20
3022.84792
 30
0.0
 40
6.0
 50
270.0
 51
0.0
  0
ARC
  5
99A
  8
1
 10
1955.006132
 20
3056.84792
 30
0.0
 40
6.0
 50
0.0
 51
90.0
  0
ARC
  5
99B
  8
1
 10
1955.006132
 20
3056.84792
 30
0.0
 40
6.0
 50
90.0
 51
180.0
  0
LINE
  5
99C
  8
1
 10
1932.706132
 20
3033.84792
 30
0.0
 11
1932.706132
 21
3016.84792
 31
0.0
  0
LINE
  5
99D
  8
1
  6
DASHED
 10
1935.006132
 20
3033.84792
 30
0.0
 11
1935.006132
 21
3016.84792
 31
0.0
  0
LINE
  5
99E
  8
1
 10
1975.006132
 20
3062.84792
 30
0.0
 11
1980.006132
 21
3062.84792
 31
0.0
  0
LINE
  5
99F
  8
1
 10
1975.006132
 20
3016.84792
 30
0.0
 11
1980.006132
 21
3016.84792
 31
0.0
  0
LINE
  5
9A0
  8
1
 10
1970.006132
 20
3011.84792
 30
0.0
 11
1970.006132
 21
3006.84792
 31
0.0
  0
LINE
  5
9A1
  8
1
 10
1949.006132
 20
3030.84792
 30
0.0
 11
1949.006132
 21
3022.84792
 31
0.0
  0
LINE
  5
9A2
  8
1
 10
1980.006132
 20
3016.84792
 30
0.0
 11
1980.006132
 21
3062.84792
 31
0.0
  0
LINE
  5
9A3
  8
1
  6
DASHDOT
 10
3029.404799
 20
3039.84792
 30
0.0
 11
2946.715952
 21
3039.84792
 31
0.0
  0
LINE
  5
9A4
  8
1
 10
2992.135064
 20
3001.84792
 30
0.0
 11
2979.206132
 21
3001.84792
 31
0.0
  0
LINE
  5
9A5
  8
1
 10
2992.135064
 20
3077.84792
 30
0.0
 11
2979.206132
 21
3077.84792
 31
0.0
  0
LINE
  5
9A6
  8
1
  6
DASHED
 10
2966.506132
 20
3062.84792
 30
0.0
 11
2966.506132
 21
3016.84792
 31
0.0
  0
LINE
  5
9A7
  8
1
  6
DASHED
 10
3009.206132
 20
3062.84792
 30
0.0
 11
3009.206132
 21
3045.84792
 31
0.0
  0
LINE
  5
9A8
  8
1
 10
3011.506132
 20
3062.84792
 30
0.0
 11
3011.506132
 21
3045.84792
 31
0.0
  0
LINE
  5
9A9
  8
1
 10
3011.506132
 20
3033.84792
 30
0.0
 11
2998.206132
 21
3033.84792
 31
0.0
  0
LINE
  5
9AA
  8
1
 10
3011.506132
 20
3045.84792
 30
0.0
 11
2998.206132
 21
3045.84792
 31
0.0
  0
LINE
  5
9AB
  8
1
 10
3011.506132
 20
3062.84792
 30
0.0
 11
3009.206132
 21
3062.84792
 31
0.0
  0
LINE
  5
9AC
  8
1
 10
3011.506132
 20
3016.84792
 30
0.0
 11
3009.206132
 21
3016.84792
 31
0.0
  0
LINE
  5
9AD
  8
1
  6
DASHDOT
 10
2989.206132
 20
3079.84792
 30
0.0
 11
2989.206132
 21
2999.372763
 31
0.0
  0
LINE
  5
9AE
  8
1
 10
2983.206132
 20
3056.84792
 30
0.0
 11
2983.206132
 21
3022.84792
 31
0.0
  0
LINE
  5
9AF
  8
1
 10
2995.206132
 20
3056.84792
 30
0.0
 11
2995.206132
 21
3048.84792
 31
0.0
  0
LINE
  5
9B0
  8
1
 10
3009.206132
 20
3062.84792
 30
0.0
 11
2995.670598
 21
3076.383454
 31
0.0
  0
LINE
  5
9B1
  8
1
 10
3009.206132
 20
3016.84792
 30
0.0
 11
2995.670598
 21
3003.312386
 31
0.0
  0
LINE
  5
9B2
  8
1
 10
2974.206132
 20
3072.84792
 30
0.0
 11
2974.206132
 21
3067.84792
 31
0.0
  0
ARC
  5
9B3
  8
1
 10
2969.206132
 20
3067.84792
 30
0.0
 40
5.0
 50
270.0
 51
0.0
  0
ARC
  5
9B4
  8
1
 10
2979.206132
 20
3072.84792
 30
0.0
 40
5.0
 50
90.0
 51
180.0
  0
ARC
  5
9B5
  8
1
 10
2969.206132
 20
3011.84792
 30
0.0
 40
5.0
 50
0.0
 51
90.0
  0
ARC
  5
9B6
  8
1
 10
2979.206132
 20
3006.84792
 30
0.0
 40
5.0
 50
180.0
 51
270.0
  0
ARC
  5
9B7
  8
1
 10
2992.135064
 20
3006.84792
 30
0.0
 40
5.0
 50
270.0
 51
315.0
  0
ARC
  5
9B8
  8
1
 10
2992.135064
 20
3072.84792
 30
0.0
 40
5.0
 50
45.0
 51
90.0
  0
ARC
  5
9B9
  8
1
 10
2998.206132
 20
3048.84792
 30
0.0
 40
3.0
 50
180.0
 51
270.0
  0
ARC
  5
9BA
  8
1
 10
2998.206132
 20
3030.84792
 30
0.0
 40
3.0
 50
90.0
 51
180.0
  0
ARC
  5
9BB
  8
1
 10
2989.206132
 20
3022.84792
 30
0.0
 40
6.0
 50
270.0
 51
0.0
  0
ARC
  5
9BC
  8
1
 10
2989.206132
 20
3022.84792
 30
0.0
 40
6.0
 50
180.0
 51
270.0
  0
ARC
  5
9BD
  8
1
 10
2989.206132
 20
3056.84792
 30
0.0
 40
6.0
 50
90.0
 51
180.0
  0
ARC
  5
9BE
  8
1
 10
2989.206132
 20
3056.84792
 30
0.0
 40
6.0
 50
0.0
 51
90.0
  0
LINE
  5
9BF
  8
1
 10
3011.506132
 20
3033.84792
 30
0.0
 11
3011.506132
 21
3016.84792
 31
0.0
  0
LINE
  5
9C0
  8
1
  6
DASHED
 10
3009.206132
 20
3033.84792
 30
0.0
 11
3009.206132
 21
3016.84792
 31
0.0
  0
LINE
  5
9C1
  8
1
 10
2969.206132
 20
3062.84792
 30
0.0
 11
2964.206132
 21
3062.84792
 31
0.0
  0
LINE
  5
9C2
  8
1
 10
2969.206132
 20
3016.84792
 30
0.0
 11
2964.206132
 21
3016.84792
 31
0.0
  0
LINE
  5
9C3
  8
1
 10
2974.206132
 20
3011.84792
 30
0.0
 11
2974.206132
 21
3006.84792
 31
0.0
  0
LINE
  5
9C4
  8
1
 10
2995.206132
 20
3030.84792
 30
0.0
 11
2995.206132
 21
3022.84792
 31
0.0
  0
LINE
  5
9C5
  8
1
 10
2964.206132
 20
3016.84792
 30
0.0
 11
2964.206132
 21
3062.84792
 31
0.0
  0
LINE
  5
9C6
  8
1
  6
DASHDOT
 10
3029.404799
 20
3559.84792
 30
0.0
 11
2946.715952
 21
3559.84792
 31
0.0
  0
LINE
  5
9C7
  8
1
 10
2992.135064
 20
3521.84792
 30
0.0
 11
2979.206132
 21
3521.84792
 31
0.0
  0
LINE
  5
9C8
  8
1
 10
2992.135064
 20
3597.84792
 30
0.0
 11
2979.206132
 21
3597.84792
 31
0.0
  0
LINE
  5
9C9
  8
1
  6
DASHED
 10
2966.506132
 20
3582.84792
 30
0.0
 11
2966.506132
 21
3536.84792
 31
0.0
  0
LINE
  5
9CA
  8
1
  6
DASHED
 10
3009.206132
 20
3582.84792
 30
0.0
 11
3009.206132
 21
3565.84792
 31
0.0
  0
LINE
  5
9CB
  8
1
 10
3011.506132
 20
3582.84792
 30
0.0
 11
3011.506132
 21
3565.84792
 31
0.0
  0
LINE
  5
9CC
  8
1
 10
3011.506132
 20
3553.84792
 30
0.0
 11
2998.206132
 21
3553.84792
 31
0.0
  0
LINE
  5
9CD
  8
1
 10
3011.506132
 20
3565.84792
 30
0.0
 11
2998.206132
 21
3565.84792
 31
0.0
  0
LINE
  5
9CE
  8
1
 10
3011.506132
 20
3582.84792
 30
0.0
 11
3009.206132
 21
3582.84792
 31
0.0
  0
LINE
  5
9CF
  8
1
 10
3011.506132
 20
3536.84792
 30
0.0
 11
3009.206132
 21
3536.84792
 31
0.0
  0
LINE
  5
9D0
  8
1
  6
DASHDOT
 10
2989.206132
 20
3599.84792
 30
0.0
 11
2989.206132
 21
3519.372763
 31
0.0
  0
LINE
  5
9D1
  8
1
 10
2983.206132
 20
3576.84792
 30
0.0
 11
2983.206132
 21
3542.84792
 31
0.0
  0
LINE
  5
9D2
  8
1
 10
2995.206132
 20
3576.84792
 30
0.0
 11
2995.206132
 21
3568.84792
 31
0.0
  0
LINE
  5
9D3
  8
1
 10
3009.206132
 20
3582.84792
 30
0.0
 11
2995.670598
 21
3596.383454
 31
0.0
  0
LINE
  5
9D4
  8
1
 10
3009.206132
 20
3536.84792
 30
0.0
 11
2995.670598
 21
3523.312386
 31
0.0
  0
LINE
  5
9D5
  8
1
 10
2974.206132
 20
3592.84792
 30
0.0
 11
2974.206132
 21
3587.84792
 31
0.0
  0
ARC
  5
9D6
  8
1
 10
2969.206132
 20
3587.84792
 30
0.0
 40
5.0
 50
270.0
 51
0.0
  0
ARC
  5
9D7
  8
1
 10
2979.206132
 20
3592.84792
 30
0.0
 40
5.0
 50
90.0
 51
180.0
  0
ARC
  5
9D8
  8
1
 10
2969.206132
 20
3531.84792
 30
0.0
 40
5.0
 50
0.0
 51
90.0
  0
ARC
  5
9D9
  8
1
 10
2979.206132
 20
3526.84792
 30
0.0
 40
5.0
 50
180.0
 51
270.0
  0
ARC
  5
9DA
  8
1
 10
2992.135064
 20
3526.84792
 30
0.0
 40
5.0
 50
270.0
 51
315.0
  0
ARC
  5
9DB
  8
1
 10
2992.135064
 20
3592.84792
 30
0.0
 40
5.0
 50
45.0
 51
90.0
  0
ARC
  5
9DC
  8
1
 10
2998.206132
 20
3568.84792
 30
0.0
 40
3.0
 50
180.0
 51
270.0
  0
ARC
  5
9DD
  8
1
 10
2998.206132
 20
3550.84792
 30
0.0
 40
3.0
 50
90.0
 51
180.0
  0
ARC
  5
9DE
  8
1
 10
2989.206132
 20
3542.84792
 30
0.0
 40
6.0
 50
270.0
 51
0.0
  0
ARC
  5
9DF
  8
1
 10
2989.206132
 20
3542.84792
 30
0.0
 40
6.0
 50
180.0
 51
270.0
  0
ARC
  5
9E0
  8
1
 10
2989.206132
 20
3576.84792
 30
0.0
 40
6.0
 50
90.0
 51
180.0
  0
ARC
  5
9E1
  8
1
 10
2989.206132
 20
3576.84792
 30
0.0
 40
6.0
 50
0.0
 51
90.0
  0
LINE
  5
9E2
  8
1
 10
3011.506132
 20
3553.84792
 30
0.0
 11
3011.506132
 21
3536.84792
 31
0.0
  0
LINE
  5
9E3
  8
1
  6
DASHED
 10
3009.206132
 20
3553.84792
 30
0.0
 11
3009.206132
 21
3536.84792
 31
0.0
  0
LINE
  5
9E4
  8
1
 10
2969.206132
 20
3582.84792
 30
0.0
 11
2964.206132
 21
3582.84792
 31
0.0
  0
LINE
  5
9E5
  8
1
 10
2969.206132
 20
3536.84792
 30
0.0
 11
2964.206132
 21
3536.84792
 31
0.0
  0
LINE
  5
9E6
  8
1
 10
2974.206132
 20
3531.84792
 30
0.0
 11
2974.206132
 21
3526.84792
 31
0.0
  0
LINE
  5
9E7
  8
1
 10
2995.206132
 20
3550.84792
 30
0.0
 11
2995.206132
 21
3542.84792
 31
0.0
  0
LINE
  5
9E8
  8
1
 10
2964.206132
 20
3536.84792
 30
0.0
 11
2964.206132
 21
3582.84792
 31
0.0
  0
LINE
  5
9E9
  8
1
 10
1980.006132
 20
3005.84792
 30
0.0
 11
1980.006132
 21
3005.24792
 31
0.0
  0
LINE
  5
9EA
  8
1
 10
1980.006132
 20
3599.44792
 30
0.0
 11
1980.006132
 21
2999.44792
 31
0.0
  0
LINE
  5
9EB
  8
1
 10
1980.006132
 20
3594.44792
 30
0.0
 11
1980.006132
 21
3593.84792
 31
0.0
  0
LINE
  5
9EC
  8
1
  6
DASHDOT
 10
3029.404799
 20
3414.04792
 30
0.0
 11
2947.018311
 21
3414.04792
 31
0.0
  0
LINE
  5
9ED
  8
1
 10
3016.606132
 20
3398.04792
 30
0.0
 11
3016.606132
 21
3430.04792
 31
0.0
  0
LINE
  5
9EE
  8
1
 10
3016.606132
 20
3430.04792
 30
0.0
 11
2964.206132
 21
3430.57192
 31
0.0
  0
LINE
  5
9EF
  8
1
 10
3016.606132
 20
3398.04792
 30
0.0
 11
2964.206132
 21
3397.52392
 31
0.0
  0
LINE
  5
9F0
  8
1
 10
2964.206132
 20
3217.84792
 30
0.0
 11
2964.206132
 21
3367.84792
 31
0.0
  0
LINE
  5
9F1
  8
1
 10
2964.206132
 20
3362.04792
 30
0.0
 11
2988.306132
 21
3362.04792
 31
0.0
  0
LINE
  5
9F2
  8
1
 10
2964.206132
 20
3346.04792
 30
0.0
 11
2988.306132
 21
3346.04792
 31
0.0
  0
LINE
  5
9F3
  8
1
  6
DASHDOT
 10
3028.785588
 20
3354.04792
 30
0.0
 11
2943.827536
 21
3354.04792
 31
0.0
  0
LINE
  5
9F4
  8
1
 10
2999.806132
 20
3340.19792
 30
0.0
 11
2993.806132
 21
3340.19792
 31
0.0
  0
LINE
  5
9F5
  8
1
 10
2999.806132
 20
3367.89792
 30
0.0
 11
2993.806132
 21
3367.89792
 31
0.0
  0
LINE
  5
9F6
  8
1
 10
3024.806132
 20
3347.29792
 30
0.0
 11
3024.806132
 21
3360.79792
 31
0.0
  0
LINE
  5
9F7
  8
1
 10
3022.056132
 20
3344.54792
 30
0.0
 11
3022.056132
 21
3363.54792
 31
0.0
  0
LINE
  5
9F8
  8
1
 10
3005.306132
 20
3344.54792
 30
0.0
 11
3002.306132
 21
3344.54792
 31
0.0
  0
LINE
  5
9F9
  8
1
 10
3005.306132
 20
3363.54792
 30
0.0
 11
3002.306132
 21
3363.54792
 31
0.0
  0
LINE
  5
9FA
  8
1
 10
3017.806132
 20
3343.54792
 30
0.0
 11
3005.306132
 21
3343.54792
 31
0.0
  0
LINE
  5
9FB
  8
1
 10
3017.806132
 20
3364.54792
 30
0.0
 11
3005.306132
 21
3364.54792
 31
0.0
  0
LINE
  5
9FC
  8
1
 10
3024.806132
 20
3347.29792
 30
0.0
 11
3022.056132
 21
3344.54792
 31
0.0
  0
LINE
  5
9FD
  8
1
 10
3024.806132
 20
3360.79792
 30
0.0
 11
3022.056132
 21
3363.54792
 31
0.0
  0
LINE
  5
9FE
  8
1
 10
3017.806132
 20
3343.54792
 30
0.0
 11
3017.806132
 21
3364.54792
 31
0.0
  0
LINE
  5
9FF
  8
1
 10
3005.306132
 20
3343.54792
 30
0.0
 11
3005.306132
 21
3364.54792
 31
0.0
  0
LINE
  5
A00
  8
1
 10
3002.306132
 20
3342.69792
 30
0.0
 11
3002.306132
 21
3365.39792
 31
0.0
  0
LINE
  5
A01
  8
1
 10
2988.306132
 20
3342.94792
 30
0.0
 11
2988.306132
 21
3365.14792
 31
0.0
  0
LINE
  5
A02
  8
1
 10
2991.306132
 20
3342.69792
 30
0.0
 11
2991.306132
 21
3365.39792
 31
0.0
  0
LINE
  5
A03
  8
1
 10
2991.306132
 20
3342.94792
 30
0.0
 11
2988.306132
 21
3342.94792
 31
0.0
  0
LINE
  5
A04
  8
1
 10
2991.306132
 20
3365.14792
 30
0.0
 11
2988.306132
 21
3365.14792
 31
0.0
  0
LINE
  5
A05
  8
1
 10
3022.056132
 20
3344.54792
 30
0.0
 11
3017.806132
 21
3344.54792
 31
0.0
  0
LINE
  5
A06
  8
1
 10
3022.056132
 20
3363.54792
 30
0.0
 11
3017.806132
 21
3363.54792
 31
0.0
  0
LINE
  5
A07
  8
1
 10
2999.806132
 20
3347.119716
 30
0.0
 11
2993.806132
 21
3347.119716
 31
0.0
  0
LINE
  5
A08
  8
1
 10
2999.806132
 20
3360.976123
 30
0.0
 11
2993.806132
 21
3360.976123
 31
0.0
  0
ARC
  5
A09
  8
1
 10
2999.806132
 20
3344.619716
 30
0.0
 40
2.5
 50
0.0
 51
90.0
  0
ARC
  5
A0A
  8
1
 10
2999.806132
 20
3363.476123
 30
0.0
 40
2.5
 50
270.0
 51
0.0
  0
ARC
  5
A0B
  8
1
 10
2999.806132
 20
3358.476123
 30
0.0
 40
2.5
 50
0.0
 51
90.0
  0
ARC
  5
A0C
  8
1
 10
2999.806132
 20
3349.619716
 30
0.0
 40
2.5
 50
270.0
 51
0.0
  0
ARC
  5
A0D
  8
1
 10
2993.806132
 20
3344.619716
 30
0.0
 40
2.5
 50
90.0
 51
180.0
  0
ARC
  5
A0E
  8
1
 10
2993.806132
 20
3349.619716
 30
0.0
 40
2.5
 50
180.0
 51
270.0
  0
ARC
  5
A0F
  8
1
 10
2993.806132
 20
3358.476123
 30
0.0
 40
2.5
 50
90.0
 51
180.0
  0
ARC
  5
A10
  8
1
 10
2993.806132
 20
3363.476123
 30
0.0
 40
2.5
 50
180.0
 51
270.0
  0
LINE
  5
A11
  8
1
 10
3002.306132
 20
3342.69792
 30
0.0
 11
2999.806132
 21
3340.19792
 31
0.0
  0
LINE
  5
A12
  8
1
 10
3002.306132
 20
3365.39792
 30
0.0
 11
2999.806132
 21
3367.89792
 31
0.0
  0
LINE
  5
A13
  8
1
 10
2993.806132
 20
3367.89792
 30
0.0
 11
2991.306132
 21
3365.39792
 31
0.0
  0
LINE
  5
A14
  8
1
 10
2993.806132
 20
3340.19792
 30
0.0
 11
2991.306132
 21
3342.69792
 31
0.0
  0
LINE
  5
A15
  8
1
 10
2964.206132
 20
3258.87292
 30
0.0
 11
2998.806132
 21
3258.87292
 31
0.0
  0
LINE
  5
A16
  8
1
 10
2964.206132
 20
3249.22292
 30
0.0
 11
2998.806132
 21
3249.22292
 31
0.0
  0
LINE
  5
A17
  8
1
  6
DASHDOT
 10
3029.52877
 20
3254.04792
 30
0.0
 11
2943.827536
 21
3254.04792
 31
0.0
  0
LINE
  5
A18
  8
1
 10
3024.806132
 20
3250.04792
 30
0.0
 11
3024.806132
 21
3258.04792
 31
0.0
  0
LINE
  5
A19
  8
1
 10
2998.806132
 20
3246.09792
 30
0.0
 11
2998.806132
 21
3261.99792
 31
0.0
  0
LINE
  5
A1A
  8
1
 10
3022.056132
 20
3260.79792
 30
0.0
 11
3008.806132
 21
3260.79792
 31
0.0
  0
LINE
  5
A1B
  8
1
 10
3022.056132
 20
3247.29792
 30
0.0
 11
3008.806132
 21
3247.29792
 31
0.0
  0
LINE
  5
A1C
  8
1
 10
3022.056132
 20
3247.29792
 30
0.0
 11
3022.056132
 21
3260.79792
 31
0.0
  0
LINE
  5
A1D
  8
1
 10
3024.806132
 20
3250.04792
 30
0.0
 11
3022.056132
 21
3247.29792
 31
0.0
  0
LINE
  5
A1E
  8
1
 10
3024.806132
 20
3258.04792
 30
0.0
 11
3022.056132
 21
3260.79792
 31
0.0
  0
LINE
  5
A1F
  8
1
 10
3019.306132
 20
3246.29792
 30
0.0
 11
3019.306132
 21
3261.79792
 31
0.0
  0
LINE
  5
A20
  8
1
 10
3010.806132
 20
3246.29792
 30
0.0
 11
3010.806132
 21
3261.79792
 31
0.0
  0
LINE
  5
A21
  8
1
 10
3008.806132
 20
3246.24792
 30
0.0
 11
3008.806132
 21
3261.84792
 31
0.0
  0
LINE
  5
A22
  8
1
 10
3006.806132
 20
3263.84792
 30
0.0
 11
3002.806132
 21
3263.84792
 31
0.0
  0
LINE
  5
A23
  8
1
 10
3006.806132
 20
3244.24792
 30
0.0
 11
3002.806132
 21
3244.24792
 31
0.0
  0
LINE
  5
A24
  8
1
 10
3019.306132
 20
3246.29792
 30
0.0
 11
3010.806132
 21
3246.29792
 31
0.0
  0
LINE
  5
A25
  8
1
 10
3019.306132
 20
3261.79792
 30
0.0
 11
3010.806132
 21
3261.79792
 31
0.0
  0
LINE
  5
A26
  8
1
 10
3000.806132
 20
3246.24792
 30
0.0
 11
3000.806132
 21
3261.84792
 31
0.0
  0
LINE
  5
A27
  8
1
 10
3000.806132
 20
3246.09792
 30
0.0
 11
2998.806132
 21
3246.09792
 31
0.0
  0
LINE
  5
A28
  8
1
 10
3000.806132
 20
3261.99792
 30
0.0
 11
2998.806132
 21
3261.99792
 31
0.0
  0
LINE
  5
A29
  8
1
 10
3008.806132
 20
3246.24792
 30
0.0
 11
3006.806132
 21
3244.24792
 31
0.0
  0
LINE
  5
A2A
  8
1
 10
3002.806132
 20
3244.24792
 30
0.0
 11
3000.806132
 21
3246.24792
 31
0.0
  0
LINE
  5
A2B
  8
1
 10
3008.806132
 20
3261.84792
 30
0.0
 11
3006.806132
 21
3263.84792
 31
0.0
  0
LINE
  5
A2C
  8
1
 10
3002.806132
 20
3263.84792
 30
0.0
 11
3000.806132
 21
3261.84792
 31
0.0
  0
LINE
  5
A2D
  8
1
 10
3006.806132
 20
3249.140442
 30
0.0
 11
3002.806132
 21
3249.140442
 31
0.0
  0
LINE
  5
A2E
  8
1
 10
3006.806132
 20
3258.955397
 30
0.0
 11
3002.806132
 21
3258.955397
 31
0.0
  0
ARC
  5
A2F
  8
1
 10
3006.806132
 20
3260.955397
 30
0.0
 40
2.0
 50
270.0
 51
0.0
  0
ARC
  5
A30
  8
1
 10
3006.806132
 20
3256.955397
 30
0.0
 40
2.0
 50
0.0
 51
90.0
  0
ARC
  5
A31
  8
1
 10
3006.806132
 20
3251.140442
 30
0.0
 40
2.0
 50
270.0
 51
0.0
  0
ARC
  5
A32
  8
1
 10
3006.806132
 20
3247.140442
 30
0.0
 40
2.0
 50
0.0
 51
90.0
  0
ARC
  5
A33
  8
1
 10
3002.806132
 20
3247.140442
 30
0.0
 40
2.0
 50
90.0
 51
180.0
  0
ARC
  5
A34
  8
1
 10
3002.806132
 20
3260.955397
 30
0.0
 40
2.0
 50
180.0
 51
270.0
  0
ARC
  5
A35
  8
1
 10
3002.806132
 20
3256.955397
 30
0.0
 40
2.0
 50
90.0
 51
180.0
  0
ARC
  5
A36
  8
1
 10
3002.806132
 20
3251.140442
 30
0.0
 40
2.0
 50
180.0
 51
270.0
  0
LINE
  5
A37
  8
1
 10
2964.206132
 20
3599.44792
 30
0.0
 11
1980.006132
 21
3599.44792
 31
0.0
  0
LINE
  5
A38
  8
1
 10
1869.606063
 20
1668.892251
 30
0.0
 11
1669.605963
 21
1668.892251
 31
0.0
  0
LINE
  5
A39
  8
1
 10
1669.605963
 20
1668.892251
 30
0.0
 11
1669.605963
 21
1658.892251
 31
0.0
  0
LINE
  5
A3A
  8
1
 10
1869.606063
 20
1658.892251
 30
0.0
 11
1669.606363
 21
1658.892051
 31
0.0
  0
LINE
  5
A3B
  8
1
 10
1819.151563
 20
1658.892251
 30
0.0
 11
1829.151563
 21
1668.892251
 31
0.0
  0
LINE
  5
A3C
  8
1
 10
1786.725163
 20
1668.892251
 30
0.0
 11
1776.725163
 21
1658.892251
 31
0.0
  0
LINE
  5
A3D
  8
1
 10
1734.298763
 20
1658.892251
 30
0.0
 11
1744.298763
 21
1668.892251
 31
0.0
  0
LINE
  5
A3E
  8
1
 10
1701.872363
 20
1668.892251
 30
0.0
 11
1691.872363
 21
1658.892251
 31
0.0
  0
LINE
  5
A3F
  8
1
 10
1869.605963
 20
1666.920351
 30
0.0
 11
1861.577863
 21
1658.892251
 31
0.0
  0
LINE
  5
A40
  8
1
 10
1869.605963
 20
1658.892251
 30
0.0
 11
1869.605963
 21
1668.892251
 31
0.0
  0
LINE
  5
A41
  8
1
 10
3274.606063
 20
1658.892251
 30
0.0
 11
3074.606063
 21
1658.892151
 31
0.0
  0
LINE
  5
A42
  8
1
 10
3274.606063
 20
1668.892251
 30
0.0
 11
3074.606063
 21
1668.892251
 31
0.0
  0
LINE
  5
A43
  8
1
 10
3274.606063
 20
1668.892251
 30
0.0
 11
3274.606063
 21
1658.892251
 31
0.0
  0
LINE
  5
A44
  8
1
 10
3074.606063
 20
1668.892251
 30
0.0
 11
3074.606063
 21
1658.892251
 31
0.0
  0
LINE
  5
A45
  8
1
 10
3208.309163
 20
1668.892251
 30
0.0
 11
3198.309163
 21
1658.892251
 31
0.0
  0
LINE
  5
A46
  8
1
 10
3240.735663
 20
1658.892251
 30
0.0
 11
3250.735663
 21
1668.892251
 31
0.0
  0
LINE
  5
A47
  8
1
 10
3155.882663
 20
1658.892151
 30
0.0
 11
3165.882663
 21
1668.892251
 31
0.0
  0
LINE
  5
A48
  8
1
 10
3123.456163
 20
1668.892251
 30
0.0
 11
3113.456163
 21
1658.892151
 31
0.0
  0
LINE
  5
A49
  8
1
 10
3074.606063
 20
1662.468551
 30
0.0
 11
3081.029663
 21
1668.892251
 31
0.0
  0
ARC
  5
A4A
  8
1
 10
2981.454932
 20
1797.608551
 30
0.0
 40
16.0161
 50
241.0607
 51
298.94
  0
ARC
  5
A4B
  8
1
 10
2981.454932
 20
1780.576251
 30
0.0
 40
16.0161
 50
61.0603
 51
118.9396
  0
LINE
  5
A4C
  8
1
 10
2981.454632
 20
1781.592451
 30
0.0
 11
2996.954632
 21
1781.592451
 31
0.0
  0
LINE
  5
A4D
  8
1
 10
2982.204932
 20
1781.592451
 30
0.0
 11
2982.204932
 21
1776.592451
 31
0.0
  0
ARC
  5
A4E
  8
1
 10
2981.454932
 20
1812.608551
 30
0.0
 40
16.0161
 50
241.0607
 51
298.94
  0
LINE
  5
A4F
  8
1
 10
2973.705132
 20
1811.592451
 30
0.0
 11
2973.705132
 21
1783.592251
 31
0.0
  0
ARC
  5
A50
  8
1
 10
2981.454932
 20
1795.576251
 30
0.0
 40
16.0161
 50
61.0603
 51
118.9396
  0
LINE
  5
A51
  8
1
 10
2972.205132
 20
1811.592451
 30
0.0
 11
3006.204932
 21
1811.592151
 31
0.0
  0
LINE
  5
A52
  8
1
 10
2972.205132
 20
1815.592151
 30
0.0
 11
2972.205132
 21
1811.592651
 31
0.0
  0
LINE
  5
A53
  8
1
 10
3006.204932
 20
1815.592151
 30
0.0
 11
3006.204932
 21
1811.592151
 31
0.0
  0
LINE
  5
A54
  8
1
 10
3004.704932
 20
1811.592151
 30
0.0
 11
3004.704632
 21
1783.592251
 31
0.0
  0
ARC
  5
A55
  8
1
 10
2996.954932
 20
1795.576251
 30
0.0
 40
16.0161
 50
61.0605
 51
118.9398
  0
ARC
  5
A56
  8
1
 10
2996.954932
 20
1780.576251
 30
0.0
 40
16.0161
 50
61.0605
 51
118.9398
  0
ARC
  5
A57
  8
1
 10
2996.954932
 20
1812.608551
 30
0.0
 40
16.0161
 50
241.0605
 51
298.9398
  0
ARC
  5
A58
  8
1
 10
2996.954932
 20
1797.608551
 30
0.0
 40
16.0161
 50
241.0605
 51
298.9398
  0
LINE
  5
A59
  8
1
 10
2972.205132
 20
1822.892451
 30
0.0
 11
2972.205132
 21
1818.892151
 31
0.0
  0
LINE
  5
A5A
  8
1
 10
2972.205132
 20
1822.892151
 30
0.0
 11
3006.204932
 21
1822.892151
 31
0.0
  0
ARC
  5
A5B
  8
1
 10
2981.454932
 20
1838.908051
 30
0.0
 40
16.0161
 50
241.0607
 51
298.94
  0
LINE
  5
A5C
  8
1
 10
2973.705132
 20
1822.891951
 30
0.0
 11
2973.705132
 21
1835.891951
 31
0.0
  0
ARC
  5
A5D
  8
1
 10
2981.454932
 20
1821.875851
 30
0.0
 40
16.0161
 50
61.0603
 51
118.9396
  0
LINE
  5
A5E
  8
1
  6
DASHDOT
 10
2989.204932
 20
2214.169751
 30
0.0
 11
2989.204932
 21
1770.816451
 31
0.0
  0
LINE
  5
A5F
  8
1
  6
DIVIDE
 10
2982.205632
 20
2199.169251
 30
0.0
 11
2982.204932
 21
1837.891951
 31
0.0
  0
LINE
  5
A60
  8
1
  6
DIVIDE
 10
2996.204632
 20
2199.169251
 30
0.0
 11
2996.204932
 21
1837.891951
 31
0.0
  0
ARC
  5
A61
  8
1
 10
2996.954932
 20
1821.875851
 30
0.0
 40
16.0161
 50
61.0605
 51
118.9398
  0
LINE
  5
A62
  8
1
 10
3004.704932
 20
1822.892151
 30
0.0
 11
3004.704932
 21
1835.892151
 31
0.0
  0
ARC
  5
A63
  8
1
 10
2996.954932
 20
1838.908051
 30
0.0
 40
16.0161
 50
241.0605
 51
298.9398
  0
LINE
  5
A64
  8
1
 10
3006.204932
 20
1822.891951
 30
0.0
 11
3006.204932
 21
1818.892151
 31
0.0
  0
LINE
  5
A65
  8
1
 10
2981.454632
 20
1837.891951
 30
0.0
 11
2996.954632
 21
1837.891951
 31
0.0
  0
LINE
  5
A66
  8
1
 10
2996.205132
 20
1776.592651
 30
0.0
 11
2982.204932
 21
1776.592451
 31
0.0
  0
LINE
  5
A67
  8
1
 10
2996.204932
 20
1781.592451
 30
0.0
 11
2996.205132
 21
1776.592651
 31
0.0
  0
ARC
  5
A68
  8
1
 10
1962.75744
 20
1797.607991
 30
0.0
 40
16.0161
 50
241.060053
 51
298.939353
  0
ARC
  5
A69
  8
1
 10
1962.757456
 20
1780.575691
 30
0.0
 40
16.0161
 50
61.060453
 51
118.939753
  0
LINE
  5
A6A
  8
1
 10
1962.757755
 20
1781.591891
 30
0.0
 11
1947.257755
 21
1781.591877
 31
0.0
  0
LINE
  5
A6B
  8
1
 10
1962.007455
 20
1781.591891
 30
0.0
 11
1962.00746
 21
1776.591891
 31
0.0
  0
ARC
  5
A6C
  8
1
 10
1962.757426
 20
1812.607991
 30
0.0
 40
16.0161
 50
241.060053
 51
298.939353
  0
LINE
  5
A6D
  8
1
 10
1970.507227
 20
1811.591898
 30
0.0
 11
1970.507253
 21
1783.591698
 31
0.0
  0
ARC
  5
A6E
  8
1
 10
1962.757442
 20
1795.575691
 30
0.0
 40
16.0161
 50
61.060453
 51
118.939753
  0
LINE
  5
A6F
  8
1
 10
1972.007227
 20
1811.5919
 30
0.0
 11
1938.007427
 21
1811.591568
 31
0.0
  0
LINE
  5
A70
  8
1
 10
1972.007224
 20
1815.5916
 30
0.0
 11
1972.007227
 21
1811.5921
 31
0.0
  0
LINE
  5
A71
  8
1
 10
1938.007424
 20
1815.591568
 30
0.0
 11
1938.007427
 21
1811.591568
 31
0.0
  0
LINE
  5
A72
  8
1
 10
1939.507427
 20
1811.59157
 30
0.0
 11
1939.507753
 21
1783.59167
 31
0.0
  0
ARC
  5
A73
  8
1
 10
1947.257442
 20
1795.575677
 30
0.0
 40
16.0161
 50
61.060253
 51
118.939553
  0
ARC
  5
A74
  8
1
 10
1947.257456
 20
1780.575677
 30
0.0
 40
16.0161
 50
61.060253
 51
118.939553
  0
ARC
  5
A75
  8
1
 10
1947.257426
 20
1812.607977
 30
0.0
 40
16.0161
 50
241.060253
 51
298.939553
  0
ARC
  5
A76
  8
1
 10
1947.25744
 20
1797.607977
 30
0.0
 40
16.0161
 50
241.060253
 51
298.939553
  0
LINE
  5
A77
  8
1
 10
1972.007218
 20
1822.8919
 30
0.0
 11
1972.007222
 21
1818.8916
 31
0.0
  0
LINE
  5
A78
  8
1
 10
1972.007218
 20
1822.8916
 30
0.0
 11
1938.007418
 21
1822.891568
 31
0.0
  0
ARC
  5
A79
  8
1
 10
1962.757403
 20
1838.907491
 30
0.0
 40
16.0161
 50
241.060053
 51
298.939353
  0
LINE
  5
A7A
  8
1
 10
1970.507218
 20
1822.891398
 30
0.0
 11
1970.507206
 21
1835.891398
 31
0.0
  0
ARC
  5
A7B
  8
1
 10
1962.757419
 20
1821.875291
 30
0.0
 40
16.0161
 50
61.060453
 51
118.939753
  0
LINE
  5
A7C
  8
1
  6
DASHDOT
 10
1955.007054
 20
2214.169184
 30
0.0
 11
1955.007465
 21
1770.815884
 31
0.0
  0
LINE
  5
A7D
  8
1
  6
DIVIDE
 10
1962.006368
 20
2199.168691
 30
0.0
 11
1962.007404
 21
1837.891391
 31
0.0
  0
LINE
  5
A7E
  8
1
  6
DIVIDE
 10
1948.007368
 20
2199.168677
 30
0.0
 11
1948.007404
 21
1837.891377
 31
0.0
  0
ARC
  5
A7F
  8
1
 10
1947.257419
 20
1821.875277
 30
0.0
 40
16.0161
 50
61.060253
 51
118.939553
  0
LINE
  5
A80
  8
1
 10
1939.507418
 20
1822.89157
 30
0.0
 11
1939.507406
 21
1835.89157
 31
0.0
  0
ARC
  5
A81
  8
1
 10
1947.257403
 20
1838.907477
 30
0.0
 40
16.0161
 50
241.060253
 51
298.939553
  0
LINE
  5
A82
  8
1
 10
1938.007418
 20
1822.891368
 30
0.0
 11
1938.007422
 21
1818.891568
 31
0.0
  0
LINE
  5
A83
  8
1
 10
1962.757704
 20
1837.891391
 30
0.0
 11
1947.257704
 21
1837.891377
 31
0.0
  0
LINE
  5
A84
  8
1
 10
1948.00726
 20
1776.592077
 30
0.0
 11
1962.00746
 21
1776.591891
 31
0.0
  0
LINE
  5
A85
  8
1
 10
1948.007455
 20
1781.591877
 30
0.0
 11
1948.00726
 21
1776.592077
 31
0.0
  0
LINE
  5
A86
  8
1
 10
1849.606482
 20
1658.891486
 30
0.0
 11
3094.606482
 21
1658.892816
 31
0.0
  0
LINE
  5
A87
  8
1
 10
1854.60649
 20
1643.891491
 30
0.0
 11
3089.60649
 21
1643.892812
 31
0.0
  0
LINE
  5
A88
  8
1
 10
1849.606063
 20
1648.892151
 30
0.0
 11
1849.606063
 21
1658.892151
 31
0.0
  0
LINE
  5
A89
  8
1
 10
3094.606063
 20
1648.892151
 30
0.0
 11
3094.606063
 21
1658.892151
 31
0.0
  0
ARC
  5
A8A
  8
1
 10
1854.606063
 20
1648.892151
 30
0.0
 40
5.0
 50
180.0
 51
270.0
  0
ARC
  5
A8B
  8
1
 10
3089.606063
 20
1648.892151
 30
0.0
 40
5.0
 50
270.0
 51
0.0
  0
LINE
  5
A8C
  8
1
 10
1910.506435
 20
1709.891543
 30
0.0
 11
3033.706435
 21
1709.89276
 31
0.0
  0
LINE
  5
A8D
  8
1
 10
1910.506482
 20
1658.891543
 30
0.0
 11
1910.506435
 21
1709.891543
 31
0.0
  0
LINE
  5
A8E
  8
1
 10
3054.606482
 20
1658.892779
 30
0.0
 11
3054.606405
 21
1741.392779
 31
0.0
  0
LINE
  5
A8F
  8
1
 10
2989.106435
 20
1709.892718
 30
0.0
 11
2989.106405
 21
1741.392718
 31
0.0
  0
LINE
  5
A90
  8
1
 10
2989.106405
 20
1741.392718
 30
0.0
 11
3054.606405
 21
1741.392779
 31
0.0
  0
LINE
  5
A91
  8
1
 10
3029.106425
 20
1719.892755
 30
0.0
 11
3054.606425
 21
1719.892779
 31
0.0
  0
LINE
  5
A92
  8
1
 10
3029.106435
 20
1709.892755
 30
0.0
 11
3029.106425
 21
1719.892755
 31
0.0
  0
LINE
  5
A93
  8
1
 10
3033.706482
 20
1658.89276
 30
0.0
 11
3033.706435
 21
1709.89276
 31
0.0
  0
LINE
  5
A94
  8
1
  6
DASHDOT
 10
2472.106063
 20
1578.21022
 30
0.0
 11
2472.106063
 21
2071.102852
 31
0.0
  0
ARC
  5
A95
  8
1
 10
1864.606132
 20
2974.44792
 30
0.0
 40
15.0
 50
180.0
 51
270.0
  0
ARC
  5
A96
  8
1
 10
1864.606132
 20
3624.44792
 30
0.0
 40
15.0
 50
90.0
 51
180.0
  0
ARC
  5
A97
  8
1
 10
3079.606132
 20
3624.44792
 30
0.0
 40
15.0
 50
0.0
 51
90.0
  0
ARC
  5
A98
  8
1
 10
3079.606132
 20
2974.44792
 30
0.0
 40
15.0
 50
270.0
 51
0.0
  0
LINE
  5
A99
  8
1
 10
1849.606063
 20
892.175452
 30
0.0
 11
1849.606063
 21
242.175452
 31
0.0
  0
LINE
  5
A9A
  8
1
 10
1864.606063
 20
227.175452
 30
0.0
 11
1914.606063
 21
227.175452
 31
0.0
  0
ARC
  5
A9B
  8
1
 10
1864.606063
 20
242.175452
 30
0.0
 40
15.0
 50
180.0
 51
270.0
  0
LINE
  5
A9C
  8
1
 10
1864.606063
 20
907.175452
 30
0.0
 11
1914.606063
 21
907.175452
 31
0.0
  0
ARC
  5
A9D
  8
1
 10
1864.606063
 20
892.175452
 30
0.0
 40
15.0
 50
90.0
 51
180.0
  0
LINE
  5
A9E
  8
1
 10
1914.606063
 20
907.175452
 30
0.0
 11
1914.606063
 21
227.175452
 31
0.0
  0
LINE
  5
A9F
  8
1
 10
3094.606063
 20
242.175452
 30
0.0
 11
3094.606063
 21
892.175452
 31
0.0
  0
LINE
  5
AA0
  8
1
 10
3079.606063
 20
907.175452
 30
0.0
 11
3029.606063
 21
907.175452
 31
0.0
  0
ARC
  5
AA1
  8
1
 10
3079.606063
 20
892.175452
 30
0.0
 40
15.0
 50
0.0
 51
90.0
  0
LINE
  5
AA2
  8
1
 10
3029.606063
 20
227.175452
 30
0.0
 11
3029.606063
 21
907.175452
 31
0.0
  0
LINE
  5
AA3
  8
1
 10
3079.606063
 20
227.175452
 30
0.0
 11
3029.606063
 21
227.175452
 31
0.0
  0
ARC
  5
AA4
  8
1
 10
3079.606063
 20
242.175452
 30
0.0
 40
15.0
 50
270.0
 51
0.0
  0
LINE
  5
AA5
  8
1
 10
3029.606063
 20
862.175452
 30
0.0
 11
3029.606063
 21
862.675452
 31
0.0
  0
LINE
  5
AA6
  8
1
 10
1914.606063
 20
227.175452
 30
0.0
 11
3029.606063
 21
227.175452
 31
0.0
  0
LINE
  5
AA7
  8
1
 10
1914.606063
 20
268.175452
 30
0.0
 11
3029.606063
 21
268.175452
 31
0.0
  0
LINE
  5
AA8
  8
1
 10
1914.606063
 20
326.675452
 30
0.0
 11
3029.606063
 21
326.675452
 31
0.0
  0
LINE
  5
AA9
  8
1
 10
1914.606063
 20
370.175452
 30
0.0
 11
3029.606063
 21
370.175452
 31
0.0
  0
LINE
  5
AAA
  8
1
 10
2929.106063
 20
370.175452
 30
0.0
 11
2914.606063
 21
370.175452
 31
0.0
  0
LINE
  5
AAB
  8
1
 10
1914.606063
 20
907.175452
 30
0.0
 11
3029.606063
 21
907.175452
 31
0.0
  0
LINE
  5
AAC
  8
1
 10
1914.606063
 20
866.175452
 30
0.0
 11
3029.606063
 21
866.175452
 31
0.0
  0
LINE
  5
AAD
  8
1
 10
1914.606063
 20
852.175452
 30
0.0
 11
2879.606063
 21
852.175452
 31
0.0
  0
LINE
  5
AAE
  8
1
 10
1914.606063
 20
807.675452
 30
0.0
 11
3029.606063
 21
807.675452
 31
0.0
  0
LINE
  5
AAF
  8
1
 10
1914.606063
 20
764.175452
 30
0.0
 11
3029.606063
 21
764.175452
 31
0.0
  0
LINE
  5
AB0
  8
1
  6
DASHDOT
 10
2472.106063
 20
957.175452
 30
0.0
 11
2472.106063
 21
177.175452
 31
0.0
  0
LINE
  5
AB1
  8
1
 10
3029.606063
 20
808.175452
 30
0.0
 11
3029.606063
 21
862.675452
 31
0.0
  0
LINE
  5
AB2
  8
1
 10
2879.606063
 20
808.175452
 30
0.0
 11
2879.606063
 21
862.675452
 31
0.0
  0
LINE
  5
AB3
  8
1
 10
3029.606063
 20
862.675452
 30
0.0
 11
2879.606063
 21
862.675452
 31
0.0
  0
LINE
  5
AB4
  8
1
 10
2879.606063
 20
808.175452
 30
0.0
 11
3029.606063
 21
808.175452
 31
0.0
  0
LINE
  5
AB5
  8
1
 10
2894.606063
 20
808.175452
 30
0.0
 11
2894.606063
 21
862.675452
 31
0.0
  0
LINE
  5
AB6
  8
1
 10
2895.606063
 20
808.175452
 30
0.0
 11
2895.606063
 21
862.675452
 31
0.0
  0
LINE
  5
AB7
  8
1
 10
3017.906063
 20
812.475452
 30
0.0
 11
3017.906063
 21
848.375452
 31
0.0
  0
ARC
  5
AB8
  8
1
 10
3015.806063
 20
812.475452
 30
0.0
 40
2.1
 50
270.0
 51
0.0
  0
LINE
  5
AB9
  8
1
 10
3015.806063
 20
810.375452
 30
0.0
 11
2909.406063
 21
810.375452
 31
0.0
  0
ARC
  5
ABA
  8
1
 10
2909.406063
 20
812.475452
 30
0.0
 40
2.1
 50
180.0
 51
270.0
  0
LINE
  5
ABB
  8
1
 10
2907.306063
 20
812.475452
 30
0.0
 11
2907.306063
 21
848.375452
 31
0.0
  0
ARC
  5
ABC
  8
1
 10
2909.406063
 20
848.375452
 30
0.0
 40
2.1
 50
90.0
 51
180.0
  0
LINE
  5
ABD
  8
1
 10
3015.806063
 20
850.475452
 30
0.0
 11
2909.406063
 21
850.475452
 31
0.0
  0
ARC
  5
ABE
  8
1
 10
3015.806063
 20
848.375452
 30
0.0
 40
2.1
 50
0.0
 51
90.0
  0
LINE
  5
ABF
  8
1
 10
3014.106063
 20
811.375452
 30
0.0
 11
2909.406063
 21
811.375452
 31
0.0
  0
LINE
  5
AC0
  8
1
 10
3016.906063
 20
814.175452
 30
0.0
 11
3016.906063
 21
848.375452
 31
0.0
  0
ARC
  5
AC1
  8
1
 10
3015.806063
 20
848.375452
 30
0.0
 40
1.1
 50
0.0
 51
90.0
  0
LINE
  5
AC2
  8
1
 10
3015.806063
 20
849.475452
 30
0.0
 11
2909.406063
 21
849.475452
 31
0.0
  0
ARC
  5
AC3
  8
1
 10
2909.406063
 20
848.375452
 30
0.0
 40
1.1
 50
90.0
 51
180.0
  0
LINE
  5
AC4
  8
1
 10
2908.306063
 20
812.475452
 30
0.0
 11
2908.306063
 21
848.375452
 31
0.0
  0
ARC
  5
AC5
  8
1
 10
2909.406063
 20
812.475452
 30
0.0
 40
1.1
 50
180.0
 51
270.0
  0
LINE
  5
AC6
  8
1
 10
3014.106063
 20
811.375452
 30
0.0
 11
3016.906063
 21
814.175452
 31
0.0
  0
LINE
  5
AC7
  8
1
 10
3029.606063
 20
812.675452
 30
0.0
 11
3029.606063
 21
813.675452
 31
0.0
  0
LINE
  5
AC8
  8
1
 10
3029.606063
 20
826.675452
 30
0.0
 11
3029.606063
 21
825.675452
 31
0.0
  0
LINE
  5
AC9
  8
1
 10
3029.606063
 20
283.3055
 30
0.0
 11
3014.606063
 21
283.3055
 31
0.0
  0
LINE
  5
ACA
  8
1
 10
3029.606063
 20
321.675452
 30
0.0
 11
3029.606063
 21
320.675452
 31
0.0
  0
LINE
  5
ACB
  8
1
 10
3029.606063
 20
307.675452
 30
0.0
 11
3029.606063
 21
308.675452
 31
0.0
  0
LINE
  5
ACC
  8
1
 10
3029.606063
 20
326.175452
 30
0.0
 11
3029.606063
 21
283.3055
 31
0.0
  0
LINE
  5
ACD
  8
1
 10
3014.606063
 20
326.175452
 30
0.0
 11
3014.606063
 21
283.3055
 31
0.0
  0
LINE
  5
ACE
  8
1
 10
3014.606063
 20
326.175452
 30
0.0
 11
3029.606063
 21
326.175452
 31
0.0
  0
LINE
  5
ACF
  8
1
 10
1914.606063
 20
283.3055
 30
0.0
 11
1929.606063
 21
283.3055
 31
0.0
  0
LINE
  5
AD0
  8
1
 10
1914.606063
 20
321.675452
 30
0.0
 11
1914.606063
 21
320.675452
 31
0.0
  0
LINE
  5
AD1
  8
1
 10
1914.606063
 20
307.675452
 30
0.0
 11
1914.606063
 21
308.675452
 31
0.0
  0
LINE
  5
AD2
  8
1
 10
1914.606063
 20
326.175452
 30
0.0
 11
1914.606063
 21
283.3055
 31
0.0
  0
LINE
  5
AD3
  8
1
 10
1929.606063
 20
326.175452
 30
0.0
 11
1929.606063
 21
283.3055
 31
0.0
  0
LINE
  5
AD4
  8
1
 10
1929.606063
 20
326.175452
 30
0.0
 11
1914.606063
 21
326.175452
 31
0.0
  0
LINE
  5
AD5
  8
1
 10
1914.606063
 20
851.045405
 30
0.0
 11
1929.606063
 21
851.045405
 31
0.0
  0
LINE
  5
AD6
  8
1
 10
1914.606063
 20
812.675452
 30
0.0
 11
1914.606063
 21
813.675452
 31
0.0
  0
LINE
  5
AD7
  8
1
 10
1914.606063
 20
826.675452
 30
0.0
 11
1914.606063
 21
825.675452
 31
0.0
  0
LINE
  5
AD8
  8
1
 10
1914.606063
 20
808.175452
 30
0.0
 11
1914.606063
 21
851.045405
 31
0.0
  0
LINE
  5
AD9
  8
1
 10
1929.606063
 20
808.175452
 30
0.0
 11
1929.606063
 21
851.045405
 31
0.0
  0
LINE
  5
ADA
  8
1
 10
1929.606063
 20
808.175452
 30
0.0
 11
1914.606063
 21
808.175452
 31
0.0
  0
LINE
  5
ADB
  8
1
  6
DASHDOT
 10
3144.606063
 20
567.175452
 30
0.0
 11
1799.606063
 21
567.175452
 31
0.0
  0
LINE
  5
ADC
  8
1
 10
1917.006063
 20
727.675452
 30
0.0
 11
1917.006063
 21
406.675452
 31
0.0
  0
LINE
  5
ADD
  8
1
 10
3027.206063
 20
727.675452
 30
0.0
 11
3027.206063
 21
406.675452
 31
0.0
  0
LINE
  5
ADE
  8
1
  6
DASHDOT
 10
2640.729494
 20
1897.592151
 30
0.0
 11
2066.963879
 21
1897.592151
 31
0.0
  0
LINE
  5
ADF
  8
1
 10
3027.206063
 20
727.675452
 30
0.0
 11
2524.89384
 21
727.675452
 31
0.0
  0
LINE
  5
AE0
  8
1
 10
3027.206063
 20
406.675452
 30
0.0
 11
2438.882149
 21
406.675452
 31
0.0
  0
LINE
  5
AE1
  8
1
 10
1947.006063
 20
697.175452
 30
0.0
 11
1947.006063
 21
437.175452
 31
0.0
  0
LINE
  5
AE2
  8
1
  6
DASHDOT
 10
2870.106132
 20
1859.092151
 30
0.0
 11
2725.106132
 21
1859.092151
 31
0.0
  0
LINE
  5
AE3
  8
1
  6
DASHDOT
 10
2797.606132
 20
1789.092151
 30
0.0
 11
2797.606132
 21
1929.092151
 31
0.0
  0
LINE
  5
AE4
  8
1
 10
3226.206132
 20
1969.867622
 30
0.0
 11
3226.206132
 21
1937.867622
 31
0.0
  0
LINE
  5
AE5
  8
1
 10
3226.206132
 20
1969.867622
 30
0.0
 11
3169.206132
 21
1969.867622
 31
0.0
  0
LINE
  5
AE6
  8
1
 10
3226.206132
 20
1937.867622
 30
0.0
 11
3169.206132
 21
1937.867622
 31
0.0
  0
LINE
  5
AE7
  8
1
 10
3169.206132
 20
1978.867622
 30
0.0
 11
3169.206132
 21
1928.867622
 31
0.0
  0
LINE
  5
AE8
  8
1
 10
3169.206132
 20
1978.867622
 30
0.0
 11
2964.206132
 21
1978.867622
 31
0.0
  0
LINE
  5
AE9
  8
1
 10
3169.206132
 20
1928.867622
 30
0.0
 11
2964.206132
 21
1928.867622
 31
0.0
  0
LINE
  5
AEA
  8
1
  6
DIVIDE
 10
2420.767881
 20
406.675452
 30
0.0
 11
2506.779571
 21
727.675452
 31
0.0
  0
LINE
  5
AEB
  8
1
  6
DIVIDE
 10
2438.882149
 20
406.675452
 30
0.0
 11
2524.89384
 21
727.675452
 31
0.0
  0
LINE
  5
AEC
  8
1
 10
2498.607121
 20
697.175452
 30
0.0
 11
1947.006063
 21
697.175452
 31
0.0
  0
LINE
  5
AED
  8
1
 10
2428.940331
 20
437.175452
 30
0.0
 11
1947.006063
 21
437.175452
 31
0.0
  0
LINE
  5
AEE
  8
1
 10
2420.767881
 20
406.675452
 30
0.0
 11
1917.006063
 21
406.675452
 31
0.0
  0
LINE
  5
AEF
  8
1
 10
2506.779571
 20
727.675452
 30
0.0
 11
1917.006063
 21
727.675452
 31
0.0
  0
LINE
  5
AF0
  8
2
  6
CONTINUOUS
 10
1947.006063
 20
431.175452
 30
0.0
 11
1947.006063
 21
56.461559
 31
0.0
  0
LINE
  5
AF1
  8
2
  6
CONTINUOUS
 10
1947.006063
 20
61.461559
 30
0.0
 11
2616.914955
 21
61.461559
 31
0.0
  0
LINE
  5
AF2
  8
2
  6
CONTINUOUS
 10
1975.073084
 20
66.410532
 30
0.0
 11
1947.006063
 21
61.461559
 31
0.0
  0
LINE
  5
AF3
  8
2
  6
CONTINUOUS
 10
1975.073084
 20
56.512585
 30
0.0
 11
1947.006063
 21
61.461559
 31
0.0
  0
CIRCLE
  5
AF4
  8
1
 10
2586.685565
 20
811.29523
 30
0.0
 40
0.888911
  0
CIRCLE
  5
AF5
  8
1
 10
2586.685565
 20
840.837317
 30
0.0
 40
0.888911
  0
CIRCLE
  5
AF6
  8
1
 10
2599.477663
 20
818.680752
 30
0.0
 40
0.888911
  0
CIRCLE
  5
AF7
  8
1
 10
2599.477663
 20
833.451795
 30
0.0
 40
0.888911
  0
CIRCLE
  5
AF8
  8
1
 10
2599.477663
 20
848.222838
 30
0.0
 40
0.888911
  0
CIRCLE
  5
AF9
  8
1
 10
2586.685565
 20
826.066274
 30
0.0
 40
0.888911
  0
CIRCLE
  5
AFA
  8
1
 10
2765.774946
 20
811.29523
 30
0.0
 40
0.888911
  0
CIRCLE
  5
AFB
  8
1
 10
2765.774946
 20
840.837317
 30
0.0
 40
0.888911
  0
CIRCLE
  5
AFC
  8
1
 10
2778.567045
 20
818.680752
 30
0.0
 40
0.888911
  0
CIRCLE
  5
AFD
  8
1
 10
2778.567045
 20
833.451795
 30
0.0
 40
0.888911
  0
CIRCLE
  5
AFE
  8
1
 10
2778.567045
 20
848.222838
 30
0.0
 40
0.888911
  0
CIRCLE
  5
AFF
  8
1
 10
2765.774946
 20
826.066274
 30
0.0
 40
0.888911
  0
LINE
  5
B00
  8
1
 10
1914.606063
 20
282.175452
 30
0.0
 11
3029.606063
 21
282.175452
 31
0.0
  0
LINE
  5
B01
  8
1
 10
2204.606063
 20
1830.092151
 30
0.0
 11
2204.606063
 21
1965.092151
 31
0.0
  0
TEXT
  5
B02
  8
2
  6
CONTINUOUS
 10
2163.997803
 20
2401.520752
 30
0.0
 40
52.0
  1
加湿器接続位置
 41
0.675
  7
MONOTXT
  0
TEXT
  5
B03
  8
1
 10
2239.913086
 20
2211.106934
 30
0.0
 40
52.0
  1
分岐ダクト
 41
0.675
  7
MONOTXT
  0
TEXT
  5
B04
  8
1
 10
2239.913086
 20
2148.706934
 30
0.0
 40
52.0
  1
　接続位置
 41
0.675
  7
MONOTXT
  0
TEXT
  5
B05
  8
2
  6
CONTINUOUS
 10
2157.30957
 20
65.461548
 30
0.0
 40
52.0
  1
１０５０（天井材部）
 41
0.6
  7
MONOTXT
  0
LINE
  5
B06
  8
1
 10
568.864809
 20
2007.892151
 30
0.0
 11
-20.335191
 21
2007.892151
 31
0.0
  0
LINE
  5
B07
  8
1
 10
568.864809
 20
2007.892151
 30
0.0
 11
568.864809
 21
1670.391318
 31
0.0
  0
LINE
  5
B08
  8
1
 10
-20.335191
 20
2007.892151
 30
0.0
 11
-20.335191
 21
1670.391318
 31
0.0
  0
LINE
  5
B09
  8
1
 10
496.264809
 20
1818.892151
 30
0.0
 11
572.264809
 21
1818.892151
 31
0.0
  0
LINE
  5
B0A
  8
1
 10
496.264809
 20
1816.592151
 30
0.0
 11
511.264809
 21
1816.592151
 31
0.0
  0
LINE
  5
B0B
  8
1
 10
572.264809
 20
1816.592151
 30
0.0
 11
572.264809
 21
1818.892151
 31
0.0
  0
LINE
  5
B0C
  8
1
 10
496.264809
 20
1816.592151
 30
0.0
 11
496.264809
 21
1818.892151
 31
0.0
  0
LINE
  5
B0D
  8
1
 10
511.264809
 20
1809.892151
 30
0.0
 11
511.264809
 21
1818.892151
 31
0.0
  0
LINE
  5
B0E
  8
1
 10
528.264809
 20
1809.892151
 30
0.0
 11
528.264809
 21
1818.892151
 31
0.0
  0
LINE
  5
B0F
  8
1
 10
540.264809
 20
1809.892151
 30
0.0
 11
540.264809
 21
1818.892151
 31
0.0
  0
LINE
  5
B10
  8
1
 10
557.264809
 20
1774.625995
 30
0.0
 11
557.264809
 21
1818.892151
 31
0.0
  0
LINE
  5
B11
  8
1
 10
514.264809
 20
1806.892151
 30
0.0
 11
525.264809
 21
1806.892151
 31
0.0
  0
ARC
  5
B12
  8
1
 10
554.264809
 20
1809.892151
 30
0.0
 40
3.0
 50
270.0
 51
0.0
  0
ARC
  5
B13
  8
1
 10
543.264809
 20
1809.892151
 30
0.0
 40
3.0
 50
180.0
 51
270.0
  0
ARC
  5
B14
  8
1
 10
525.264809
 20
1809.892151
 30
0.0
 40
3.0
 50
270.0
 51
0.0
  0
ARC
  5
B15
  8
1
 10
514.264809
 20
1809.892151
 30
0.0
 40
3.0
 50
180.0
 51
270.0
  0
LINE
  5
B16
  8
1
 10
517.984962
 20
1763.892151
 30
0.0
 11
550.544655
 21
1763.892151
 31
0.0
  0
CIRCLE
  5
B17
  8
1
 10
534.264809
 20
1803.892151
 30
0.0
 40
3.5
  0
CIRCLE
  5
B18
  8
1
 10
534.264809
 20
1773.892151
 30
0.0
 40
3.5
  0
LINE
  5
B19
  8
1
 10
555.333787
 20
1767.455412
 30
0.0
 11
557.05394
 21
1773.189256
 31
0.0
  0
LINE
  5
B1A
  8
1
 10
513.195831
 20
1767.455412
 30
0.0
 11
511.475677
 21
1773.189256
 31
0.0
  0
ARC
  5
B1B
  8
1
 10
550.544655
 20
1768.892151
 30
0.0
 40
5.0
 50
270.0
 51
343.300756
  0
ARC
  5
B1C
  8
1
 10
552.264809
 20
1774.625995
 30
0.0
 40
5.0
 50
343.300756
 51
0.0
  0
ARC
  5
B1D
  8
1
 10
517.984962
 20
1768.892151
 30
0.0
 40
5.0
 50
196.699244
 51
270.0
  0
ARC
  5
B1E
  8
1
 10
516.264809
 20
1774.625995
 30
0.0
 40
5.0
 50
180.0
 51
196.699244
  0
LINE
  5
B1F
  8
1
 10
543.264809
 20
1806.892151
 30
0.0
 11
554.264809
 21
1806.892151
 31
0.0
  0
LINE
  5
B20
  8
1
 10
511.264809
 20
1809.892151
 30
0.0
 11
511.264809
 21
1774.625995
 31
0.0
  0
LINE
  5
B21
  8
1
 10
557.264809
 20
1816.592151
 30
0.0
 11
572.264809
 21
1816.592151
 31
0.0
  0
LINE
  5
B22
  8
1
 10
528.264809
 20
1816.592151
 30
0.0
 11
540.264809
 21
1816.592151
 31
0.0
  0
LINE
  5
B23
  8
1
 10
52.264809
 20
1818.892151
 30
0.0
 11
-23.735191
 21
1818.892151
 31
0.0
  0
LINE
  5
B24
  8
1
 10
52.264809
 20
1816.592151
 30
0.0
 11
37.264809
 21
1816.592151
 31
0.0
  0
LINE
  5
B25
  8
1
 10
-23.735191
 20
1816.592151
 30
0.0
 11
-23.735191
 21
1818.892151
 31
0.0
  0
LINE
  5
B26
  8
1
 10
52.264809
 20
1816.592151
 30
0.0
 11
52.264809
 21
1818.892151
 31
0.0
  0
LINE
  5
B27
  8
1
 10
37.264809
 20
1809.892151
 30
0.0
 11
37.264809
 21
1818.892151
 31
0.0
  0
LINE
  5
B28
  8
1
 10
20.264809
 20
1809.892151
 30
0.0
 11
20.264809
 21
1818.892151
 31
0.0
  0
LINE
  5
B29
  8
1
 10
8.264809
 20
1809.892151
 30
0.0
 11
8.264809
 21
1818.892151
 31
0.0
  0
LINE
  5
B2A
  8
1
 10
-8.735191
 20
1774.625995
 30
0.0
 11
-8.735191
 21
1818.892151
 31
0.0
  0
LINE
  5
B2B
  8
1
 10
34.264809
 20
1806.892151
 30
0.0
 11
23.264809
 21
1806.892151
 31
0.0
  0
ARC
  5
B2C
  8
1
 10
-5.735191
 20
1809.892151
 30
0.0
 40
3.0
 50
180.0
 51
270.0
  0
ARC
  5
B2D
  8
1
 10
5.264809
 20
1809.892151
 30
0.0
 40
3.0
 50
270.0
 51
0.0
  0
ARC
  5
B2E
  8
1
 10
23.264809
 20
1809.892151
 30
0.0
 40
3.0
 50
180.0
 51
270.0
  0
ARC
  5
B2F
  8
1
 10
34.264809
 20
1809.892151
 30
0.0
 40
3.0
 50
270.0
 51
0.0
  0
LINE
  5
B30
  8
1
 10
30.544655
 20
1763.892151
 30
0.0
 11
-2.015038
 21
1763.892151
 31
0.0
  0
CIRCLE
  5
B31
  8
1
 10
14.264809
 20
1803.892151
 30
0.0
 40
3.5
  0
CIRCLE
  5
B32
  8
1
 10
14.264809
 20
1773.892151
 30
0.0
 40
3.5
  0
LINE
  5
B33
  8
1
 10
-6.804169
 20
1767.455412
 30
0.0
 11
-8.524323
 21
1773.189256
 31
0.0
  0
LINE
  5
B34
  8
1
 10
35.333787
 20
1767.455412
 30
0.0
 11
37.05394
 21
1773.189256
 31
0.0
  0
ARC
  5
B35
  8
1
 10
-2.015038
 20
1768.892151
 30
0.0
 40
5.0
 50
196.699244
 51
270.0
  0
ARC
  5
B36
  8
1
 10
-3.735191
 20
1774.625995
 30
0.0
 40
5.0
 50
180.0
 51
196.699244
  0
ARC
  5
B37
  8
1
 10
30.544655
 20
1768.892151
 30
0.0
 40
5.0
 50
270.0
 51
343.300756
  0
ARC
  5
B38
  8
1
 10
32.264809
 20
1774.625995
 30
0.0
 40
5.0
 50
343.300756
 51
0.0
  0
LINE
  5
B39
  8
1
 10
5.264809
 20
1806.892151
 30
0.0
 11
-5.735191
 21
1806.892151
 31
0.0
  0
LINE
  5
B3A
  8
1
 10
37.264809
 20
1809.892151
 30
0.0
 11
37.264809
 21
1774.625995
 31
0.0
  0
LINE
  5
B3B
  8
1
 10
-8.735191
 20
1816.592151
 30
0.0
 11
-23.735191
 21
1816.592151
 31
0.0
  0
LINE
  5
B3C
  8
1
 10
20.264809
 20
1816.592151
 30
0.0
 11
8.264809
 21
1816.592151
 31
0.0
  0
ARC
  5
B3D
  8
1
 10
-20.235191
 20
1664.392151
 30
0.0
 40
6.0
 50
90.954974
 51
180.0
  0
LINE
  5
B3E
  8
1
 10
-26.235191
 20
1658.892151
 30
0.0
 11
-26.235191
 21
1664.392151
 31
0.0
  0
ARC
  5
B3F
  8
1
 10
568.764809
 20
1664.392151
 30
0.0
 40
6.0
 50
0.0
 51
89.045026
  0
LINE
  5
B40
  8
1
 10
574.764809
 20
1658.892151
 30
0.0
 11
574.764809
 21
1664.392151
 31
0.0
  0
LINE
  5
B41
  8
1
  6
DASHDOT
 10
274.264809
 20
1634.973021
 30
0.0
 11
274.264809
 21
2108.613826
 31
0.0
  0
LINE
  5
B42
  8
1
 10
-51.735191
 20
1643.892151
 30
0.0
 11
600.264809
 21
1643.892151
 31
0.0
  0
ARC
  5
B43
  8
1
 10
-51.735191
 20
1673.892151
 30
0.0
 40
30.0
 50
243.985634
 51
270.0
  0
ARC
  5
B44
  8
1
 10
-64.235191
 20
1648.279654
 30
0.0
 40
1.5
 50
180.0
 51
243.985634
  0
LINE
  5
B45
  8
1
 10
-65.735191
 20
1648.279654
 30
0.0
 11
-65.735191
 21
1658.892151
 31
0.0
  0
LINE
  5
B46
  8
1
 10
-65.735191
 20
1658.892151
 30
0.0
 11
614.264809
 21
1658.892151
 31
0.0
  0
LINE
  5
B47
  8
1
 10
614.264809
 20
1648.279654
 30
0.0
 11
614.264809
 21
1658.892151
 31
0.0
  0
ARC
  5
B48
  8
1
 10
612.764809
 20
1648.279654
 30
0.0
 40
1.5
 50
296.014366
 51
0.0
  0
ARC
  5
B49
  8
1
 10
600.264809
 20
1673.892151
 30
0.0
 40
30.0
 50
270.0
 51
296.014366
  0
ARC
  5
B4A
  8
1
 10
546.264809
 20
1718.892151
 30
0.0
 40
1.0
 50
0.0
 51
90.0
  0
ARC
  5
B4B
  8
1
 10
2.264809
 20
1718.892151
 30
0.0
 40
1.0
 50
90.0
 51
180.0
  0
LINE
  5
B4C
  8
1
 10
-20.335191
 20
1709.892151
 30
0.0
 11
568.864809
 21
1709.892151
 31
0.0
  0
CIRCLE
  5
B4D
  8
1
  6
DASHDOT
 10
324.585691
 20
1888.308698
 30
0.0
 40
80.0
  0
CIRCLE
  5
B4E
  8
1
 10
324.585691
 20
1888.308698
 30
0.0
 40
62.5
  0
LINE
  5
B4F
  8
1
  6
DASHDOT
 10
324.585691
 20
1989.276895
 30
0.0
 11
324.585691
 21
1787.340501
 31
0.0
  0
LINE
  5
B50
  8
1
  6
DASHDOT
 10
223.617494
 20
1888.308698
 30
0.0
 11
425.553888
 21
1888.308698
 31
0.0
  0
CIRCLE
  5
B51
  8
1
 10
284.585691
 20
1819.026665
 30
0.0
 40
3.534976
  0
CIRCLE
  5
B52
  8
1
 10
364.585691
 20
1819.026665
 30
0.0
 40
3.534976
  0
CIRCLE
  5
B53
  8
1
 10
404.585691
 20
1888.308698
 30
0.0
 40
3.534976
  0
CIRCLE
  5
B54
  8
1
 10
364.585691
 20
1957.59073
 30
0.0
 40
3.534976
  0
CIRCLE
  5
B55
  8
1
 10
284.585691
 20
1957.59073
 30
0.0
 40
3.534976
  0
CIRCLE
  5
B56
  8
1
 10
244.585691
 20
1888.308698
 30
0.0
 40
3.534976
  0
LINE
  5
B57
  8
1
 10
4410.462747
 20
2007.892151
 30
0.0
 11
4999.662747
 21
2007.892151
 31
0.0
  0
LINE
  5
B58
  8
1
 10
4410.462747
 20
2007.892151
 30
0.0
 11
4410.462747
 21
1818.892151
 31
0.0
  0
LINE
  5
B59
  8
1
 10
4999.662747
 20
2007.892151
 30
0.0
 11
4999.662747
 21
1818.892151
 31
0.0
  0
LINE
  5
B5A
  8
1
 10
4978.062747
 20
1709.892151
 30
0.0
 11
4999.662747
 21
1709.892151
 31
0.0
  0
LINE
  5
B5B
  8
1
 10
4483.062747
 20
1818.892151
 30
0.0
 11
4407.062747
 21
1818.892151
 31
0.0
  0
LINE
  5
B5C
  8
1
 10
4483.062747
 20
1815.592151
 30
0.0
 11
4468.062747
 21
1815.592151
 31
0.0
  0
LINE
  5
B5D
  8
1
 10
4407.062747
 20
1815.592151
 30
0.0
 11
4407.062747
 21
1818.892151
 31
0.0
  0
LINE
  5
B5E
  8
1
 10
4483.062747
 20
1815.592151
 30
0.0
 11
4483.062747
 21
1818.892151
 31
0.0
  0
LINE
  5
B5F
  8
1
 10
4468.062747
 20
1809.892151
 30
0.0
 11
4468.062747
 21
1818.892151
 31
0.0
  0
LINE
  5
B60
  8
1
 10
4451.062747
 20
1809.892151
 30
0.0
 11
4451.062747
 21
1818.892151
 31
0.0
  0
LINE
  5
B61
  8
1
 10
4439.062747
 20
1809.892151
 30
0.0
 11
4439.062747
 21
1818.892151
 31
0.0
  0
LINE
  5
B62
  8
1
 10
4422.062747
 20
1774.625995
 30
0.0
 11
4422.062747
 21
1818.892151
 31
0.0
  0
LINE
  5
B63
  8
1
 10
4465.062747
 20
1806.892151
 30
0.0
 11
4454.062747
 21
1806.892151
 31
0.0
  0
ARC
  5
B64
  8
1
 10
4425.062747
 20
1809.892151
 30
0.0
 40
3.0
 50
180.0
 51
270.0
  0
ARC
  5
B65
  8
1
 10
4436.062747
 20
1809.892151
 30
0.0
 40
3.0
 50
270.0
 51
0.0
  0
ARC
  5
B66
  8
1
 10
4454.062747
 20
1809.892151
 30
0.0
 40
3.0
 50
180.0
 51
270.0
  0
ARC
  5
B67
  8
1
 10
4465.062747
 20
1809.892151
 30
0.0
 40
3.0
 50
270.0
 51
0.0
  0
LINE
  5
B68
  8
1
 10
4461.342594
 20
1763.892151
 30
0.0
 11
4428.7829
 21
1763.892151
 31
0.0
  0
CIRCLE
  5
B69
  8
1
 10
4445.062747
 20
1803.892151
 30
0.0
 40
3.5
  0
CIRCLE
  5
B6A
  8
1
 10
4445.062747
 20
1773.892151
 30
0.0
 40
3.5
  0
LINE
  5
B6B
  8
1
 10
4423.993769
 20
1767.455412
 30
0.0
 11
4422.273616
 21
1773.189256
 31
0.0
  0
LINE
  5
B6C
  8
1
 10
4466.131725
 20
1767.455412
 30
0.0
 11
4467.851878
 21
1773.189256
 31
0.0
  0
ARC
  5
B6D
  8
1
 10
4428.7829
 20
1768.892151
 30
0.0
 40
5.0
 50
196.699244
 51
270.0
  0
ARC
  5
B6E
  8
1
 10
4427.062747
 20
1774.625995
 30
0.0
 40
5.0
 50
180.0
 51
196.699244
  0
ARC
  5
B6F
  8
1
 10
4461.342594
 20
1768.892151
 30
0.0
 40
5.0
 50
270.0
 51
343.300756
  0
ARC
  5
B70
  8
1
 10
4463.062747
 20
1774.625995
 30
0.0
 40
5.0
 50
343.300756
 51
0.0
  0
LINE
  5
B71
  8
1
 10
4436.062747
 20
1806.892151
 30
0.0
 11
4425.062747
 21
1806.892151
 31
0.0
  0
LINE
  5
B72
  8
1
 10
4468.062747
 20
1809.892151
 30
0.0
 11
4468.062747
 21
1774.625995
 31
0.0
  0
LINE
  5
B73
  8
1
 10
4422.062747
 20
1815.592151
 30
0.0
 11
4407.062747
 21
1815.592151
 31
0.0
  0
LINE
  5
B74
  8
1
 10
4451.062747
 20
1815.592151
 30
0.0
 11
4439.062747
 21
1815.592151
 31
0.0
  0
LINE
  5
B75
  8
1
 10
4927.062747
 20
1818.892151
 30
0.0
 11
5003.062747
 21
1818.892151
 31
0.0
  0
LINE
  5
B76
  8
1
 10
4927.062747
 20
1815.592151
 30
0.0
 11
4942.062747
 21
1815.592151
 31
0.0
  0
LINE
  5
B77
  8
1
 10
5003.062747
 20
1815.592151
 30
0.0
 11
5003.062747
 21
1818.892151
 31
0.0
  0
LINE
  5
B78
  8
1
 10
4927.062747
 20
1815.592151
 30
0.0
 11
4927.062747
 21
1818.892151
 31
0.0
  0
LINE
  5
B79
  8
1
 10
4942.062747
 20
1809.892151
 30
0.0
 11
4942.062747
 21
1818.892151
 31
0.0
  0
LINE
  5
B7A
  8
1
 10
4959.062747
 20
1809.892151
 30
0.0
 11
4959.062747
 21
1818.892151
 31
0.0
  0
LINE
  5
B7B
  8
1
 10
4971.062747
 20
1809.892151
 30
0.0
 11
4971.062747
 21
1818.892151
 31
0.0
  0
LINE
  5
B7C
  8
1
 10
4988.062747
 20
1774.625995
 30
0.0
 11
4988.062747
 21
1818.892151
 31
0.0
  0
LINE
  5
B7D
  8
1
 10
4945.062747
 20
1806.892151
 30
0.0
 11
4956.062747
 21
1806.892151
 31
0.0
  0
ARC
  5
B7E
  8
1
 10
4985.062747
 20
1809.892151
 30
0.0
 40
3.0
 50
270.0
 51
0.0
  0
ARC
  5
B7F
  8
1
 10
4974.062747
 20
1809.892151
 30
0.0
 40
3.0
 50
180.0
 51
270.0
  0
ARC
  5
B80
  8
1
 10
4956.062747
 20
1809.892151
 30
0.0
 40
3.0
 50
270.0
 51
0.0
  0
ARC
  5
B81
  8
1
 10
4945.062747
 20
1809.892151
 30
0.0
 40
3.0
 50
180.0
 51
270.0
  0
LINE
  5
B82
  8
1
 10
4948.7829
 20
1763.892151
 30
0.0
 11
4981.342594
 21
1763.892151
 31
0.0
  0
CIRCLE
  5
B83
  8
1
 10
4965.062747
 20
1803.892151
 30
0.0
 40
3.5
  0
CIRCLE
  5
B84
  8
1
 10
4965.062747
 20
1773.892151
 30
0.0
 40
3.5
  0
LINE
  5
B85
  8
1
 10
4986.131725
 20
1767.455412
 30
0.0
 11
4987.851878
 21
1773.189256
 31
0.0
  0
LINE
  5
B86
  8
1
 10
4943.993769
 20
1767.455412
 30
0.0
 11
4942.273616
 21
1773.189256
 31
0.0
  0
ARC
  5
B87
  8
1
 10
4981.342594
 20
1768.892151
 30
0.0
 40
5.0
 50
270.0
 51
343.300756
  0
ARC
  5
B88
  8
1
 10
4983.062747
 20
1774.625995
 30
0.0
 40
5.0
 50
343.300756
 51
0.0
  0
ARC
  5
B89
  8
1
 10
4948.7829
 20
1768.892151
 30
0.0
 40
5.0
 50
196.699244
 51
270.0
  0
ARC
  5
B8A
  8
1
 10
4947.062747
 20
1774.625995
 30
0.0
 40
5.0
 50
180.0
 51
196.699244
  0
LINE
  5
B8B
  8
1
 10
4974.062747
 20
1806.892151
 30
0.0
 11
4985.062747
 21
1806.892151
 31
0.0
  0
LINE
  5
B8C
  8
1
 10
4942.062747
 20
1809.892151
 30
0.0
 11
4942.062747
 21
1774.625995
 31
0.0
  0
LINE
  5
B8D
  8
1
 10
4988.062747
 20
1815.592151
 30
0.0
 11
5003.062747
 21
1815.592151
 31
0.0
  0
LINE
  5
B8E
  8
1
 10
4959.062747
 20
1815.592151
 30
0.0
 11
4971.062747
 21
1815.592151
 31
0.0
  0
LINE
  5
B8F
  8
1
  6
DASHDOT
 10
4872.651335
 20
1953.867622
 30
0.0
 11
4787.560559
 21
1953.867622
 31
0.0
  0
LINE
  5
B90
  8
1
  6
DASHDOT
 10
4830.105947
 20
1911.322234
 30
0.0
 11
4830.105947
 21
1996.41301
 31
0.0
  0
LINE
  5
B91
  8
1
 10
4772.062747
 20
1734.892151
 30
0.0
 11
4732.538342
 21
1734.892151
 31
0.0
  0
LINE
  5
B92
  8
1
  6
DOT
 10
4772.062747
 20
1709.892151
 30
0.0
 11
4772.062747
 21
1719.892151
 31
0.0
  0
LINE
  5
B93
  8
1
  6
DOT
 10
4652.062747
 20
1709.892151
 30
0.0
 11
4652.062747
 21
1719.892151
 31
0.0
  0
LINE
  5
B94
  8
1
 10
4432.062747
 20
1658.892151
 30
0.0
 11
4432.062747
 21
1718.892151
 31
0.0
  0
ARC
  5
B95
  8
1
 10
4999.562747
 20
1664.392151
 30
0.0
 40
6.0
 50
0.0
 51
89.045026
  0
LINE
  5
B96
  8
1
 10
5005.562747
 20
1658.892151
 30
0.0
 11
5005.562747
 21
1664.392151
 31
0.0
  0
ARC
  5
B97
  8
1
 10
4410.562747
 20
1664.392151
 30
0.0
 40
6.0
 50
90.954974
 51
180.0
  0
LINE
  5
B98
  8
1
 10
4404.562747
 20
1658.892151
 30
0.0
 11
4404.562747
 21
1664.392151
 31
0.0
  0
LINE
  5
B99
  8
1
  6
DASHDOT
 10
4705.062747
 20
1634.973021
 30
0.0
 11
4705.062747
 21
2266.863496
 31
0.0
  0
LINE
  5
B9A
  8
1
 10
5031.062747
 20
1643.892151
 30
0.0
 11
4379.062747
 21
1643.892151
 31
0.0
  0
ARC
  5
B9B
  8
1
 10
5031.062747
 20
1673.892151
 30
0.0
 40
30.0
 50
270.0
 51
296.014366
  0
ARC
  5
B9C
  8
1
 10
5043.562747
 20
1648.279654
 30
0.0
 40
1.5
 50
296.014366
 51
0.0
  0
LINE
  5
B9D
  8
1
 10
5045.062747
 20
1648.279654
 30
0.0
 11
5045.062747
 21
1658.892151
 31
0.0
  0
LINE
  5
B9E
  8
1
 10
5045.062747
 20
1658.892151
 30
0.0
 11
4365.062747
 21
1658.892151
 31
0.0
  0
LINE
  5
B9F
  8
1
 10
4365.062747
 20
1648.279654
 30
0.0
 11
4365.062747
 21
1658.892151
 31
0.0
  0
ARC
  5
BA0
  8
1
 10
4366.562747
 20
1648.279654
 30
0.0
 40
1.5
 50
180.0
 51
243.985634
  0
ARC
  5
BA1
  8
1
 10
4379.062747
 20
1673.892151
 30
0.0
 40
30.0
 50
243.985634
 51
270.0
  0
LINE
  5
BA2
  8
1
 10
4712.062747
 20
1741.392151
 30
0.0
 11
4694.062747
 21
1741.392151
 31
0.0
  0
LINE
  5
BA3
  8
1
 10
4977.062747
 20
1719.892151
 30
0.0
 11
4744.685592
 21
1719.892151
 31
0.0
  0
ARC
  5
BA4
  8
1
 10
4433.062747
 20
1718.892151
 30
0.0
 40
1.0
 50
90.0
 51
180.0
  0
ARC
  5
BA5
  8
1
 10
4977.062747
 20
1718.892151
 30
0.0
 40
1.0
 50
0.0
 51
90.0
  0
LINE
  5
BA6
  8
1
 10
4978.062747
 20
1658.892151
 30
0.0
 11
4978.062747
 21
1718.892151
 31
0.0
  0
LINE
  5
BA7
  8
1
 10
4661.439902
 20
1719.892151
 30
0.0
 11
4433.062747
 21
1719.892151
 31
0.0
  0
ARC
  5
BA8
  8
1
 10
4694.062747
 20
1705.892151
 30
0.0
 40
35.5
 50
90.0
 51
156.773549
  0
ARC
  5
BA9
  8
1
 10
4712.062747
 20
1705.892151
 30
0.0
 40
35.5
 50
23.226451
 51
90.0
  0
LINE
  5
BAA
  8
1
 10
4712.062747
 20
1741.392151
 30
0.0
 11
4694.062747
 21
1741.392151
 31
0.0
  0
LINE
  5
BAB
  8
1
  6
DOT
 10
4652.062747
 20
1709.892151
 30
0.0
 11
4772.062747
 21
1709.892151
 31
0.0
  0
LINE
  5
BAC
  8
1
 10
4432.062747
 20
1709.892151
 30
0.0
 11
4410.462747
 21
1709.892151
 31
0.0
  0
CIRCLE
  5
BAD
  8
1
 10
4760.062747
 20
1833.892151
 30
0.0
 40
16.0
  0
LINE
  5
BAE
  8
1
 10
4783.063247
 20
1847.448651
 30
0.0
 11
4760.063247
 21
1860.727751
 31
0.0
  0
LINE
  5
BAF
  8
1
 10
4760.063247
 20
1860.727751
 30
0.0
 11
4737.063247
 21
1847.448651
 31
0.0
  0
LINE
  5
BB0
  8
1
  6
DASHDOT
 10
4730.064247
 20
1834.169651
 30
0.0
 11
4790.062047
 21
1834.169651
 31
0.0
  0
LINE
  5
BB1
  8
1
  6
DASHDOT
 10
4760.062747
 20
1863.892451
 30
0.0
 11
4760.062547
 21
1803.892051
 31
0.0
  0
LINE
  5
BB2
  8
1
 10
4737.063247
 20
1820.890551
 30
0.0
 11
4760.063247
 21
1807.611551
 31
0.0
  0
LINE
  5
BB3
  8
1
 10
4737.063247
 20
1847.448651
 30
0.0
 11
4737.063247
 21
1820.890551
 31
0.0
  0
LINE
  5
BB4
  8
1
 10
4783.063247
 20
1820.890551
 30
0.0
 11
4783.063247
 21
1847.448651
 31
0.0
  0
LINE
  5
BB5
  8
1
 10
4760.063247
 20
1807.611551
 30
0.0
 11
4783.063247
 21
1820.890551
 31
0.0
  0
CIRCLE
  5
BB6
  8
1
 10
4660.062846
 20
1833.614551
 30
0.0
 40
12.0
  0
LINE
  5
BB7
  8
1
 10
4678.062846
 20
1844.284451
 30
0.0
 11
4660.062846
 21
1854.676851
 31
0.0
  0
LINE
  5
BB8
  8
1
  6
DASHDOT
 10
4685.061846
 20
1833.892151
 30
0.0
 11
4635.064346
 21
1833.892151
 31
0.0
  0
LINE
  5
BB9
  8
1
  6
DASHDOT
 10
4660.062846
 20
1858.614651
 30
0.0
 11
4660.062646
 21
1808.614451
 31
0.0
  0
LINE
  5
BBA
  8
1
 10
4660.062846
 20
1854.676851
 30
0.0
 11
4642.062846
 21
1844.284451
 31
0.0
  0
LINE
  5
BBB
  8
1
 10
4642.062846
 20
1844.284451
 30
0.0
 11
4642.062846
 21
1823.499851
 31
0.0
  0
LINE
  5
BBC
  8
1
 10
4642.062846
 20
1823.499851
 30
0.0
 11
4660.062846
 21
1813.107451
 31
0.0
  0
LINE
  5
BBD
  8
1
 10
4660.062846
 20
1813.107451
 30
0.0
 11
4678.062846
 21
1823.499851
 31
0.0
  0
LINE
  5
BBE
  8
1
 10
4678.063021
 20
1823.499953
 30
0.0
 11
4678.062846
 21
1844.284451
 31
0.0
  0
CIRCLE
  5
BBF
  8
1
 10
4830.105947
 20
1953.867622
 30
0.0
 40
16.0
  0
CIRCLE
  5
BC0
  8
1
 10
4890.062747
 20
1750.693704
 30
0.0
 40
18.538375
  0
CIRCLE
  5
BC1
  8
1
 10
4561.062846
 20
1884.89215
 30
0.0
 40
25.0
  0
LINE
  5
BC2
  8
1
 10
4772.062747
 20
1719.892151
 30
0.0
 11
4772.062747
 21
1734.892151
 31
0.0
  0
LINE
  5
BC3
  8
1
 10
4652.062747
 20
1719.892151
 30
0.0
 11
4652.062747
 21
1734.892151
 31
0.0
  0
LINE
  5
BC4
  8
1
 10
4673.587152
 20
1734.892151
 30
0.0
 11
4652.062747
 21
1734.892151
 31
0.0
  0
LINE
  5
BC5
  8
1
  6
DOT
 10
4732.538342
 20
1734.892151
 30
0.0
 11
4673.587152
 21
1734.892151
 31
0.0
  0
LINE
  5
BC6
  8
1
 10
4999.662747
 20
1815.592151
 30
0.0
 11
4999.662747
 21
1670.391318
 31
0.0
  0
LINE
  5
BC7
  8
1
 10
4410.462747
 20
1815.592151
 30
0.0
 11
4410.462747
 21
1670.391318
 31
0.0
  0
CIRCLE
  5
BC8
  8
1
 10
4561.062747
 20
1884.89215
 30
0.0
 40
18.61604
  0
LINE
  5
BC9
  8
1
 10
4542.690024
 20
1887.89215
 30
0.0
 11
4579.43547
 21
1887.89215
 31
0.0
  0
LINE
  5
BCA
  8
1
 10
4542.690024
 20
1881.89215
 30
0.0
 11
4579.43547
 21
1881.89215
 31
0.0
  0
CIRCLE
  5
BCB
  8
1
 10
4890.062747
 20
1750.693704
 30
0.0
 40
11.910391
  0
LINE
  5
BCC
  8
1
 10
4861.128466
 20
3386.780545
 30
0.0
 11
3876.928466
 21
3386.780545
 31
0.0
  0
LINE
  5
BCD
  8
1
 10
3876.928466
 20
3088.780545
 30
0.0
 11
3876.928466
 21
3386.780545
 31
0.0
  0
LINE
  5
BCE
  8
1
 10
4861.128466
 20
3088.780545
 30
0.0
 11
4861.128466
 21
3386.180545
 31
0.0
  0
LINE
  5
BCF
  8
1
 10
4861.128466
 20
3088.780545
 30
0.0
 11
3876.928466
 21
3088.780545
 31
0.0
  0
LINE
  5
BD0
  8
1
  6
DASHDOT
 10
4926.327133
 20
3142.805074
 30
0.0
 11
4845.294616
 21
3142.805074
 31
0.0
  0
LINE
  5
BD1
  8
1
  6
DASHDOT
 10
4915.528466
 20
3142.805074
 30
0.0
 11
4849.643515
 21
3142.805074
 31
0.0
  0
LINE
  5
BD2
  8
1
 10
4863.528466
 20
3125.905074
 30
0.0
 11
4861.128466
 21
3125.905074
 31
0.0
  0
LINE
  5
BD3
  8
1
 10
4863.528466
 20
3159.705074
 30
0.0
 11
4861.128466
 21
3159.705074
 31
0.0
  0
LINE
  5
BD4
  8
1
 10
4913.528466
 20
3158.805074
 30
0.0
 11
4863.528466
 21
3159.305074
 31
0.0
  0
LINE
  5
BD5
  8
1
 10
4913.528466
 20
3158.805074
 30
0.0
 11
4913.528466
 21
3126.805074
 31
0.0
  0
LINE
  5
BD6
  8
1
 10
4913.528466
 20
3126.805074
 30
0.0
 11
4863.528466
 21
3126.305074
 31
0.0
  0
LINE
  5
BD7
  8
1
 10
4861.128466
 20
3386.780545
 30
0.0
 11
4861.128466
 21
3252.780545
 31
0.0
  0
LINE
  5
BD8
  8
1
 10
4861.128466
 20
3332.780545
 30
0.0
 11
4861.128466
 21
3277.780545
 31
0.0
  0
LINE
  5
BD9
  8
1
 10
4864.428466
 20
3332.780545
 30
0.0
 11
4864.428466
 21
3281.080545
 31
0.0
  0
LINE
  5
BDA
  8
1
 10
4906.128466
 20
3289.780545
 30
0.0
 11
4906.128466
 21
3281.080545
 31
0.0
  0
LINE
  5
BDB
  8
1
 10
4909.428466
 20
3289.780545
 30
0.0
 11
4909.428466
 21
3277.780545
 31
0.0
  0
LINE
  5
BDC
  8
1
  6
DASHDOT
 10
4886.128466
 20
3294.272062
 30
0.0
 11
4886.128466
 21
3266.108177
 31
0.0
  0
LINE
  5
BDD
  8
1
 10
4861.128466
 20
3277.780545
 30
0.0
 11
4909.428466
 21
3277.780545
 31
0.0
  0
LINE
  5
BDE
  8
1
 10
4864.428466
 20
3281.080545
 30
0.0
 11
4906.128466
 21
3281.080545
 31
0.0
  0
LINE
  5
BDF
  8
1
 10
4906.128466
 20
3289.780545
 30
0.0
 11
4909.428466
 21
3289.780545
 31
0.0
  0
LINE
  5
BE0
  8
1
 10
4861.128466
 20
3332.780545
 30
0.0
 11
4864.428466
 21
3332.780545
 31
0.0
  0
LINE
  5
BE1
  8
1
 10
3876.928466
 20
3332.780545
 30
0.0
 11
3876.928466
 21
3277.780545
 31
0.0
  0
LINE
  5
BE2
  8
1
 10
3873.628466
 20
3332.780545
 30
0.0
 11
3873.628466
 21
3281.080545
 31
0.0
  0
LINE
  5
BE3
  8
1
 10
3831.928466
 20
3289.780545
 30
0.0
 11
3831.928466
 21
3281.080545
 31
0.0
  0
LINE
  5
BE4
  8
1
 10
3828.628466
 20
3289.780545
 30
0.0
 11
3828.628466
 21
3277.780545
 31
0.0
  0
LINE
  5
BE5
  8
1
  6
DASHDOT
 10
3851.928466
 20
3294.272062
 30
0.0
 11
3851.928466
 21
3266.108177
 31
0.0
  0
LINE
  5
BE6
  8
1
 10
3876.928466
 20
3277.780545
 30
0.0
 11
3828.628466
 21
3277.780545
 31
0.0
  0
LINE
  5
BE7
  8
1
 10
3873.628466
 20
3281.080545
 30
0.0
 11
3831.928466
 21
3281.080545
 31
0.0
  0
LINE
  5
BE8
  8
1
 10
3831.928466
 20
3289.780545
 30
0.0
 11
3828.628466
 21
3289.780545
 31
0.0
  0
LINE
  5
BE9
  8
1
 10
3876.928466
 20
3332.780545
 30
0.0
 11
3873.628466
 21
3332.780545
 31
0.0
  0
LINE
  5
BEA
  8
1
 10
4461.528527
 20
3266.580588
 30
0.0
 11
4461.528527
 21
3131.580588
 31
0.0
  0
LINE
  5
BEB
  8
1
 10
4101.528527
 20
3131.580513
 30
0.0
 11
4461.528527
 21
3131.580588
 31
0.0
  0
LINE
  5
BEC
  8
1
 10
4101.528527
 20
3266.580513
 30
0.0
 11
4461.528527
 21
3266.580588
 31
0.0
  0
LINE
  5
BED
  8
1
 10
4101.528527
 20
3266.580513
 30
0.0
 11
4101.528527
 21
3131.580513
 31
0.0
  0
LINE
  5
BEE
  8
1
  6
DASHDOT
 10
4369.028644
 20
3518.462477
 30
0.0
 11
4369.028397
 21
2987.497986
 31
0.0
  0
LINE
  5
BEF
  8
1
 10
3746.528816
 20
3437.781211
 30
0.0
 11
4991.528816
 21
3437.77988
 31
0.0
  0
LINE
  5
BF0
  8
1
 10
3751.528823
 20
3452.781206
 30
0.0
 11
4986.528823
 21
3452.779885
 31
0.0
  0
LINE
  5
BF1
  8
1
 10
3746.528397
 20
3447.780545
 30
0.0
 11
3746.528397
 21
3437.780545
 31
0.0
  0
LINE
  5
BF2
  8
1
 10
4991.528397
 20
3447.780545
 30
0.0
 11
4991.528397
 21
3437.780545
 31
0.0
  0
ARC
  5
BF3
  8
1
 10
3751.528397
 20
3447.780545
 30
0.0
 40
5.0
 50
90.0
 51
180.0
  0
ARC
  5
BF4
  8
1
 10
4986.528397
 20
3447.780545
 30
0.0
 40
5.0
 50
0.0
 51
90.0
  0
LINE
  5
BF5
  8
1
 10
3807.428768
 20
3386.781154
 30
0.0
 11
4930.628768
 21
3386.779937
 31
0.0
  0
LINE
  5
BF6
  8
1
 10
3807.428816
 20
3437.781154
 30
0.0
 11
3807.428768
 21
3386.781154
 31
0.0
  0
LINE
  5
BF7
  8
1
 10
4951.528816
 20
3437.779917
 30
0.0
 11
4951.528739
 21
3355.279917
 31
0.0
  0
LINE
  5
BF8
  8
1
 10
4886.028768
 20
3386.779978
 30
0.0
 11
4886.028739
 21
3355.279978
 31
0.0
  0
LINE
  5
BF9
  8
1
 10
4886.028739
 20
3355.279978
 30
0.0
 11
4951.528739
 21
3355.279917
 31
0.0
  0
LINE
  5
BFA
  8
1
 10
4926.028759
 20
3376.779941
 30
0.0
 11
4951.528759
 21
3376.779917
 31
0.0
  0
LINE
  5
BFB
  8
1
 10
4926.028768
 20
3386.779941
 30
0.0
 11
4926.028759
 21
3376.779941
 31
0.0
  0
LINE
  5
BFC
  8
1
 10
4930.628816
 20
3437.779937
 30
0.0
 11
4930.628768
 21
3386.779937
 31
0.0
  0
LINE
  5
BFD
  8
1
  6
DASHDOT
 10
4537.651889
 20
3199.080588
 30
0.0
 11
3963.886213
 21
3199.080545
 31
0.0
  0
LINE
  5
BFE
  8
1
  6
DASHDOT
 10
4281.528527
 20
3067.630316
 30
0.0
 11
4281.528527
 21
3297.458557
 31
0.0
  0
TEXT
  8
3
  40
150
  5
D0F
  72
0
  71
0
 10
4242.67
 20
677.894
 30
0.000000
  1

  0
TEXT
  8
3
  40
150
  5
D10
  72
0
  71
0
 10
4242.67
 20
482.894
 30
0.000000
  1
GBC6_2
  0
TEXT
  8
3
  40
150
  5
D11
  72
0
  71
0
 10
4242.67
 20
287.894
 30
0.000000
  1
FXYC40KVE
  0
TEXT
  8
3
  40
150
  5
D12
  72
0
  71
0
 10
4242.67
 20
92.8937
 30
0.000000
  1
FXYC50KVE
  0
ENDSEC
  0
EOF
