  0
SECTION
  2
HEADER
  9
$ACADVER
  1
AC1009
  9
$DWGCODEPAGE
  3
dos932
  9
$INSBASE
 10
0.0
 20
0.0
 30
0.0
  9
$EXTMIN
 10
-2901.564076
 20
-3422.058429
 30
0.0
  9
$EXTMAX
 10
5268.3
 20
811.631357
 30
0.0
  9
$LIMMIN
 10
-2969.833211
 20
-4010.624928
  9
$LIMMAX
 10
4322.700211
 20
1143.441933
  9
$ORTHOMODE
 70
     0
  9
$REGENMODE
 70
     1
  9
$FILLMODE
 70
     1
  9
$QTEXTMODE
 70
     0
  9
$MIRRTEXT
 70
     0
  9
$DRAGMODE
 70
     2
  9
$LTSCALE
 40
1.0
  9
$OSMODE
 70
     0
  9
$ATTMODE
 70
     1
  9
$TEXTSIZE
 40
0.2
  9
$TRACEWID
 40
0.05
  9
$TEXTSTYLE
  7
STANDARD
  9
$CLAYER
  8
0
  9
$CELTYPE
  6
BYLAYER
  9
$CECOLOR
 62
   256
  9
$DIMSCALE
 40
1.0
  9
$DIMASZ
 40
0.18
  9
$DIMEXO
 40
3.0
  9
$DIMDLI
 40
0.38
  9
$DIMRND
 40
0.0
  9
$DIMDLE
 40
0.0
  9
$DIMEXE
 40
5.0
  9
$DIMTP
 40
0.0
  9
$DIMTM
 40
0.0
  9
$DIMTXT
 40
0.18
  9
$DIMCEN
 40
0.09
  9
$DIMTSZ
 40
0.0
  9
$DIMTOL
 70
     0
  9
$DIMLIM
 70
     0
  9
$DIMTIH
 70
     1
  9
$DIMTOH
 70
     1
  9
$DIMSE1
 70
     0
  9
$DIMSE2
 70
     0
  9
$DIMTAD
 70
     1
  9
$DIMZIN
 70
     0
  9
$DIMBLK
  1

  9
$DIMASO
 70
     1
  9
$DIMSHO
 70
     0
  9
$DIMPOST
  1

  9
$DIMAPOST
  1

  9
$DIMALT
 70
     0
  9
$DIMALTD
 70
     2
  9
$DIMALTF
 40
25.4
  9
$DIMLFAC
 40
1.0
  9
$DIMTOFL
 70
     0
  9
$DIMTVP
 40
1.0
  9
$DIMTIX
 70
     0
  9
$DIMSOXD
 70
     0
  9
$DIMSAH
 70
     0
  9
$DIMBLK1
  1

  9
$DIMBLK2
  1

  9
$DIMSTYLE
  2
STANDARD
  9
$DIMCLRD
 70
     0
  9
$DIMCLRE
 70
     0
  9
$DIMCLRT
 70
     0
  9
$DIMTFAC
 40
1.0
  9
$DIMGAP
 40
0.09
  9
$LUNITS
 70
     2
  9
$LUPREC
 70
     4
  9
$SKETCHINC
 40
0.1
  9
$FILLETRAD
 40
0.05
  9
$AUNITS
 70
     0
  9
$AUPREC
 70
     0
  9
$MENU
  1
acad
  9
$ELEVATION
 40
0.0
  9
$PELEVATION
 40
0.0
  9
$THICKNESS
 40
0.0
  9
$LIMCHECK
 70
     0
  9
$BLIPMODE
 70
     1
  9
$CHAMFERA
 40
0.0
  9
$CHAMFERB
 40
0.0
  9
$SKPOLY
 70
     0
  9
$TDCREATE
 40
0.0
  9
$TDUPDATE
 40
0.0
  9
$TDINDWG
 40
0.0
  9
$TDUSRTIMER
 40
0.0
  9
$USRTIMER
 70
     1
  9
$ANGBASE
 50
0.0
  9
$ANGDIR
 70
     0
  9
$PDMODE
 70
     0
  9
$PDSIZE
 40
0.0
  9
$PLINEWID
 40
0.0
  9
$COORDS
 70
     0
  9
$SPLFRAME
 70
     0
  9
$SPLINETYPE
 70
     6
  9
$SPLINESEGS
 70
     8
  9
$ATTDIA
 70
     1
  9
$ATTREQ
 70
     1
  9
$HANDLING
 70
     1
  9
$HANDSEED
  5
105E
  9
$SURFTAB1
 70
     6
  9
$SURFTAB2
 70
     6
  9
$SURFTYPE
 70
     6
  9
$SURFU
 70
     6
  9
$SURFV
 70
     6
  9
$UCSNAME
  2

  9
$UCSORG
 10
0.0
 20
0.0
 30
0.0
  9
$UCSXDIR
 10
1.0
 20
0.0
 30
0.0
  9
$UCSYDIR
 10
0.0
 20
1.0
 30
0.0
  9
$PUCSNAME
  2

  9
$PUCSORG
 10
0.0
 20
0.0
 30
0.0
  9
$PUCSXDIR
 10
1.0
 20
0.0
 30
0.0
  9
$PUCSYDIR
 10
0.0
 20
1.0
 30
0.0
  9
$USERI1
 70
     0
  9
$USERI2
 70
     0
  9
$USERI3
 70
     0
  9
$USERI4
 70
     0
  9
$USERI5
 70
     0
  9
$USERR1
 40
0.0
  9
$USERR2
 40
0.0
  9
$USERR3
 40
0.0
  9
$USERR4
 40
0.0
  9
$USERR5
 40
0.0
  9
$WORLDVIEW
 70
     1
  9
$SHADEDGE
 70
     3
  9
$SHADEDIF
 70
    70
  9
$TILEMODE
 70
     1
  9
$MAXACTVP
 70
    16
  9
$PINSBASE
 10
0.0
 20
0.0
 30
0.0
  9
$PLIMCHECK
 70
     0
  9
$PEXTMIN
 10
1.000000E+020
 20
1.000000E+020
 30
1.000000E+020
  9
$PEXTMAX
 10
-1.000000E+020
 20
-1.000000E+020
 30
-1.000000E+020
  9
$PLIMMIN
 10
0.0
 20
0.0
  9
$PLIMMAX
 10
12.0
 20
9.0
  9
$UNITMODE
 70
     0
  9
$VISRETAIN
 70
     0
  9
$PLINEGEN
 70
     0
  9
$PSLTSCALE
 70
     1
  9
$TREEDEPTH
 70
  3020
  0
ENDSEC
  0
SECTION
  2
TABLES
  0
TABLE
  2
VPORT
 70
     2
  0
VPORT
  2
*ACTIVE
 70
     0
 10
0.0
 20
0.0
 11
1.0
 21
1.0
 12
2382.466991
 22
-1433.591498
 13
0.0
 23
0.0
 14
1.0
 24
1.0
 15
0.0
 25
0.0
 16
0.0
 26
0.0
 36
1.0
 17
0.0
 27
0.0
 37
0.0
 40
5154.066861
 41
2.076923
 42
50.0
 43
0.0
 44
0.0
 50
0.0
 51
0.0
 71
     0
 72
   100
 73
     1
 74
     1
 75
     0
 76
     0
 77
     0
 78
     0
  0
ENDTAB
  0
TABLE
  2
LTYPE
 70
     5
  0
LTYPE
  2
CONTINUOUS
 70
    64
  3
Solid line
 72
    65
 73
     0
 40
0.0
  0
LTYPE
  2
DASHDOT
 70
    64
  3
__ . __ . __ . __ . __ . __ . __ . __ . __ . __
 72
    65
 73
     4
 40
1.0
 49
0.5
 49
-0.25
 49
0.0
 49
-0.25
  0
LTYPE
  2
DOT
 70
    64
  3
...............................................
 72
    65
 73
     2
 40
0.25
 49
0.0
 49
-0.25
  0
LTYPE
  2
DIVIDE
 70
    64
  3
__ . . __ . . __ . . __ . . __ . . __ . . __
 72
    65
 73
     6
 40
1.25
 49
0.5
 49
-0.25
 49
0.0
 49
-0.25
 49
0.0
 49
-0.25
  0
LTYPE
  2
DASHED
 70
    64
  3
__ __ __ __ __ __ __ __ __ __ __ __ __ __ __
 72
    65
 73
     2
 40
0.75
 49
0.5
 49
-0.25
  0
ENDTAB
  0
TABLE
  2
LAYER
 70
     5
  0
LAYER
  2
0
 70
     0
 62
     7
  6
CONTINUOUS
  0
LAYER
  2
DEFPOINTS
 70
     0
 62
    -7
  6
CONTINUOUS
  0
LAYER
  2
1
 70
     0
 62
     7
  6
CONTINUOUS
  0
LAYER
  2
2
 70
     0
 62
     7
  6
DOT
  0
LAYER
  2
3
 70
     0
 62
     7
  6
CONTINUOUS
  0
ENDTAB
  0
TABLE
  2
STYLE
 70
     3
  0
STYLE
  2
STANDARD
 70
    64
 40
150.0
 41
0.8
 50
0.0
 71
     0
 42
0.2
  3
txt
  4

  0
STYLE
  2
MONOTXT
 70
    64
 40
0.0
 41
0.5
 50
0.0
 71
     0
 42
4.191412
  3
monotxt
  4
BIGFONT
  0
STYLE
  2
VERTICAL
 70
    68
 40
0.0
 41
0.5
 50
0.0
 71
     0
 42
4.191412
  3
monotxt
  4
BIGFONT
  0
ENDTAB
  0
TABLE
  2
VIEW
 70
     0
  0
ENDTAB
  0
TABLE
  2
UCS
 70
     0
  0
ENDTAB
  0
TABLE
  2
APPID
 70
     1
  0
APPID
  2
ACAD
 70
     0
  0
ENDTAB
  0
TABLE
  2
DIMSTYLE
 70
     1
  0
DIMSTYLE
  2
STANDARD
 70
     0
  3

  4

  5

  6

  7

 40
1.0
 41
0.18
 42
0.0625
 43
0.38
 44
0.18
 45
0.0
 46
0.0
 47
0.0
 48
0.0
140
0.18
141
0.09
142
0.0
143
25.4
144
1.0
145
0.0
146
1.0
147
0.09
 71
     0
 72
     0
 73
     1
 74
     1
 75
     0
 76
     0
 77
     0
 78
     0
170
     0
171
     2
172
     0
173
     0
174
     0
175
     0
176
     0
177
     0
178
     0
  0
ENDTAB
  0
ENDSEC
  0
SECTION
  2
BLOCKS
  0
BLOCK
  5
F3E
  8
0
  2
$MODEL_SPACE
 70
     0
 10
0.0
 20
0.0
 30
0.0
  3
$MODEL_SPACE
  1

  0
ENDBLK
  5
F3F
  8
0
  0
BLOCK
  5
F3B
 67
     1
  8
0
  2
$PAPER_SPACE
 70
     0
 10
0.0
 20
0.0
 30
0.0
  3
$PAPER_SPACE
  1

  0
ENDBLK
  5
F3C
 67
     1
  8
0
  0
BLOCK
  5
2B
  8
2
  2
*D2
 70
    65
 10
0.0
 20
0.0
 30
0.0
  3
*D2
  1

  0
POINT
  5
2C
  8
DEFPOINTS
 10
-456.957071
 20
-215.704365
 30
0.0
  0
POINT
  5
2D
  8
DEFPOINTS
 10
-455.40686
 20
304.295635
 30
0.0
  0
POINT
  5
2E
  8
DEFPOINTS
 10
-722.663278
 20
-9.01034
 30
0.0
  0
LINE
  5
2F
  8
2
  6
CONTINUOUS
 10
-462.957071
 20
-215.704365
 30
0.0
 11
-727.663278
 21
-215.704365
 31
0.0
  0
LINE
  5
30
  8
2
  6
CONTINUOUS
 10
-461.40686
 20
304.295635
 30
0.0
 11
-727.663278
 21
304.295635
 31
0.0
  0
LINE
  5
31
  8
2
  6
CONTINUOUS
 10
-722.663278
 20
-215.704365
 30
0.0
 11
-722.663278
 21
304.295635
 31
0.0
  0
LINE
  5
32
  8
2
  6
CONTINUOUS
 10
-727.612252
 20
-187.637344
 30
0.0
 11
-722.663278
 21
-215.704365
 31
0.0
  0
LINE
  5
33
  8
2
  6
CONTINUOUS
 10
-717.714306
 20
-187.637344
 30
0.0
 11
-722.663278
 21
-215.704365
 31
0.0
  0
LINE
  5
34
  8
2
  6
CONTINUOUS
 10
-717.714305
 20
276.228614
 30
0.0
 11
-722.663278
 21
304.295635
 31
0.0
  0
LINE
  5
35
  8
2
  6
CONTINUOUS
 10
-727.612251
 20
276.228614
 30
0.0
 11
-722.663278
 21
304.295635
 31
0.0
  0
TEXT
  5
36
  8
2
  6
CONTINUOUS
 10
-726.663269
 20
-166.304367
 30
0.0
 40
52.0
  1
５２０（吊り位置）
 50
90.000003
 41
0.9
  7
MONOTXT
  0
ENDBLK
  5
37
  8
0
  0
BLOCK
  5
39
  8
2
  2
*D3
 70
    65
 10
0.0
 20
0.0
 30
0.0
  3
*D3
  1

  0
POINT
  5
3A
  8
DEFPOINTS
 10
-519.280769
 20
-276.104365
 30
0.0
  0
POINT
  5
3B
  8
DEFPOINTS
 10
-519.280769
 20
363.895635
 30
0.0
  0
POINT
  5
3C
  8
DEFPOINTS
 10
-819.654005
 20
-163.449175
 30
0.0
  0
LINE
  5
3D
  8
2
  6
CONTINUOUS
 10
-525.280769
 20
-276.104365
 30
0.0
 11
-824.654005
 21
-276.104365
 31
0.0
  0
LINE
  5
3E
  8
2
  6
CONTINUOUS
 10
-525.280769
 20
363.895635
 30
0.0
 11
-824.654005
 21
363.895635
 31
0.0
  0
LINE
  5
3F
  8
2
  6
CONTINUOUS
 10
-819.654005
 20
-276.104365
 30
0.0
 11
-819.654005
 21
363.895635
 31
0.0
  0
LINE
  5
40
  8
2
  6
CONTINUOUS
 10
-824.602979
 20
-248.037344
 30
0.0
 11
-819.654005
 21
-276.104365
 31
0.0
  0
LINE
  5
41
  8
2
  6
CONTINUOUS
 10
-814.705033
 20
-248.037344
 30
0.0
 11
-819.654005
 21
-276.104365
 31
0.0
  0
LINE
  5
42
  8
2
  6
CONTINUOUS
 10
-814.705032
 20
335.828614
 30
0.0
 11
-819.654005
 21
363.895635
 31
0.0
  0
LINE
  5
43
  8
2
  6
CONTINUOUS
 10
-824.602978
 20
335.828614
 30
0.0
 11
-819.654005
 21
363.895635
 31
0.0
  0
TEXT
  5
44
  8
2
  6
CONTINUOUS
 10
-823.653992
 20
-190.10437
 30
0.0
 40
52.0
  1
６４０（天井開口部）
 50
90.000003
 41
0.9
  7
MONOTXT
  0
ENDBLK
  5
45
  8
0
  0
BLOCK
  5
47
  8
2
  2
*D4
 70
    65
 10
0.0
 20
0.0
 30
0.0
  3
*D4
  1

  0
POINT
  5
48
  8
DEFPOINTS
 10
1250.319231
 20
-256.104365
 30
0.0
  0
POINT
  5
49
  8
DEFPOINTS
 10
1310.919231
 20
-5.504365
 30
0.0
  0
POINT
  5
4A
  8
DEFPOINTS
 10
1434.681736
 20
-397.821848
 30
0.0
  0
LINE
  5
4B
  8
2
  6
CONTINUOUS
 10
1250.319231
 20
-262.104365
 30
0.0
 11
1250.319231
 21
-402.821848
 31
0.0
  0
LINE
  5
4C
  8
2
  6
CONTINUOUS
 10
1310.919231
 20
-11.504365
 30
0.0
 11
1310.919231
 21
-402.821848
 31
0.0
  0
LINE
  5
4D
  8
2
  6
CONTINUOUS
 10
1208.218699
 20
-397.821848
 30
0.0
 11
1518.598675
 21
-397.821848
 31
0.0
  0
LINE
  5
4E
  8
2
  6
CONTINUOUS
 10
1222.252211
 20
-402.770823
 30
0.0
 11
1250.319231
 21
-397.821848
 31
0.0
  0
LINE
  5
4F
  8
2
  6
CONTINUOUS
 10
1222.25221
 20
-392.872877
 30
0.0
 11
1250.319231
 21
-397.821848
 31
0.0
  0
LINE
  5
50
  8
2
  6
CONTINUOUS
 10
1338.986251
 20
-392.87287
 30
0.0
 11
1310.919231
 21
-397.821848
 31
0.0
  0
LINE
  5
51
  8
2
  6
CONTINUOUS
 10
1338.986253
 20
-402.770816
 30
0.0
 11
1310.919231
 21
-397.821848
 31
0.0
  0
TEXT
  5
52
  8
2
  6
CONTINUOUS
 10
1401.598633
 20
-393.821838
 30
0.0
 40
52.0
  1
６０
 41
0.9
  7
MONOTXT
  0
ENDBLK
  5
53
  8
0
  0
BLOCK
  5
55
  8
2
  2
*D5
 70
    65
 10
0.0
 20
0.0
 30
0.0
  3
*D5
  1

  0
POINT
  5
56
  8
DEFPOINTS
 10
1250.319231
 20
343.895635
 30
0.0
  0
POINT
  5
57
  8
DEFPOINTS
 10
1302.719231
 20
174.495635
 30
0.0
  0
POINT
  5
58
  8
DEFPOINTS
 10
1428.660454
 20
488.475422
 30
0.0
  0
LINE
  5
59
  8
2
  6
CONTINUOUS
 10
1250.319231
 20
349.895635
 30
0.0
 11
1250.319231
 21
493.475422
 31
0.0
  0
LINE
  5
5A
  8
2
  6
CONTINUOUS
 10
1302.719231
 20
180.495635
 30
0.0
 11
1302.719231
 21
493.475422
 31
0.0
  0
LINE
  5
5B
  8
2
  6
CONTINUOUS
 10
1208.218699
 20
488.475422
 30
0.0
 11
1476.778619
 21
488.475422
 31
0.0
  0
LINE
  5
5C
  8
2
  6
CONTINUOUS
 10
1222.252211
 20
483.526446
 30
0.0
 11
1250.319231
 21
488.475422
 31
0.0
  0
LINE
  5
5D
  8
2
  6
CONTINUOUS
 10
1222.25221
 20
493.424392
 30
0.0
 11
1250.319231
 21
488.475422
 31
0.0
  0
LINE
  5
5E
  8
2
  6
CONTINUOUS
 10
1330.786251
 20
493.4244
 30
0.0
 11
1302.719231
 21
488.475422
 31
0.0
  0
LINE
  5
5F
  8
2
  6
CONTINUOUS
 10
1330.786253
 20
483.526453
 30
0.0
 11
1302.719231
 21
488.475422
 31
0.0
  0
TEXT
  5
60
  8
2
  6
CONTINUOUS
 10
1359.778564
 20
492.475433
 30
0.0
 40
52.0
  1
５０
 41
0.9
  7
MONOTXT
  0
ENDBLK
  5
61
  8
0
  0
BLOCK
  5
63
  8
2
  2
*D6
 70
    65
 10
0.0
 20
0.0
 30
0.0
  3
*D6
  1

  0
POINT
  5
64
  8
DEFPOINTS
 10
-519.280769
 20
-276.104365
 30
0.0
  0
POINT
  5
65
  8
DEFPOINTS
 10
1360.719231
 20
-276.104365
 30
0.0
  0
POINT
  5
66
  8
DEFPOINTS
 10
142.925637
 20
-556.667116
 30
0.0
  0
LINE
  5
67
  8
2
  6
CONTINUOUS
 10
-519.280769
 20
-282.104365
 30
0.0
 11
-519.280769
 21
-561.667116
 31
0.0
  0
LINE
  5
68
  8
2
  6
CONTINUOUS
 10
1360.719231
 20
-282.104365
 30
0.0
 11
1360.719231
 21
-561.667116
 31
0.0
  0
LINE
  5
69
  8
2
  6
CONTINUOUS
 10
-519.280769
 20
-556.667116
 30
0.0
 11
1360.719231
 21
-556.667116
 31
0.0
  0
LINE
  5
6A
  8
2
  6
CONTINUOUS
 10
-491.213748
 20
-551.718142
 30
0.0
 11
-519.280769
 21
-556.667116
 31
0.0
  0
LINE
  5
6B
  8
2
  6
CONTINUOUS
 10
-491.213748
 20
-561.616089
 30
0.0
 11
-519.280769
 21
-556.667116
 31
0.0
  0
LINE
  5
6C
  8
2
  6
CONTINUOUS
 10
1332.652211
 20
-561.616091
 30
0.0
 11
1360.719231
 21
-556.667116
 31
0.0
  0
LINE
  5
6D
  8
2
  6
CONTINUOUS
 10
1332.65221
 20
-551.718145
 30
0.0
 11
1360.719231
 21
-556.667116
 31
0.0
  0
TEXT
  5
6E
  8
2
  6
CONTINUOUS
 10
163.319244
 20
-552.667114
 30
0.0
 40
52.0
  1
１８８０（天井開口部）
 41
0.9
  7
MONOTXT
  0
ENDBLK
  5
6F
  8
0
  0
BLOCK
  5
71
  8
2
  2
*D7
 70
    65
 10
0.0
 20
0.0
 30
0.0
  3
*D7
  1

  0
POINT
  5
72
  8
DEFPOINTS
 10
-433.880769
 20
-243.388355
 30
0.0
  0
POINT
  5
73
  8
DEFPOINTS
 10
1275.319231
 20
-242.992512
 30
0.0
  0
POINT
  5
74
  8
DEFPOINTS
 10
136.835631
 20
-471.40703
 30
0.0
  0
LINE
  5
75
  8
2
  6
CONTINUOUS
 10
-433.880769
 20
-249.388355
 30
0.0
 11
-433.880769
 21
-476.40703
 31
0.0
  0
LINE
  5
76
  8
2
  6
CONTINUOUS
 10
1275.319231
 20
-248.992512
 30
0.0
 11
1275.319231
 21
-476.40703
 31
0.0
  0
LINE
  5
77
  8
2
  6
CONTINUOUS
 10
-433.880769
 20
-471.40703
 30
0.0
 11
1275.319231
 21
-471.40703
 31
0.0
  0
LINE
  5
78
  8
2
  6
CONTINUOUS
 10
-405.813748
 20
-466.458057
 30
0.0
 11
-433.880769
 21
-471.40703
 31
0.0
  0
LINE
  5
79
  8
2
  6
CONTINUOUS
 10
-405.813748
 20
-476.356003
 30
0.0
 11
-433.880769
 21
-471.40703
 31
0.0
  0
LINE
  5
7A
  8
2
  6
CONTINUOUS
 10
1247.252211
 20
-476.356006
 30
0.0
 11
1275.319231
 21
-471.40703
 31
0.0
  0
LINE
  5
7B
  8
2
  6
CONTINUOUS
 10
1247.25221
 20
-466.45806
 30
0.0
 11
1275.319231
 21
-471.40703
 31
0.0
  0
TEXT
  5
7C
  8
2
  6
CONTINUOUS
 10
186.719238
 20
-467.407043
 30
0.0
 40
52.0
  1
１７１０（吊り位置）
 41
0.9
  7
MONOTXT
  0
ENDBLK
  5
7D
  8
0
  0
BLOCK
  5
7F
  8
2
  2
*D8
 70
    65
 10
0.0
 20
0.0
 30
0.0
  3
*D8
  1

  0
POINT
  5
80
  8
DEFPOINTS
 10
-719.280538
 20
-1550.517672
 30
0.0
  0
POINT
  5
81
  8
DEFPOINTS
 10
-287.297843
 20
-1311.817572
 30
0.0
  0
POINT
  5
82
  8
DEFPOINTS
 10
-902.908705
 20
-1423.623403
 30
0.0
  0
LINE
  5
83
  8
2
  6
CONTINUOUS
 10
-725.280538
 20
-1550.517672
 30
0.0
 11
-907.908705
 21
-1550.517672
 31
0.0
  0
LINE
  5
84
  8
2
  6
CONTINUOUS
 10
-293.297843
 20
-1311.817572
 30
0.0
 11
-907.908705
 21
-1311.817572
 31
0.0
  0
LINE
  5
85
  8
2
  6
CONTINUOUS
 10
-902.908705
 20
-1773.633685
 30
0.0
 11
-902.908705
 21
-1269.71704
 31
0.0
  0
LINE
  5
86
  8
2
  6
CONTINUOUS
 10
-897.959732
 20
-1578.584693
 30
0.0
 11
-902.908705
 21
-1550.517672
 31
0.0
  0
LINE
  5
87
  8
2
  6
CONTINUOUS
 10
-907.857678
 20
-1578.584693
 30
0.0
 11
-902.908705
 21
-1550.517672
 31
0.0
  0
LINE
  5
88
  8
2
  6
CONTINUOUS
 10
-907.857674
 20
-1283.75055
 30
0.0
 11
-902.908705
 21
-1311.817572
 31
0.0
  0
LINE
  5
89
  8
2
  6
CONTINUOUS
 10
-897.959728
 20
-1283.750552
 30
0.0
 11
-902.908705
 21
-1311.817572
 31
0.0
  0
TEXT
  5
8A
  8
2
  6
CONTINUOUS
 10
-906.908691
 20
-1750.233643
 30
0.0
 40
52.0
  1
２４０
 50
90.000003
 41
0.9
  7
MONOTXT
  0
ENDBLK
  5
8B
  8
0
  0
BLOCK
  5
8D
  8
2
  2
*D9
 70
    65
 10
0.0
 20
0.0
 30
0.0
  3
*D9
  1

  0
POINT
  5
8E
  8
DEFPOINTS
 10
-519.280938
 20
-1550.517472
 30
0.0
  0
POINT
  5
8F
  8
DEFPOINTS
 10
-478.380419
 20
-1550.518181
 30
0.0
  0
POINT
  5
90
  8
DEFPOINTS
 10
-534.037665
 20
-1754.664821
 30
0.0
  0
LINE
  5
91
  8
2
  6
CONTINUOUS
 10
-519.280938
 20
-1556.517472
 30
0.0
 11
-519.280938
 21
-1759.664821
 31
0.0
  0
LINE
  5
92
  8
2
  6
CONTINUOUS
 10
-478.380419
 20
-1556.518181
 30
0.0
 11
-478.380419
 21
-1759.664821
 31
0.0
  0
LINE
  5
93
  8
2
  6
CONTINUOUS
 10
-541.439112
 20
-1754.664821
 30
0.0
 11
-337.980425
 21
-1754.664821
 31
0.0
  0
CIRCLE
  5
94
  8
2
  6
CONTINUOUS
 10
-519.280938
 20
-1754.664821
 30
0.0
 40
3.75
  0
CIRCLE
  5
95
  8
2
  6
CONTINUOUS
 10
-519.280938
 20
-1754.664821
 30
0.0
 40
2.25
  0
LINE
  5
96
  8
2
  6
CONTINUOUS
 10
-450.313399
 20
-1749.715843
 30
0.0
 11
-478.380419
 21
-1754.664821
 31
0.0
  0
LINE
  5
97
  8
2
  6
CONTINUOUS
 10
-450.313397
 20
-1759.613789
 30
0.0
 11
-478.380419
 21
-1754.664821
 31
0.0
  0
TEXT
  5
98
  8
2
  6
CONTINUOUS
 10
-454.980408
 20
-1750.664795
 30
0.0
 40
52.0
  1
４０
 41
0.9
  7
MONOTXT
  0
ENDBLK
  5
99
  8
0
  0
BLOCK
  5
9B
  8
2
  2
*D10
 70
    65
 10
0.0
 20
0.0
 30
0.0
  3
*D10
  1

  0
POINT
  5
9C
  8
DEFPOINTS
 10
-539.280838
 20
-1560.517572
 30
0.0
  0
POINT
  5
9D
  8
DEFPOINTS
 10
-519.280938
 20
-1550.517472
 30
0.0
  0
POINT
  5
9E
  8
DEFPOINTS
 10
-534.037665
 20
-1754.664821
 30
0.0
  0
LINE
  5
9F
  8
2
  6
CONTINUOUS
 10
-539.280838
 20
-1566.517572
 30
0.0
 11
-539.280838
 21
-1759.664821
 31
0.0
  0
LINE
  5
A0
  8
2
  6
CONTINUOUS
 10
-519.280938
 20
-1556.517472
 30
0.0
 11
-519.280938
 21
-1759.664821
 31
0.0
  0
LINE
  5
A1
  8
2
  6
CONTINUOUS
 10
-679.680832
 20
-1754.664821
 30
0.0
 11
-497.122763
 21
-1754.664821
 31
0.0
  0
LINE
  5
A2
  8
2
  6
CONTINUOUS
 10
-567.347858
 20
-1759.613796
 30
0.0
 11
-539.280838
 21
-1754.664821
 31
0.0
  0
LINE
  5
A3
  8
2
  6
CONTINUOUS
 10
-567.347859
 20
-1749.71585
 30
0.0
 11
-539.280838
 21
-1754.664821
 31
0.0
  0
CIRCLE
  5
A4
  8
2
  6
CONTINUOUS
 10
-519.280938
 20
-1754.664821
 30
0.0
 40
3.75
  0
CIRCLE
  5
A5
  8
2
  6
CONTINUOUS
 10
-519.280938
 20
-1754.664821
 30
0.0
 40
2.25
  0
TEXT
  5
A6
  8
2
  6
CONTINUOUS
 10
-656.280823
 20
-1750.664795
 30
0.0
 40
52.0
  1
２０
 41
0.9
  7
MONOTXT
  0
ENDBLK
  5
A7
  8
0
  0
BLOCK
  5
A9
  8
2
  2
*D11
 70
    65
 10
0.0
 20
0.0
 30
0.0
  3
*D11
  1

  0
POINT
  5
AA
  8
DEFPOINTS
 10
-539.280838
 20
-1550.517572
 30
0.0
  0
POINT
  5
AB
  8
DEFPOINTS
 10
-408.880769
 20
-1201.517572
 30
0.0
  0
POINT
  5
AC
  8
DEFPOINTS
 10
20.6101
 20
-837.341344
 30
0.0
  0
LINE
  5
AD
  8
2
  6
CONTINUOUS
 10
-539.280838
 20
-1544.517572
 30
0.0
 11
-539.280838
 21
-832.341344
 31
0.0
  0
LINE
  5
AE
  8
2
  6
CONTINUOUS
 10
-408.880769
 20
-1195.517572
 30
0.0
 11
-408.880769
 21
-832.341344
 31
0.0
  0
LINE
  5
AF
  8
2
  6
CONTINUOUS
 10
-726.480835
 20
-837.341344
 30
0.0
 11
-366.780236
 21
-837.341344
 31
0.0
  0
LINE
  5
B0
  8
2
  6
CONTINUOUS
 10
-567.347858
 20
-842.29032
 30
0.0
 11
-539.280838
 21
-837.341344
 31
0.0
  0
LINE
  5
B1
  8
2
  6
CONTINUOUS
 10
-567.347859
 20
-832.392374
 30
0.0
 11
-539.280838
 21
-837.341344
 31
0.0
  0
LINE
  5
B2
  8
2
  6
CONTINUOUS
 10
-380.813749
 20
-832.392366
 30
0.0
 11
-408.880769
 21
-837.341344
 31
0.0
  0
LINE
  5
B3
  8
2
  6
CONTINUOUS
 10
-380.813747
 20
-842.290312
 30
0.0
 11
-408.880769
 21
-837.341344
 31
0.0
  0
TEXT
  5
B4
  8
2
  6
CONTINUOUS
 10
-703.080811
 20
-833.34137
 30
0.0
 40
52.0
  1
１２５
 41
0.9
  7
MONOTXT
  0
ENDBLK
  5
B5
  8
0
  0
BLOCK
  5
B7
  8
2
  2
*D12
 70
    65
 10
0.0
 20
0.0
 30
0.0
  3
*D12
  1

  0
POINT
  5
B8
  8
DEFPOINTS
 10
1041.219231
 20
-1310.317572
 30
0.0
  0
POINT
  5
B9
  8
DEFPOINTS
 10
1126.219231
 20
-1310.317572
 30
0.0
  0
POINT
  5
BA
  8
DEFPOINTS
 10
980.338094
 20
-1005.595675
 30
0.0
  0
LINE
  5
BB
  8
2
  6
CONTINUOUS
 10
1041.219231
 20
-1304.317572
 30
0.0
 11
1041.219231
 21
-1000.595675
 31
0.0
  0
LINE
  5
BC
  8
2
  6
CONTINUOUS
 10
1126.219231
 20
-1304.317572
 30
0.0
 11
1126.219231
 21
-1000.595675
 31
0.0
  0
LINE
  5
BD
  8
2
  6
CONTINUOUS
 10
900.819237
 20
-1005.595675
 30
0.0
 11
1168.319764
 21
-1005.595675
 31
0.0
  0
LINE
  5
BE
  8
2
  6
CONTINUOUS
 10
1013.152211
 20
-1010.544651
 30
0.0
 11
1041.219231
 21
-1005.595675
 31
0.0
  0
LINE
  5
BF
  8
2
  6
CONTINUOUS
 10
1013.15221
 20
-1000.646705
 30
0.0
 11
1041.219231
 21
-1005.595675
 31
0.0
  0
LINE
  5
C0
  8
2
  6
CONTINUOUS
 10
1154.286251
 20
-1000.646698
 30
0.0
 11
1126.219231
 21
-1005.595675
 31
0.0
  0
LINE
  5
C1
  8
2
  6
CONTINUOUS
 10
1154.286253
 20
-1010.544644
 30
0.0
 11
1126.219231
 21
-1005.595675
 31
0.0
  0
TEXT
  5
C2
  8
2
  6
CONTINUOUS
 10
924.219238
 20
-1001.595703
 30
0.0
 40
52.0
  1
８５
 41
0.9
  7
MONOTXT
  0
ENDBLK
  5
C3
  8
0
  0
BLOCK
  5
C5
  8
2
  2
*D13
 70
    65
 10
0.0
 20
0.0
 30
0.0
  3
*D13
  1

  0
POINT
  5
C6
  8
DEFPOINTS
 10
1126.219231
 20
-1390.317572
 30
0.0
  0
POINT
  5
C7
  8
DEFPOINTS
 10
1126.219231
 20
-1310.317572
 30
0.0
  0
POINT
  5
C8
  8
DEFPOINTS
 10
1553.81806
 20
-1477.355231
 30
0.0
  0
LINE
  5
C9
  8
2
  6
CONTINUOUS
 10
1132.219231
 20
-1390.317572
 30
0.0
 11
1558.81806
 21
-1390.317572
 31
0.0
  0
LINE
  5
CA
  8
2
  6
CONTINUOUS
 10
1132.219231
 20
-1310.317572
 30
0.0
 11
1558.81806
 21
-1310.317572
 31
0.0
  0
LINE
  5
CB
  8
2
  6
CONTINUOUS
 10
1553.81806
 20
-1530.717566
 30
0.0
 11
1553.81806
 21
-1268.21704
 31
0.0
  0
LINE
  5
CC
  8
2
  6
CONTINUOUS
 10
1558.767034
 20
-1418.384593
 30
0.0
 11
1553.81806
 21
-1390.317572
 31
0.0
  0
LINE
  5
CD
  8
2
  6
CONTINUOUS
 10
1548.869088
 20
-1418.384593
 30
0.0
 11
1553.81806
 21
-1390.317572
 31
0.0
  0
LINE
  5
CE
  8
2
  6
CONTINUOUS
 10
1548.869091
 20
-1282.25055
 30
0.0
 11
1553.81806
 21
-1310.317572
 31
0.0
  0
LINE
  5
CF
  8
2
  6
CONTINUOUS
 10
1558.767037
 20
-1282.250552
 30
0.0
 11
1553.81806
 21
-1310.317572
 31
0.0
  0
TEXT
  5
D0
  8
2
  6
CONTINUOUS
 10
1549.818115
 20
-1507.317627
 30
0.0
 40
52.0
  1
８０
 50
90.000003
 41
0.9
  7
MONOTXT
  0
ENDBLK
  5
D1
  8
0
  0
BLOCK
  5
D3
  8
2
  2
*D14
 70
    65
 10
0.0
 20
0.0
 30
0.0
  3
*D14
  1

  0
POINT
  5
D4
  8
DEFPOINTS
 10
1560.719162
 20
-1550.517472
 30
0.0
  0
POINT
  5
D5
  8
DEFPOINTS
 10
1529.319231
 20
-1255.542101
 30
0.0
  0
POINT
  5
D6
  8
DEFPOINTS
 10
1908.528367
 20
-1242.019195
 30
0.0
  0
LINE
  5
D7
  8
2
  6
CONTINUOUS
 10
1566.719162
 20
-1550.517472
 30
0.0
 11
1913.528367
 21
-1550.517472
 31
0.0
  0
LINE
  5
D8
  8
2
  6
CONTINUOUS
 10
1535.319231
 20
-1255.542101
 30
0.0
 11
1913.528367
 21
-1255.542101
 31
0.0
  0
LINE
  5
D9
  8
2
  6
CONTINUOUS
 10
1908.528367
 20
-1550.517472
 30
0.0
 11
1908.528367
 21
-1255.542101
 31
0.0
  0
LINE
  5
DA
  8
2
  6
CONTINUOUS
 10
1903.579393
 20
-1522.450451
 30
0.0
 11
1908.528367
 21
-1550.517472
 31
0.0
  0
LINE
  5
DB
  8
2
  6
CONTINUOUS
 10
1913.477339
 20
-1522.450451
 30
0.0
 11
1908.528367
 21
-1550.517472
 31
0.0
  0
LINE
  5
DC
  8
2
  6
CONTINUOUS
 10
1913.477341
 20
-1283.609122
 30
0.0
 11
1908.528367
 21
-1255.542101
 31
0.0
  0
LINE
  5
DD
  8
2
  6
CONTINUOUS
 10
1903.579395
 20
-1283.609122
 30
0.0
 11
1908.528367
 21
-1255.542101
 31
0.0
  0
TEXT
  5
DE
  8
2
  6
CONTINUOUS
 10
1904.52832
 20
-1473.229736
 30
0.0
 40
52.0
  1
２９０
 50
90.000003
 41
0.9
  7
MONOTXT
  0
ENDBLK
  5
DF
  8
0
  0
BLOCK
  5
E1
  8
2
  2
*D15
 70
    65
 10
0.0
 20
0.0
 30
0.0
  3
*D15
  1

  0
POINT
  5
E2
  8
DEFPOINTS
 10
1560.719162
 20
-1550.517472
 30
0.0
  0
POINT
  5
E3
  8
DEFPOINTS
 10
1138.915792
 20
-1350.317572
 30
0.0
  0
POINT
  5
E4
  8
DEFPOINTS
 10
1772.674061
 20
-1604.427304
 30
0.0
  0
LINE
  5
E5
  8
2
  6
CONTINUOUS
 10
1566.719162
 20
-1550.517472
 30
0.0
 11
1777.674061
 21
-1550.517472
 31
0.0
  0
LINE
  5
E6
  8
2
  6
CONTINUOUS
 10
1144.915792
 20
-1350.317572
 30
0.0
 11
1777.674061
 21
-1350.317572
 31
0.0
  0
LINE
  5
E7
  8
2
  6
CONTINUOUS
 10
1772.674061
 20
-1550.517472
 30
0.0
 11
1772.674061
 21
-1350.317572
 31
0.0
  0
LINE
  5
E8
  8
2
  6
CONTINUOUS
 10
1767.725086
 20
-1522.450451
 30
0.0
 11
1772.674061
 21
-1550.517472
 31
0.0
  0
LINE
  5
E9
  8
2
  6
CONTINUOUS
 10
1777.623032
 20
-1522.450451
 30
0.0
 11
1772.674061
 21
-1550.517472
 31
0.0
  0
LINE
  5
EA
  8
2
  6
CONTINUOUS
 10
1777.623034
 20
-1378.384593
 30
0.0
 11
1772.674061
 21
-1350.317572
 31
0.0
  0
LINE
  5
EB
  8
2
  6
CONTINUOUS
 10
1767.725088
 20
-1378.384593
 30
0.0
 11
1772.674061
 21
-1350.317572
 31
0.0
  0
TEXT
  5
EC
  8
2
  6
CONTINUOUS
 10
1768.674072
 20
-1505.308594
 30
0.0
 40
52.0
  1
２００
 50
90.000003
 41
0.9
  7
MONOTXT
  0
ENDBLK
  5
ED
  8
0
  0
BLOCK
  5
EF
  8
2
  2
*D16
 70
    65
 10
0.0
 20
0.0
 30
0.0
  3
*D16
  1

  0
POINT
  5
F0
  8
DEFPOINTS
 10
1375.719589
 20
-1565.516912
 30
0.0
  0
POINT
  5
F1
  8
DEFPOINTS
 10
1560.719162
 20
-1550.517472
 30
0.0
  0
POINT
  5
F2
  8
DEFPOINTS
 10
1772.674061
 20
-1604.427304
 30
0.0
  0
LINE
  5
F3
  8
2
  6
CONTINUOUS
 10
1381.719589
 20
-1565.516912
 30
0.0
 11
1777.674061
 21
-1565.516912
 31
0.0
  0
LINE
  5
F4
  8
2
  6
CONTINUOUS
 10
1566.719162
 20
-1550.517472
 30
0.0
 11
1777.674061
 21
-1550.517472
 31
0.0
  0
LINE
  5
F5
  8
2
  6
CONTINUOUS
 10
1772.674061
 20
-1698.802175
 30
0.0
 11
1772.674061
 21
-1508.41694
 31
0.0
  0
LINE
  5
F6
  8
2
  6
CONTINUOUS
 10
1777.623034
 20
-1593.583933
 30
0.0
 11
1772.674061
 21
-1565.516912
 31
0.0
  0
LINE
  5
F7
  8
2
  6
CONTINUOUS
 10
1767.725088
 20
-1593.583933
 30
0.0
 11
1772.674061
 21
-1565.516912
 31
0.0
  0
LINE
  5
F8
  8
2
  6
CONTINUOUS
 10
1767.725091
 20
-1522.45045
 30
0.0
 11
1772.674061
 21
-1550.517472
 31
0.0
  0
LINE
  5
F9
  8
2
  6
CONTINUOUS
 10
1777.623038
 20
-1522.450452
 30
0.0
 11
1772.674061
 21
-1550.517472
 31
0.0
  0
TEXT
  5
FA
  8
2
  6
CONTINUOUS
 10
1768.674072
 20
-1675.402222
 30
0.0
 40
52.0
  1
８
 50
90.000003
 41
0.9
  7
MONOTXT
  0
ENDBLK
  5
FB
  8
0
  0
BLOCK
  5
FD
  8
2
  2
*D17
 70
    65
 10
0.0
 20
0.0
 30
0.0
  3
*D17
  1

  0
POINT
  5
FE
  8
DEFPOINTS
 10
1360.719162
 20
-1550.517472
 30
0.0
  0
POINT
  5
FF
  8
DEFPOINTS
 10
1380.719162
 20
-1560.517572
 30
0.0
  0
POINT
  5
100
  8
DEFPOINTS
 10
1377.43363
 20
-1760.242718
 30
0.0
  0
LINE
  5
101
  8
2
  6
CONTINUOUS
 10
1360.719162
 20
-1556.517472
 30
0.0
 11
1360.719162
 21
-1765.242718
 31
0.0
  0
LINE
  5
102
  8
2
  6
CONTINUOUS
 10
1380.719162
 20
-1566.517572
 30
0.0
 11
1380.719162
 21
-1765.242718
 31
0.0
  0
LINE
  5
103
  8
2
  6
CONTINUOUS
 10
1338.560988
 20
-1760.242718
 30
0.0
 11
1521.119156
 21
-1760.242718
 31
0.0
  0
CIRCLE
  5
104
  8
2
  6
CONTINUOUS
 10
1360.719162
 20
-1760.242718
 30
0.0
 40
3.75
  0
CIRCLE
  5
105
  8
2
  6
CONTINUOUS
 10
1360.719162
 20
-1760.242718
 30
0.0
 40
2.25
  0
LINE
  5
106
  8
2
  6
CONTINUOUS
 10
1408.786182
 20
-1755.29374
 30
0.0
 11
1380.719162
 21
-1760.242718
 31
0.0
  0
LINE
  5
107
  8
2
  6
CONTINUOUS
 10
1408.786184
 20
-1765.191686
 30
0.0
 11
1380.719162
 21
-1760.242718
 31
0.0
  0
TEXT
  5
108
  8
2
  6
CONTINUOUS
 10
1404.119141
 20
-1756.242676
 30
0.0
 40
52.0
  1
２０
 41
0.9
  7
MONOTXT
  0
ENDBLK
  5
109
  8
0
  0
BLOCK
  5
10B
  8
2
  2
*D18
 70
    65
 10
0.0
 20
0.0
 30
0.0
  3
*D18
  1

  0
POINT
  5
10C
  8
DEFPOINTS
 10
1340.719581
 20
-1550.516944
 30
0.0
  0
POINT
  5
10D
  8
DEFPOINTS
 10
1360.719162
 20
-1550.517472
 30
0.0
  0
POINT
  5
10E
  8
DEFPOINTS
 10
1377.43363
 20
-1760.242718
 30
0.0
  0
LINE
  5
10F
  8
2
  6
CONTINUOUS
 10
1340.719581
 20
-1556.516944
 30
0.0
 11
1340.719581
 21
-1765.242718
 31
0.0
  0
LINE
  5
110
  8
2
  6
CONTINUOUS
 10
1360.719162
 20
-1556.517472
 30
0.0
 11
1360.719162
 21
-1765.242718
 31
0.0
  0
LINE
  5
111
  8
2
  6
CONTINUOUS
 10
1200.319587
 20
-1760.242718
 30
0.0
 11
1382.877337
 21
-1760.242718
 31
0.0
  0
LINE
  5
112
  8
2
  6
CONTINUOUS
 10
1312.652561
 20
-1765.191694
 30
0.0
 11
1340.719581
 21
-1760.242718
 31
0.0
  0
LINE
  5
113
  8
2
  6
CONTINUOUS
 10
1312.65256
 20
-1755.293748
 30
0.0
 11
1340.719581
 21
-1760.242718
 31
0.0
  0
CIRCLE
  5
114
  8
2
  6
CONTINUOUS
 10
1360.719162
 20
-1760.242718
 30
0.0
 40
3.75
  0
CIRCLE
  5
115
  8
2
  6
CONTINUOUS
 10
1360.719162
 20
-1760.242718
 30
0.0
 40
2.25
  0
TEXT
  5
116
  8
2
  6
CONTINUOUS
 10
1223.719604
 20
-1756.242676
 30
0.0
 40
52.0
  1
２０
 41
0.9
  7
MONOTXT
  0
ENDBLK
  5
117
  8
0
  0
BLOCK
  5
119
  8
2
  2
*D19
 70
    65
 10
0.0
 20
0.0
 30
0.0
  3
*D19
  1

  0
POINT
  5
11A
  8
DEFPOINTS
 10
1250.319231
 20
-1201.517572
 30
0.0
  0
POINT
  5
11B
  8
DEFPOINTS
 10
1380.719162
 20
-1550.517572
 30
0.0
  0
POINT
  5
11C
  8
DEFPOINTS
 10
265.6101
 20
-837.341344
 30
0.0
  0
LINE
  5
11D
  8
2
  6
CONTINUOUS
 10
1250.319231
 20
-1195.517572
 30
0.0
 11
1250.319231
 21
-832.341344
 31
0.0
  0
LINE
  5
11E
  8
2
  6
CONTINUOUS
 10
1380.719162
 20
-1544.517572
 30
0.0
 11
1380.719162
 21
-832.341344
 31
0.0
  0
LINE
  5
11F
  8
2
  6
CONTINUOUS
 10
1208.218699
 20
-837.341344
 30
0.0
 11
1562.529236
 21
-837.341344
 31
0.0
  0
LINE
  5
120
  8
2
  6
CONTINUOUS
 10
1222.252211
 20
-842.29032
 30
0.0
 11
1250.319231
 21
-837.341344
 31
0.0
  0
LINE
  5
121
  8
2
  6
CONTINUOUS
 10
1222.25221
 20
-832.392374
 30
0.0
 11
1250.319231
 21
-837.341344
 31
0.0
  0
LINE
  5
122
  8
2
  6
CONTINUOUS
 10
1408.786182
 20
-832.392366
 30
0.0
 11
1380.719162
 21
-837.341344
 31
0.0
  0
LINE
  5
123
  8
2
  6
CONTINUOUS
 10
1408.786184
 20
-842.290312
 30
0.0
 11
1380.719162
 21
-837.341344
 31
0.0
  0
TEXT
  5
124
  8
2
  6
CONTINUOUS
 10
1398.729248
 20
-833.34137
 30
0.0
 40
52.0
  1
１２５
 41
0.9
  7
MONOTXT
  0
ENDBLK
  5
125
  8
0
  0
BLOCK
  5
127
  8
2
  2
*D20
 70
    65
 10
0.0
 20
0.0
 30
0.0
  3
*D20
  1

  0
POINT
  5
128
  8
DEFPOINTS
 10
-408.880769
 20
-1201.517572
 30
0.0
  0
POINT
  5
129
  8
DEFPOINTS
 10
1250.319231
 20
-1201.517572
 30
0.0
  0
POINT
  5
12A
  8
DEFPOINTS
 10
265.6101
 20
-837.341344
 30
0.0
  0
LINE
  5
12B
  8
2
  6
CONTINUOUS
 10
-408.880769
 20
-1195.517572
 30
0.0
 11
-408.880769
 21
-832.341344
 31
0.0
  0
LINE
  5
12C
  8
2
  6
CONTINUOUS
 10
1250.319231
 20
-1195.517572
 30
0.0
 11
1250.319231
 21
-832.341344
 31
0.0
  0
LINE
  5
12D
  8
2
  6
CONTINUOUS
 10
-408.880769
 20
-837.341344
 30
0.0
 11
1250.319231
 21
-837.341344
 31
0.0
  0
LINE
  5
12E
  8
2
  6
CONTINUOUS
 10
-380.813748
 20
-832.392371
 30
0.0
 11
-408.880769
 21
-837.341344
 31
0.0
  0
LINE
  5
12F
  8
2
  6
CONTINUOUS
 10
-380.813748
 20
-842.290317
 30
0.0
 11
-408.880769
 21
-837.341344
 31
0.0
  0
LINE
  5
130
  8
2
  6
CONTINUOUS
 10
1222.252211
 20
-842.29032
 30
0.0
 11
1250.319231
 21
-837.341344
 31
0.0
  0
LINE
  5
131
  8
2
  6
CONTINUOUS
 10
1222.25221
 20
-832.392374
 30
0.0
 11
1250.319231
 21
-837.341344
 31
0.0
  0
TEXT
  5
132
  8
2
  6
CONTINUOUS
 10
327.119232
 20
-833.34137
 30
0.0
 40
52.0
  1
１６７０
 41
0.9
  7
MONOTXT
  0
ENDBLK
  5
133
  8
0
  0
BLOCK
  5
135
  8
2
  2
*D21
 70
    65
 10
0.0
 20
0.0
 30
0.0
  3
*D21
  1

  0
POINT
  5
136
  8
DEFPOINTS
 10
-150.280838
 20
-1379.317572
 30
0.0
  0
POINT
  5
137
  8
DEFPOINTS
 10
-150.280838
 20
-1244.317572
 30
0.0
  0
POINT
  5
138
  8
DEFPOINTS
 10
-804.106962
 20
-1367.889086
 30
0.0
  0
LINE
  5
139
  8
2
  6
CONTINUOUS
 10
-156.280838
 20
-1379.317572
 30
0.0
 11
-809.106962
 21
-1379.317572
 31
0.0
  0
LINE
  5
13A
  8
2
  6
CONTINUOUS
 10
-156.280838
 20
-1244.317572
 30
0.0
 11
-809.106962
 21
-1244.317572
 31
0.0
  0
LINE
  5
13B
  8
2
  6
CONTINUOUS
 10
-804.106962
 20
-1775.401648
 30
0.0
 11
-804.106962
 21
-1202.21704
 31
0.0
  0
LINE
  5
13C
  8
2
  6
CONTINUOUS
 10
-799.157989
 20
-1407.384593
 30
0.0
 11
-804.106962
 21
-1379.317572
 31
0.0
  0
LINE
  5
13D
  8
2
  6
CONTINUOUS
 10
-809.055935
 20
-1407.384593
 30
0.0
 11
-804.106962
 21
-1379.317572
 31
0.0
  0
LINE
  5
13E
  8
2
  6
CONTINUOUS
 10
-809.055931
 20
-1216.25055
 30
0.0
 11
-804.106962
 21
-1244.317572
 31
0.0
  0
LINE
  5
13F
  8
2
  6
CONTINUOUS
 10
-799.157985
 20
-1216.250552
 30
0.0
 11
-804.106962
 21
-1244.317572
 31
0.0
  0
TEXT
  5
140
  8
2
  6
CONTINUOUS
 10
-808.106934
 20
-1752.001587
 30
0.0
 40
52.0
  1
１３５
 50
90.000003
 41
0.9
  7
MONOTXT
  0
ENDBLK
  5
141
  8
0
  0
BLOCK
  5
143
  8
2
  2
*D22
 70
    65
 10
0.0
 20
0.0
 30
0.0
  3
*D22
  1

  0
POINT
  5
144
  8
DEFPOINTS
 10
116.219162
 20
-1407.919272
 30
0.0
  0
POINT
  5
145
  8
DEFPOINTS
 10
420.719162
 20
-1600.02516
 30
0.0
  0
POINT
  5
146
  8
DEFPOINTS
 10
542.398173
 20
-1783.48287
 30
0.0
  0
LINE
  5
147
  8
2
  6
CONTINUOUS
 10
116.219162
 20
-1413.919272
 30
0.0
 11
116.219162
 21
-1788.48287
 31
0.0
  0
LINE
  5
148
  8
2
  6
CONTINUOUS
 10
420.719162
 20
-1606.02516
 30
0.0
 11
420.719162
 21
-1788.48287
 31
0.0
  0
LINE
  5
149
  8
2
  6
CONTINUOUS
 10
116.219162
 20
-1783.48287
 30
0.0
 11
420.719162
 21
-1783.48287
 31
0.0
  0
LINE
  5
14A
  8
2
  6
CONTINUOUS
 10
144.286183
 20
-1778.533897
 30
0.0
 11
116.219162
 21
-1783.48287
 31
0.0
  0
LINE
  5
14B
  8
2
  6
CONTINUOUS
 10
144.286183
 20
-1788.431843
 30
0.0
 11
116.219162
 21
-1783.48287
 31
0.0
  0
LINE
  5
14C
  8
2
  6
CONTINUOUS
 10
392.652142
 20
-1788.431845
 30
0.0
 11
420.719162
 21
-1783.48287
 31
0.0
  0
LINE
  5
14D
  8
2
  6
CONTINUOUS
 10
392.652141
 20
-1778.533899
 30
0.0
 11
420.719162
 21
-1783.48287
 31
0.0
  0
TEXT
  5
14E
  8
2
  6
CONTINUOUS
 10
198.269165
 20
-1779.48291
 30
0.0
 40
52.0
  1
３０５
 41
0.9
  7
MONOTXT
  0
ENDBLK
  5
14F
  8
0
  0
BLOCK
  5
151
  8
2
  2
*D23
 70
    65
 10
0.0
 20
0.0
 30
0.0
  3
*D23
  1

  0
POINT
  5
152
  8
DEFPOINTS
 10
-719.280538
 20
-1550.517672
 30
0.0
  0
POINT
  5
153
  8
DEFPOINTS
 10
-478.380466
 20
-1499.518181
 30
0.0
  0
POINT
  5
154
  8
DEFPOINTS
 10
-1017.816686
 20
-1470.209923
 30
0.0
  0
LINE
  5
155
  8
2
  6
CONTINUOUS
 10
-725.280538
 20
-1550.517672
 30
0.0
 11
-1022.816686
 21
-1550.517672
 31
0.0
  0
LINE
  5
156
  8
2
  6
CONTINUOUS
 10
-484.380466
 20
-1499.518181
 30
0.0
 11
-1022.816686
 21
-1499.518181
 31
0.0
  0
LINE
  5
157
  8
2
  6
CONTINUOUS
 10
-1017.816686
 20
-1731.820742
 30
0.0
 11
-1017.816686
 21
-1457.417648
 31
0.0
  0
LINE
  5
158
  8
2
  6
CONTINUOUS
 10
-1012.867712
 20
-1578.584693
 30
0.0
 11
-1017.816686
 21
-1550.517672
 31
0.0
  0
LINE
  5
159
  8
2
  6
CONTINUOUS
 10
-1022.765658
 20
-1578.584693
 30
0.0
 11
-1017.816686
 21
-1550.517672
 31
0.0
  0
LINE
  5
15A
  8
2
  6
CONTINUOUS
 10
-1022.765655
 20
-1471.451159
 30
0.0
 11
-1017.816686
 21
-1499.518181
 31
0.0
  0
LINE
  5
15B
  8
2
  6
CONTINUOUS
 10
-1012.867709
 20
-1471.45116
 30
0.0
 11
-1017.816686
 21
-1499.518181
 31
0.0
  0
TEXT
  5
15C
  8
2
  6
CONTINUOUS
 10
-1021.81665
 20
-1708.420776
 30
0.0
 40
52.0
  1
４５
 50
90.000003
 41
0.9
  7
MONOTXT
  0
ENDBLK
  5
15D
  8
0
  0
BLOCK
  5
15F
  8
2
  2
*D24
 70
    65
 10
0.0
 20
0.0
 30
0.0
  3
*D24
  1

  0
POINT
  5
160
  8
DEFPOINTS
 10
-478.380466
 20
-1499.518181
 30
0.0
  0
POINT
  5
161
  8
DEFPOINTS
 10
-408.880769
 20
-1201.517572
 30
0.0
  0
POINT
  5
162
  8
DEFPOINTS
 10
-1017.816686
 20
-1470.209923
 30
0.0
  0
LINE
  5
163
  8
2
  6
CONTINUOUS
 10
-484.380466
 20
-1499.518181
 30
0.0
 11
-1022.816686
 21
-1499.518181
 31
0.0
  0
LINE
  5
164
  8
2
  6
CONTINUOUS
 10
-414.880769
 20
-1201.517572
 30
0.0
 11
-1022.816686
 21
-1201.517572
 31
0.0
  0
LINE
  5
165
  8
2
  6
CONTINUOUS
 10
-1017.816686
 20
-1499.518181
 30
0.0
 11
-1017.816686
 21
-1201.517572
 31
0.0
  0
LINE
  5
166
  8
2
  6
CONTINUOUS
 10
-1022.76566
 20
-1471.45116
 30
0.0
 11
-1017.816686
 21
-1499.518181
 31
0.0
  0
LINE
  5
167
  8
2
  6
CONTINUOUS
 10
-1012.867714
 20
-1471.45116
 30
0.0
 11
-1017.816686
 21
-1499.518181
 31
0.0
  0
LINE
  5
168
  8
2
  6
CONTINUOUS
 10
-1012.867712
 20
-1229.584593
 30
0.0
 11
-1017.816686
 21
-1201.517572
 31
0.0
  0
LINE
  5
169
  8
2
  6
CONTINUOUS
 10
-1022.765658
 20
-1229.584593
 30
0.0
 11
-1017.816686
 21
-1201.517572
 31
0.0
  0
TEXT
  5
16A
  8
2
  6
CONTINUOUS
 10
-1021.816711
 20
-1420.717896
 30
0.0
 40
52.0
  1
３０５
 50
90.000003
 41
0.9
  7
MONOTXT
  0
ENDBLK
  5
16B
  8
0
  0
BLOCK
  5
16D
  8
2
  2
*D25
 70
    65
 10
0.0
 20
0.0
 30
0.0
  3
*D25
  1

  0
POINT
  5
16E
  8
DEFPOINTS
 10
420.719162
 20
-1589.914324
 30
0.0
  0
POINT
  5
16F
  8
DEFPOINTS
 10
1083.719231
 20
-1405.210519
 30
0.0
  0
POINT
  5
170
  8
DEFPOINTS
 10
542.398173
 20
-1783.48287
 30
0.0
  0
LINE
  5
171
  8
2
  6
CONTINUOUS
 10
420.719162
 20
-1595.914324
 30
0.0
 11
420.719162
 21
-1788.48287
 31
0.0
  0
LINE
  5
172
  8
2
  6
CONTINUOUS
 10
1083.719231
 20
-1411.210519
 30
0.0
 11
1083.719231
 21
-1788.48287
 31
0.0
  0
LINE
  5
173
  8
2
  6
CONTINUOUS
 10
420.719162
 20
-1783.48287
 30
0.0
 11
1083.719231
 21
-1783.48287
 31
0.0
  0
LINE
  5
174
  8
2
  6
CONTINUOUS
 10
448.786183
 20
-1778.533897
 30
0.0
 11
420.719162
 21
-1783.48287
 31
0.0
  0
LINE
  5
175
  8
2
  6
CONTINUOUS
 10
448.786183
 20
-1788.431843
 30
0.0
 11
420.719162
 21
-1783.48287
 31
0.0
  0
LINE
  5
176
  8
2
  6
CONTINUOUS
 10
1055.652211
 20
-1788.431845
 30
0.0
 11
1083.719231
 21
-1783.48287
 31
0.0
  0
LINE
  5
177
  8
2
  6
CONTINUOUS
 10
1055.65221
 20
-1778.533899
 30
0.0
 11
1083.719231
 21
-1783.48287
 31
0.0
  0
TEXT
  5
178
  8
2
  6
CONTINUOUS
 10
682.019226
 20
-1779.48291
 30
0.0
 40
52.0
  1
６６５
 41
0.9
  7
MONOTXT
  0
ENDBLK
  5
179
  8
0
  0
BLOCK
  5
17B
  8
2
  2
*D26
 70
    65
 10
0.0
 20
0.0
 30
0.0
  3
*D26
  1

  0
POINT
  5
17C
  8
DEFPOINTS
 10
420.719162
 20
-1594.969742
 30
0.0
  0
POINT
  5
17D
  8
DEFPOINTS
 10
654.719162
 20
-1412.97469
 30
0.0
  0
POINT
  5
17E
  8
DEFPOINTS
 10
528.257259
 20
-1703.351025
 30
0.0
  0
LINE
  5
17F
  8
2
  6
CONTINUOUS
 10
420.719162
 20
-1600.969742
 30
0.0
 11
420.719162
 21
-1708.351025
 31
0.0
  0
LINE
  5
180
  8
2
  6
CONTINUOUS
 10
654.719162
 20
-1418.97469
 30
0.0
 11
654.719162
 21
-1708.351025
 31
0.0
  0
LINE
  5
181
  8
2
  6
CONTINUOUS
 10
420.719162
 20
-1703.351025
 30
0.0
 11
654.719162
 21
-1703.351025
 31
0.0
  0
LINE
  5
182
  8
2
  6
CONTINUOUS
 10
448.786183
 20
-1698.402052
 30
0.0
 11
420.719162
 21
-1703.351025
 31
0.0
  0
LINE
  5
183
  8
2
  6
CONTINUOUS
 10
448.786183
 20
-1708.299998
 30
0.0
 11
420.719162
 21
-1703.351025
 31
0.0
  0
LINE
  5
184
  8
2
  6
CONTINUOUS
 10
626.652142
 20
-1708.3
 30
0.0
 11
654.719162
 21
-1703.351025
 31
0.0
  0
LINE
  5
185
  8
2
  6
CONTINUOUS
 10
626.652141
 20
-1698.402054
 30
0.0
 11
654.719162
 21
-1703.351025
 31
0.0
  0
TEXT
  5
186
  8
2
  6
CONTINUOUS
 10
467.519165
 20
-1699.351074
 30
0.0
 40
52.0
  1
２３５
 41
0.9
  7
MONOTXT
  0
ENDBLK
  5
187
  8
0
  0
BLOCK
  5
189
  8
2
  2
*D27
 70
    65
 10
0.0
 20
0.0
 30
0.0
  3
*D27
  1

  0
POINT
  5
18A
  8
DEFPOINTS
 10
458.719162
 20
-1244.317572
 30
0.0
  0
POINT
  5
18B
  8
DEFPOINTS
 10
850.719162
 20
-1244.317572
 30
0.0
  0
POINT
  5
18C
  8
DEFPOINTS
 10
596.05739
 20
-1023.707494
 30
0.0
  0
LINE
  5
18D
  8
2
  6
CONTINUOUS
 10
458.719162
 20
-1238.317572
 30
0.0
 11
458.719162
 21
-1018.707494
 31
0.0
  0
LINE
  5
18E
  8
2
  6
CONTINUOUS
 10
850.719162
 20
-1238.317572
 30
0.0
 11
850.719162
 21
-1018.707494
 31
0.0
  0
LINE
  5
18F
  8
2
  6
CONTINUOUS
 10
458.719162
 20
-1023.707494
 30
0.0
 11
850.719162
 21
-1023.707494
 31
0.0
  0
LINE
  5
190
  8
2
  6
CONTINUOUS
 10
486.786183
 20
-1018.758521
 30
0.0
 11
458.719162
 21
-1023.707494
 31
0.0
  0
LINE
  5
191
  8
2
  6
CONTINUOUS
 10
486.786183
 20
-1028.656467
 30
0.0
 11
458.719162
 21
-1023.707494
 31
0.0
  0
LINE
  5
192
  8
2
  6
CONTINUOUS
 10
822.652142
 20
-1028.65647
 30
0.0
 11
850.719162
 21
-1023.707494
 31
0.0
  0
LINE
  5
193
  8
2
  6
CONTINUOUS
 10
822.652141
 20
-1018.758524
 30
0.0
 11
850.719162
 21
-1023.707494
 31
0.0
  0
TEXT
  5
194
  8
2
  6
CONTINUOUS
 10
584.519165
 20
-1019.70752
 30
0.0
 40
52.0
  1
３９０
 41
0.9
  7
MONOTXT
  0
ENDBLK
  5
195
  8
0
  0
BLOCK
  5
197
  8
2
  2
*D28
 70
    65
 10
0.0
 20
0.0
 30
0.0
  3
*D28
  1

  0
POINT
  5
198
  8
DEFPOINTS
 10
-150.280838
 20
-1244.317572
 30
0.0
  0
POINT
  5
199
  8
DEFPOINTS
 10
382.719162
 20
-1244.317572
 30
0.0
  0
POINT
  5
19A
  8
DEFPOINTS
 10
110.73725
 20
-1018.652076
 30
0.0
  0
LINE
  5
19B
  8
2
  6
CONTINUOUS
 10
-150.280838
 20
-1238.317572
 30
0.0
 11
-150.280838
 21
-1013.652076
 31
0.0
  0
LINE
  5
19C
  8
2
  6
CONTINUOUS
 10
382.719162
 20
-1238.317572
 30
0.0
 11
382.719162
 21
-1013.652076
 31
0.0
  0
LINE
  5
19D
  8
2
  6
CONTINUOUS
 10
-150.280838
 20
-1018.652076
 30
0.0
 11
382.719162
 21
-1018.652076
 31
0.0
  0
LINE
  5
19E
  8
2
  6
CONTINUOUS
 10
-122.213817
 20
-1013.703103
 30
0.0
 11
-150.280838
 21
-1018.652076
 31
0.0
  0
LINE
  5
19F
  8
2
  6
CONTINUOUS
 10
-122.213817
 20
-1023.601049
 30
0.0
 11
-150.280838
 21
-1018.652076
 31
0.0
  0
LINE
  5
1A0
  8
2
  6
CONTINUOUS
 10
354.652142
 20
-1023.601052
 30
0.0
 11
382.719162
 21
-1018.652076
 31
0.0
  0
LINE
  5
1A1
  8
2
  6
CONTINUOUS
 10
354.652141
 20
-1013.703106
 30
0.0
 11
382.719162
 21
-1018.652076
 31
0.0
  0
TEXT
  5
1A2
  8
2
  6
CONTINUOUS
 10
46.019165
 20
-1014.6521
 30
0.0
 40
52.0
  1
５３０
 41
0.9
  7
MONOTXT
  0
ENDBLK
  5
1A3
  8
0
  0
BLOCK
  5
1A5
  8
2
  2
*D29
 70
    65
 10
0.0
 20
0.0
 30
0.0
  3
*D29
  1

  0
POINT
  5
1A6
  8
DEFPOINTS
 10
2043.945497
 20
-10.329178
 30
0.0
  0
POINT
  5
1A7
  8
DEFPOINTS
 10
1794.989092
 20
228.371487
 30
0.0
  0
POINT
  5
1A8
  8
DEFPOINTS
 10
1593.817889
 20
125.388605
 30
0.0
  0
LINE
  5
1A9
  8
2
  6
CONTINUOUS
 10
2037.945497
 20
-10.329178
 30
0.0
 11
1588.817889
 21
-10.329178
 31
0.0
  0
LINE
  5
1AA
  8
2
  6
CONTINUOUS
 10
1788.989092
 20
228.371487
 30
0.0
 11
1588.817889
 21
228.371487
 31
0.0
  0
LINE
  5
1AB
  8
2
  6
CONTINUOUS
 10
1593.817889
 20
-10.329178
 30
0.0
 11
1593.817889
 21
228.371487
 31
0.0
  0
LINE
  5
1AC
  8
2
  6
CONTINUOUS
 10
1588.868915
 20
17.737843
 30
0.0
 11
1593.817889
 21
-10.329178
 31
0.0
  0
LINE
  5
1AD
  8
2
  6
CONTINUOUS
 10
1598.766861
 20
17.737843
 30
0.0
 11
1593.817889
 21
-10.329178
 31
0.0
  0
LINE
  5
1AE
  8
2
  6
CONTINUOUS
 10
1598.766863
 20
200.304466
 30
0.0
 11
1593.817889
 21
228.371487
 31
0.0
  0
LINE
  5
1AF
  8
2
  6
CONTINUOUS
 10
1588.868917
 20
200.304466
 30
0.0
 11
1593.817889
 21
228.371487
 31
0.0
  0
TEXT
  5
1B0
  8
2
  6
CONTINUOUS
 10
1589.817871
 20
38.821156
 30
0.0
 40
52.0
  1
２４０
 50
90.000003
 41
0.9
  7
MONOTXT
  0
ENDBLK
  5
1B1
  8
0
  0
BLOCK
  5
1B3
  8
2
  2
*D30
 70
    65
 10
0.0
 20
0.0
 30
0.0
  3
*D30
  1

  0
POINT
  5
1B4
  8
DEFPOINTS
 10
2183.988803
 20
-77.829227
 30
0.0
  0
POINT
  5
1B5
  8
DEFPOINTS
 10
2183.988803
 20
57.170773
 30
0.0
  0
POINT
  5
1B6
  8
DEFPOINTS
 10
1675.240289
 20
-24.17286
 30
0.0
  0
LINE
  5
1B7
  8
2
  6
CONTINUOUS
 10
2177.988803
 20
-77.829227
 30
0.0
 11
1670.240289
 21
-77.829227
 31
0.0
  0
LINE
  5
1B8
  8
2
  6
CONTINUOUS
 10
2177.988803
 20
57.170773
 30
0.0
 11
1670.240289
 21
57.170773
 31
0.0
  0
LINE
  5
1B9
  8
2
  6
CONTINUOUS
 10
1675.240289
 20
-275.991656
 30
0.0
 11
1675.240289
 21
99.271306
 31
0.0
  0
LINE
  5
1BA
  8
2
  6
CONTINUOUS
 10
1680.189263
 20
-105.896247
 30
0.0
 11
1675.240289
 21
-77.829227
 31
0.0
  0
LINE
  5
1BB
  8
2
  6
CONTINUOUS
 10
1670.291317
 20
-105.896248
 30
0.0
 11
1675.240289
 21
-77.829227
 31
0.0
  0
LINE
  5
1BC
  8
2
  6
CONTINUOUS
 10
1670.29132
 20
85.237795
 30
0.0
 11
1675.240289
 21
57.170773
 31
0.0
  0
LINE
  5
1BD
  8
2
  6
CONTINUOUS
 10
1680.189266
 20
85.237794
 30
0.0
 11
1675.240289
 21
57.170773
 31
0.0
  0
TEXT
  5
1BE
  8
2
  6
CONTINUOUS
 10
1671.240356
 20
-252.59166
 30
0.0
 40
52.0
  1
１３５
 50
90.000003
 41
0.9
  7
MONOTXT
  0
ENDBLK
  5
1BF
  8
0
  0
BLOCK
  5
1C1
  8
2
  2
*D31
 70
    65
 10
0.0
 20
0.0
 30
0.0
  3
*D31
  1

  0
POINT
  5
1C2
  8
DEFPOINTS
 10
2450.488803
 20
-103.012039
 30
0.0
  0
POINT
  5
1C3
  8
DEFPOINTS
 10
2754.988693
 20
-181.168876
 30
0.0
  0
POINT
  5
1C4
  8
DEFPOINTS
 10
2758.901299
 20
-284.565285
 30
0.0
  0
LINE
  5
1C5
  8
2
  6
CONTINUOUS
 10
2450.488803
 20
-109.012039
 30
0.0
 11
2450.488803
 21
-289.565285
 31
0.0
  0
LINE
  5
1C6
  8
2
  6
CONTINUOUS
 10
2754.988693
 20
-187.168876
 30
0.0
 11
2754.988693
 21
-289.565285
 31
0.0
  0
LINE
  5
1C7
  8
2
  6
CONTINUOUS
 10
2450.488803
 20
-284.565285
 30
0.0
 11
2754.988693
 21
-284.565285
 31
0.0
  0
LINE
  5
1C8
  8
2
  6
CONTINUOUS
 10
2478.555824
 20
-279.616312
 30
0.0
 11
2450.488803
 21
-284.565285
 31
0.0
  0
LINE
  5
1C9
  8
2
  6
CONTINUOUS
 10
2478.555824
 20
-289.514258
 30
0.0
 11
2450.488803
 21
-284.565285
 31
0.0
  0
LINE
  5
1CA
  8
2
  6
CONTINUOUS
 10
2726.921672
 20
-289.514261
 30
0.0
 11
2754.988693
 21
-284.565285
 31
0.0
  0
LINE
  5
1CB
  8
2
  6
CONTINUOUS
 10
2726.921671
 20
-279.616315
 30
0.0
 11
2754.988693
 21
-284.565285
 31
0.0
  0
TEXT
  5
1CC
  8
2
  6
CONTINUOUS
 10
2532.538818
 20
-280.565277
 30
0.0
 40
52.0
  1
３０５
 41
0.9
  7
MONOTXT
  0
ENDBLK
  5
1CD
  8
0
  0
BLOCK
  5
1CF
  8
2
  2
*D32
 70
    65
 10
0.0
 20
0.0
 30
0.0
  3
*D32
  1

  0
POINT
  5
1D0
  8
DEFPOINTS
 10
2792.988803
 20
57.170926
 30
0.0
  0
POINT
  5
1D1
  8
DEFPOINTS
 10
3184.988803
 20
57.170926
 30
0.0
  0
POINT
  5
1D2
  8
DEFPOINTS
 10
2733.543551
 20
353.604704
 30
0.0
  0
LINE
  5
1D3
  8
2
  6
CONTINUOUS
 10
2792.988803
 20
63.170926
 30
0.0
 11
2792.988803
 21
358.604704
 31
0.0
  0
LINE
  5
1D4
  8
2
  6
CONTINUOUS
 10
3184.988803
 20
63.170926
 30
0.0
 11
3184.988803
 21
358.604704
 31
0.0
  0
LINE
  5
1D5
  8
2
  6
CONTINUOUS
 10
2792.988803
 20
353.604704
 30
0.0
 11
3184.988803
 21
353.604704
 31
0.0
  0
LINE
  5
1D6
  8
2
  6
CONTINUOUS
 10
2821.055824
 20
358.553678
 30
0.0
 11
2792.988803
 21
353.604704
 31
0.0
  0
LINE
  5
1D7
  8
2
  6
CONTINUOUS
 10
2821.055824
 20
348.655731
 30
0.0
 11
2792.988803
 21
353.604704
 31
0.0
  0
LINE
  5
1D8
  8
2
  6
CONTINUOUS
 10
3156.921783
 20
348.655729
 30
0.0
 11
3184.988803
 21
353.604704
 31
0.0
  0
LINE
  5
1D9
  8
2
  6
CONTINUOUS
 10
3156.921782
 20
358.553675
 30
0.0
 11
3184.988803
 21
353.604704
 31
0.0
  0
TEXT
  5
1DA
  8
2
  6
CONTINUOUS
 10
2918.788818
 20
357.604706
 30
0.0
 40
52.0
  1
３９０
 41
0.9
  7
MONOTXT
  0
ENDBLK
  5
1DB
  8
0
  0
BLOCK
  5
1DD
  8
2
  2
*D33
 70
    65
 10
0.0
 20
0.0
 30
0.0
  3
*D33
  1

  0
POINT
  5
1DE
  8
DEFPOINTS
 10
2183.988803
 20
57.170773
 30
0.0
  0
POINT
  5
1DF
  8
DEFPOINTS
 10
2716.988803
 20
57.170926
 30
0.0
  0
POINT
  5
1E0
  8
DEFPOINTS
 10
2733.543551
 20
353.604704
 30
0.0
  0
LINE
  5
1E1
  8
2
  6
CONTINUOUS
 10
2183.988803
 20
63.170773
 30
0.0
 11
2183.988803
 21
358.604704
 31
0.0
  0
LINE
  5
1E2
  8
2
  6
CONTINUOUS
 10
2716.988803
 20
63.170926
 30
0.0
 11
2716.988803
 21
358.604704
 31
0.0
  0
LINE
  5
1E3
  8
2
  6
CONTINUOUS
 10
2183.988803
 20
353.604704
 30
0.0
 11
2716.988803
 21
353.604704
 31
0.0
  0
LINE
  5
1E4
  8
2
  6
CONTINUOUS
 10
2212.055824
 20
358.553678
 30
0.0
 11
2183.988803
 21
353.604704
 31
0.0
  0
LINE
  5
1E5
  8
2
  6
CONTINUOUS
 10
2212.055824
 20
348.655731
 30
0.0
 11
2183.988803
 21
353.604704
 31
0.0
  0
LINE
  5
1E6
  8
2
  6
CONTINUOUS
 10
2688.921783
 20
348.655729
 30
0.0
 11
2716.988803
 21
353.604704
 31
0.0
  0
LINE
  5
1E7
  8
2
  6
CONTINUOUS
 10
2688.921782
 20
358.553675
 30
0.0
 11
2716.988803
 21
353.604704
 31
0.0
  0
TEXT
  5
1E8
  8
2
  6
CONTINUOUS
 10
2380.288818
 20
357.604706
 30
0.0
 40
52.0
  1
５３０
 41
0.9
  7
MONOTXT
  0
ENDBLK
  5
1E9
  8
0
  0
BLOCK
  5
1EB
  8
2
  2
*D34
 70
    65
 10
0.0
 20
0.0
 30
0.0
  3
*D34
  1

  0
POINT
  5
1EC
  8
DEFPOINTS
 10
2754.988704
 20
-156.300792
 30
0.0
  0
POINT
  5
1ED
  8
DEFPOINTS
 10
2988.988803
 20
-103.012039
 30
0.0
  0
POINT
  5
1EE
  8
DEFPOINTS
 10
2758.901299
 20
-284.565285
 30
0.0
  0
LINE
  5
1EF
  8
2
  6
CONTINUOUS
 10
2754.988704
 20
-162.300792
 30
0.0
 11
2754.988704
 21
-289.565285
 31
0.0
  0
LINE
  5
1F0
  8
2
  6
CONTINUOUS
 10
2988.988803
 20
-109.012039
 30
0.0
 11
2988.988803
 21
-289.565285
 31
0.0
  0
LINE
  5
1F1
  8
2
  6
CONTINUOUS
 10
2754.988704
 20
-284.565285
 30
0.0
 11
2988.988803
 21
-284.565285
 31
0.0
  0
LINE
  5
1F2
  8
2
  6
CONTINUOUS
 10
2783.055725
 20
-279.616312
 30
0.0
 11
2754.988704
 21
-284.565285
 31
0.0
  0
LINE
  5
1F3
  8
2
  6
CONTINUOUS
 10
2783.055725
 20
-289.514258
 30
0.0
 11
2754.988704
 21
-284.565285
 31
0.0
  0
LINE
  5
1F4
  8
2
  6
CONTINUOUS
 10
2960.921783
 20
-289.514261
 30
0.0
 11
2988.988803
 21
-284.565285
 31
0.0
  0
LINE
  5
1F5
  8
2
  6
CONTINUOUS
 10
2960.921782
 20
-279.616315
 30
0.0
 11
2988.988803
 21
-284.565285
 31
0.0
  0
TEXT
  5
1F6
  8
2
  6
CONTINUOUS
 10
2801.788818
 20
-280.565277
 30
0.0
 40
52.0
  1
２３５
 41
0.9
  7
MONOTXT
  0
ENDBLK
  5
1F7
  8
0
  0
BLOCK
  5
1F9
  8
2
  2
*D35
 70
    65
 10
0.0
 20
0.0
 30
0.0
  3
*D35
  1

  0
POINT
  5
1FA
  8
DEFPOINTS
 10
2471.821238
 20
-1550.517572
 30
0.0
  0
POINT
  5
1FB
  8
DEFPOINTS
 10
2759.806824
 20
-1375.517572
 30
0.0
  0
POINT
  5
1FC
  8
DEFPOINTS
 10
2317.656875
 20
-1427.737638
 30
0.0
  0
LINE
  5
1FD
  8
2
  6
CONTINUOUS
 10
2465.821238
 20
-1550.517572
 30
0.0
 11
2312.656875
 21
-1550.517572
 31
0.0
  0
LINE
  5
1FE
  8
2
  6
CONTINUOUS
 10
2753.806824
 20
-1375.517572
 30
0.0
 11
2312.656875
 21
-1375.517572
 31
0.0
  0
LINE
  5
1FF
  8
2
  6
CONTINUOUS
 10
2317.656875
 20
-1592.618105
 30
0.0
 11
2317.656875
 21
-1333.41704
 31
0.0
  0
LINE
  5
200
  8
2
  6
CONTINUOUS
 10
2322.605848
 20
-1578.584593
 30
0.0
 11
2317.656875
 21
-1550.517572
 31
0.0
  0
LINE
  5
201
  8
2
  6
CONTINUOUS
 10
2312.707902
 20
-1578.584593
 30
0.0
 11
2317.656875
 21
-1550.517572
 31
0.0
  0
LINE
  5
202
  8
2
  6
CONTINUOUS
 10
2312.707905
 20
-1347.45055
 30
0.0
 11
2317.656875
 21
-1375.517572
 31
0.0
  0
LINE
  5
203
  8
2
  6
CONTINUOUS
 10
2322.605852
 20
-1347.450552
 30
0.0
 11
2317.656875
 21
-1375.517572
 31
0.0
  0
TEXT
  5
204
  8
2
  6
CONTINUOUS
 10
2313.656982
 20
-1533.217529
 30
0.0
 40
52.0
  1
１７５
 50
90.000003
 41
0.9
  7
MONOTXT
  0
ENDBLK
  5
205
  8
0
  0
BLOCK
  5
207
  8
2
  2
*D36
 70
    65
 10
0.0
 20
0.0
 30
0.0
  3
*D36
  1

  0
POINT
  5
208
  8
DEFPOINTS
 10
2471.821238
 20
-1550.517572
 30
0.0
  0
POINT
  5
209
  8
DEFPOINTS
 10
2513.821238
 20
-1390.517572
 30
0.0
  0
POINT
  5
20A
  8
DEFPOINTS
 10
2382.345473
 20
-1485.033253
 30
0.0
  0
LINE
  5
20B
  8
2
  6
CONTINUOUS
 10
2465.821238
 20
-1550.517572
 30
0.0
 11
2377.345473
 21
-1550.517572
 31
0.0
  0
LINE
  5
20C
  8
2
  6
CONTINUOUS
 10
2507.821238
 20
-1390.517572
 30
0.0
 11
2377.345473
 21
-1390.517572
 31
0.0
  0
LINE
  5
20D
  8
2
  6
CONTINUOUS
 10
2382.345473
 20
-1592.618105
 30
0.0
 11
2382.345473
 21
-1348.41704
 31
0.0
  0
LINE
  5
20E
  8
2
  6
CONTINUOUS
 10
2387.294446
 20
-1578.584593
 30
0.0
 11
2382.345473
 21
-1550.517572
 31
0.0
  0
LINE
  5
20F
  8
2
  6
CONTINUOUS
 10
2377.3965
 20
-1578.584593
 30
0.0
 11
2382.345473
 21
-1550.517572
 31
0.0
  0
LINE
  5
210
  8
2
  6
CONTINUOUS
 10
2377.396503
 20
-1362.45055
 30
0.0
 11
2382.345473
 21
-1390.517572
 31
0.0
  0
LINE
  5
211
  8
2
  6
CONTINUOUS
 10
2387.29445
 20
-1362.450552
 30
0.0
 11
2382.345473
 21
-1390.517572
 31
0.0
  0
TEXT
  5
212
  8
2
  6
CONTINUOUS
 10
2378.345459
 20
-1540.717529
 30
0.0
 40
52.0
  1
１６０
 50
90.000003
 41
0.9
  7
MONOTXT
  0
ENDBLK
  5
213
  8
0
  0
BLOCK
  5
215
  8
2
  2
*D37
 70
    65
 10
0.0
 20
0.0
 30
0.0
  3
*D37
  1

  0
POINT
  5
216
  8
DEFPOINTS
 10
2517.221238
 20
-1201.517572
 30
0.0
  0
POINT
  5
217
  8
DEFPOINTS
 10
3106.421238
 20
-1201.517572
 30
0.0
  0
POINT
  5
218
  8
DEFPOINTS
 10
2847.679504
 20
-901.193216
 30
0.0
  0
LINE
  5
219
  8
2
  6
CONTINUOUS
 10
2517.221238
 20
-1195.517572
 30
0.0
 11
2517.221238
 21
-896.193216
 31
0.0
  0
LINE
  5
21A
  8
2
  6
CONTINUOUS
 10
3106.421238
 20
-1195.517572
 30
0.0
 11
3106.421238
 21
-896.193216
 31
0.0
  0
LINE
  5
21B
  8
2
  6
CONTINUOUS
 10
2517.221238
 20
-901.193216
 30
0.0
 11
3106.421238
 21
-901.193216
 31
0.0
  0
LINE
  5
21C
  8
2
  6
CONTINUOUS
 10
2545.288259
 20
-896.244243
 30
0.0
 11
2517.221238
 21
-901.193216
 31
0.0
  0
LINE
  5
21D
  8
2
  6
CONTINUOUS
 10
2545.288259
 20
-906.142189
 30
0.0
 11
2517.221238
 21
-901.193216
 31
0.0
  0
LINE
  5
21E
  8
2
  6
CONTINUOUS
 10
3078.354217
 20
-906.142192
 30
0.0
 11
3106.421238
 21
-901.193216
 31
0.0
  0
LINE
  5
21F
  8
2
  6
CONTINUOUS
 10
3078.354216
 20
-896.244246
 30
0.0
 11
3106.421238
 21
-901.193216
 31
0.0
  0
TEXT
  5
220
  8
2
  6
CONTINUOUS
 10
2741.621338
 20
-897.193237
 30
0.0
 40
52.0
  1
６００
 41
0.9
  7
MONOTXT
  0
ENDBLK
  5
221
  8
0
  0
BLOCK
  5
223
  8
2
  2
*D38
 70
    65
 10
0.0
 20
0.0
 30
0.0
  3
*D38
  1

  0
POINT
  5
224
  8
DEFPOINTS
 10
2811.821238
 20
-1100.795897
 30
0.0
  0
POINT
  5
225
  8
DEFPOINTS
 10
2866.821209
 20
-1354.177762
 30
0.0
  0
POINT
  5
226
  8
DEFPOINTS
 10
2793.170738
 20
-1110.566695
 30
0.0
  0
LINE
  5
227
  8
2
  6
CONTINUOUS
 10
2811.821238
 20
-1106.795897
 30
0.0
 11
2811.821238
 21
-1115.566695
 31
0.0
  0
LINE
  5
228
  8
2
  6
CONTINUOUS
 10
2866.821209
 20
-1348.177762
 30
0.0
 11
2866.821209
 21
-1105.566695
 31
0.0
  0
LINE
  5
229
  8
2
  6
CONTINUOUS
 10
2789.663063
 20
-1110.566695
 30
0.0
 11
3077.523312
 21
-1110.566695
 31
0.0
  0
CIRCLE
  5
22A
  8
2
  6
CONTINUOUS
 10
2811.821238
 20
-1110.566695
 30
0.0
 40
3.75
  0
CIRCLE
  5
22B
  8
2
  6
CONTINUOUS
 10
2811.821238
 20
-1110.566695
 30
0.0
 40
2.25
  0
LINE
  5
22C
  8
2
  6
CONTINUOUS
 10
2894.888229
 20
-1105.617718
 30
0.0
 11
2866.821209
 21
-1110.566695
 31
0.0
  0
LINE
  5
22D
  8
2
  6
CONTINUOUS
 10
2894.888231
 20
-1115.515664
 30
0.0
 11
2866.821209
 21
-1110.566695
 31
0.0
  0
TEXT
  5
22E
  8
2
  6
CONTINUOUS
 10
2960.523437
 20
-1106.56665
 30
0.0
 40
52.0
  1
５５
 41
0.9
  7
MONOTXT
  0
ENDBLK
  5
22F
  8
0
  0
BLOCK
  5
231
  8
2
  2
*D39
 70
    65
 10
0.0
 20
0.0
 30
0.0
  3
*D39
  1

  0
POINT
  5
232
  8
DEFPOINTS
 10
3151.821238
 20
-1550.517572
 30
0.0
  0
POINT
  5
233
  8
DEFPOINTS
 10
2878.473648
 20
-1375.240072
 30
0.0
  0
POINT
  5
234
  8
DEFPOINTS
 10
3263.040428
 20
-1421.117013
 30
0.0
  0
LINE
  5
235
  8
2
  6
CONTINUOUS
 10
3157.821238
 20
-1550.517572
 30
0.0
 11
3268.040428
 21
-1550.517572
 31
0.0
  0
LINE
  5
236
  8
2
  6
CONTINUOUS
 10
2884.473648
 20
-1375.240072
 30
0.0
 11
3268.040428
 21
-1375.240072
 31
0.0
  0
LINE
  5
237
  8
2
  6
CONTINUOUS
 10
3263.040428
 20
-1592.618105
 30
0.0
 11
3263.040428
 21
-1333.13954
 31
0.0
  0
LINE
  5
238
  8
2
  6
CONTINUOUS
 10
3267.989402
 20
-1578.584593
 30
0.0
 11
3263.040428
 21
-1550.517572
 31
0.0
  0
LINE
  5
239
  8
2
  6
CONTINUOUS
 10
3258.091456
 20
-1578.584593
 30
0.0
 11
3263.040428
 21
-1550.517572
 31
0.0
  0
LINE
  5
23A
  8
2
  6
CONTINUOUS
 10
3258.091459
 20
-1347.17305
 30
0.0
 11
3263.040428
 21
-1375.240072
 31
0.0
  0
LINE
  5
23B
  8
2
  6
CONTINUOUS
 10
3267.989405
 20
-1347.173052
 30
0.0
 11
3263.040428
 21
-1375.240072
 31
0.0
  0
TEXT
  5
23C
  8
2
  6
CONTINUOUS
 10
3259.040527
 20
-1533.078857
 30
0.0
 40
52.0
  1
１７５
 50
90.000003
 41
0.9
  7
MONOTXT
  0
ENDBLK
  5
23D
  8
0
  0
BLOCK
  5
23F
  8
2
  2
*D40
 70
    65
 10
0.0
 20
0.0
 30
0.0
  3
*D40
  1

  0
POINT
  5
240
  8
DEFPOINTS
 10
3151.821238
 20
-1550.517572
 30
0.0
  0
POINT
  5
241
  8
DEFPOINTS
 10
2965.900652
 20
-1255.542101
 30
0.0
  0
POINT
  5
242
  8
DEFPOINTS
 10
3350.423152
 20
-1385.999484
 30
0.0
  0
LINE
  5
243
  8
2
  6
CONTINUOUS
 10
3157.821238
 20
-1550.517572
 30
0.0
 11
3355.423152
 21
-1550.517572
 31
0.0
  0
LINE
  5
244
  8
2
  6
CONTINUOUS
 10
2971.900652
 20
-1255.542101
 30
0.0
 11
3355.423152
 21
-1255.542101
 31
0.0
  0
LINE
  5
245
  8
2
  6
CONTINUOUS
 10
3350.423152
 20
-1550.517572
 30
0.0
 11
3350.423152
 21
-1255.542101
 31
0.0
  0
LINE
  5
246
  8
2
  6
CONTINUOUS
 10
3345.474178
 20
-1522.450551
 30
0.0
 11
3350.423152
 21
-1550.517572
 31
0.0
  0
LINE
  5
247
  8
2
  6
CONTINUOUS
 10
3355.372124
 20
-1522.450551
 30
0.0
 11
3350.423152
 21
-1550.517572
 31
0.0
  0
LINE
  5
248
  8
2
  6
CONTINUOUS
 10
3355.372125
 20
-1283.609122
 30
0.0
 11
3350.423152
 21
-1255.542101
 31
0.0
  0
LINE
  5
249
  8
2
  6
CONTINUOUS
 10
3345.474179
 20
-1283.609122
 30
0.0
 11
3350.423152
 21
-1255.542101
 31
0.0
  0
TEXT
  5
24A
  8
2
  6
CONTINUOUS
 10
3346.423096
 20
-1473.229858
 30
0.0
 40
52.0
  1
２９０
 50
90.000003
 41
0.9
  7
MONOTXT
  0
ENDBLK
  5
24B
  8
0
  0
BLOCK
  5
24D
  8
2
  2
*D41
 70
    65
 10
0.0
 20
0.0
 30
0.0
  3
*D41
  1

  0
POINT
  5
24E
  8
DEFPOINTS
 10
2811.821238
 20
-1181.376047
 30
0.0
  0
POINT
  5
24F
  8
DEFPOINTS
 10
2936.864438
 20
-1230.690481
 30
0.0
  0
POINT
  5
250
  8
DEFPOINTS
 10
2970.719734
 20
-1014.939831
 30
0.0
  0
LINE
  5
251
  8
2
  6
CONTINUOUS
 10
2811.821238
 20
-1175.376047
 30
0.0
 11
2811.821238
 21
-1009.939831
 31
0.0
  0
LINE
  5
252
  8
2
  6
CONTINUOUS
 10
2936.864438
 20
-1224.690481
 30
0.0
 11
2936.864438
 21
-1009.939831
 31
0.0
  0
LINE
  5
253
  8
2
  6
CONTINUOUS
 10
2769.720705
 20
-1014.939831
 30
0.0
 11
3124.064435
 21
-1014.939831
 31
0.0
  0
LINE
  5
254
  8
2
  6
CONTINUOUS
 10
2783.754217
 20
-1019.888806
 30
0.0
 11
2811.821238
 21
-1014.939831
 31
0.0
  0
LINE
  5
255
  8
2
  6
CONTINUOUS
 10
2783.754216
 20
-1009.99086
 30
0.0
 11
2811.821238
 21
-1014.939831
 31
0.0
  0
LINE
  5
256
  8
2
  6
CONTINUOUS
 10
2964.931458
 20
-1009.990853
 30
0.0
 11
2936.864438
 21
-1014.939831
 31
0.0
  0
LINE
  5
257
  8
2
  6
CONTINUOUS
 10
2964.93146
 20
-1019.888799
 30
0.0
 11
2936.864438
 21
-1014.939831
 31
0.0
  0
TEXT
  5
258
  8
2
  6
CONTINUOUS
 10
2960.264404
 20
-1010.939819
 30
0.0
 40
52.0
  1
１２５
 41
0.9
  7
MONOTXT
  0
ENDBLK
  5
259
  8
0
  0
BLOCK
  5
25B
  8
2
  2
*D42
 70
    65
 10
0.0
 20
0.0
 30
0.0
  3
*D42
  1

  0
POINT
  5
25C
  8
DEFPOINTS
 10
2766.821309
 20
-1357.634002
 30
0.0
  0
POINT
  5
25D
  8
DEFPOINTS
 10
2811.821238
 20
-1117.287657
 30
0.0
  0
POINT
  5
25E
  8
DEFPOINTS
 10
2793.170738
 20
-1110.566695
 30
0.0
  0
LINE
  5
25F
  8
2
  6
CONTINUOUS
 10
2766.821309
 20
-1351.634002
 30
0.0
 11
2766.821309
 21
-1105.566695
 31
0.0
  0
LINE
  5
260
  8
2
  6
CONTINUOUS
 10
2811.821238
 20
-1111.287657
 30
0.0
 11
2811.821238
 21
-1105.566695
 31
0.0
  0
LINE
  5
261
  8
2
  6
CONTINUOUS
 10
2594.383367
 20
-1110.566695
 30
0.0
 11
2833.979412
 21
-1110.566695
 31
0.0
  0
LINE
  5
262
  8
2
  6
CONTINUOUS
 10
2738.754289
 20
-1115.515671
 30
0.0
 11
2766.821309
 21
-1110.566695
 31
0.0
  0
LINE
  5
263
  8
2
  6
CONTINUOUS
 10
2738.754288
 20
-1105.617725
 30
0.0
 11
2766.821309
 21
-1110.566695
 31
0.0
  0
CIRCLE
  5
264
  8
2
  6
CONTINUOUS
 10
2811.821238
 20
-1110.566695
 30
0.0
 40
3.75
  0
CIRCLE
  5
265
  8
2
  6
CONTINUOUS
 10
2811.821238
 20
-1110.566695
 30
0.0
 40
2.25
  0
TEXT
  5
266
  8
2
  6
CONTINUOUS
 10
2617.783447
 20
-1106.56665
 30
0.0
 40
52.0
  1
４５
 41
0.9
  7
MONOTXT
  0
ENDBLK
  5
267
  8
0
  0
BLOCK
  5
269
  8
2
  2
*D43
 70
    65
 10
0.0
 20
0.0
 30
0.0
  3
*D43
  1

  0
POINT
  5
26A
  8
DEFPOINTS
 10
3106.421238
 20
-1201.517572
 30
0.0
  0
POINT
  5
26B
  8
DEFPOINTS
 10
3151.821238
 20
-1550.517572
 30
0.0
  0
POINT
  5
26C
  8
DEFPOINTS
 10
3106.421238
 20
-901.193216
 30
0.0
  0
LINE
  5
26D
  8
2
  6
CONTINUOUS
 10
3106.421238
 20
-1195.517572
 30
0.0
 11
3106.421238
 21
-896.193216
 31
0.0
  0
LINE
  5
26E
  8
2
  6
CONTINUOUS
 10
3151.821238
 20
-1544.517572
 30
0.0
 11
3151.821238
 21
-896.193216
 31
0.0
  0
LINE
  5
26F
  8
2
  6
CONTINUOUS
 10
3064.320705
 20
-901.193216
 30
0.0
 11
3292.221232
 21
-901.193216
 31
0.0
  0
LINE
  5
270
  8
2
  6
CONTINUOUS
 10
3078.354217
 20
-906.142192
 30
0.0
 11
3106.421238
 21
-901.193216
 31
0.0
  0
LINE
  5
271
  8
2
  6
CONTINUOUS
 10
3078.354216
 20
-896.244246
 30
0.0
 11
3106.421238
 21
-901.193216
 31
0.0
  0
LINE
  5
272
  8
2
  6
CONTINUOUS
 10
3179.888258
 20
-896.244238
 30
0.0
 11
3151.821238
 21
-901.193216
 31
0.0
  0
LINE
  5
273
  8
2
  6
CONTINUOUS
 10
3179.88826
 20
-906.142184
 30
0.0
 11
3151.821238
 21
-901.193216
 31
0.0
  0
TEXT
  5
274
  8
2
  6
CONTINUOUS
 10
3175.221191
 20
-897.193237
 30
0.0
 40
52.0
  1
４０
 41
0.9
  7
MONOTXT
  0
ENDBLK
  5
275
  8
0
  0
BLOCK
  5
277
  8
2
  2
*D44
 70
    65
 10
0.0
 20
0.0
 30
0.0
  3
*D44
  1

  0
POINT
  5
278
  8
DEFPOINTS
 10
2471.821238
 20
-1550.517572
 30
0.0
  0
POINT
  5
279
  8
DEFPOINTS
 10
2517.221238
 20
-1201.517572
 30
0.0
  0
POINT
  5
27A
  8
DEFPOINTS
 10
2517.221238
 20
-901.193216
 30
0.0
  0
LINE
  5
27B
  8
2
  6
CONTINUOUS
 10
2471.821238
 20
-1544.517572
 30
0.0
 11
2471.821238
 21
-896.193216
 31
0.0
  0
LINE
  5
27C
  8
2
  6
CONTINUOUS
 10
2517.221238
 20
-1195.517572
 30
0.0
 11
2517.221238
 21
-896.193216
 31
0.0
  0
LINE
  5
27D
  8
2
  6
CONTINUOUS
 10
2331.421244
 20
-901.193216
 30
0.0
 11
2559.32177
 21
-901.193216
 31
0.0
  0
LINE
  5
27E
  8
2
  6
CONTINUOUS
 10
2443.754217
 20
-906.142192
 30
0.0
 11
2471.821238
 21
-901.193216
 31
0.0
  0
LINE
  5
27F
  8
2
  6
CONTINUOUS
 10
2443.754216
 20
-896.244246
 30
0.0
 11
2471.821238
 21
-901.193216
 31
0.0
  0
LINE
  5
280
  8
2
  6
CONTINUOUS
 10
2545.288258
 20
-896.244238
 30
0.0
 11
2517.221238
 21
-901.193216
 31
0.0
  0
LINE
  5
281
  8
2
  6
CONTINUOUS
 10
2545.28826
 20
-906.142184
 30
0.0
 11
2517.221238
 21
-901.193216
 31
0.0
  0
TEXT
  5
282
  8
2
  6
CONTINUOUS
 10
2354.821289
 20
-897.193237
 30
0.0
 40
52.0
  1
４０
 41
0.9
  7
MONOTXT
  0
ENDBLK
  5
283
  8
0
  0
BLOCK
  5
285
  8
1
  2
*U45
 70
    65
 10
0.0
 20
0.0
 30
0.0
  3
*U45
  1

  0
LINE
  5
286
  8
1
 10
1293.148095
 20
-2398.034271
 30
0.0
 11
1303.019162
 21
-2388.163203
 31
0.0
  0
LINE
  5
287
  8
1
 10
1279.00596
 20
-2398.034271
 30
0.0
 11
1303.019162
 21
-2374.021067
 31
0.0
  0
LINE
  5
288
  8
1
 10
1263.803164
 20
-2398.034271
 30
0.0
 11
1301.903162
 21
-2359.934271
 31
0.0
  0
LINE
  5
289
  8
1
 10
1249.661029
 20
-2398.034271
 30
0.0
 11
1287.761027
 21
-2359.934271
 31
0.0
  0
LINE
  5
28A
  8
1
 10
1235.518893
 20
-2398.034271
 30
0.0
 11
1273.618892
 21
-2359.934271
 31
0.0
  0
LINE
  5
28B
  8
1
 10
1221.376758
 20
-2398.034271
 30
0.0
 11
1259.476756
 21
-2359.934271
 31
0.0
  0
LINE
  5
28C
  8
1
 10
1207.234623
 20
-2398.034271
 30
0.0
 11
1245.334621
 21
-2359.934271
 31
0.0
  0
LINE
  5
28D
  8
1
 10
1194.419162
 20
-2396.707596
 30
0.0
 11
1231.192486
 21
-2359.934271
 31
0.0
  0
LINE
  5
28E
  8
1
 10
1194.419162
 20
-2382.56546
 30
0.0
 11
1217.050351
 21
-2359.934271
 31
0.0
  0
LINE
  5
28F
  8
1
 10
1194.419162
 20
-2368.423324
 30
0.0
 11
1202.908215
 21
-2359.934271
 31
0.0
  0
ENDBLK
  5
290
  8
0
  0
BLOCK
  5
292
  8
1
  2
*U46
 70
    65
 10
0.0
 20
0.0
 30
0.0
  3
*U46
  1

  0
LINE
  5
293
  8
1
 10
356.340227
 20
-2772.234271
 30
0.0
 11
385.318002
 21
-2743.256495
 31
0.0
  0
LINE
  5
294
  8
1
 10
313.913821
 20
-2772.234271
 30
0.0
 11
400.847145
 21
-2685.300943
 31
0.0
  0
LINE
  5
295
  8
1
 10
271.487415
 20
-2772.234271
 30
0.0
 11
416.376288
 21
-2627.345391
 31
0.0
  0
LINE
  5
296
  8
1
 10
229.061009
 20
-2772.234271
 30
0.0
 11
431.905432
 21
-2569.38984
 31
0.0
  0
LINE
  5
297
  8
1
 10
186.634603
 20
-2772.234271
 30
0.0
 11
446.634592
 21
-2512.234271
 31
0.0
  0
LINE
  5
298
  8
1
 10
144.208197
 20
-2772.234271
 30
0.0
 11
404.208186
 21
-2512.234271
 31
0.0
  0
LINE
  5
299
  8
1
 10
101.781791
 20
-2772.234271
 30
0.0
 11
361.78178
 21
-2512.234271
 31
0.0
  0
LINE
  5
29A
  8
1
 10
59.355385
 20
-2772.234271
 30
0.0
 11
319.355374
 21
-2512.234271
 31
0.0
  0
LINE
  5
29B
  8
1
 10
16.92898
 20
-2772.234271
 30
0.0
 11
276.928968
 21
-2512.234271
 31
0.0
  0
LINE
  5
29C
  8
1
 10
-25.497426
 20
-2772.234271
 30
0.0
 11
234.502562
 21
-2512.234271
 31
0.0
  0
LINE
  5
29D
  8
1
 10
-67.923832
 20
-2772.234271
 30
0.0
 11
192.076156
 21
-2512.234271
 31
0.0
  0
LINE
  5
29E
  8
1
 10
-110.350238
 20
-2772.234271
 30
0.0
 11
149.64975
 21
-2512.234271
 31
0.0
  0
LINE
  5
29F
  8
1
 10
-152.776644
 20
-2772.234271
 30
0.0
 11
107.223344
 21
-2512.234271
 31
0.0
  0
LINE
  5
2A0
  8
1
 10
-195.20305
 20
-2772.234271
 30
0.0
 11
64.796938
 21
-2512.234271
 31
0.0
  0
LINE
  5
2A1
  8
1
 10
-237.629456
 20
-2772.234271
 30
0.0
 11
22.370532
 21
-2512.234271
 31
0.0
  0
LINE
  5
2A2
  8
1
 10
-280.055862
 20
-2772.234271
 30
0.0
 11
-20.055873
 21
-2512.234271
 31
0.0
  0
LINE
  5
2A3
  8
1
 10
-322.482268
 20
-2772.234271
 30
0.0
 11
-62.482279
 21
-2512.234271
 31
0.0
  0
LINE
  5
2A4
  8
1
 10
-364.908674
 20
-2772.234271
 30
0.0
 11
-104.908685
 21
-2512.234271
 31
0.0
  0
LINE
  5
2A5
  8
1
 10
-407.33508
 20
-2772.234271
 30
0.0
 11
-147.335091
 21
-2512.234271
 31
0.0
  0
LINE
  5
2A6
  8
1
 10
-441.880838
 20
-2764.353622
 30
0.0
 11
-189.761497
 21
-2512.234271
 31
0.0
  0
LINE
  5
2A7
  8
1
 10
-441.880838
 20
-2721.927215
 30
0.0
 11
-232.187903
 21
-2512.234271
 31
0.0
  0
LINE
  5
2A8
  8
1
 10
-441.880838
 20
-2679.500807
 30
0.0
 11
-274.614309
 21
-2512.234271
 31
0.0
  0
LINE
  5
2A9
  8
1
 10
-441.880838
 20
-2637.074399
 30
0.0
 11
-317.040715
 21
-2512.234271
 31
0.0
  0
LINE
  5
2AA
  8
1
 10
-441.880838
 20
-2594.647991
 30
0.0
 11
-359.467121
 21
-2512.234271
 31
0.0
  0
LINE
  5
2AB
  8
1
 10
-441.880838
 20
-2552.221583
 30
0.0
 11
-401.893527
 21
-2512.234271
 31
0.0
  0
ENDBLK
  5
2AC
  8
0
  0
BLOCK
  5
2AE
  8
1
  2
*U47
 70
    65
 10
0.0
 20
0.0
 30
0.0
  3
*U47
  1

  0
CIRCLE
  5
2AF
  8
1
 10
-451.643061
 20
-2398.114493
 30
0.0
 40
0.888911
  0
CIRCLE
  5
2B0
  8
1
 10
-451.643061
 20
-2368.572407
 30
0.0
 40
0.888911
  0
CIRCLE
  5
2B1
  8
1
 10
-438.850963
 20
-2390.728971
 30
0.0
 40
0.888911
  0
CIRCLE
  5
2B2
  8
1
 10
-438.850963
 20
-2375.957928
 30
0.0
 40
0.888911
  0
CIRCLE
  5
2B3
  8
1
 10
-438.850963
 20
-2361.186885
 30
0.0
 40
0.888911
  0
CIRCLE
  5
2B4
  8
1
 10
-451.643061
 20
-2383.34345
 30
0.0
 40
0.888911
  0
ENDBLK
  5
2B5
  8
0
  0
BLOCK
  5
2B7
  8
1
  2
*U48
 70
    65
 10
0.0
 20
0.0
 30
0.0
  3
*U48
  1

  0
CIRCLE
  5
2B8
  8
1
 10
-426.058864
 20
-2398.114493
 30
0.0
 40
0.888911
  0
CIRCLE
  5
2B9
  8
1
 10
-426.058864
 20
-2368.572407
 30
0.0
 40
0.888911
  0
CIRCLE
  5
2BA
  8
1
 10
-413.266765
 20
-2390.728971
 30
0.0
 40
0.888911
  0
CIRCLE
  5
2BB
  8
1
 10
-413.266765
 20
-2375.957928
 30
0.0
 40
0.888911
  0
CIRCLE
  5
2BC
  8
1
 10
-413.266765
 20
-2361.186885
 30
0.0
 40
0.888911
  0
CIRCLE
  5
2BD
  8
1
 10
-426.058864
 20
-2383.34345
 30
0.0
 40
0.888911
  0
ENDBLK
  5
2BE
  8
0
  0
BLOCK
  5
2C0
  8
1
  2
*U49
 70
    65
 10
0.0
 20
0.0
 30
0.0
  3
*U49
  1

  0
CIRCLE
  5
2C1
  8
1
 10
-400.474666
 20
-2398.114493
 30
0.0
 40
0.888911
  0
CIRCLE
  5
2C2
  8
1
 10
-400.474666
 20
-2368.572407
 30
0.0
 40
0.888911
  0
CIRCLE
  5
2C3
  8
1
 10
-387.682568
 20
-2390.728971
 30
0.0
 40
0.888911
  0
CIRCLE
  5
2C4
  8
1
 10
-387.682568
 20
-2375.957928
 30
0.0
 40
0.888911
  0
CIRCLE
  5
2C5
  8
1
 10
-387.682568
 20
-2361.186885
 30
0.0
 40
0.888911
  0
CIRCLE
  5
2C6
  8
1
 10
-400.474666
 20
-2383.34345
 30
0.0
 40
0.888911
  0
ENDBLK
  5
2C7
  8
0
  0
BLOCK
  5
2C9
  8
1
  2
*U50
 70
    65
 10
0.0
 20
0.0
 30
0.0
  3
*U50
  1

  0
CIRCLE
  5
2CA
  8
1
 10
-374.890469
 20
-2398.114493
 30
0.0
 40
0.888911
  0
CIRCLE
  5
2CB
  8
1
 10
-374.890469
 20
-2368.572407
 30
0.0
 40
0.888911
  0
CIRCLE
  5
2CC
  8
1
 10
-362.09837
 20
-2390.728971
 30
0.0
 40
0.888911
  0
CIRCLE
  5
2CD
  8
1
 10
-362.09837
 20
-2375.957928
 30
0.0
 40
0.888911
  0
CIRCLE
  5
2CE
  8
1
 10
-362.09837
 20
-2361.186885
 30
0.0
 40
0.888911
  0
CIRCLE
  5
2CF
  8
1
 10
-374.890469
 20
-2383.34345
 30
0.0
 40
0.888911
  0
ENDBLK
  5
2D0
  8
0
  0
BLOCK
  5
2D2
  8
1
  2
*U51
 70
    65
 10
0.0
 20
0.0
 30
0.0
  3
*U51
  1

  0
CIRCLE
  5
2D3
  8
1
 10
-349.306272
 20
-2398.114493
 30
0.0
 40
0.888911
  0
CIRCLE
  5
2D4
  8
1
 10
-349.306272
 20
-2368.572407
 30
0.0
 40
0.888911
  0
CIRCLE
  5
2D5
  8
1
 10
-336.514173
 20
-2390.728971
 30
0.0
 40
0.888911
  0
CIRCLE
  5
2D6
  8
1
 10
-336.514173
 20
-2375.957928
 30
0.0
 40
0.888911
  0
CIRCLE
  5
2D7
  8
1
 10
-336.514173
 20
-2361.186885
 30
0.0
 40
0.888911
  0
CIRCLE
  5
2D8
  8
1
 10
-349.306272
 20
-2383.34345
 30
0.0
 40
0.888911
  0
ENDBLK
  5
2D9
  8
0
  0
BLOCK
  5
2DB
  8
1
  2
*U52
 70
    65
 10
0.0
 20
0.0
 30
0.0
  3
*U52
  1

  0
CIRCLE
  5
2DC
  8
1
 10
-323.722074
 20
-2398.114493
 30
0.0
 40
0.888911
  0
CIRCLE
  5
2DD
  8
1
 10
-323.722074
 20
-2368.572407
 30
0.0
 40
0.888911
  0
CIRCLE
  5
2DE
  8
1
 10
-310.929975
 20
-2390.728971
 30
0.0
 40
0.888911
  0
CIRCLE
  5
2DF
  8
1
 10
-310.929975
 20
-2375.957928
 30
0.0
 40
0.888911
  0
CIRCLE
  5
2E0
  8
1
 10
-310.929975
 20
-2361.186885
 30
0.0
 40
0.888911
  0
CIRCLE
  5
2E1
  8
1
 10
-323.722074
 20
-2383.34345
 30
0.0
 40
0.888911
  0
ENDBLK
  5
2E2
  8
0
  0
BLOCK
  5
2E4
  8
1
  2
*U53
 70
    65
 10
0.0
 20
0.0
 30
0.0
  3
*U53
  1

  0
CIRCLE
  5
2E5
  8
1
 10
-298.137877
 20
-2398.114493
 30
0.0
 40
0.888911
  0
CIRCLE
  5
2E6
  8
1
 10
-298.137877
 20
-2368.572407
 30
0.0
 40
0.888911
  0
CIRCLE
  5
2E7
  8
1
 10
-285.345778
 20
-2390.728971
 30
0.0
 40
0.888911
  0
CIRCLE
  5
2E8
  8
1
 10
-285.345778
 20
-2375.957928
 30
0.0
 40
0.888911
  0
CIRCLE
  5
2E9
  8
1
 10
-285.345778
 20
-2361.186885
 30
0.0
 40
0.888911
  0
CIRCLE
  5
2EA
  8
1
 10
-298.137877
 20
-2383.34345
 30
0.0
 40
0.888911
  0
ENDBLK
  5
2EB
  8
0
  0
BLOCK
  5
2ED
  8
1
  2
*U54
 70
    65
 10
0.0
 20
0.0
 30
0.0
  3
*U54
  1

  0
CIRCLE
  5
2EE
  8
1
 10
-272.553679
 20
-2398.114493
 30
0.0
 40
0.888911
  0
CIRCLE
  5
2EF
  8
1
 10
-272.553679
 20
-2368.572407
 30
0.0
 40
0.888911
  0
CIRCLE
  5
2F0
  8
1
 10
-259.761581
 20
-2390.728971
 30
0.0
 40
0.888911
  0
CIRCLE
  5
2F1
  8
1
 10
-259.761581
 20
-2375.957928
 30
0.0
 40
0.888911
  0
CIRCLE
  5
2F2
  8
1
 10
-259.761581
 20
-2361.186885
 30
0.0
 40
0.888911
  0
CIRCLE
  5
2F3
  8
1
 10
-272.553679
 20
-2383.34345
 30
0.0
 40
0.888911
  0
ENDBLK
  5
2F4
  8
0
  0
BLOCK
  5
2F6
  8
1
  2
*U55
 70
    65
 10
0.0
 20
0.0
 30
0.0
  3
*U55
  1

  0
CIRCLE
  5
2F7
  8
1
 10
-246.969482
 20
-2398.114493
 30
0.0
 40
0.888911
  0
CIRCLE
  5
2F8
  8
1
 10
-246.969482
 20
-2368.572407
 30
0.0
 40
0.888911
  0
CIRCLE
  5
2F9
  8
1
 10
-234.177383
 20
-2390.728971
 30
0.0
 40
0.888911
  0
CIRCLE
  5
2FA
  8
1
 10
-234.177383
 20
-2375.957928
 30
0.0
 40
0.888911
  0
CIRCLE
  5
2FB
  8
1
 10
-234.177383
 20
-2361.186885
 30
0.0
 40
0.888911
  0
CIRCLE
  5
2FC
  8
1
 10
-246.969482
 20
-2383.34345
 30
0.0
 40
0.888911
  0
ENDBLK
  5
2FD
  8
0
  0
BLOCK
  5
2FF
  8
1
  2
*U56
 70
    65
 10
0.0
 20
0.0
 30
0.0
  3
*U56
  1

  0
CIRCLE
  5
300
  8
1
 10
-221.385285
 20
-2398.114493
 30
0.0
 40
0.888911
  0
CIRCLE
  5
301
  8
1
 10
-221.385285
 20
-2368.572407
 30
0.0
 40
0.888911
  0
CIRCLE
  5
302
  8
1
 10
-208.593186
 20
-2390.728971
 30
0.0
 40
0.888911
  0
CIRCLE
  5
303
  8
1
 10
-208.593186
 20
-2375.957928
 30
0.0
 40
0.888911
  0
CIRCLE
  5
304
  8
1
 10
-208.593186
 20
-2361.186885
 30
0.0
 40
0.888911
  0
CIRCLE
  5
305
  8
1
 10
-221.385285
 20
-2383.34345
 30
0.0
 40
0.888911
  0
ENDBLK
  5
306
  8
0
  0
BLOCK
  5
308
  8
1
  2
*U57
 70
    65
 10
0.0
 20
0.0
 30
0.0
  3
*U57
  1

  0
CIRCLE
  5
309
  8
1
 10
-195.801087
 20
-2398.114493
 30
0.0
 40
0.888911
  0
CIRCLE
  5
30A
  8
1
 10
-195.801087
 20
-2368.572407
 30
0.0
 40
0.888911
  0
CIRCLE
  5
30B
  8
1
 10
-183.008988
 20
-2390.728971
 30
0.0
 40
0.888911
  0
CIRCLE
  5
30C
  8
1
 10
-183.008988
 20
-2375.957928
 30
0.0
 40
0.888911
  0
CIRCLE
  5
30D
  8
1
 10
-183.008988
 20
-2361.186885
 30
0.0
 40
0.888911
  0
CIRCLE
  5
30E
  8
1
 10
-195.801087
 20
-2383.34345
 30
0.0
 40
0.888911
  0
ENDBLK
  5
30F
  8
0
  0
BLOCK
  5
311
  8
1
  2
*U58
 70
    65
 10
0.0
 20
0.0
 30
0.0
  3
*U58
  1

  0
CIRCLE
  5
312
  8
1
 10
-170.21689
 20
-2398.114493
 30
0.0
 40
0.888911
  0
CIRCLE
  5
313
  8
1
 10
-170.21689
 20
-2368.572407
 30
0.0
 40
0.888911
  0
CIRCLE
  5
314
  8
1
 10
-157.424791
 20
-2390.728971
 30
0.0
 40
0.888911
  0
CIRCLE
  5
315
  8
1
 10
-157.424791
 20
-2375.957928
 30
0.0
 40
0.888911
  0
CIRCLE
  5
316
  8
1
 10
-157.424791
 20
-2361.186885
 30
0.0
 40
0.888911
  0
CIRCLE
  5
317
  8
1
 10
-170.21689
 20
-2383.34345
 30
0.0
 40
0.888911
  0
ENDBLK
  5
318
  8
0
  0
BLOCK
  5
31A
  8
1
  2
*U59
 70
    65
 10
0.0
 20
0.0
 30
0.0
  3
*U59
  1

  0
CIRCLE
  5
31B
  8
1
 10
-144.632692
 20
-2398.114493
 30
0.0
 40
0.888911
  0
CIRCLE
  5
31C
  8
1
 10
-144.632692
 20
-2368.572407
 30
0.0
 40
0.888911
  0
CIRCLE
  5
31D
  8
1
 10
-131.840594
 20
-2390.728971
 30
0.0
 40
0.888911
  0
CIRCLE
  5
31E
  8
1
 10
-131.840594
 20
-2375.957928
 30
0.0
 40
0.888911
  0
CIRCLE
  5
31F
  8
1
 10
-131.840594
 20
-2361.186885
 30
0.0
 40
0.888911
  0
CIRCLE
  5
320
  8
1
 10
-144.632692
 20
-2383.34345
 30
0.0
 40
0.888911
  0
ENDBLK
  5
321
  8
0
  0
BLOCK
  5
323
  8
1
  2
*U60
 70
    65
 10
0.0
 20
0.0
 30
0.0
  3
*U60
  1

  0
CIRCLE
  5
324
  8
1
 10
-119.048495
 20
-2398.114493
 30
0.0
 40
0.888911
  0
CIRCLE
  5
325
  8
1
 10
-119.048495
 20
-2368.572407
 30
0.0
 40
0.888911
  0
CIRCLE
  5
326
  8
1
 10
-106.256396
 20
-2390.728971
 30
0.0
 40
0.888911
  0
CIRCLE
  5
327
  8
1
 10
-106.256396
 20
-2375.957928
 30
0.0
 40
0.888911
  0
CIRCLE
  5
328
  8
1
 10
-106.256396
 20
-2361.186885
 30
0.0
 40
0.888911
  0
CIRCLE
  5
329
  8
1
 10
-119.048495
 20
-2383.34345
 30
0.0
 40
0.888911
  0
ENDBLK
  5
32A
  8
0
  0
BLOCK
  5
32C
  8
1
  2
*U61
 70
    65
 10
0.0
 20
0.0
 30
0.0
  3
*U61
  1

  0
CIRCLE
  5
32D
  8
1
 10
-93.464297
 20
-2398.114493
 30
0.0
 40
0.888911
  0
CIRCLE
  5
32E
  8
1
 10
-93.464297
 20
-2368.572407
 30
0.0
 40
0.888911
  0
CIRCLE
  5
32F
  8
1
 10
-80.672199
 20
-2390.728971
 30
0.0
 40
0.888911
  0
CIRCLE
  5
330
  8
1
 10
-80.672199
 20
-2375.957928
 30
0.0
 40
0.888911
  0
CIRCLE
  5
331
  8
1
 10
-80.672199
 20
-2361.186885
 30
0.0
 40
0.888911
  0
CIRCLE
  5
332
  8
1
 10
-93.464297
 20
-2383.34345
 30
0.0
 40
0.888911
  0
ENDBLK
  5
333
  8
0
  0
BLOCK
  5
335
  8
1
  2
*U62
 70
    65
 10
0.0
 20
0.0
 30
0.0
  3
*U62
  1

  0
CIRCLE
  5
336
  8
1
 10
-67.8801
 20
-2398.114493
 30
0.0
 40
0.888911
  0
CIRCLE
  5
337
  8
1
 10
-67.8801
 20
-2368.572407
 30
0.0
 40
0.888911
  0
CIRCLE
  5
338
  8
1
 10
-55.088001
 20
-2390.728971
 30
0.0
 40
0.888911
  0
CIRCLE
  5
339
  8
1
 10
-55.088001
 20
-2375.957928
 30
0.0
 40
0.888911
  0
CIRCLE
  5
33A
  8
1
 10
-55.088001
 20
-2361.186885
 30
0.0
 40
0.888911
  0
CIRCLE
  5
33B
  8
1
 10
-67.8801
 20
-2383.34345
 30
0.0
 40
0.888911
  0
ENDBLK
  5
33C
  8
0
  0
BLOCK
  5
33E
  8
1
  2
*U63
 70
    65
 10
0.0
 20
0.0
 30
0.0
  3
*U63
  1

  0
CIRCLE
  5
33F
  8
1
 10
-42.295903
 20
-2398.114493
 30
0.0
 40
0.888911
  0
CIRCLE
  5
340
  8
1
 10
-42.295903
 20
-2368.572407
 30
0.0
 40
0.888911
  0
CIRCLE
  5
341
  8
1
 10
-29.503804
 20
-2390.728971
 30
0.0
 40
0.888911
  0
CIRCLE
  5
342
  8
1
 10
-29.503804
 20
-2375.957928
 30
0.0
 40
0.888911
  0
CIRCLE
  5
343
  8
1
 10
-29.503804
 20
-2361.186885
 30
0.0
 40
0.888911
  0
CIRCLE
  5
344
  8
1
 10
-42.295903
 20
-2383.34345
 30
0.0
 40
0.888911
  0
ENDBLK
  5
345
  8
0
  0
BLOCK
  5
347
  8
1
  2
*U64
 70
    65
 10
0.0
 20
0.0
 30
0.0
  3
*U64
  1

  0
CIRCLE
  5
348
  8
1
 10
-16.711705
 20
-2398.114493
 30
0.0
 40
0.888911
  0
CIRCLE
  5
349
  8
1
 10
-16.711705
 20
-2368.572407
 30
0.0
 40
0.888911
  0
CIRCLE
  5
34A
  8
1
 10
-3.919607
 20
-2390.728971
 30
0.0
 40
0.888911
  0
CIRCLE
  5
34B
  8
1
 10
-3.919607
 20
-2375.957928
 30
0.0
 40
0.888911
  0
CIRCLE
  5
34C
  8
1
 10
-3.919607
 20
-2361.186885
 30
0.0
 40
0.888911
  0
CIRCLE
  5
34D
  8
1
 10
-16.711705
 20
-2383.34345
 30
0.0
 40
0.888911
  0
ENDBLK
  5
34E
  8
0
  0
BLOCK
  5
350
  8
1
  2
*U65
 70
    65
 10
0.0
 20
0.0
 30
0.0
  3
*U65
  1

  0
CIRCLE
  5
351
  8
1
 10
8.872492
 20
-2398.114493
 30
0.0
 40
0.888911
  0
CIRCLE
  5
352
  8
1
 10
8.872492
 20
-2368.572407
 30
0.0
 40
0.888911
  0
CIRCLE
  5
353
  8
1
 10
21.664591
 20
-2390.728971
 30
0.0
 40
0.888911
  0
CIRCLE
  5
354
  8
1
 10
21.664591
 20
-2375.957928
 30
0.0
 40
0.888911
  0
CIRCLE
  5
355
  8
1
 10
21.664591
 20
-2361.186885
 30
0.0
 40
0.888911
  0
CIRCLE
  5
356
  8
1
 10
8.872492
 20
-2383.34345
 30
0.0
 40
0.888911
  0
ENDBLK
  5
357
  8
0
  0
BLOCK
  5
359
  8
1
  2
*U66
 70
    65
 10
0.0
 20
0.0
 30
0.0
  3
*U66
  1

  0
CIRCLE
  5
35A
  8
1
 10
34.45669
 20
-2398.114493
 30
0.0
 40
0.888911
  0
CIRCLE
  5
35B
  8
1
 10
34.45669
 20
-2368.572407
 30
0.0
 40
0.888911
  0
CIRCLE
  5
35C
  8
1
 10
47.248788
 20
-2390.728971
 30
0.0
 40
0.888911
  0
CIRCLE
  5
35D
  8
1
 10
47.248788
 20
-2375.957928
 30
0.0
 40
0.888911
  0
CIRCLE
  5
35E
  8
1
 10
47.248788
 20
-2361.186885
 30
0.0
 40
0.888911
  0
CIRCLE
  5
35F
  8
1
 10
34.45669
 20
-2383.34345
 30
0.0
 40
0.888911
  0
ENDBLK
  5
360
  8
0
  0
BLOCK
  5
362
  8
1
  2
*U67
 70
    65
 10
0.0
 20
0.0
 30
0.0
  3
*U67
  1

  0
CIRCLE
  5
363
  8
1
 10
60.040887
 20
-2398.114493
 30
0.0
 40
0.888911
  0
CIRCLE
  5
364
  8
1
 10
60.040887
 20
-2368.572407
 30
0.0
 40
0.888911
  0
CIRCLE
  5
365
  8
1
 10
72.832986
 20
-2390.728971
 30
0.0
 40
0.888911
  0
CIRCLE
  5
366
  8
1
 10
72.832986
 20
-2375.957928
 30
0.0
 40
0.888911
  0
CIRCLE
  5
367
  8
1
 10
72.832986
 20
-2361.186885
 30
0.0
 40
0.888911
  0
CIRCLE
  5
368
  8
1
 10
60.040887
 20
-2383.34345
 30
0.0
 40
0.888911
  0
ENDBLK
  5
369
  8
0
  0
BLOCK
  5
36B
  8
1
  2
*U68
 70
    65
 10
0.0
 20
0.0
 30
0.0
  3
*U68
  1

  0
CIRCLE
  5
36C
  8
1
 10
85.625084
 20
-2398.114493
 30
0.0
 40
0.888911
  0
CIRCLE
  5
36D
  8
1
 10
85.625084
 20
-2368.572407
 30
0.0
 40
0.888911
  0
CIRCLE
  5
36E
  8
1
 10
98.417183
 20
-2390.728971
 30
0.0
 40
0.888911
  0
CIRCLE
  5
36F
  8
1
 10
98.417183
 20
-2375.957928
 30
0.0
 40
0.888911
  0
CIRCLE
  5
370
  8
1
 10
98.417183
 20
-2361.186885
 30
0.0
 40
0.888911
  0
CIRCLE
  5
371
  8
1
 10
85.625084
 20
-2383.34345
 30
0.0
 40
0.888911
  0
ENDBLK
  5
372
  8
0
  0
BLOCK
  5
374
  8
1
  2
*U69
 70
    65
 10
0.0
 20
0.0
 30
0.0
  3
*U69
  1

  0
CIRCLE
  5
375
  8
1
 10
111.209282
 20
-2398.114493
 30
0.0
 40
0.888911
  0
CIRCLE
  5
376
  8
1
 10
111.209282
 20
-2368.572407
 30
0.0
 40
0.888911
  0
CIRCLE
  5
377
  8
1
 10
124.001381
 20
-2390.728971
 30
0.0
 40
0.888911
  0
CIRCLE
  5
378
  8
1
 10
124.001381
 20
-2375.957928
 30
0.0
 40
0.888911
  0
CIRCLE
  5
379
  8
1
 10
124.001381
 20
-2361.186885
 30
0.0
 40
0.888911
  0
CIRCLE
  5
37A
  8
1
 10
111.209282
 20
-2383.34345
 30
0.0
 40
0.888911
  0
ENDBLK
  5
37B
  8
0
  0
BLOCK
  5
37D
  8
1
  2
*U70
 70
    65
 10
0.0
 20
0.0
 30
0.0
  3
*U70
  1

  0
CIRCLE
  5
37E
  8
1
 10
136.793479
 20
-2398.114493
 30
0.0
 40
0.888911
  0
CIRCLE
  5
37F
  8
1
 10
136.793479
 20
-2368.572407
 30
0.0
 40
0.888911
  0
CIRCLE
  5
380
  8
1
 10
149.585578
 20
-2390.728971
 30
0.0
 40
0.888911
  0
CIRCLE
  5
381
  8
1
 10
149.585578
 20
-2375.957928
 30
0.0
 40
0.888911
  0
CIRCLE
  5
382
  8
1
 10
149.585578
 20
-2361.186885
 30
0.0
 40
0.888911
  0
CIRCLE
  5
383
  8
1
 10
136.793479
 20
-2383.34345
 30
0.0
 40
0.888911
  0
ENDBLK
  5
384
  8
0
  0
BLOCK
  5
386
  8
1
  2
*U71
 70
    65
 10
0.0
 20
0.0
 30
0.0
  3
*U71
  1

  0
CIRCLE
  5
387
  8
1
 10
162.377677
 20
-2398.114493
 30
0.0
 40
0.888911
  0
CIRCLE
  5
388
  8
1
 10
162.377677
 20
-2368.572407
 30
0.0
 40
0.888911
  0
CIRCLE
  5
389
  8
1
 10
175.169775
 20
-2390.728971
 30
0.0
 40
0.888911
  0
CIRCLE
  5
38A
  8
1
 10
175.169775
 20
-2375.957928
 30
0.0
 40
0.888911
  0
CIRCLE
  5
38B
  8
1
 10
175.169775
 20
-2361.186885
 30
0.0
 40
0.888911
  0
CIRCLE
  5
38C
  8
1
 10
162.377677
 20
-2383.34345
 30
0.0
 40
0.888911
  0
ENDBLK
  5
38D
  8
0
  0
BLOCK
  5
38F
  8
1
  2
*U72
 70
    65
 10
0.0
 20
0.0
 30
0.0
  3
*U72
  1

  0
CIRCLE
  5
390
  8
1
 10
187.961874
 20
-2398.114493
 30
0.0
 40
0.888911
  0
CIRCLE
  5
391
  8
1
 10
187.961874
 20
-2368.572407
 30
0.0
 40
0.888911
  0
CIRCLE
  5
392
  8
1
 10
200.753973
 20
-2390.728971
 30
0.0
 40
0.888911
  0
CIRCLE
  5
393
  8
1
 10
200.753973
 20
-2375.957928
 30
0.0
 40
0.888911
  0
CIRCLE
  5
394
  8
1
 10
200.753973
 20
-2361.186885
 30
0.0
 40
0.888911
  0
CIRCLE
  5
395
  8
1
 10
187.961874
 20
-2383.34345
 30
0.0
 40
0.888911
  0
ENDBLK
  5
396
  8
0
  0
BLOCK
  5
398
  8
1
  2
*U73
 70
    65
 10
0.0
 20
0.0
 30
0.0
  3
*U73
  1

  0
CIRCLE
  5
399
  8
1
 10
213.546071
 20
-2398.114493
 30
0.0
 40
0.888911
  0
CIRCLE
  5
39A
  8
1
 10
213.546071
 20
-2368.572407
 30
0.0
 40
0.888911
  0
CIRCLE
  5
39B
  8
1
 10
226.33817
 20
-2390.728971
 30
0.0
 40
0.888911
  0
CIRCLE
  5
39C
  8
1
 10
226.33817
 20
-2375.957928
 30
0.0
 40
0.888911
  0
CIRCLE
  5
39D
  8
1
 10
226.33817
 20
-2361.186885
 30
0.0
 40
0.888911
  0
CIRCLE
  5
39E
  8
1
 10
213.546071
 20
-2383.34345
 30
0.0
 40
0.888911
  0
ENDBLK
  5
39F
  8
0
  0
BLOCK
  5
3A1
  8
1
  2
*U74
 70
    65
 10
0.0
 20
0.0
 30
0.0
  3
*U74
  1

  0
CIRCLE
  5
3A2
  8
1
 10
239.130269
 20
-2398.114493
 30
0.0
 40
0.888911
  0
CIRCLE
  5
3A3
  8
1
 10
239.130269
 20
-2368.572407
 30
0.0
 40
0.888911
  0
CIRCLE
  5
3A4
  8
1
 10
251.922368
 20
-2390.728971
 30
0.0
 40
0.888911
  0
CIRCLE
  5
3A5
  8
1
 10
251.922368
 20
-2375.957928
 30
0.0
 40
0.888911
  0
CIRCLE
  5
3A6
  8
1
 10
251.922368
 20
-2361.186885
 30
0.0
 40
0.888911
  0
CIRCLE
  5
3A7
  8
1
 10
239.130269
 20
-2383.34345
 30
0.0
 40
0.888911
  0
ENDBLK
  5
3A8
  8
0
  0
BLOCK
  5
3AA
  8
1
  2
*U75
 70
    65
 10
0.0
 20
0.0
 30
0.0
  3
*U75
  1

  0
CIRCLE
  5
3AB
  8
1
 10
264.714466
 20
-2398.114493
 30
0.0
 40
0.888911
  0
CIRCLE
  5
3AC
  8
1
 10
264.714466
 20
-2368.572407
 30
0.0
 40
0.888911
  0
CIRCLE
  5
3AD
  8
1
 10
277.506565
 20
-2390.728971
 30
0.0
 40
0.888911
  0
CIRCLE
  5
3AE
  8
1
 10
277.506565
 20
-2375.957928
 30
0.0
 40
0.888911
  0
CIRCLE
  5
3AF
  8
1
 10
277.506565
 20
-2361.186885
 30
0.0
 40
0.888911
  0
CIRCLE
  5
3B0
  8
1
 10
264.714466
 20
-2383.34345
 30
0.0
 40
0.888911
  0
ENDBLK
  5
3B1
  8
0
  0
BLOCK
  5
3B3
  8
1
  2
*U76
 70
    65
 10
0.0
 20
0.0
 30
0.0
  3
*U76
  1

  0
CIRCLE
  5
3B4
  8
1
 10
290.298664
 20
-2398.114493
 30
0.0
 40
0.888911
  0
CIRCLE
  5
3B5
  8
1
 10
290.298664
 20
-2368.572407
 30
0.0
 40
0.888911
  0
CIRCLE
  5
3B6
  8
1
 10
303.090762
 20
-2390.728971
 30
0.0
 40
0.888911
  0
CIRCLE
  5
3B7
  8
1
 10
303.090762
 20
-2375.957928
 30
0.0
 40
0.888911
  0
CIRCLE
  5
3B8
  8
1
 10
303.090762
 20
-2361.186885
 30
0.0
 40
0.888911
  0
CIRCLE
  5
3B9
  8
1
 10
290.298664
 20
-2383.34345
 30
0.0
 40
0.888911
  0
ENDBLK
  5
3BA
  8
0
  0
BLOCK
  5
3BC
  8
1
  2
*U77
 70
    65
 10
0.0
 20
0.0
 30
0.0
  3
*U77
  1

  0
CIRCLE
  5
3BD
  8
1
 10
315.882861
 20
-2398.114493
 30
0.0
 40
0.888911
  0
CIRCLE
  5
3BE
  8
1
 10
315.882861
 20
-2368.572407
 30
0.0
 40
0.888911
  0
CIRCLE
  5
3BF
  8
1
 10
328.67496
 20
-2390.728971
 30
0.0
 40
0.888911
  0
CIRCLE
  5
3C0
  8
1
 10
328.67496
 20
-2375.957928
 30
0.0
 40
0.888911
  0
CIRCLE
  5
3C1
  8
1
 10
328.67496
 20
-2361.186885
 30
0.0
 40
0.888911
  0
CIRCLE
  5
3C2
  8
1
 10
315.882861
 20
-2383.34345
 30
0.0
 40
0.888911
  0
ENDBLK
  5
3C3
  8
0
  0
BLOCK
  5
3C5
  8
1
  2
*U78
 70
    65
 10
0.0
 20
0.0
 30
0.0
  3
*U78
  1

  0
CIRCLE
  5
3C6
  8
1
 10
341.467059
 20
-2398.114493
 30
0.0
 40
0.888911
  0
CIRCLE
  5
3C7
  8
1
 10
341.467059
 20
-2368.572407
 30
0.0
 40
0.888911
  0
CIRCLE
  5
3C8
  8
1
 10
354.259157
 20
-2390.728971
 30
0.0
 40
0.888911
  0
CIRCLE
  5
3C9
  8
1
 10
354.259157
 20
-2375.957928
 30
0.0
 40
0.888911
  0
CIRCLE
  5
3CA
  8
1
 10
354.259157
 20
-2361.186885
 30
0.0
 40
0.888911
  0
CIRCLE
  5
3CB
  8
1
 10
341.467059
 20
-2383.34345
 30
0.0
 40
0.888911
  0
ENDBLK
  5
3CC
  8
0
  0
BLOCK
  5
3CE
  8
1
  2
*U79
 70
    65
 10
0.0
 20
0.0
 30
0.0
  3
*U79
  1

  0
CIRCLE
  5
3CF
  8
1
 10
367.051256
 20
-2398.114493
 30
0.0
 40
0.888911
  0
CIRCLE
  5
3D0
  8
1
 10
367.051256
 20
-2368.572407
 30
0.0
 40
0.888911
  0
CIRCLE
  5
3D1
  8
1
 10
379.843355
 20
-2390.728971
 30
0.0
 40
0.888911
  0
CIRCLE
  5
3D2
  8
1
 10
379.843355
 20
-2375.957928
 30
0.0
 40
0.888911
  0
CIRCLE
  5
3D3
  8
1
 10
379.843355
 20
-2361.186885
 30
0.0
 40
0.888911
  0
CIRCLE
  5
3D4
  8
1
 10
367.051256
 20
-2383.34345
 30
0.0
 40
0.888911
  0
ENDBLK
  5
3D5
  8
0
  0
BLOCK
  5
3D7
  8
1
  2
*U80
 70
    65
 10
0.0
 20
0.0
 30
0.0
  3
*U80
  1

  0
CIRCLE
  5
3D8
  8
1
 10
392.635453
 20
-2398.114493
 30
0.0
 40
0.888911
  0
CIRCLE
  5
3D9
  8
1
 10
392.635453
 20
-2368.572407
 30
0.0
 40
0.888911
  0
CIRCLE
  5
3DA
  8
1
 10
405.427552
 20
-2390.728971
 30
0.0
 40
0.888911
  0
CIRCLE
  5
3DB
  8
1
 10
405.427552
 20
-2375.957928
 30
0.0
 40
0.888911
  0
CIRCLE
  5
3DC
  8
1
 10
405.427552
 20
-2361.186885
 30
0.0
 40
0.888911
  0
CIRCLE
  5
3DD
  8
1
 10
392.635453
 20
-2383.34345
 30
0.0
 40
0.888911
  0
ENDBLK
  5
3DE
  8
0
  0
BLOCK
  5
3E0
  8
1
  2
*U81
 70
    65
 10
0.0
 20
0.0
 30
0.0
  3
*U81
  1

  0
CIRCLE
  5
3E1
  8
1
 10
418.219651
 20
-2398.114493
 30
0.0
 40
0.888911
  0
CIRCLE
  5
3E2
  8
1
 10
418.219651
 20
-2368.572407
 30
0.0
 40
0.888911
  0
CIRCLE
  5
3E3
  8
1
 10
431.011749
 20
-2390.728971
 30
0.0
 40
0.888911
  0
CIRCLE
  5
3E4
  8
1
 10
431.011749
 20
-2375.957928
 30
0.0
 40
0.888911
  0
CIRCLE
  5
3E5
  8
1
 10
431.011749
 20
-2361.186885
 30
0.0
 40
0.888911
  0
CIRCLE
  5
3E6
  8
1
 10
418.219651
 20
-2383.34345
 30
0.0
 40
0.888911
  0
ENDBLK
  5
3E7
  8
0
  0
BLOCK
  5
3E9
  8
1
  2
*U82
 70
    65
 10
0.0
 20
0.0
 30
0.0
  3
*U82
  1

  0
CIRCLE
  5
3EA
  8
1
 10
443.803848
 20
-2398.114493
 30
0.0
 40
0.888911
  0
CIRCLE
  5
3EB
  8
1
 10
443.803848
 20
-2368.572407
 30
0.0
 40
0.888911
  0
CIRCLE
  5
3EC
  8
1
 10
456.595947
 20
-2390.728971
 30
0.0
 40
0.888911
  0
CIRCLE
  5
3ED
  8
1
 10
456.595947
 20
-2375.957928
 30
0.0
 40
0.888911
  0
CIRCLE
  5
3EE
  8
1
 10
456.595947
 20
-2361.186885
 30
0.0
 40
0.888911
  0
CIRCLE
  5
3EF
  8
1
 10
443.803848
 20
-2383.34345
 30
0.0
 40
0.888911
  0
ENDBLK
  5
3F0
  8
0
  0
BLOCK
  5
3F2
  8
1
  2
*U83
 70
    65
 10
0.0
 20
0.0
 30
0.0
  3
*U83
  1

  0
CIRCLE
  5
3F3
  8
1
 10
469.388046
 20
-2398.114493
 30
0.0
 40
0.888911
  0
CIRCLE
  5
3F4
  8
1
 10
469.388046
 20
-2368.572407
 30
0.0
 40
0.888911
  0
CIRCLE
  5
3F5
  8
1
 10
482.180144
 20
-2390.728971
 30
0.0
 40
0.888911
  0
CIRCLE
  5
3F6
  8
1
 10
482.180144
 20
-2375.957928
 30
0.0
 40
0.888911
  0
CIRCLE
  5
3F7
  8
1
 10
482.180144
 20
-2361.186885
 30
0.0
 40
0.888911
  0
CIRCLE
  5
3F8
  8
1
 10
469.388046
 20
-2383.34345
 30
0.0
 40
0.888911
  0
ENDBLK
  5
3F9
  8
0
  0
BLOCK
  5
3FB
  8
1
  2
*U84
 70
    65
 10
0.0
 20
0.0
 30
0.0
  3
*U84
  1

  0
CIRCLE
  5
3FC
  8
1
 10
494.972243
 20
-2398.114493
 30
0.0
 40
0.888911
  0
CIRCLE
  5
3FD
  8
1
 10
494.972243
 20
-2368.572407
 30
0.0
 40
0.888911
  0
CIRCLE
  5
3FE
  8
1
 10
507.764342
 20
-2390.728971
 30
0.0
 40
0.888911
  0
CIRCLE
  5
3FF
  8
1
 10
507.764342
 20
-2375.957928
 30
0.0
 40
0.888911
  0
CIRCLE
  5
400
  8
1
 10
507.764342
 20
-2361.186885
 30
0.0
 40
0.888911
  0
CIRCLE
  5
401
  8
1
 10
494.972243
 20
-2383.34345
 30
0.0
 40
0.888911
  0
ENDBLK
  5
402
  8
0
  0
BLOCK
  5
404
  8
1
  2
*U85
 70
    65
 10
0.0
 20
0.0
 30
0.0
  3
*U85
  1

  0
CIRCLE
  5
405
  8
1
 10
520.55644
 20
-2398.114493
 30
0.0
 40
0.888911
  0
CIRCLE
  5
406
  8
1
 10
520.55644
 20
-2368.572407
 30
0.0
 40
0.888911
  0
CIRCLE
  5
407
  8
1
 10
533.348539
 20
-2390.728971
 30
0.0
 40
0.888911
  0
CIRCLE
  5
408
  8
1
 10
533.348539
 20
-2375.957928
 30
0.0
 40
0.888911
  0
CIRCLE
  5
409
  8
1
 10
533.348539
 20
-2361.186885
 30
0.0
 40
0.888911
  0
CIRCLE
  5
40A
  8
1
 10
520.55644
 20
-2383.34345
 30
0.0
 40
0.888911
  0
ENDBLK
  5
40B
  8
0
  0
BLOCK
  5
40D
  8
1
  2
*U86
 70
    65
 10
0.0
 20
0.0
 30
0.0
  3
*U86
  1

  0
CIRCLE
  5
40E
  8
1
 10
546.140638
 20
-2398.114493
 30
0.0
 40
0.888911
  0
CIRCLE
  5
40F
  8
1
 10
546.140638
 20
-2368.572407
 30
0.0
 40
0.888911
  0
CIRCLE
  5
410
  8
1
 10
558.932737
 20
-2390.728971
 30
0.0
 40
0.888911
  0
CIRCLE
  5
411
  8
1
 10
558.932737
 20
-2375.957928
 30
0.0
 40
0.888911
  0
CIRCLE
  5
412
  8
1
 10
558.932737
 20
-2361.186885
 30
0.0
 40
0.888911
  0
CIRCLE
  5
413
  8
1
 10
546.140638
 20
-2383.34345
 30
0.0
 40
0.888911
  0
ENDBLK
  5
414
  8
0
  0
BLOCK
  5
416
  8
1
  2
*U87
 70
    65
 10
0.0
 20
0.0
 30
0.0
  3
*U87
  1

  0
CIRCLE
  5
417
  8
1
 10
571.724835
 20
-2398.114493
 30
0.0
 40
0.888911
  0
CIRCLE
  5
418
  8
1
 10
571.724835
 20
-2368.572407
 30
0.0
 40
0.888911
  0
CIRCLE
  5
419
  8
1
 10
584.516934
 20
-2390.728971
 30
0.0
 40
0.888911
  0
CIRCLE
  5
41A
  8
1
 10
584.516934
 20
-2375.957928
 30
0.0
 40
0.888911
  0
CIRCLE
  5
41B
  8
1
 10
584.516934
 20
-2361.186885
 30
0.0
 40
0.888911
  0
CIRCLE
  5
41C
  8
1
 10
571.724835
 20
-2383.34345
 30
0.0
 40
0.888911
  0
ENDBLK
  5
41D
  8
0
  0
BLOCK
  5
41F
  8
1
  2
*U88
 70
    65
 10
0.0
 20
0.0
 30
0.0
  3
*U88
  1

  0
CIRCLE
  5
420
  8
1
 10
597.309033
 20
-2398.114493
 30
0.0
 40
0.888911
  0
CIRCLE
  5
421
  8
1
 10
597.309033
 20
-2368.572407
 30
0.0
 40
0.888911
  0
CIRCLE
  5
422
  8
1
 10
610.101131
 20
-2390.728971
 30
0.0
 40
0.888911
  0
CIRCLE
  5
423
  8
1
 10
610.101131
 20
-2375.957928
 30
0.0
 40
0.888911
  0
CIRCLE
  5
424
  8
1
 10
610.101131
 20
-2361.186885
 30
0.0
 40
0.888911
  0
CIRCLE
  5
425
  8
1
 10
597.309033
 20
-2383.34345
 30
0.0
 40
0.888911
  0
ENDBLK
  5
426
  8
0
  0
BLOCK
  5
428
  8
1
  2
*U89
 70
    65
 10
0.0
 20
0.0
 30
0.0
  3
*U89
  1

  0
CIRCLE
  5
429
  8
1
 10
622.89323
 20
-2398.114493
 30
0.0
 40
0.888911
  0
CIRCLE
  5
42A
  8
1
 10
622.89323
 20
-2368.572407
 30
0.0
 40
0.888911
  0
CIRCLE
  5
42B
  8
1
 10
635.685329
 20
-2390.728971
 30
0.0
 40
0.888911
  0
CIRCLE
  5
42C
  8
1
 10
635.685329
 20
-2375.957928
 30
0.0
 40
0.888911
  0
CIRCLE
  5
42D
  8
1
 10
635.685329
 20
-2361.186885
 30
0.0
 40
0.888911
  0
CIRCLE
  5
42E
  8
1
 10
622.89323
 20
-2383.34345
 30
0.0
 40
0.888911
  0
ENDBLK
  5
42F
  8
0
  0
BLOCK
  5
431
  8
1
  2
*U90
 70
    65
 10
0.0
 20
0.0
 30
0.0
  3
*U90
  1

  0
CIRCLE
  5
432
  8
1
 10
648.477427
 20
-2398.114493
 30
0.0
 40
0.888911
  0
CIRCLE
  5
433
  8
1
 10
648.477427
 20
-2368.572407
 30
0.0
 40
0.888911
  0
CIRCLE
  5
434
  8
1
 10
661.269526
 20
-2390.728971
 30
0.0
 40
0.888911
  0
CIRCLE
  5
435
  8
1
 10
661.269526
 20
-2375.957928
 30
0.0
 40
0.888911
  0
CIRCLE
  5
436
  8
1
 10
661.269526
 20
-2361.186885
 30
0.0
 40
0.888911
  0
CIRCLE
  5
437
  8
1
 10
648.477427
 20
-2383.34345
 30
0.0
 40
0.888911
  0
ENDBLK
  5
438
  8
0
  0
BLOCK
  5
43A
  8
1
  2
*U91
 70
    65
 10
0.0
 20
0.0
 30
0.0
  3
*U91
  1

  0
CIRCLE
  5
43B
  8
1
 10
-467.769073
 20
-2478.744551
 30
0.0
 40
0.888911
  0
CIRCLE
  5
43C
  8
1
 10
-467.769073
 20
-2449.202465
 30
0.0
 40
0.888911
  0
CIRCLE
  5
43D
  8
1
 10
-454.976974
 20
-2471.35903
 30
0.0
 40
0.888911
  0
CIRCLE
  5
43E
  8
1
 10
-454.976974
 20
-2456.587986
 30
0.0
 40
0.888911
  0
CIRCLE
  5
43F
  8
1
 10
-467.769073
 20
-2463.973508
 30
0.0
 40
0.888911
  0
ENDBLK
  5
440
  8
0
  0
BLOCK
  5
442
  8
1
  2
*U92
 70
    65
 10
0.0
 20
0.0
 30
0.0
  3
*U92
  1

  0
CIRCLE
  5
443
  8
1
 10
-442.184875
 20
-2478.744551
 30
0.0
 40
0.888911
  0
CIRCLE
  5
444
  8
1
 10
-442.184875
 20
-2449.202465
 30
0.0
 40
0.888911
  0
CIRCLE
  5
445
  8
1
 10
-429.392777
 20
-2471.35903
 30
0.0
 40
0.888911
  0
CIRCLE
  5
446
  8
1
 10
-429.392777
 20
-2456.587986
 30
0.0
 40
0.888911
  0
CIRCLE
  5
447
  8
1
 10
-442.184875
 20
-2463.973508
 30
0.0
 40
0.888911
  0
ENDBLK
  5
448
  8
0
  0
BLOCK
  5
44A
  8
1
  2
*U93
 70
    65
 10
0.0
 20
0.0
 30
0.0
  3
*U93
  1

  0
CIRCLE
  5
44B
  8
1
 10
-416.600678
 20
-2478.744551
 30
0.0
 40
0.888911
  0
CIRCLE
  5
44C
  8
1
 10
-416.600678
 20
-2449.202465
 30
0.0
 40
0.888911
  0
CIRCLE
  5
44D
  8
1
 10
-403.808579
 20
-2471.35903
 30
0.0
 40
0.888911
  0
CIRCLE
  5
44E
  8
1
 10
-403.808579
 20
-2456.587986
 30
0.0
 40
0.888911
  0
CIRCLE
  5
44F
  8
1
 10
-416.600678
 20
-2463.973508
 30
0.0
 40
0.888911
  0
ENDBLK
  5
450
  8
0
  0
BLOCK
  5
452
  8
1
  2
*U94
 70
    65
 10
0.0
 20
0.0
 30
0.0
  3
*U94
  1

  0
CIRCLE
  5
453
  8
1
 10
-391.016481
 20
-2478.744551
 30
0.0
 40
0.888911
  0
CIRCLE
  5
454
  8
1
 10
-391.016481
 20
-2449.202465
 30
0.0
 40
0.888911
  0
CIRCLE
  5
455
  8
1
 10
-378.224382
 20
-2471.35903
 30
0.0
 40
0.888911
  0
CIRCLE
  5
456
  8
1
 10
-378.224382
 20
-2456.587986
 30
0.0
 40
0.888911
  0
CIRCLE
  5
457
  8
1
 10
-391.016481
 20
-2463.973508
 30
0.0
 40
0.888911
  0
ENDBLK
  5
458
  8
0
  0
BLOCK
  5
45A
  8
1
  2
*U95
 70
    65
 10
0.0
 20
0.0
 30
0.0
  3
*U95
  1

  0
CIRCLE
  5
45B
  8
1
 10
-365.432283
 20
-2478.744551
 30
0.0
 40
0.888911
  0
CIRCLE
  5
45C
  8
1
 10
-365.432283
 20
-2449.202465
 30
0.0
 40
0.888911
  0
CIRCLE
  5
45D
  8
1
 10
-352.640185
 20
-2471.35903
 30
0.0
 40
0.888911
  0
CIRCLE
  5
45E
  8
1
 10
-352.640185
 20
-2456.587986
 30
0.0
 40
0.888911
  0
CIRCLE
  5
45F
  8
1
 10
-365.432283
 20
-2463.973508
 30
0.0
 40
0.888911
  0
ENDBLK
  5
460
  8
0
  0
BLOCK
  5
462
  8
1
  2
*U96
 70
    65
 10
0.0
 20
0.0
 30
0.0
  3
*U96
  1

  0
CIRCLE
  5
463
  8
1
 10
-339.848086
 20
-2478.744551
 30
0.0
 40
0.888911
  0
CIRCLE
  5
464
  8
1
 10
-339.848086
 20
-2449.202465
 30
0.0
 40
0.888911
  0
CIRCLE
  5
465
  8
1
 10
-327.055987
 20
-2471.35903
 30
0.0
 40
0.888911
  0
CIRCLE
  5
466
  8
1
 10
-327.055987
 20
-2456.587986
 30
0.0
 40
0.888911
  0
CIRCLE
  5
467
  8
1
 10
-339.848086
 20
-2463.973508
 30
0.0
 40
0.888911
  0
ENDBLK
  5
468
  8
0
  0
BLOCK
  5
46A
  8
1
  2
*U97
 70
    65
 10
0.0
 20
0.0
 30
0.0
  3
*U97
  1

  0
CIRCLE
  5
46B
  8
1
 10
-314.263888
 20
-2478.744551
 30
0.0
 40
0.888911
  0
CIRCLE
  5
46C
  8
1
 10
-314.263888
 20
-2449.202465
 30
0.0
 40
0.888911
  0
CIRCLE
  5
46D
  8
1
 10
-301.47179
 20
-2471.35903
 30
0.0
 40
0.888911
  0
CIRCLE
  5
46E
  8
1
 10
-301.47179
 20
-2456.587986
 30
0.0
 40
0.888911
  0
CIRCLE
  5
46F
  8
1
 10
-314.263888
 20
-2463.973508
 30
0.0
 40
0.888911
  0
ENDBLK
  5
470
  8
0
  0
BLOCK
  5
472
  8
1
  2
*U98
 70
    65
 10
0.0
 20
0.0
 30
0.0
  3
*U98
  1

  0
CIRCLE
  5
473
  8
1
 10
-288.679691
 20
-2478.744551
 30
0.0
 40
0.888911
  0
CIRCLE
  5
474
  8
1
 10
-288.679691
 20
-2449.202465
 30
0.0
 40
0.888911
  0
CIRCLE
  5
475
  8
1
 10
-275.887592
 20
-2471.35903
 30
0.0
 40
0.888911
  0
CIRCLE
  5
476
  8
1
 10
-275.887592
 20
-2456.587986
 30
0.0
 40
0.888911
  0
CIRCLE
  5
477
  8
1
 10
-288.679691
 20
-2463.973508
 30
0.0
 40
0.888911
  0
ENDBLK
  5
478
  8
0
  0
BLOCK
  5
47A
  8
1
  2
*U99
 70
    65
 10
0.0
 20
0.0
 30
0.0
  3
*U99
  1

  0
CIRCLE
  5
47B
  8
1
 10
-263.095494
 20
-2478.744551
 30
0.0
 40
0.888911
  0
CIRCLE
  5
47C
  8
1
 10
-263.095494
 20
-2449.202465
 30
0.0
 40
0.888911
  0
CIRCLE
  5
47D
  8
1
 10
-250.303395
 20
-2471.35903
 30
0.0
 40
0.888911
  0
CIRCLE
  5
47E
  8
1
 10
-250.303395
 20
-2456.587986
 30
0.0
 40
0.888911
  0
CIRCLE
  5
47F
  8
1
 10
-263.095494
 20
-2463.973508
 30
0.0
 40
0.888911
  0
ENDBLK
  5
480
  8
0
  0
BLOCK
  5
482
  8
1
  2
*U100
 70
    65
 10
0.0
 20
0.0
 30
0.0
  3
*U100
  1

  0
CIRCLE
  5
483
  8
1
 10
-237.511296
 20
-2478.744551
 30
0.0
 40
0.888911
  0
CIRCLE
  5
484
  8
1
 10
-237.511296
 20
-2449.202465
 30
0.0
 40
0.888911
  0
CIRCLE
  5
485
  8
1
 10
-224.719197
 20
-2471.35903
 30
0.0
 40
0.888911
  0
CIRCLE
  5
486
  8
1
 10
-224.719197
 20
-2456.587986
 30
0.0
 40
0.888911
  0
CIRCLE
  5
487
  8
1
 10
-237.511296
 20
-2463.973508
 30
0.0
 40
0.888911
  0
ENDBLK
  5
488
  8
0
  0
BLOCK
  5
48A
  8
1
  2
*U101
 70
    65
 10
0.0
 20
0.0
 30
0.0
  3
*U101
  1

  0
CIRCLE
  5
48B
  8
1
 10
-211.927099
 20
-2478.744551
 30
0.0
 40
0.888911
  0
CIRCLE
  5
48C
  8
1
 10
-211.927099
 20
-2449.202465
 30
0.0
 40
0.888911
  0
CIRCLE
  5
48D
  8
1
 10
-199.135
 20
-2471.35903
 30
0.0
 40
0.888911
  0
CIRCLE
  5
48E
  8
1
 10
-199.135
 20
-2456.587986
 30
0.0
 40
0.888911
  0
CIRCLE
  5
48F
  8
1
 10
-211.927099
 20
-2463.973508
 30
0.0
 40
0.888911
  0
ENDBLK
  5
490
  8
0
  0
BLOCK
  5
492
  8
1
  2
*U102
 70
    65
 10
0.0
 20
0.0
 30
0.0
  3
*U102
  1

  0
CIRCLE
  5
493
  8
1
 10
-186.342901
 20
-2478.744551
 30
0.0
 40
0.888911
  0
CIRCLE
  5
494
  8
1
 10
-186.342901
 20
-2449.202465
 30
0.0
 40
0.888911
  0
CIRCLE
  5
495
  8
1
 10
-173.550803
 20
-2471.35903
 30
0.0
 40
0.888911
  0
CIRCLE
  5
496
  8
1
 10
-173.550803
 20
-2456.587986
 30
0.0
 40
0.888911
  0
CIRCLE
  5
497
  8
1
 10
-186.342901
 20
-2463.973508
 30
0.0
 40
0.888911
  0
ENDBLK
  5
498
  8
0
  0
BLOCK
  5
49A
  8
1
  2
*U103
 70
    65
 10
0.0
 20
0.0
 30
0.0
  3
*U103
  1

  0
CIRCLE
  5
49B
  8
1
 10
-160.758704
 20
-2478.744551
 30
0.0
 40
0.888911
  0
CIRCLE
  5
49C
  8
1
 10
-160.758704
 20
-2449.202465
 30
0.0
 40
0.888911
  0
CIRCLE
  5
49D
  8
1
 10
-147.966605
 20
-2471.35903
 30
0.0
 40
0.888911
  0
CIRCLE
  5
49E
  8
1
 10
-147.966605
 20
-2456.587986
 30
0.0
 40
0.888911
  0
CIRCLE
  5
49F
  8
1
 10
-160.758704
 20
-2463.973508
 30
0.0
 40
0.888911
  0
ENDBLK
  5
4A0
  8
0
  0
BLOCK
  5
4A2
  8
1
  2
*U104
 70
    65
 10
0.0
 20
0.0
 30
0.0
  3
*U104
  1

  0
CIRCLE
  5
4A3
  8
1
 10
-135.174507
 20
-2478.744551
 30
0.0
 40
0.888911
  0
CIRCLE
  5
4A4
  8
1
 10
-135.174507
 20
-2449.202465
 30
0.0
 40
0.888911
  0
CIRCLE
  5
4A5
  8
1
 10
-122.382408
 20
-2471.35903
 30
0.0
 40
0.888911
  0
CIRCLE
  5
4A6
  8
1
 10
-122.382408
 20
-2456.587986
 30
0.0
 40
0.888911
  0
CIRCLE
  5
4A7
  8
1
 10
-135.174507
 20
-2463.973508
 30
0.0
 40
0.888911
  0
ENDBLK
  5
4A8
  8
0
  0
BLOCK
  5
4AA
  8
1
  2
*U105
 70
    65
 10
0.0
 20
0.0
 30
0.0
  3
*U105
  1

  0
CIRCLE
  5
4AB
  8
1
 10
-109.590309
 20
-2478.744551
 30
0.0
 40
0.888911
  0
CIRCLE
  5
4AC
  8
1
 10
-109.590309
 20
-2449.202465
 30
0.0
 40
0.888911
  0
CIRCLE
  5
4AD
  8
1
 10
-96.79821
 20
-2471.35903
 30
0.0
 40
0.888911
  0
CIRCLE
  5
4AE
  8
1
 10
-96.79821
 20
-2456.587986
 30
0.0
 40
0.888911
  0
CIRCLE
  5
4AF
  8
1
 10
-109.590309
 20
-2463.973508
 30
0.0
 40
0.888911
  0
ENDBLK
  5
4B0
  8
0
  0
BLOCK
  5
4B2
  8
1
  2
*U106
 70
    65
 10
0.0
 20
0.0
 30
0.0
  3
*U106
  1

  0
CIRCLE
  5
4B3
  8
1
 10
-84.006112
 20
-2478.744551
 30
0.0
 40
0.888911
  0
CIRCLE
  5
4B4
  8
1
 10
-84.006112
 20
-2449.202465
 30
0.0
 40
0.888911
  0
CIRCLE
  5
4B5
  8
1
 10
-71.214013
 20
-2471.35903
 30
0.0
 40
0.888911
  0
CIRCLE
  5
4B6
  8
1
 10
-71.214013
 20
-2456.587986
 30
0.0
 40
0.888911
  0
CIRCLE
  5
4B7
  8
1
 10
-84.006112
 20
-2463.973508
 30
0.0
 40
0.888911
  0
ENDBLK
  5
4B8
  8
0
  0
BLOCK
  5
4BA
  8
1
  2
*U107
 70
    65
 10
0.0
 20
0.0
 30
0.0
  3
*U107
  1

  0
CIRCLE
  5
4BB
  8
1
 10
-58.421914
 20
-2478.744551
 30
0.0
 40
0.888911
  0
CIRCLE
  5
4BC
  8
1
 10
-58.421914
 20
-2449.202465
 30
0.0
 40
0.888911
  0
CIRCLE
  5
4BD
  8
1
 10
-45.629816
 20
-2471.35903
 30
0.0
 40
0.888911
  0
CIRCLE
  5
4BE
  8
1
 10
-45.629816
 20
-2456.587986
 30
0.0
 40
0.888911
  0
CIRCLE
  5
4BF
  8
1
 10
-58.421914
 20
-2463.973508
 30
0.0
 40
0.888911
  0
ENDBLK
  5
4C0
  8
0
  0
BLOCK
  5
4C2
  8
1
  2
*U108
 70
    65
 10
0.0
 20
0.0
 30
0.0
  3
*U108
  1

  0
CIRCLE
  5
4C3
  8
1
 10
-32.837717
 20
-2478.744551
 30
0.0
 40
0.888911
  0
CIRCLE
  5
4C4
  8
1
 10
-32.837717
 20
-2449.202465
 30
0.0
 40
0.888911
  0
CIRCLE
  5
4C5
  8
1
 10
-20.045618
 20
-2471.35903
 30
0.0
 40
0.888911
  0
CIRCLE
  5
4C6
  8
1
 10
-20.045618
 20
-2456.587986
 30
0.0
 40
0.888911
  0
CIRCLE
  5
4C7
  8
1
 10
-32.837717
 20
-2463.973508
 30
0.0
 40
0.888911
  0
ENDBLK
  5
4C8
  8
0
  0
BLOCK
  5
4CA
  8
1
  2
*U109
 70
    65
 10
0.0
 20
0.0
 30
0.0
  3
*U109
  1

  0
CIRCLE
  5
4CB
  8
1
 10
-7.253519
 20
-2478.744551
 30
0.0
 40
0.888911
  0
CIRCLE
  5
4CC
  8
1
 10
-7.253519
 20
-2449.202465
 30
0.0
 40
0.888911
  0
CIRCLE
  5
4CD
  8
1
 10
5.538579
 20
-2471.35903
 30
0.0
 40
0.888911
  0
CIRCLE
  5
4CE
  8
1
 10
5.538579
 20
-2456.587986
 30
0.0
 40
0.888911
  0
CIRCLE
  5
4CF
  8
1
 10
-7.253519
 20
-2463.973508
 30
0.0
 40
0.888911
  0
ENDBLK
  5
4D0
  8
0
  0
BLOCK
  5
4D2
  8
1
  2
*U110
 70
    65
 10
0.0
 20
0.0
 30
0.0
  3
*U110
  1

  0
CIRCLE
  5
4D3
  8
1
 10
18.330678
 20
-2478.744551
 30
0.0
 40
0.888911
  0
CIRCLE
  5
4D4
  8
1
 10
18.330678
 20
-2449.202465
 30
0.0
 40
0.888911
  0
CIRCLE
  5
4D5
  8
1
 10
31.122777
 20
-2471.35903
 30
0.0
 40
0.888911
  0
CIRCLE
  5
4D6
  8
1
 10
31.122777
 20
-2456.587986
 30
0.0
 40
0.888911
  0
CIRCLE
  5
4D7
  8
1
 10
18.330678
 20
-2463.973508
 30
0.0
 40
0.888911
  0
ENDBLK
  5
4D8
  8
0
  0
BLOCK
  5
4DA
  8
1
  2
*U111
 70
    65
 10
0.0
 20
0.0
 30
0.0
  3
*U111
  1

  0
CIRCLE
  5
4DB
  8
1
 10
43.914875
 20
-2478.744551
 30
0.0
 40
0.888911
  0
CIRCLE
  5
4DC
  8
1
 10
43.914875
 20
-2449.202465
 30
0.0
 40
0.888911
  0
CIRCLE
  5
4DD
  8
1
 10
56.706974
 20
-2471.35903
 30
0.0
 40
0.888911
  0
CIRCLE
  5
4DE
  8
1
 10
56.706974
 20
-2456.587986
 30
0.0
 40
0.888911
  0
CIRCLE
  5
4DF
  8
1
 10
43.914875
 20
-2463.973508
 30
0.0
 40
0.888911
  0
ENDBLK
  5
4E0
  8
0
  0
BLOCK
  5
4E2
  8
1
  2
*U112
 70
    65
 10
0.0
 20
0.0
 30
0.0
  3
*U112
  1

  0
CIRCLE
  5
4E3
  8
1
 10
69.499073
 20
-2478.744551
 30
0.0
 40
0.888911
  0
CIRCLE
  5
4E4
  8
1
 10
69.499073
 20
-2449.202465
 30
0.0
 40
0.888911
  0
CIRCLE
  5
4E5
  8
1
 10
82.291171
 20
-2471.35903
 30
0.0
 40
0.888911
  0
CIRCLE
  5
4E6
  8
1
 10
82.291171
 20
-2456.587986
 30
0.0
 40
0.888911
  0
CIRCLE
  5
4E7
  8
1
 10
69.499073
 20
-2463.973508
 30
0.0
 40
0.888911
  0
ENDBLK
  5
4E8
  8
0
  0
BLOCK
  5
4EA
  8
1
  2
*U113
 70
    65
 10
0.0
 20
0.0
 30
0.0
  3
*U113
  1

  0
CIRCLE
  5
4EB
  8
1
 10
95.08327
 20
-2478.744551
 30
0.0
 40
0.888911
  0
CIRCLE
  5
4EC
  8
1
 10
95.08327
 20
-2449.202465
 30
0.0
 40
0.888911
  0
CIRCLE
  5
4ED
  8
1
 10
107.875369
 20
-2471.35903
 30
0.0
 40
0.888911
  0
CIRCLE
  5
4EE
  8
1
 10
107.875369
 20
-2456.587986
 30
0.0
 40
0.888911
  0
CIRCLE
  5
4EF
  8
1
 10
95.08327
 20
-2463.973508
 30
0.0
 40
0.888911
  0
ENDBLK
  5
4F0
  8
0
  0
BLOCK
  5
4F2
  8
1
  2
*U114
 70
    65
 10
0.0
 20
0.0
 30
0.0
  3
*U114
  1

  0
CIRCLE
  5
4F3
  8
1
 10
120.667468
 20
-2478.744551
 30
0.0
 40
0.888911
  0
CIRCLE
  5
4F4
  8
1
 10
120.667468
 20
-2449.202465
 30
0.0
 40
0.888911
  0
CIRCLE
  5
4F5
  8
1
 10
133.459566
 20
-2471.35903
 30
0.0
 40
0.888911
  0
CIRCLE
  5
4F6
  8
1
 10
133.459566
 20
-2456.587986
 30
0.0
 40
0.888911
  0
CIRCLE
  5
4F7
  8
1
 10
120.667468
 20
-2463.973508
 30
0.0
 40
0.888911
  0
ENDBLK
  5
4F8
  8
0
  0
BLOCK
  5
4FA
  8
1
  2
*U115
 70
    65
 10
0.0
 20
0.0
 30
0.0
  3
*U115
  1

  0
CIRCLE
  5
4FB
  8
1
 10
146.251665
 20
-2478.744551
 30
0.0
 40
0.888911
  0
CIRCLE
  5
4FC
  8
1
 10
146.251665
 20
-2449.202465
 30
0.0
 40
0.888911
  0
CIRCLE
  5
4FD
  8
1
 10
159.043764
 20
-2471.35903
 30
0.0
 40
0.888911
  0
CIRCLE
  5
4FE
  8
1
 10
159.043764
 20
-2456.587986
 30
0.0
 40
0.888911
  0
CIRCLE
  5
4FF
  8
1
 10
146.251665
 20
-2463.973508
 30
0.0
 40
0.888911
  0
ENDBLK
  5
500
  8
0
  0
BLOCK
  5
502
  8
1
  2
*U116
 70
    65
 10
0.0
 20
0.0
 30
0.0
  3
*U116
  1

  0
CIRCLE
  5
503
  8
1
 10
171.835862
 20
-2478.744551
 30
0.0
 40
0.888911
  0
CIRCLE
  5
504
  8
1
 10
171.835862
 20
-2449.202465
 30
0.0
 40
0.888911
  0
CIRCLE
  5
505
  8
1
 10
184.627961
 20
-2471.35903
 30
0.0
 40
0.888911
  0
CIRCLE
  5
506
  8
1
 10
184.627961
 20
-2456.587986
 30
0.0
 40
0.888911
  0
CIRCLE
  5
507
  8
1
 10
171.835862
 20
-2463.973508
 30
0.0
 40
0.888911
  0
ENDBLK
  5
508
  8
0
  0
BLOCK
  5
50A
  8
1
  2
*U117
 70
    65
 10
0.0
 20
0.0
 30
0.0
  3
*U117
  1

  0
CIRCLE
  5
50B
  8
1
 10
197.42006
 20
-2478.744551
 30
0.0
 40
0.888911
  0
CIRCLE
  5
50C
  8
1
 10
197.42006
 20
-2449.202465
 30
0.0
 40
0.888911
  0
CIRCLE
  5
50D
  8
1
 10
210.212159
 20
-2471.35903
 30
0.0
 40
0.888911
  0
CIRCLE
  5
50E
  8
1
 10
210.212159
 20
-2456.587986
 30
0.0
 40
0.888911
  0
CIRCLE
  5
50F
  8
1
 10
197.42006
 20
-2463.973508
 30
0.0
 40
0.888911
  0
ENDBLK
  5
510
  8
0
  0
BLOCK
  5
512
  8
1
  2
*U118
 70
    65
 10
0.0
 20
0.0
 30
0.0
  3
*U118
  1

  0
CIRCLE
  5
513
  8
1
 10
223.004257
 20
-2478.744551
 30
0.0
 40
0.888911
  0
CIRCLE
  5
514
  8
1
 10
223.004257
 20
-2449.202465
 30
0.0
 40
0.888911
  0
CIRCLE
  5
515
  8
1
 10
235.796356
 20
-2471.35903
 30
0.0
 40
0.888911
  0
CIRCLE
  5
516
  8
1
 10
235.796356
 20
-2456.587986
 30
0.0
 40
0.888911
  0
CIRCLE
  5
517
  8
1
 10
223.004257
 20
-2463.973508
 30
0.0
 40
0.888911
  0
ENDBLK
  5
518
  8
0
  0
BLOCK
  5
51A
  8
1
  2
*U119
 70
    65
 10
0.0
 20
0.0
 30
0.0
  3
*U119
  1

  0
CIRCLE
  5
51B
  8
1
 10
248.588455
 20
-2478.744551
 30
0.0
 40
0.888911
  0
CIRCLE
  5
51C
  8
1
 10
248.588455
 20
-2449.202465
 30
0.0
 40
0.888911
  0
CIRCLE
  5
51D
  8
1
 10
261.380553
 20
-2471.35903
 30
0.0
 40
0.888911
  0
CIRCLE
  5
51E
  8
1
 10
261.380553
 20
-2456.587986
 30
0.0
 40
0.888911
  0
CIRCLE
  5
51F
  8
1
 10
248.588455
 20
-2463.973508
 30
0.0
 40
0.888911
  0
ENDBLK
  5
520
  8
0
  0
BLOCK
  5
522
  8
1
  2
*U120
 70
    65
 10
0.0
 20
0.0
 30
0.0
  3
*U120
  1

  0
CIRCLE
  5
523
  8
1
 10
274.172652
 20
-2478.744551
 30
0.0
 40
0.888911
  0
CIRCLE
  5
524
  8
1
 10
274.172652
 20
-2449.202465
 30
0.0
 40
0.888911
  0
CIRCLE
  5
525
  8
1
 10
286.964751
 20
-2471.35903
 30
0.0
 40
0.888911
  0
CIRCLE
  5
526
  8
1
 10
286.964751
 20
-2456.587986
 30
0.0
 40
0.888911
  0
CIRCLE
  5
527
  8
1
 10
274.172652
 20
-2463.973508
 30
0.0
 40
0.888911
  0
ENDBLK
  5
528
  8
0
  0
BLOCK
  5
52A
  8
1
  2
*U121
 70
    65
 10
0.0
 20
0.0
 30
0.0
  3
*U121
  1

  0
CIRCLE
  5
52B
  8
1
 10
299.75685
 20
-2478.744551
 30
0.0
 40
0.888911
  0
CIRCLE
  5
52C
  8
1
 10
299.75685
 20
-2449.202465
 30
0.0
 40
0.888911
  0
CIRCLE
  5
52D
  8
1
 10
312.548948
 20
-2471.35903
 30
0.0
 40
0.888911
  0
CIRCLE
  5
52E
  8
1
 10
312.548948
 20
-2456.587986
 30
0.0
 40
0.888911
  0
CIRCLE
  5
52F
  8
1
 10
299.75685
 20
-2463.973508
 30
0.0
 40
0.888911
  0
ENDBLK
  5
530
  8
0
  0
BLOCK
  5
532
  8
1
  2
*U122
 70
    65
 10
0.0
 20
0.0
 30
0.0
  3
*U122
  1

  0
CIRCLE
  5
533
  8
1
 10
325.341047
 20
-2478.744551
 30
0.0
 40
0.888911
  0
CIRCLE
  5
534
  8
1
 10
325.341047
 20
-2449.202465
 30
0.0
 40
0.888911
  0
CIRCLE
  5
535
  8
1
 10
338.133146
 20
-2471.35903
 30
0.0
 40
0.888911
  0
CIRCLE
  5
536
  8
1
 10
338.133146
 20
-2456.587986
 30
0.0
 40
0.888911
  0
CIRCLE
  5
537
  8
1
 10
325.341047
 20
-2463.973508
 30
0.0
 40
0.888911
  0
ENDBLK
  5
538
  8
0
  0
BLOCK
  5
53A
  8
1
  2
*U123
 70
    65
 10
0.0
 20
0.0
 30
0.0
  3
*U123
  1

  0
CIRCLE
  5
53B
  8
1
 10
350.925244
 20
-2478.744551
 30
0.0
 40
0.888911
  0
CIRCLE
  5
53C
  8
1
 10
350.925244
 20
-2449.202465
 30
0.0
 40
0.888911
  0
CIRCLE
  5
53D
  8
1
 10
363.717343
 20
-2471.35903
 30
0.0
 40
0.888911
  0
CIRCLE
  5
53E
  8
1
 10
363.717343
 20
-2456.587986
 30
0.0
 40
0.888911
  0
CIRCLE
  5
53F
  8
1
 10
350.925244
 20
-2463.973508
 30
0.0
 40
0.888911
  0
ENDBLK
  5
540
  8
0
  0
BLOCK
  5
542
  8
1
  2
*U124
 70
    65
 10
0.0
 20
0.0
 30
0.0
  3
*U124
  1

  0
CIRCLE
  5
543
  8
1
 10
376.509442
 20
-2478.744551
 30
0.0
 40
0.888911
  0
CIRCLE
  5
544
  8
1
 10
376.509442
 20
-2449.202465
 30
0.0
 40
0.888911
  0
CIRCLE
  5
545
  8
1
 10
389.30154
 20
-2471.35903
 30
0.0
 40
0.888911
  0
CIRCLE
  5
546
  8
1
 10
389.30154
 20
-2456.587986
 30
0.0
 40
0.888911
  0
CIRCLE
  5
547
  8
1
 10
376.509442
 20
-2463.973508
 30
0.0
 40
0.888911
  0
ENDBLK
  5
548
  8
0
  0
BLOCK
  5
54A
  8
1
  2
*U125
 70
    65
 10
0.0
 20
0.0
 30
0.0
  3
*U125
  1

  0
CIRCLE
  5
54B
  8
1
 10
402.093639
 20
-2478.744551
 30
0.0
 40
0.888911
  0
CIRCLE
  5
54C
  8
1
 10
402.093639
 20
-2449.202465
 30
0.0
 40
0.888911
  0
CIRCLE
  5
54D
  8
1
 10
414.885738
 20
-2471.35903
 30
0.0
 40
0.888911
  0
CIRCLE
  5
54E
  8
1
 10
414.885738
 20
-2456.587986
 30
0.0
 40
0.888911
  0
CIRCLE
  5
54F
  8
1
 10
402.093639
 20
-2463.973508
 30
0.0
 40
0.888911
  0
ENDBLK
  5
550
  8
0
  0
BLOCK
  5
552
  8
1
  2
*U126
 70
    65
 10
0.0
 20
0.0
 30
0.0
  3
*U126
  1

  0
CIRCLE
  5
553
  8
1
 10
427.677837
 20
-2478.744551
 30
0.0
 40
0.888911
  0
CIRCLE
  5
554
  8
1
 10
427.677837
 20
-2449.202465
 30
0.0
 40
0.888911
  0
CIRCLE
  5
555
  8
1
 10
440.469935
 20
-2471.35903
 30
0.0
 40
0.888911
  0
CIRCLE
  5
556
  8
1
 10
440.469935
 20
-2456.587986
 30
0.0
 40
0.888911
  0
CIRCLE
  5
557
  8
1
 10
427.677837
 20
-2463.973508
 30
0.0
 40
0.888911
  0
ENDBLK
  5
558
  8
0
  0
BLOCK
  5
55A
  8
1
  2
*U127
 70
    65
 10
0.0
 20
0.0
 30
0.0
  3
*U127
  1

  0
CIRCLE
  5
55B
  8
1
 10
453.262034
 20
-2478.744551
 30
0.0
 40
0.888911
  0
CIRCLE
  5
55C
  8
1
 10
453.262034
 20
-2449.202465
 30
0.0
 40
0.888911
  0
CIRCLE
  5
55D
  8
1
 10
466.054133
 20
-2471.35903
 30
0.0
 40
0.888911
  0
CIRCLE
  5
55E
  8
1
 10
466.054133
 20
-2456.587986
 30
0.0
 40
0.888911
  0
CIRCLE
  5
55F
  8
1
 10
453.262034
 20
-2463.973508
 30
0.0
 40
0.888911
  0
ENDBLK
  5
560
  8
0
  0
BLOCK
  5
562
  8
1
  2
*U128
 70
    65
 10
0.0
 20
0.0
 30
0.0
  3
*U128
  1

  0
CIRCLE
  5
563
  8
1
 10
478.846231
 20
-2478.744551
 30
0.0
 40
0.888911
  0
CIRCLE
  5
564
  8
1
 10
478.846231
 20
-2449.202465
 30
0.0
 40
0.888911
  0
CIRCLE
  5
565
  8
1
 10
491.63833
 20
-2471.35903
 30
0.0
 40
0.888911
  0
CIRCLE
  5
566
  8
1
 10
491.63833
 20
-2456.587986
 30
0.0
 40
0.888911
  0
CIRCLE
  5
567
  8
1
 10
478.846231
 20
-2463.973508
 30
0.0
 40
0.888911
  0
ENDBLK
  5
568
  8
0
  0
BLOCK
  5
56A
  8
1
  2
*U129
 70
    65
 10
0.0
 20
0.0
 30
0.0
  3
*U129
  1

  0
CIRCLE
  5
56B
  8
1
 10
504.430429
 20
-2478.744551
 30
0.0
 40
0.888911
  0
CIRCLE
  5
56C
  8
1
 10
504.430429
 20
-2449.202465
 30
0.0
 40
0.888911
  0
CIRCLE
  5
56D
  8
1
 10
517.222528
 20
-2471.35903
 30
0.0
 40
0.888911
  0
CIRCLE
  5
56E
  8
1
 10
517.222528
 20
-2456.587986
 30
0.0
 40
0.888911
  0
CIRCLE
  5
56F
  8
1
 10
504.430429
 20
-2463.973508
 30
0.0
 40
0.888911
  0
ENDBLK
  5
570
  8
0
  0
BLOCK
  5
572
  8
1
  2
*U130
 70
    65
 10
0.0
 20
0.0
 30
0.0
  3
*U130
  1

  0
CIRCLE
  5
573
  8
1
 10
530.014626
 20
-2478.744551
 30
0.0
 40
0.888911
  0
CIRCLE
  5
574
  8
1
 10
530.014626
 20
-2449.202465
 30
0.0
 40
0.888911
  0
CIRCLE
  5
575
  8
1
 10
542.806725
 20
-2471.35903
 30
0.0
 40
0.888911
  0
CIRCLE
  5
576
  8
1
 10
542.806725
 20
-2456.587986
 30
0.0
 40
0.888911
  0
CIRCLE
  5
577
  8
1
 10
530.014626
 20
-2463.973508
 30
0.0
 40
0.888911
  0
ENDBLK
  5
578
  8
0
  0
BLOCK
  5
57A
  8
1
  2
*U131
 70
    65
 10
0.0
 20
0.0
 30
0.0
  3
*U131
  1

  0
CIRCLE
  5
57B
  8
1
 10
555.598824
 20
-2478.744551
 30
0.0
 40
0.888911
  0
CIRCLE
  5
57C
  8
1
 10
555.598824
 20
-2449.202465
 30
0.0
 40
0.888911
  0
CIRCLE
  5
57D
  8
1
 10
568.390922
 20
-2471.35903
 30
0.0
 40
0.888911
  0
CIRCLE
  5
57E
  8
1
 10
568.390922
 20
-2456.587986
 30
0.0
 40
0.888911
  0
CIRCLE
  5
57F
  8
1
 10
555.598824
 20
-2463.973508
 30
0.0
 40
0.888911
  0
ENDBLK
  5
580
  8
0
  0
BLOCK
  5
582
  8
1
  2
*U132
 70
    65
 10
0.0
 20
0.0
 30
0.0
  3
*U132
  1

  0
CIRCLE
  5
583
  8
1
 10
581.183021
 20
-2478.744551
 30
0.0
 40
0.888911
  0
CIRCLE
  5
584
  8
1
 10
581.183021
 20
-2449.202465
 30
0.0
 40
0.888911
  0
CIRCLE
  5
585
  8
1
 10
593.97512
 20
-2471.35903
 30
0.0
 40
0.888911
  0
CIRCLE
  5
586
  8
1
 10
593.97512
 20
-2456.587986
 30
0.0
 40
0.888911
  0
CIRCLE
  5
587
  8
1
 10
581.183021
 20
-2463.973508
 30
0.0
 40
0.888911
  0
ENDBLK
  5
588
  8
0
  0
BLOCK
  5
58A
  8
1
  2
*U133
 70
    65
 10
0.0
 20
0.0
 30
0.0
  3
*U133
  1

  0
CIRCLE
  5
58B
  8
1
 10
606.767218
 20
-2478.744551
 30
0.0
 40
0.888911
  0
CIRCLE
  5
58C
  8
1
 10
606.767218
 20
-2449.202465
 30
0.0
 40
0.888911
  0
CIRCLE
  5
58D
  8
1
 10
619.559317
 20
-2471.35903
 30
0.0
 40
0.888911
  0
CIRCLE
  5
58E
  8
1
 10
619.559317
 20
-2456.587986
 30
0.0
 40
0.888911
  0
CIRCLE
  5
58F
  8
1
 10
606.767218
 20
-2463.973508
 30
0.0
 40
0.888911
  0
ENDBLK
  5
590
  8
0
  0
BLOCK
  5
592
  8
1
  2
*U134
 70
    65
 10
0.0
 20
0.0
 30
0.0
  3
*U134
  1

  0
CIRCLE
  5
593
  8
1
 10
632.351416
 20
-2478.744551
 30
0.0
 40
0.888911
  0
CIRCLE
  5
594
  8
1
 10
632.351416
 20
-2449.202465
 30
0.0
 40
0.888911
  0
CIRCLE
  5
595
  8
1
 10
645.143515
 20
-2471.35903
 30
0.0
 40
0.888911
  0
CIRCLE
  5
596
  8
1
 10
645.143515
 20
-2456.587986
 30
0.0
 40
0.888911
  0
CIRCLE
  5
597
  8
1
 10
632.351416
 20
-2463.973508
 30
0.0
 40
0.888911
  0
ENDBLK
  5
598
  8
0
  0
BLOCK
  5
59A
  8
1
  2
*U135
 70
    65
 10
0.0
 20
0.0
 30
0.0
  3
*U135
  1

  0
CIRCLE
  5
59B
  8
1
 10
657.935613
 20
-2478.744551
 30
0.0
 40
0.888911
  0
CIRCLE
  5
59C
  8
1
 10
657.935613
 20
-2449.202465
 30
0.0
 40
0.888911
  0
CIRCLE
  5
59D
  8
1
 10
670.727712
 20
-2471.35903
 30
0.0
 40
0.888911
  0
CIRCLE
  5
59E
  8
1
 10
670.727712
 20
-2456.587986
 30
0.0
 40
0.888911
  0
CIRCLE
  5
59F
  8
1
 10
657.935613
 20
-2463.973508
 30
0.0
 40
0.888911
  0
ENDBLK
  5
5A0
  8
0
  0
BLOCK
  5
5A2
  8
1
  2
*U136
 70
    65
 10
0.0
 20
0.0
 30
0.0
  3
*U136
  1

  0
CIRCLE
  5
5A3
  8
1
 10
683.519811
 20
-2478.744551
 30
0.0
 40
0.888911
  0
CIRCLE
  5
5A4
  8
1
 10
683.519811
 20
-2449.202465
 30
0.0
 40
0.888911
  0
CIRCLE
  5
5A5
  8
1
 10
696.311909
 20
-2471.35903
 30
0.0
 40
0.888911
  0
CIRCLE
  5
5A6
  8
1
 10
696.311909
 20
-2456.587986
 30
0.0
 40
0.888911
  0
CIRCLE
  5
5A7
  8
1
 10
683.519811
 20
-2463.973508
 30
0.0
 40
0.888911
  0
ENDBLK
  5
5A8
  8
0
  0
BLOCK
  5
5AA
  8
1
  2
*U137
 70
    65
 10
0.0
 20
0.0
 30
0.0
  3
*U137
  1

  0
CIRCLE
  5
5AB
  8
1
 10
709.104008
 20
-2478.744551
 30
0.0
 40
0.888911
  0
CIRCLE
  5
5AC
  8
1
 10
709.104008
 20
-2449.202465
 30
0.0
 40
0.888911
  0
CIRCLE
  5
5AD
  8
1
 10
721.896107
 20
-2471.35903
 30
0.0
 40
0.888911
  0
CIRCLE
  5
5AE
  8
1
 10
721.896107
 20
-2456.587986
 30
0.0
 40
0.888911
  0
CIRCLE
  5
5AF
  8
1
 10
709.104008
 20
-2463.973508
 30
0.0
 40
0.888911
  0
ENDBLK
  5
5B0
  8
0
  0
BLOCK
  5
5B2
  8
1
  2
*U138
 70
    65
 10
0.0
 20
0.0
 30
0.0
  3
*U138
  1

  0
CIRCLE
  5
5B3
  8
1
 10
734.688206
 20
-2478.744551
 30
0.0
 40
0.888911
  0
CIRCLE
  5
5B4
  8
1
 10
734.688206
 20
-2449.202465
 30
0.0
 40
0.888911
  0
CIRCLE
  5
5B5
  8
1
 10
747.480304
 20
-2471.35903
 30
0.0
 40
0.888911
  0
CIRCLE
  5
5B6
  8
1
 10
747.480304
 20
-2456.587986
 30
0.0
 40
0.888911
  0
CIRCLE
  5
5B7
  8
1
 10
734.688206
 20
-2463.973508
 30
0.0
 40
0.888911
  0
ENDBLK
  5
5B8
  8
0
  0
BLOCK
  5
5BA
  8
1
  2
*U139
 70
    65
 10
0.0
 20
0.0
 30
0.0
  3
*U139
  1

  0
CIRCLE
  5
5BB
  8
1
 10
760.272403
 20
-2478.744551
 30
0.0
 40
0.888911
  0
CIRCLE
  5
5BC
  8
1
 10
760.272403
 20
-2449.202465
 30
0.0
 40
0.888911
  0
CIRCLE
  5
5BD
  8
1
 10
773.064502
 20
-2471.35903
 30
0.0
 40
0.888911
  0
CIRCLE
  5
5BE
  8
1
 10
773.064502
 20
-2456.587986
 30
0.0
 40
0.888911
  0
CIRCLE
  5
5BF
  8
1
 10
760.272403
 20
-2463.973508
 30
0.0
 40
0.888911
  0
ENDBLK
  5
5C0
  8
0
  0
BLOCK
  5
5C2
  8
1
  2
*U140
 70
    65
 10
0.0
 20
0.0
 30
0.0
  3
*U140
  1

  0
CIRCLE
  5
5C3
  8
1
 10
785.8566
 20
-2478.744551
 30
0.0
 40
0.888911
  0
CIRCLE
  5
5C4
  8
1
 10
785.8566
 20
-2449.202465
 30
0.0
 40
0.888911
  0
CIRCLE
  5
5C5
  8
1
 10
785.8566
 20
-2463.973508
 30
0.0
 40
0.888911
  0
ENDBLK
  5
5C6
  8
0
  0
BLOCK
  5
5C8
  8
1
  2
*U141
 70
    65
 10
0.0
 20
0.0
 30
0.0
  3
*U141
  1

  0
CIRCLE
  5
5C9
  8
1
 10
-467.769073
 20
-2805.723991
 30
0.0
 40
0.888911
  0
CIRCLE
  5
5CA
  8
1
 10
-467.769073
 20
-2835.266077
 30
0.0
 40
0.888911
  0
CIRCLE
  5
5CB
  8
1
 10
-454.976974
 20
-2813.109512
 30
0.0
 40
0.888911
  0
CIRCLE
  5
5CC
  8
1
 10
-454.976974
 20
-2827.880556
 30
0.0
 40
0.888911
  0
CIRCLE
  5
5CD
  8
1
 10
-467.769073
 20
-2820.495034
 30
0.0
 40
0.888911
  0
ENDBLK
  5
5CE
  8
0
  0
BLOCK
  5
5D0
  8
1
  2
*U142
 70
    65
 10
0.0
 20
0.0
 30
0.0
  3
*U142
  1

  0
CIRCLE
  5
5D1
  8
1
 10
-442.184875
 20
-2805.723991
 30
0.0
 40
0.888911
  0
CIRCLE
  5
5D2
  8
1
 10
-442.184875
 20
-2835.266077
 30
0.0
 40
0.888911
  0
CIRCLE
  5
5D3
  8
1
 10
-429.392777
 20
-2813.109512
 30
0.0
 40
0.888911
  0
CIRCLE
  5
5D4
  8
1
 10
-429.392777
 20
-2827.880556
 30
0.0
 40
0.888911
  0
CIRCLE
  5
5D5
  8
1
 10
-442.184875
 20
-2820.495034
 30
0.0
 40
0.888911
  0
ENDBLK
  5
5D6
  8
0
  0
BLOCK
  5
5D8
  8
1
  2
*U143
 70
    65
 10
0.0
 20
0.0
 30
0.0
  3
*U143
  1

  0
CIRCLE
  5
5D9
  8
1
 10
-416.600678
 20
-2805.723991
 30
0.0
 40
0.888911
  0
CIRCLE
  5
5DA
  8
1
 10
-416.600678
 20
-2835.266077
 30
0.0
 40
0.888911
  0
CIRCLE
  5
5DB
  8
1
 10
-403.808579
 20
-2813.109512
 30
0.0
 40
0.888911
  0
CIRCLE
  5
5DC
  8
1
 10
-403.808579
 20
-2827.880556
 30
0.0
 40
0.888911
  0
CIRCLE
  5
5DD
  8
1
 10
-416.600678
 20
-2820.495034
 30
0.0
 40
0.888911
  0
ENDBLK
  5
5DE
  8
0
  0
BLOCK
  5
5E0
  8
1
  2
*U144
 70
    65
 10
0.0
 20
0.0
 30
0.0
  3
*U144
  1

  0
CIRCLE
  5
5E1
  8
1
 10
-391.016481
 20
-2805.723991
 30
0.0
 40
0.888911
  0
CIRCLE
  5
5E2
  8
1
 10
-391.016481
 20
-2835.266077
 30
0.0
 40
0.888911
  0
CIRCLE
  5
5E3
  8
1
 10
-378.224382
 20
-2813.109512
 30
0.0
 40
0.888911
  0
CIRCLE
  5
5E4
  8
1
 10
-378.224382
 20
-2827.880556
 30
0.0
 40
0.888911
  0
CIRCLE
  5
5E5
  8
1
 10
-391.016481
 20
-2820.495034
 30
0.0
 40
0.888911
  0
ENDBLK
  5
5E6
  8
0
  0
BLOCK
  5
5E8
  8
1
  2
*U145
 70
    65
 10
0.0
 20
0.0
 30
0.0
  3
*U145
  1

  0
CIRCLE
  5
5E9
  8
1
 10
-365.432283
 20
-2805.723991
 30
0.0
 40
0.888911
  0
CIRCLE
  5
5EA
  8
1
 10
-365.432283
 20
-2835.266077
 30
0.0
 40
0.888911
  0
CIRCLE
  5
5EB
  8
1
 10
-352.640185
 20
-2813.109512
 30
0.0
 40
0.888911
  0
CIRCLE
  5
5EC
  8
1
 10
-352.640185
 20
-2827.880556
 30
0.0
 40
0.888911
  0
CIRCLE
  5
5ED
  8
1
 10
-365.432283
 20
-2820.495034
 30
0.0
 40
0.888911
  0
ENDBLK
  5
5EE
  8
0
  0
BLOCK
  5
5F0
  8
1
  2
*U146
 70
    65
 10
0.0
 20
0.0
 30
0.0
  3
*U146
  1

  0
CIRCLE
  5
5F1
  8
1
 10
-339.848086
 20
-2805.723991
 30
0.0
 40
0.888911
  0
CIRCLE
  5
5F2
  8
1
 10
-339.848086
 20
-2835.266077
 30
0.0
 40
0.888911
  0
CIRCLE
  5
5F3
  8
1
 10
-327.055987
 20
-2813.109512
 30
0.0
 40
0.888911
  0
CIRCLE
  5
5F4
  8
1
 10
-327.055987
 20
-2827.880556
 30
0.0
 40
0.888911
  0
CIRCLE
  5
5F5
  8
1
 10
-339.848086
 20
-2820.495034
 30
0.0
 40
0.888911
  0
ENDBLK
  5
5F6
  8
0
  0
BLOCK
  5
5F8
  8
1
  2
*U147
 70
    65
 10
0.0
 20
0.0
 30
0.0
  3
*U147
  1

  0
CIRCLE
  5
5F9
  8
1
 10
-314.263888
 20
-2805.723991
 30
0.0
 40
0.888911
  0
CIRCLE
  5
5FA
  8
1
 10
-314.263888
 20
-2835.266077
 30
0.0
 40
0.888911
  0
CIRCLE
  5
5FB
  8
1
 10
-301.47179
 20
-2813.109512
 30
0.0
 40
0.888911
  0
CIRCLE
  5
5FC
  8
1
 10
-301.47179
 20
-2827.880556
 30
0.0
 40
0.888911
  0
CIRCLE
  5
5FD
  8
1
 10
-314.263888
 20
-2820.495034
 30
0.0
 40
0.888911
  0
ENDBLK
  5
5FE
  8
0
  0
BLOCK
  5
600
  8
1
  2
*U148
 70
    65
 10
0.0
 20
0.0
 30
0.0
  3
*U148
  1

  0
CIRCLE
  5
601
  8
1
 10
-288.679691
 20
-2805.723991
 30
0.0
 40
0.888911
  0
CIRCLE
  5
602
  8
1
 10
-288.679691
 20
-2835.266077
 30
0.0
 40
0.888911
  0
CIRCLE
  5
603
  8
1
 10
-275.887592
 20
-2813.109512
 30
0.0
 40
0.888911
  0
CIRCLE
  5
604
  8
1
 10
-275.887592
 20
-2827.880556
 30
0.0
 40
0.888911
  0
CIRCLE
  5
605
  8
1
 10
-288.679691
 20
-2820.495034
 30
0.0
 40
0.888911
  0
ENDBLK
  5
606
  8
0
  0
BLOCK
  5
608
  8
1
  2
*U149
 70
    65
 10
0.0
 20
0.0
 30
0.0
  3
*U149
  1

  0
CIRCLE
  5
609
  8
1
 10
-263.095494
 20
-2805.723991
 30
0.0
 40
0.888911
  0
CIRCLE
  5
60A
  8
1
 10
-263.095494
 20
-2835.266077
 30
0.0
 40
0.888911
  0
CIRCLE
  5
60B
  8
1
 10
-250.303395
 20
-2813.109512
 30
0.0
 40
0.888911
  0
CIRCLE
  5
60C
  8
1
 10
-250.303395
 20
-2827.880556
 30
0.0
 40
0.888911
  0
CIRCLE
  5
60D
  8
1
 10
-263.095494
 20
-2820.495034
 30
0.0
 40
0.888911
  0
ENDBLK
  5
60E
  8
0
  0
BLOCK
  5
610
  8
1
  2
*U150
 70
    65
 10
0.0
 20
0.0
 30
0.0
  3
*U150
  1

  0
CIRCLE
  5
611
  8
1
 10
-237.511296
 20
-2805.723991
 30
0.0
 40
0.888911
  0
CIRCLE
  5
612
  8
1
 10
-237.511296
 20
-2835.266077
 30
0.0
 40
0.888911
  0
CIRCLE
  5
613
  8
1
 10
-224.719197
 20
-2813.109512
 30
0.0
 40
0.888911
  0
CIRCLE
  5
614
  8
1
 10
-224.719197
 20
-2827.880556
 30
0.0
 40
0.888911
  0
CIRCLE
  5
615
  8
1
 10
-237.511296
 20
-2820.495034
 30
0.0
 40
0.888911
  0
ENDBLK
  5
616
  8
0
  0
BLOCK
  5
618
  8
1
  2
*U151
 70
    65
 10
0.0
 20
0.0
 30
0.0
  3
*U151
  1

  0
CIRCLE
  5
619
  8
1
 10
-211.927099
 20
-2805.723991
 30
0.0
 40
0.888911
  0
CIRCLE
  5
61A
  8
1
 10
-211.927099
 20
-2835.266077
 30
0.0
 40
0.888911
  0
CIRCLE
  5
61B
  8
1
 10
-199.135
 20
-2813.109512
 30
0.0
 40
0.888911
  0
CIRCLE
  5
61C
  8
1
 10
-199.135
 20
-2827.880556
 30
0.0
 40
0.888911
  0
CIRCLE
  5
61D
  8
1
 10
-211.927099
 20
-2820.495034
 30
0.0
 40
0.888911
  0
ENDBLK
  5
61E
  8
0
  0
BLOCK
  5
620
  8
1
  2
*U152
 70
    65
 10
0.0
 20
0.0
 30
0.0
  3
*U152
  1

  0
CIRCLE
  5
621
  8
1
 10
-186.342901
 20
-2805.723991
 30
0.0
 40
0.888911
  0
CIRCLE
  5
622
  8
1
 10
-186.342901
 20
-2835.266077
 30
0.0
 40
0.888911
  0
CIRCLE
  5
623
  8
1
 10
-173.550803
 20
-2813.109512
 30
0.0
 40
0.888911
  0
CIRCLE
  5
624
  8
1
 10
-173.550803
 20
-2827.880556
 30
0.0
 40
0.888911
  0
CIRCLE
  5
625
  8
1
 10
-186.342901
 20
-2820.495034
 30
0.0
 40
0.888911
  0
ENDBLK
  5
626
  8
0
  0
BLOCK
  5
628
  8
1
  2
*U153
 70
    65
 10
0.0
 20
0.0
 30
0.0
  3
*U153
  1

  0
CIRCLE
  5
629
  8
1
 10
-160.758704
 20
-2805.723991
 30
0.0
 40
0.888911
  0
CIRCLE
  5
62A
  8
1
 10
-160.758704
 20
-2835.266077
 30
0.0
 40
0.888911
  0
CIRCLE
  5
62B
  8
1
 10
-147.966605
 20
-2813.109512
 30
0.0
 40
0.888911
  0
CIRCLE
  5
62C
  8
1
 10
-147.966605
 20
-2827.880556
 30
0.0
 40
0.888911
  0
CIRCLE
  5
62D
  8
1
 10
-160.758704
 20
-2820.495034
 30
0.0
 40
0.888911
  0
ENDBLK
  5
62E
  8
0
  0
BLOCK
  5
630
  8
1
  2
*U154
 70
    65
 10
0.0
 20
0.0
 30
0.0
  3
*U154
  1

  0
CIRCLE
  5
631
  8
1
 10
-135.174507
 20
-2805.723991
 30
0.0
 40
0.888911
  0
CIRCLE
  5
632
  8
1
 10
-135.174507
 20
-2835.266077
 30
0.0
 40
0.888911
  0
CIRCLE
  5
633
  8
1
 10
-122.382408
 20
-2813.109512
 30
0.0
 40
0.888911
  0
CIRCLE
  5
634
  8
1
 10
-122.382408
 20
-2827.880556
 30
0.0
 40
0.888911
  0
CIRCLE
  5
635
  8
1
 10
-135.174507
 20
-2820.495034
 30
0.0
 40
0.888911
  0
ENDBLK
  5
636
  8
0
  0
BLOCK
  5
638
  8
1
  2
*U155
 70
    65
 10
0.0
 20
0.0
 30
0.0
  3
*U155
  1

  0
CIRCLE
  5
639
  8
1
 10
-109.590309
 20
-2805.723991
 30
0.0
 40
0.888911
  0
CIRCLE
  5
63A
  8
1
 10
-109.590309
 20
-2835.266077
 30
0.0
 40
0.888911
  0
CIRCLE
  5
63B
  8
1
 10
-96.79821
 20
-2813.109512
 30
0.0
 40
0.888911
  0
CIRCLE
  5
63C
  8
1
 10
-96.79821
 20
-2827.880556
 30
0.0
 40
0.888911
  0
CIRCLE
  5
63D
  8
1
 10
-109.590309
 20
-2820.495034
 30
0.0
 40
0.888911
  0
ENDBLK
  5
63E
  8
0
  0
BLOCK
  5
640
  8
1
  2
*U156
 70
    65
 10
0.0
 20
0.0
 30
0.0
  3
*U156
  1

  0
CIRCLE
  5
641
  8
1
 10
-84.006112
 20
-2805.723991
 30
0.0
 40
0.888911
  0
CIRCLE
  5
642
  8
1
 10
-84.006112
 20
-2835.266077
 30
0.0
 40
0.888911
  0
CIRCLE
  5
643
  8
1
 10
-71.214013
 20
-2813.109512
 30
0.0
 40
0.888911
  0
CIRCLE
  5
644
  8
1
 10
-71.214013
 20
-2827.880556
 30
0.0
 40
0.888911
  0
CIRCLE
  5
645
  8
1
 10
-84.006112
 20
-2820.495034
 30
0.0
 40
0.888911
  0
ENDBLK
  5
646
  8
0
  0
BLOCK
  5
648
  8
1
  2
*U157
 70
    65
 10
0.0
 20
0.0
 30
0.0
  3
*U157
  1

  0
CIRCLE
  5
649
  8
1
 10
-58.421914
 20
-2805.723991
 30
0.0
 40
0.888911
  0
CIRCLE
  5
64A
  8
1
 10
-58.421914
 20
-2835.266077
 30
0.0
 40
0.888911
  0
CIRCLE
  5
64B
  8
1
 10
-45.629816
 20
-2813.109512
 30
0.0
 40
0.888911
  0
CIRCLE
  5
64C
  8
1
 10
-45.629816
 20
-2827.880556
 30
0.0
 40
0.888911
  0
CIRCLE
  5
64D
  8
1
 10
-58.421914
 20
-2820.495034
 30
0.0
 40
0.888911
  0
ENDBLK
  5
64E
  8
0
  0
BLOCK
  5
650
  8
1
  2
*U158
 70
    65
 10
0.0
 20
0.0
 30
0.0
  3
*U158
  1

  0
CIRCLE
  5
651
  8
1
 10
-32.837717
 20
-2805.723991
 30
0.0
 40
0.888911
  0
CIRCLE
  5
652
  8
1
 10
-32.837717
 20
-2835.266077
 30
0.0
 40
0.888911
  0
CIRCLE
  5
653
  8
1
 10
-20.045618
 20
-2813.109512
 30
0.0
 40
0.888911
  0
CIRCLE
  5
654
  8
1
 10
-20.045618
 20
-2827.880556
 30
0.0
 40
0.888911
  0
CIRCLE
  5
655
  8
1
 10
-32.837717
 20
-2820.495034
 30
0.0
 40
0.888911
  0
ENDBLK
  5
656
  8
0
  0
BLOCK
  5
658
  8
1
  2
*U159
 70
    65
 10
0.0
 20
0.0
 30
0.0
  3
*U159
  1

  0
CIRCLE
  5
659
  8
1
 10
-7.253519
 20
-2805.723991
 30
0.0
 40
0.888911
  0
CIRCLE
  5
65A
  8
1
 10
-7.253519
 20
-2835.266077
 30
0.0
 40
0.888911
  0
CIRCLE
  5
65B
  8
1
 10
5.538579
 20
-2813.109512
 30
0.0
 40
0.888911
  0
CIRCLE
  5
65C
  8
1
 10
5.538579
 20
-2827.880556
 30
0.0
 40
0.888911
  0
CIRCLE
  5
65D
  8
1
 10
-7.253519
 20
-2820.495034
 30
0.0
 40
0.888911
  0
ENDBLK
  5
65E
  8
0
  0
BLOCK
  5
660
  8
1
  2
*U160
 70
    65
 10
0.0
 20
0.0
 30
0.0
  3
*U160
  1

  0
CIRCLE
  5
661
  8
1
 10
18.330678
 20
-2805.723991
 30
0.0
 40
0.888911
  0
CIRCLE
  5
662
  8
1
 10
18.330678
 20
-2835.266077
 30
0.0
 40
0.888911
  0
CIRCLE
  5
663
  8
1
 10
31.122777
 20
-2813.109512
 30
0.0
 40
0.888911
  0
CIRCLE
  5
664
  8
1
 10
31.122777
 20
-2827.880556
 30
0.0
 40
0.888911
  0
CIRCLE
  5
665
  8
1
 10
18.330678
 20
-2820.495034
 30
0.0
 40
0.888911
  0
ENDBLK
  5
666
  8
0
  0
BLOCK
  5
668
  8
1
  2
*U161
 70
    65
 10
0.0
 20
0.0
 30
0.0
  3
*U161
  1

  0
CIRCLE
  5
669
  8
1
 10
43.914875
 20
-2805.723991
 30
0.0
 40
0.888911
  0
CIRCLE
  5
66A
  8
1
 10
43.914875
 20
-2835.266077
 30
0.0
 40
0.888911
  0
CIRCLE
  5
66B
  8
1
 10
56.706974
 20
-2813.109512
 30
0.0
 40
0.888911
  0
CIRCLE
  5
66C
  8
1
 10
56.706974
 20
-2827.880556
 30
0.0
 40
0.888911
  0
CIRCLE
  5
66D
  8
1
 10
43.914875
 20
-2820.495034
 30
0.0
 40
0.888911
  0
ENDBLK
  5
66E
  8
0
  0
BLOCK
  5
670
  8
1
  2
*U162
 70
    65
 10
0.0
 20
0.0
 30
0.0
  3
*U162
  1

  0
CIRCLE
  5
671
  8
1
 10
69.499073
 20
-2805.723991
 30
0.0
 40
0.888911
  0
CIRCLE
  5
672
  8
1
 10
69.499073
 20
-2835.266077
 30
0.0
 40
0.888911
  0
CIRCLE
  5
673
  8
1
 10
82.291171
 20
-2813.109512
 30
0.0
 40
0.888911
  0
CIRCLE
  5
674
  8
1
 10
82.291171
 20
-2827.880556
 30
0.0
 40
0.888911
  0
CIRCLE
  5
675
  8
1
 10
69.499073
 20
-2820.495034
 30
0.0
 40
0.888911
  0
ENDBLK
  5
676
  8
0
  0
BLOCK
  5
678
  8
1
  2
*U163
 70
    65
 10
0.0
 20
0.0
 30
0.0
  3
*U163
  1

  0
CIRCLE
  5
679
  8
1
 10
95.08327
 20
-2805.723991
 30
0.0
 40
0.888911
  0
CIRCLE
  5
67A
  8
1
 10
95.08327
 20
-2835.266077
 30
0.0
 40
0.888911
  0
CIRCLE
  5
67B
  8
1
 10
107.875369
 20
-2813.109512
 30
0.0
 40
0.888911
  0
CIRCLE
  5
67C
  8
1
 10
107.875369
 20
-2827.880556
 30
0.0
 40
0.888911
  0
CIRCLE
  5
67D
  8
1
 10
95.08327
 20
-2820.495034
 30
0.0
 40
0.888911
  0
ENDBLK
  5
67E
  8
0
  0
BLOCK
  5
680
  8
1
  2
*U164
 70
    65
 10
0.0
 20
0.0
 30
0.0
  3
*U164
  1

  0
CIRCLE
  5
681
  8
1
 10
120.667468
 20
-2805.723991
 30
0.0
 40
0.888911
  0
CIRCLE
  5
682
  8
1
 10
120.667468
 20
-2835.266077
 30
0.0
 40
0.888911
  0
CIRCLE
  5
683
  8
1
 10
133.459566
 20
-2813.109512
 30
0.0
 40
0.888911
  0
CIRCLE
  5
684
  8
1
 10
133.459566
 20
-2827.880556
 30
0.0
 40
0.888911
  0
CIRCLE
  5
685
  8
1
 10
120.667468
 20
-2820.495034
 30
0.0
 40
0.888911
  0
ENDBLK
  5
686
  8
0
  0
BLOCK
  5
688
  8
1
  2
*U165
 70
    65
 10
0.0
 20
0.0
 30
0.0
  3
*U165
  1

  0
CIRCLE
  5
689
  8
1
 10
146.251665
 20
-2805.723991
 30
0.0
 40
0.888911
  0
CIRCLE
  5
68A
  8
1
 10
146.251665
 20
-2835.266077
 30
0.0
 40
0.888911
  0
CIRCLE
  5
68B
  8
1
 10
159.043764
 20
-2813.109512
 30
0.0
 40
0.888911
  0
CIRCLE
  5
68C
  8
1
 10
159.043764
 20
-2827.880556
 30
0.0
 40
0.888911
  0
CIRCLE
  5
68D
  8
1
 10
146.251665
 20
-2820.495034
 30
0.0
 40
0.888911
  0
ENDBLK
  5
68E
  8
0
  0
BLOCK
  5
690
  8
1
  2
*U166
 70
    65
 10
0.0
 20
0.0
 30
0.0
  3
*U166
  1

  0
CIRCLE
  5
691
  8
1
 10
171.835862
 20
-2805.723991
 30
0.0
 40
0.888911
  0
CIRCLE
  5
692
  8
1
 10
171.835862
 20
-2835.266077
 30
0.0
 40
0.888911
  0
CIRCLE
  5
693
  8
1
 10
184.627961
 20
-2813.109512
 30
0.0
 40
0.888911
  0
CIRCLE
  5
694
  8
1
 10
184.627961
 20
-2827.880556
 30
0.0
 40
0.888911
  0
CIRCLE
  5
695
  8
1
 10
171.835862
 20
-2820.495034
 30
0.0
 40
0.888911
  0
ENDBLK
  5
696
  8
0
  0
BLOCK
  5
698
  8
1
  2
*U167
 70
    65
 10
0.0
 20
0.0
 30
0.0
  3
*U167
  1

  0
CIRCLE
  5
699
  8
1
 10
197.42006
 20
-2805.723991
 30
0.0
 40
0.888911
  0
CIRCLE
  5
69A
  8
1
 10
197.42006
 20
-2835.266077
 30
0.0
 40
0.888911
  0
CIRCLE
  5
69B
  8
1
 10
210.212159
 20
-2813.109512
 30
0.0
 40
0.888911
  0
CIRCLE
  5
69C
  8
1
 10
210.212159
 20
-2827.880556
 30
0.0
 40
0.888911
  0
CIRCLE
  5
69D
  8
1
 10
197.42006
 20
-2820.495034
 30
0.0
 40
0.888911
  0
ENDBLK
  5
69E
  8
0
  0
BLOCK
  5
6A0
  8
1
  2
*U168
 70
    65
 10
0.0
 20
0.0
 30
0.0
  3
*U168
  1

  0
CIRCLE
  5
6A1
  8
1
 10
223.004257
 20
-2805.723991
 30
0.0
 40
0.888911
  0
CIRCLE
  5
6A2
  8
1
 10
223.004257
 20
-2835.266077
 30
0.0
 40
0.888911
  0
CIRCLE
  5
6A3
  8
1
 10
235.796356
 20
-2813.109512
 30
0.0
 40
0.888911
  0
CIRCLE
  5
6A4
  8
1
 10
235.796356
 20
-2827.880556
 30
0.0
 40
0.888911
  0
CIRCLE
  5
6A5
  8
1
 10
223.004257
 20
-2820.495034
 30
0.0
 40
0.888911
  0
ENDBLK
  5
6A6
  8
0
  0
BLOCK
  5
6A8
  8
1
  2
*U169
 70
    65
 10
0.0
 20
0.0
 30
0.0
  3
*U169
  1

  0
CIRCLE
  5
6A9
  8
1
 10
248.588455
 20
-2805.723991
 30
0.0
 40
0.888911
  0
CIRCLE
  5
6AA
  8
1
 10
248.588455
 20
-2835.266077
 30
0.0
 40
0.888911
  0
CIRCLE
  5
6AB
  8
1
 10
261.380553
 20
-2813.109512
 30
0.0
 40
0.888911
  0
CIRCLE
  5
6AC
  8
1
 10
261.380553
 20
-2827.880556
 30
0.0
 40
0.888911
  0
CIRCLE
  5
6AD
  8
1
 10
248.588455
 20
-2820.495034
 30
0.0
 40
0.888911
  0
ENDBLK
  5
6AE
  8
0
  0
BLOCK
  5
6B0
  8
1
  2
*U170
 70
    65
 10
0.0
 20
0.0
 30
0.0
  3
*U170
  1

  0
CIRCLE
  5
6B1
  8
1
 10
274.172652
 20
-2805.723991
 30
0.0
 40
0.888911
  0
CIRCLE
  5
6B2
  8
1
 10
274.172652
 20
-2835.266077
 30
0.0
 40
0.888911
  0
CIRCLE
  5
6B3
  8
1
 10
286.964751
 20
-2813.109512
 30
0.0
 40
0.888911
  0
CIRCLE
  5
6B4
  8
1
 10
286.964751
 20
-2827.880556
 30
0.0
 40
0.888911
  0
CIRCLE
  5
6B5
  8
1
 10
274.172652
 20
-2820.495034
 30
0.0
 40
0.888911
  0
ENDBLK
  5
6B6
  8
0
  0
BLOCK
  5
6B8
  8
1
  2
*U171
 70
    65
 10
0.0
 20
0.0
 30
0.0
  3
*U171
  1

  0
CIRCLE
  5
6B9
  8
1
 10
299.75685
 20
-2805.723991
 30
0.0
 40
0.888911
  0
CIRCLE
  5
6BA
  8
1
 10
299.75685
 20
-2835.266077
 30
0.0
 40
0.888911
  0
CIRCLE
  5
6BB
  8
1
 10
312.548948
 20
-2813.109512
 30
0.0
 40
0.888911
  0
CIRCLE
  5
6BC
  8
1
 10
312.548948
 20
-2827.880556
 30
0.0
 40
0.888911
  0
CIRCLE
  5
6BD
  8
1
 10
299.75685
 20
-2820.495034
 30
0.0
 40
0.888911
  0
ENDBLK
  5
6BE
  8
0
  0
BLOCK
  5
6C0
  8
1
  2
*U172
 70
    65
 10
0.0
 20
0.0
 30
0.0
  3
*U172
  1

  0
CIRCLE
  5
6C1
  8
1
 10
325.341047
 20
-2805.723991
 30
0.0
 40
0.888911
  0
CIRCLE
  5
6C2
  8
1
 10
325.341047
 20
-2835.266077
 30
0.0
 40
0.888911
  0
CIRCLE
  5
6C3
  8
1
 10
338.133146
 20
-2813.109512
 30
0.0
 40
0.888911
  0
CIRCLE
  5
6C4
  8
1
 10
338.133146
 20
-2827.880556
 30
0.0
 40
0.888911
  0
CIRCLE
  5
6C5
  8
1
 10
325.341047
 20
-2820.495034
 30
0.0
 40
0.888911
  0
ENDBLK
  5
6C6
  8
0
  0
BLOCK
  5
6C8
  8
1
  2
*U173
 70
    65
 10
0.0
 20
0.0
 30
0.0
  3
*U173
  1

  0
CIRCLE
  5
6C9
  8
1
 10
350.925244
 20
-2805.723991
 30
0.0
 40
0.888911
  0
CIRCLE
  5
6CA
  8
1
 10
350.925244
 20
-2835.266077
 30
0.0
 40
0.888911
  0
CIRCLE
  5
6CB
  8
1
 10
363.717343
 20
-2813.109512
 30
0.0
 40
0.888911
  0
CIRCLE
  5
6CC
  8
1
 10
363.717343
 20
-2827.880556
 30
0.0
 40
0.888911
  0
CIRCLE
  5
6CD
  8
1
 10
350.925244
 20
-2820.495034
 30
0.0
 40
0.888911
  0
ENDBLK
  5
6CE
  8
0
  0
BLOCK
  5
6D0
  8
1
  2
*U174
 70
    65
 10
0.0
 20
0.0
 30
0.0
  3
*U174
  1

  0
CIRCLE
  5
6D1
  8
1
 10
376.509442
 20
-2805.723991
 30
0.0
 40
0.888911
  0
CIRCLE
  5
6D2
  8
1
 10
376.509442
 20
-2835.266077
 30
0.0
 40
0.888911
  0
CIRCLE
  5
6D3
  8
1
 10
389.30154
 20
-2813.109512
 30
0.0
 40
0.888911
  0
CIRCLE
  5
6D4
  8
1
 10
389.30154
 20
-2827.880556
 30
0.0
 40
0.888911
  0
CIRCLE
  5
6D5
  8
1
 10
376.509442
 20
-2820.495034
 30
0.0
 40
0.888911
  0
ENDBLK
  5
6D6
  8
0
  0
BLOCK
  5
6D8
  8
1
  2
*U175
 70
    65
 10
0.0
 20
0.0
 30
0.0
  3
*U175
  1

  0
CIRCLE
  5
6D9
  8
1
 10
402.093639
 20
-2805.723991
 30
0.0
 40
0.888911
  0
CIRCLE
  5
6DA
  8
1
 10
402.093639
 20
-2835.266077
 30
0.0
 40
0.888911
  0
CIRCLE
  5
6DB
  8
1
 10
414.885738
 20
-2813.109512
 30
0.0
 40
0.888911
  0
CIRCLE
  5
6DC
  8
1
 10
414.885738
 20
-2827.880556
 30
0.0
 40
0.888911
  0
CIRCLE
  5
6DD
  8
1
 10
402.093639
 20
-2820.495034
 30
0.0
 40
0.888911
  0
ENDBLK
  5
6DE
  8
0
  0
BLOCK
  5
6E0
  8
1
  2
*U176
 70
    65
 10
0.0
 20
0.0
 30
0.0
  3
*U176
  1

  0
CIRCLE
  5
6E1
  8
1
 10
427.677837
 20
-2805.723991
 30
0.0
 40
0.888911
  0
CIRCLE
  5
6E2
  8
1
 10
427.677837
 20
-2835.266077
 30
0.0
 40
0.888911
  0
CIRCLE
  5
6E3
  8
1
 10
440.469935
 20
-2813.109512
 30
0.0
 40
0.888911
  0
CIRCLE
  5
6E4
  8
1
 10
440.469935
 20
-2827.880556
 30
0.0
 40
0.888911
  0
CIRCLE
  5
6E5
  8
1
 10
427.677837
 20
-2820.495034
 30
0.0
 40
0.888911
  0
ENDBLK
  5
6E6
  8
0
  0
BLOCK
  5
6E8
  8
1
  2
*U177
 70
    65
 10
0.0
 20
0.0
 30
0.0
  3
*U177
  1

  0
CIRCLE
  5
6E9
  8
1
 10
453.262034
 20
-2805.723991
 30
0.0
 40
0.888911
  0
CIRCLE
  5
6EA
  8
1
 10
453.262034
 20
-2835.266077
 30
0.0
 40
0.888911
  0
CIRCLE
  5
6EB
  8
1
 10
466.054133
 20
-2813.109512
 30
0.0
 40
0.888911
  0
CIRCLE
  5
6EC
  8
1
 10
466.054133
 20
-2827.880556
 30
0.0
 40
0.888911
  0
CIRCLE
  5
6ED
  8
1
 10
453.262034
 20
-2820.495034
 30
0.0
 40
0.888911
  0
ENDBLK
  5
6EE
  8
0
  0
BLOCK
  5
6F0
  8
1
  2
*U178
 70
    65
 10
0.0
 20
0.0
 30
0.0
  3
*U178
  1

  0
CIRCLE
  5
6F1
  8
1
 10
478.846231
 20
-2805.723991
 30
0.0
 40
0.888911
  0
CIRCLE
  5
6F2
  8
1
 10
478.846231
 20
-2835.266077
 30
0.0
 40
0.888911
  0
CIRCLE
  5
6F3
  8
1
 10
491.63833
 20
-2813.109512
 30
0.0
 40
0.888911
  0
CIRCLE
  5
6F4
  8
1
 10
491.63833
 20
-2827.880556
 30
0.0
 40
0.888911
  0
CIRCLE
  5
6F5
  8
1
 10
478.846231
 20
-2820.495034
 30
0.0
 40
0.888911
  0
ENDBLK
  5
6F6
  8
0
  0
BLOCK
  5
6F8
  8
1
  2
*U179
 70
    65
 10
0.0
 20
0.0
 30
0.0
  3
*U179
  1

  0
CIRCLE
  5
6F9
  8
1
 10
504.430429
 20
-2805.723991
 30
0.0
 40
0.888911
  0
CIRCLE
  5
6FA
  8
1
 10
504.430429
 20
-2835.266077
 30
0.0
 40
0.888911
  0
CIRCLE
  5
6FB
  8
1
 10
517.222528
 20
-2813.109512
 30
0.0
 40
0.888911
  0
CIRCLE
  5
6FC
  8
1
 10
517.222528
 20
-2827.880556
 30
0.0
 40
0.888911
  0
CIRCLE
  5
6FD
  8
1
 10
504.430429
 20
-2820.495034
 30
0.0
 40
0.888911
  0
ENDBLK
  5
6FE
  8
0
  0
BLOCK
  5
700
  8
1
  2
*U180
 70
    65
 10
0.0
 20
0.0
 30
0.0
  3
*U180
  1

  0
CIRCLE
  5
701
  8
1
 10
530.014626
 20
-2805.723991
 30
0.0
 40
0.888911
  0
CIRCLE
  5
702
  8
1
 10
530.014626
 20
-2835.266077
 30
0.0
 40
0.888911
  0
CIRCLE
  5
703
  8
1
 10
542.806725
 20
-2813.109512
 30
0.0
 40
0.888911
  0
CIRCLE
  5
704
  8
1
 10
542.806725
 20
-2827.880556
 30
0.0
 40
0.888911
  0
CIRCLE
  5
705
  8
1
 10
530.014626
 20
-2820.495034
 30
0.0
 40
0.888911
  0
ENDBLK
  5
706
  8
0
  0
BLOCK
  5
708
  8
1
  2
*U181
 70
    65
 10
0.0
 20
0.0
 30
0.0
  3
*U181
  1

  0
CIRCLE
  5
709
  8
1
 10
555.598824
 20
-2805.723991
 30
0.0
 40
0.888911
  0
CIRCLE
  5
70A
  8
1
 10
555.598824
 20
-2835.266077
 30
0.0
 40
0.888911
  0
CIRCLE
  5
70B
  8
1
 10
568.390922
 20
-2813.109512
 30
0.0
 40
0.888911
  0
CIRCLE
  5
70C
  8
1
 10
568.390922
 20
-2827.880556
 30
0.0
 40
0.888911
  0
CIRCLE
  5
70D
  8
1
 10
555.598824
 20
-2820.495034
 30
0.0
 40
0.888911
  0
ENDBLK
  5
70E
  8
0
  0
BLOCK
  5
710
  8
1
  2
*U182
 70
    65
 10
0.0
 20
0.0
 30
0.0
  3
*U182
  1

  0
CIRCLE
  5
711
  8
1
 10
581.183021
 20
-2805.723991
 30
0.0
 40
0.888911
  0
CIRCLE
  5
712
  8
1
 10
581.183021
 20
-2835.266077
 30
0.0
 40
0.888911
  0
CIRCLE
  5
713
  8
1
 10
593.97512
 20
-2813.109512
 30
0.0
 40
0.888911
  0
CIRCLE
  5
714
  8
1
 10
593.97512
 20
-2827.880556
 30
0.0
 40
0.888911
  0
CIRCLE
  5
715
  8
1
 10
581.183021
 20
-2820.495034
 30
0.0
 40
0.888911
  0
ENDBLK
  5
716
  8
0
  0
BLOCK
  5
718
  8
1
  2
*U183
 70
    65
 10
0.0
 20
0.0
 30
0.0
  3
*U183
  1

  0
CIRCLE
  5
719
  8
1
 10
606.767218
 20
-2805.723991
 30
0.0
 40
0.888911
  0
CIRCLE
  5
71A
  8
1
 10
606.767218
 20
-2835.266077
 30
0.0
 40
0.888911
  0
CIRCLE
  5
71B
  8
1
 10
619.559317
 20
-2813.109512
 30
0.0
 40
0.888911
  0
CIRCLE
  5
71C
  8
1
 10
619.559317
 20
-2827.880556
 30
0.0
 40
0.888911
  0
CIRCLE
  5
71D
  8
1
 10
606.767218
 20
-2820.495034
 30
0.0
 40
0.888911
  0
ENDBLK
  5
71E
  8
0
  0
BLOCK
  5
720
  8
1
  2
*U184
 70
    65
 10
0.0
 20
0.0
 30
0.0
  3
*U184
  1

  0
CIRCLE
  5
721
  8
1
 10
632.351416
 20
-2805.723991
 30
0.0
 40
0.888911
  0
CIRCLE
  5
722
  8
1
 10
632.351416
 20
-2835.266077
 30
0.0
 40
0.888911
  0
CIRCLE
  5
723
  8
1
 10
645.143515
 20
-2813.109512
 30
0.0
 40
0.888911
  0
CIRCLE
  5
724
  8
1
 10
645.143515
 20
-2827.880556
 30
0.0
 40
0.888911
  0
CIRCLE
  5
725
  8
1
 10
632.351416
 20
-2820.495034
 30
0.0
 40
0.888911
  0
ENDBLK
  5
726
  8
0
  0
BLOCK
  5
728
  8
1
  2
*U185
 70
    65
 10
0.0
 20
0.0
 30
0.0
  3
*U185
  1

  0
CIRCLE
  5
729
  8
1
 10
657.935613
 20
-2805.723991
 30
0.0
 40
0.888911
  0
CIRCLE
  5
72A
  8
1
 10
657.935613
 20
-2835.266077
 30
0.0
 40
0.888911
  0
CIRCLE
  5
72B
  8
1
 10
670.727712
 20
-2813.109512
 30
0.0
 40
0.888911
  0
CIRCLE
  5
72C
  8
1
 10
670.727712
 20
-2827.880556
 30
0.0
 40
0.888911
  0
CIRCLE
  5
72D
  8
1
 10
657.935613
 20
-2820.495034
 30
0.0
 40
0.888911
  0
ENDBLK
  5
72E
  8
0
  0
BLOCK
  5
730
  8
1
  2
*U186
 70
    65
 10
0.0
 20
0.0
 30
0.0
  3
*U186
  1

  0
CIRCLE
  5
731
  8
1
 10
683.519811
 20
-2805.723991
 30
0.0
 40
0.888911
  0
CIRCLE
  5
732
  8
1
 10
683.519811
 20
-2835.266077
 30
0.0
 40
0.888911
  0
CIRCLE
  5
733
  8
1
 10
696.311909
 20
-2813.109512
 30
0.0
 40
0.888911
  0
CIRCLE
  5
734
  8
1
 10
696.311909
 20
-2827.880556
 30
0.0
 40
0.888911
  0
CIRCLE
  5
735
  8
1
 10
683.519811
 20
-2820.495034
 30
0.0
 40
0.888911
  0
ENDBLK
  5
736
  8
0
  0
BLOCK
  5
738
  8
1
  2
*U187
 70
    65
 10
0.0
 20
0.0
 30
0.0
  3
*U187
  1

  0
CIRCLE
  5
739
  8
1
 10
709.104008
 20
-2805.723991
 30
0.0
 40
0.888911
  0
CIRCLE
  5
73A
  8
1
 10
709.104008
 20
-2835.266077
 30
0.0
 40
0.888911
  0
CIRCLE
  5
73B
  8
1
 10
721.896107
 20
-2813.109512
 30
0.0
 40
0.888911
  0
CIRCLE
  5
73C
  8
1
 10
721.896107
 20
-2827.880556
 30
0.0
 40
0.888911
  0
CIRCLE
  5
73D
  8
1
 10
709.104008
 20
-2820.495034
 30
0.0
 40
0.888911
  0
ENDBLK
  5
73E
  8
0
  0
BLOCK
  5
740
  8
1
  2
*U188
 70
    65
 10
0.0
 20
0.0
 30
0.0
  3
*U188
  1

  0
CIRCLE
  5
741
  8
1
 10
734.688206
 20
-2805.723991
 30
0.0
 40
0.888911
  0
CIRCLE
  5
742
  8
1
 10
734.688206
 20
-2835.266077
 30
0.0
 40
0.888911
  0
CIRCLE
  5
743
  8
1
 10
747.480304
 20
-2813.109512
 30
0.0
 40
0.888911
  0
CIRCLE
  5
744
  8
1
 10
747.480304
 20
-2827.880556
 30
0.0
 40
0.888911
  0
CIRCLE
  5
745
  8
1
 10
734.688206
 20
-2820.495034
 30
0.0
 40
0.888911
  0
ENDBLK
  5
746
  8
0
  0
BLOCK
  5
748
  8
1
  2
*U189
 70
    65
 10
0.0
 20
0.0
 30
0.0
  3
*U189
  1

  0
CIRCLE
  5
749
  8
1
 10
760.272403
 20
-2805.723991
 30
0.0
 40
0.888911
  0
CIRCLE
  5
74A
  8
1
 10
760.272403
 20
-2835.266077
 30
0.0
 40
0.888911
  0
CIRCLE
  5
74B
  8
1
 10
773.064502
 20
-2813.109512
 30
0.0
 40
0.888911
  0
CIRCLE
  5
74C
  8
1
 10
773.064502
 20
-2827.880556
 30
0.0
 40
0.888911
  0
CIRCLE
  5
74D
  8
1
 10
760.272403
 20
-2820.495034
 30
0.0
 40
0.888911
  0
ENDBLK
  5
74E
  8
0
  0
BLOCK
  5
750
  8
1
  2
*U190
 70
    65
 10
0.0
 20
0.0
 30
0.0
  3
*U190
  1

  0
CIRCLE
  5
751
  8
1
 10
785.8566
 20
-2805.723991
 30
0.0
 40
0.888911
  0
CIRCLE
  5
752
  8
1
 10
785.8566
 20
-2835.266077
 30
0.0
 40
0.888911
  0
CIRCLE
  5
753
  8
1
 10
785.8566
 20
-2820.495034
 30
0.0
 40
0.888911
  0
ENDBLK
  5
754
  8
0
  0
BLOCK
  5
756
  8
1
  2
*U191
 70
    65
 10
0.0
 20
0.0
 30
0.0
  3
*U191
  1

  0
CIRCLE
  5
757
  8
1
 10
-451.643061
 20
-2886.354049
 30
0.0
 40
0.888911
  0
CIRCLE
  5
758
  8
1
 10
-451.643061
 20
-2915.896135
 30
0.0
 40
0.888911
  0
CIRCLE
  5
759
  8
1
 10
-438.850963
 20
-2893.73957
 30
0.0
 40
0.888911
  0
CIRCLE
  5
75A
  8
1
 10
-438.850963
 20
-2908.510614
 30
0.0
 40
0.888911
  0
CIRCLE
  5
75B
  8
1
 10
-438.850963
 20
-2923.281657
 30
0.0
 40
0.888911
  0
CIRCLE
  5
75C
  8
1
 10
-451.643061
 20
-2901.125092
 30
0.0
 40
0.888911
  0
ENDBLK
  5
75D
  8
0
  0
BLOCK
  5
75F
  8
1
  2
*U192
 70
    65
 10
0.0
 20
0.0
 30
0.0
  3
*U192
  1

  0
CIRCLE
  5
760
  8
1
 10
-426.058864
 20
-2886.354049
 30
0.0
 40
0.888911
  0
CIRCLE
  5
761
  8
1
 10
-426.058864
 20
-2915.896135
 30
0.0
 40
0.888911
  0
CIRCLE
  5
762
  8
1
 10
-413.266765
 20
-2893.73957
 30
0.0
 40
0.888911
  0
CIRCLE
  5
763
  8
1
 10
-413.266765
 20
-2908.510614
 30
0.0
 40
0.888911
  0
CIRCLE
  5
764
  8
1
 10
-413.266765
 20
-2923.281657
 30
0.0
 40
0.888911
  0
CIRCLE
  5
765
  8
1
 10
-426.058864
 20
-2901.125092
 30
0.0
 40
0.888911
  0
ENDBLK
  5
766
  8
0
  0
BLOCK
  5
768
  8
1
  2
*U193
 70
    65
 10
0.0
 20
0.0
 30
0.0
  3
*U193
  1

  0
CIRCLE
  5
769
  8
1
 10
-400.474666
 20
-2886.354049
 30
0.0
 40
0.888911
  0
CIRCLE
  5
76A
  8
1
 10
-400.474666
 20
-2915.896135
 30
0.0
 40
0.888911
  0
CIRCLE
  5
76B
  8
1
 10
-387.682568
 20
-2893.73957
 30
0.0
 40
0.888911
  0
CIRCLE
  5
76C
  8
1
 10
-387.682568
 20
-2908.510614
 30
0.0
 40
0.888911
  0
CIRCLE
  5
76D
  8
1
 10
-387.682568
 20
-2923.281657
 30
0.0
 40
0.888911
  0
CIRCLE
  5
76E
  8
1
 10
-400.474666
 20
-2901.125092
 30
0.0
 40
0.888911
  0
ENDBLK
  5
76F
  8
0
  0
BLOCK
  5
771
  8
1
  2
*U194
 70
    65
 10
0.0
 20
0.0
 30
0.0
  3
*U194
  1

  0
CIRCLE
  5
772
  8
1
 10
-374.890469
 20
-2886.354049
 30
0.0
 40
0.888911
  0
CIRCLE
  5
773
  8
1
 10
-374.890469
 20
-2915.896135
 30
0.0
 40
0.888911
  0
CIRCLE
  5
774
  8
1
 10
-362.09837
 20
-2893.73957
 30
0.0
 40
0.888911
  0
CIRCLE
  5
775
  8
1
 10
-362.09837
 20
-2908.510614
 30
0.0
 40
0.888911
  0
CIRCLE
  5
776
  8
1
 10
-362.09837
 20
-2923.281657
 30
0.0
 40
0.888911
  0
CIRCLE
  5
777
  8
1
 10
-374.890469
 20
-2901.125092
 30
0.0
 40
0.888911
  0
ENDBLK
  5
778
  8
0
  0
BLOCK
  5
77A
  8
1
  2
*U195
 70
    65
 10
0.0
 20
0.0
 30
0.0
  3
*U195
  1

  0
CIRCLE
  5
77B
  8
1
 10
-349.306272
 20
-2886.354049
 30
0.0
 40
0.888911
  0
CIRCLE
  5
77C
  8
1
 10
-349.306272
 20
-2915.896135
 30
0.0
 40
0.888911
  0
CIRCLE
  5
77D
  8
1
 10
-336.514173
 20
-2893.73957
 30
0.0
 40
0.888911
  0
CIRCLE
  5
77E
  8
1
 10
-336.514173
 20
-2908.510614
 30
0.0
 40
0.888911
  0
CIRCLE
  5
77F
  8
1
 10
-336.514173
 20
-2923.281657
 30
0.0
 40
0.888911
  0
CIRCLE
  5
780
  8
1
 10
-349.306272
 20
-2901.125092
 30
0.0
 40
0.888911
  0
ENDBLK
  5
781
  8
0
  0
BLOCK
  5
783
  8
1
  2
*U196
 70
    65
 10
0.0
 20
0.0
 30
0.0
  3
*U196
  1

  0
CIRCLE
  5
784
  8
1
 10
-323.722074
 20
-2886.354049
 30
0.0
 40
0.888911
  0
CIRCLE
  5
785
  8
1
 10
-323.722074
 20
-2915.896135
 30
0.0
 40
0.888911
  0
CIRCLE
  5
786
  8
1
 10
-310.929975
 20
-2893.73957
 30
0.0
 40
0.888911
  0
CIRCLE
  5
787
  8
1
 10
-310.929975
 20
-2908.510614
 30
0.0
 40
0.888911
  0
CIRCLE
  5
788
  8
1
 10
-310.929975
 20
-2923.281657
 30
0.0
 40
0.888911
  0
CIRCLE
  5
789
  8
1
 10
-323.722074
 20
-2901.125092
 30
0.0
 40
0.888911
  0
ENDBLK
  5
78A
  8
0
  0
BLOCK
  5
78C
  8
1
  2
*U197
 70
    65
 10
0.0
 20
0.0
 30
0.0
  3
*U197
  1

  0
CIRCLE
  5
78D
  8
1
 10
-298.137877
 20
-2886.354049
 30
0.0
 40
0.888911
  0
CIRCLE
  5
78E
  8
1
 10
-298.137877
 20
-2915.896135
 30
0.0
 40
0.888911
  0
CIRCLE
  5
78F
  8
1
 10
-285.345778
 20
-2893.73957
 30
0.0
 40
0.888911
  0
CIRCLE
  5
790
  8
1
 10
-285.345778
 20
-2908.510614
 30
0.0
 40
0.888911
  0
CIRCLE
  5
791
  8
1
 10
-285.345778
 20
-2923.281657
 30
0.0
 40
0.888911
  0
CIRCLE
  5
792
  8
1
 10
-298.137877
 20
-2901.125092
 30
0.0
 40
0.888911
  0
ENDBLK
  5
793
  8
0
  0
BLOCK
  5
795
  8
1
  2
*U198
 70
    65
 10
0.0
 20
0.0
 30
0.0
  3
*U198
  1

  0
CIRCLE
  5
796
  8
1
 10
-272.553679
 20
-2886.354049
 30
0.0
 40
0.888911
  0
CIRCLE
  5
797
  8
1
 10
-272.553679
 20
-2915.896135
 30
0.0
 40
0.888911
  0
CIRCLE
  5
798
  8
1
 10
-259.761581
 20
-2893.73957
 30
0.0
 40
0.888911
  0
CIRCLE
  5
799
  8
1
 10
-259.761581
 20
-2908.510614
 30
0.0
 40
0.888911
  0
CIRCLE
  5
79A
  8
1
 10
-259.761581
 20
-2923.281657
 30
0.0
 40
0.888911
  0
CIRCLE
  5
79B
  8
1
 10
-272.553679
 20
-2901.125092
 30
0.0
 40
0.888911
  0
ENDBLK
  5
79C
  8
0
  0
BLOCK
  5
79E
  8
1
  2
*U199
 70
    65
 10
0.0
 20
0.0
 30
0.0
  3
*U199
  1

  0
CIRCLE
  5
79F
  8
1
 10
-246.969482
 20
-2886.354049
 30
0.0
 40
0.888911
  0
CIRCLE
  5
7A0
  8
1
 10
-246.969482
 20
-2915.896135
 30
0.0
 40
0.888911
  0
CIRCLE
  5
7A1
  8
1
 10
-234.177383
 20
-2893.73957
 30
0.0
 40
0.888911
  0
CIRCLE
  5
7A2
  8
1
 10
-234.177383
 20
-2908.510614
 30
0.0
 40
0.888911
  0
CIRCLE
  5
7A3
  8
1
 10
-234.177383
 20
-2923.281657
 30
0.0
 40
0.888911
  0
CIRCLE
  5
7A4
  8
1
 10
-246.969482
 20
-2901.125092
 30
0.0
 40
0.888911
  0
ENDBLK
  5
7A5
  8
0
  0
BLOCK
  5
7A7
  8
1
  2
*U200
 70
    65
 10
0.0
 20
0.0
 30
0.0
  3
*U200
  1

  0
CIRCLE
  5
7A8
  8
1
 10
-221.385285
 20
-2886.354049
 30
0.0
 40
0.888911
  0
CIRCLE
  5
7A9
  8
1
 10
-221.385285
 20
-2915.896135
 30
0.0
 40
0.888911
  0
CIRCLE
  5
7AA
  8
1
 10
-208.593186
 20
-2893.73957
 30
0.0
 40
0.888911
  0
CIRCLE
  5
7AB
  8
1
 10
-208.593186
 20
-2908.510614
 30
0.0
 40
0.888911
  0
CIRCLE
  5
7AC
  8
1
 10
-208.593186
 20
-2923.281657
 30
0.0
 40
0.888911
  0
CIRCLE
  5
7AD
  8
1
 10
-221.385285
 20
-2901.125092
 30
0.0
 40
0.888911
  0
ENDBLK
  5
7AE
  8
0
  0
BLOCK
  5
7B0
  8
1
  2
*U201
 70
    65
 10
0.0
 20
0.0
 30
0.0
  3
*U201
  1

  0
CIRCLE
  5
7B1
  8
1
 10
-195.801087
 20
-2886.354049
 30
0.0
 40
0.888911
  0
CIRCLE
  5
7B2
  8
1
 10
-195.801087
 20
-2915.896135
 30
0.0
 40
0.888911
  0
CIRCLE
  5
7B3
  8
1
 10
-183.008988
 20
-2893.73957
 30
0.0
 40
0.888911
  0
CIRCLE
  5
7B4
  8
1
 10
-183.008988
 20
-2908.510614
 30
0.0
 40
0.888911
  0
CIRCLE
  5
7B5
  8
1
 10
-183.008988
 20
-2923.281657
 30
0.0
 40
0.888911
  0
CIRCLE
  5
7B6
  8
1
 10
-195.801087
 20
-2901.125092
 30
0.0
 40
0.888911
  0
ENDBLK
  5
7B7
  8
0
  0
BLOCK
  5
7B9
  8
1
  2
*U202
 70
    65
 10
0.0
 20
0.0
 30
0.0
  3
*U202
  1

  0
CIRCLE
  5
7BA
  8
1
 10
-170.21689
 20
-2886.354049
 30
0.0
 40
0.888911
  0
CIRCLE
  5
7BB
  8
1
 10
-170.21689
 20
-2915.896135
 30
0.0
 40
0.888911
  0
CIRCLE
  5
7BC
  8
1
 10
-157.424791
 20
-2893.73957
 30
0.0
 40
0.888911
  0
CIRCLE
  5
7BD
  8
1
 10
-157.424791
 20
-2908.510614
 30
0.0
 40
0.888911
  0
CIRCLE
  5
7BE
  8
1
 10
-157.424791
 20
-2923.281657
 30
0.0
 40
0.888911
  0
CIRCLE
  5
7BF
  8
1
 10
-170.21689
 20
-2901.125092
 30
0.0
 40
0.888911
  0
ENDBLK
  5
7C0
  8
0
  0
BLOCK
  5
7C2
  8
1
  2
*U203
 70
    65
 10
0.0
 20
0.0
 30
0.0
  3
*U203
  1

  0
CIRCLE
  5
7C3
  8
1
 10
-144.632692
 20
-2886.354049
 30
0.0
 40
0.888911
  0
CIRCLE
  5
7C4
  8
1
 10
-144.632692
 20
-2915.896135
 30
0.0
 40
0.888911
  0
CIRCLE
  5
7C5
  8
1
 10
-131.840594
 20
-2893.73957
 30
0.0
 40
0.888911
  0
CIRCLE
  5
7C6
  8
1
 10
-131.840594
 20
-2908.510614
 30
0.0
 40
0.888911
  0
CIRCLE
  5
7C7
  8
1
 10
-131.840594
 20
-2923.281657
 30
0.0
 40
0.888911
  0
CIRCLE
  5
7C8
  8
1
 10
-144.632692
 20
-2901.125092
 30
0.0
 40
0.888911
  0
ENDBLK
  5
7C9
  8
0
  0
BLOCK
  5
7CB
  8
1
  2
*U204
 70
    65
 10
0.0
 20
0.0
 30
0.0
  3
*U204
  1

  0
CIRCLE
  5
7CC
  8
1
 10
-119.048495
 20
-2886.354049
 30
0.0
 40
0.888911
  0
CIRCLE
  5
7CD
  8
1
 10
-119.048495
 20
-2915.896135
 30
0.0
 40
0.888911
  0
CIRCLE
  5
7CE
  8
1
 10
-106.256396
 20
-2893.73957
 30
0.0
 40
0.888911
  0
CIRCLE
  5
7CF
  8
1
 10
-106.256396
 20
-2908.510614
 30
0.0
 40
0.888911
  0
CIRCLE
  5
7D0
  8
1
 10
-106.256396
 20
-2923.281657
 30
0.0
 40
0.888911
  0
CIRCLE
  5
7D1
  8
1
 10
-119.048495
 20
-2901.125092
 30
0.0
 40
0.888911
  0
ENDBLK
  5
7D2
  8
0
  0
BLOCK
  5
7D4
  8
1
  2
*U205
 70
    65
 10
0.0
 20
0.0
 30
0.0
  3
*U205
  1

  0
CIRCLE
  5
7D5
  8
1
 10
-93.464297
 20
-2886.354049
 30
0.0
 40
0.888911
  0
CIRCLE
  5
7D6
  8
1
 10
-93.464297
 20
-2915.896135
 30
0.0
 40
0.888911
  0
CIRCLE
  5
7D7
  8
1
 10
-80.672199
 20
-2893.73957
 30
0.0
 40
0.888911
  0
CIRCLE
  5
7D8
  8
1
 10
-80.672199
 20
-2908.510614
 30
0.0
 40
0.888911
  0
CIRCLE
  5
7D9
  8
1
 10
-80.672199
 20
-2923.281657
 30
0.0
 40
0.888911
  0
CIRCLE
  5
7DA
  8
1
 10
-93.464297
 20
-2901.125092
 30
0.0
 40
0.888911
  0
ENDBLK
  5
7DB
  8
0
  0
BLOCK
  5
7DD
  8
1
  2
*U206
 70
    65
 10
0.0
 20
0.0
 30
0.0
  3
*U206
  1

  0
CIRCLE
  5
7DE
  8
1
 10
-67.8801
 20
-2886.354049
 30
0.0
 40
0.888911
  0
CIRCLE
  5
7DF
  8
1
 10
-67.8801
 20
-2915.896135
 30
0.0
 40
0.888911
  0
CIRCLE
  5
7E0
  8
1
 10
-55.088001
 20
-2893.73957
 30
0.0
 40
0.888911
  0
CIRCLE
  5
7E1
  8
1
 10
-55.088001
 20
-2908.510614
 30
0.0
 40
0.888911
  0
CIRCLE
  5
7E2
  8
1
 10
-55.088001
 20
-2923.281657
 30
0.0
 40
0.888911
  0
CIRCLE
  5
7E3
  8
1
 10
-67.8801
 20
-2901.125092
 30
0.0
 40
0.888911
  0
ENDBLK
  5
7E4
  8
0
  0
BLOCK
  5
7E6
  8
1
  2
*U207
 70
    65
 10
0.0
 20
0.0
 30
0.0
  3
*U207
  1

  0
CIRCLE
  5
7E7
  8
1
 10
-42.295903
 20
-2886.354049
 30
0.0
 40
0.888911
  0
CIRCLE
  5
7E8
  8
1
 10
-42.295903
 20
-2915.896135
 30
0.0
 40
0.888911
  0
CIRCLE
  5
7E9
  8
1
 10
-29.503804
 20
-2893.73957
 30
0.0
 40
0.888911
  0
CIRCLE
  5
7EA
  8
1
 10
-29.503804
 20
-2908.510614
 30
0.0
 40
0.888911
  0
CIRCLE
  5
7EB
  8
1
 10
-29.503804
 20
-2923.281657
 30
0.0
 40
0.888911
  0
CIRCLE
  5
7EC
  8
1
 10
-42.295903
 20
-2901.125092
 30
0.0
 40
0.888911
  0
ENDBLK
  5
7ED
  8
0
  0
BLOCK
  5
7EF
  8
1
  2
*U208
 70
    65
 10
0.0
 20
0.0
 30
0.0
  3
*U208
  1

  0
CIRCLE
  5
7F0
  8
1
 10
-16.711705
 20
-2886.354049
 30
0.0
 40
0.888911
  0
CIRCLE
  5
7F1
  8
1
 10
-16.711705
 20
-2915.896135
 30
0.0
 40
0.888911
  0
CIRCLE
  5
7F2
  8
1
 10
-3.919607
 20
-2893.73957
 30
0.0
 40
0.888911
  0
CIRCLE
  5
7F3
  8
1
 10
-3.919607
 20
-2908.510614
 30
0.0
 40
0.888911
  0
CIRCLE
  5
7F4
  8
1
 10
-3.919607
 20
-2923.281657
 30
0.0
 40
0.888911
  0
CIRCLE
  5
7F5
  8
1
 10
-16.711705
 20
-2901.125092
 30
0.0
 40
0.888911
  0
ENDBLK
  5
7F6
  8
0
  0
BLOCK
  5
7F8
  8
1
  2
*U209
 70
    65
 10
0.0
 20
0.0
 30
0.0
  3
*U209
  1

  0
CIRCLE
  5
7F9
  8
1
 10
8.872492
 20
-2886.354049
 30
0.0
 40
0.888911
  0
CIRCLE
  5
7FA
  8
1
 10
8.872492
 20
-2915.896135
 30
0.0
 40
0.888911
  0
CIRCLE
  5
7FB
  8
1
 10
21.664591
 20
-2893.73957
 30
0.0
 40
0.888911
  0
CIRCLE
  5
7FC
  8
1
 10
21.664591
 20
-2908.510614
 30
0.0
 40
0.888911
  0
CIRCLE
  5
7FD
  8
1
 10
21.664591
 20
-2923.281657
 30
0.0
 40
0.888911
  0
CIRCLE
  5
7FE
  8
1
 10
8.872492
 20
-2901.125092
 30
0.0
 40
0.888911
  0
ENDBLK
  5
7FF
  8
0
  0
BLOCK
  5
801
  8
1
  2
*U210
 70
    65
 10
0.0
 20
0.0
 30
0.0
  3
*U210
  1

  0
CIRCLE
  5
802
  8
1
 10
34.45669
 20
-2886.354049
 30
0.0
 40
0.888911
  0
CIRCLE
  5
803
  8
1
 10
34.45669
 20
-2915.896135
 30
0.0
 40
0.888911
  0
CIRCLE
  5
804
  8
1
 10
47.248788
 20
-2893.73957
 30
0.0
 40
0.888911
  0
CIRCLE
  5
805
  8
1
 10
47.248788
 20
-2908.510614
 30
0.0
 40
0.888911
  0
CIRCLE
  5
806
  8
1
 10
47.248788
 20
-2923.281657
 30
0.0
 40
0.888911
  0
CIRCLE
  5
807
  8
1
 10
34.45669
 20
-2901.125092
 30
0.0
 40
0.888911
  0
ENDBLK
  5
808
  8
0
  0
BLOCK
  5
80A
  8
1
  2
*U211
 70
    65
 10
0.0
 20
0.0
 30
0.0
  3
*U211
  1

  0
CIRCLE
  5
80B
  8
1
 10
60.040887
 20
-2886.354049
 30
0.0
 40
0.888911
  0
CIRCLE
  5
80C
  8
1
 10
60.040887
 20
-2915.896135
 30
0.0
 40
0.888911
  0
CIRCLE
  5
80D
  8
1
 10
72.832986
 20
-2893.73957
 30
0.0
 40
0.888911
  0
CIRCLE
  5
80E
  8
1
 10
72.832986
 20
-2908.510614
 30
0.0
 40
0.888911
  0
CIRCLE
  5
80F
  8
1
 10
72.832986
 20
-2923.281657
 30
0.0
 40
0.888911
  0
CIRCLE
  5
810
  8
1
 10
60.040887
 20
-2901.125092
 30
0.0
 40
0.888911
  0
ENDBLK
  5
811
  8
0
  0
BLOCK
  5
813
  8
1
  2
*U212
 70
    65
 10
0.0
 20
0.0
 30
0.0
  3
*U212
  1

  0
CIRCLE
  5
814
  8
1
 10
85.625084
 20
-2886.354049
 30
0.0
 40
0.888911
  0
CIRCLE
  5
815
  8
1
 10
85.625084
 20
-2915.896135
 30
0.0
 40
0.888911
  0
CIRCLE
  5
816
  8
1
 10
98.417183
 20
-2893.73957
 30
0.0
 40
0.888911
  0
CIRCLE
  5
817
  8
1
 10
98.417183
 20
-2908.510614
 30
0.0
 40
0.888911
  0
CIRCLE
  5
818
  8
1
 10
98.417183
 20
-2923.281657
 30
0.0
 40
0.888911
  0
CIRCLE
  5
819
  8
1
 10
85.625084
 20
-2901.125092
 30
0.0
 40
0.888911
  0
ENDBLK
  5
81A
  8
0
  0
BLOCK
  5
81C
  8
1
  2
*U213
 70
    65
 10
0.0
 20
0.0
 30
0.0
  3
*U213
  1

  0
CIRCLE
  5
81D
  8
1
 10
111.209282
 20
-2886.354049
 30
0.0
 40
0.888911
  0
CIRCLE
  5
81E
  8
1
 10
111.209282
 20
-2915.896135
 30
0.0
 40
0.888911
  0
CIRCLE
  5
81F
  8
1
 10
124.001381
 20
-2893.73957
 30
0.0
 40
0.888911
  0
CIRCLE
  5
820
  8
1
 10
124.001381
 20
-2908.510614
 30
0.0
 40
0.888911
  0
CIRCLE
  5
821
  8
1
 10
124.001381
 20
-2923.281657
 30
0.0
 40
0.888911
  0
CIRCLE
  5
822
  8
1
 10
111.209282
 20
-2901.125092
 30
0.0
 40
0.888911
  0
ENDBLK
  5
823
  8
0
  0
BLOCK
  5
825
  8
1
  2
*U214
 70
    65
 10
0.0
 20
0.0
 30
0.0
  3
*U214
  1

  0
CIRCLE
  5
826
  8
1
 10
136.793479
 20
-2886.354049
 30
0.0
 40
0.888911
  0
CIRCLE
  5
827
  8
1
 10
136.793479
 20
-2915.896135
 30
0.0
 40
0.888911
  0
CIRCLE
  5
828
  8
1
 10
149.585578
 20
-2893.73957
 30
0.0
 40
0.888911
  0
CIRCLE
  5
829
  8
1
 10
149.585578
 20
-2908.510614
 30
0.0
 40
0.888911
  0
CIRCLE
  5
82A
  8
1
 10
149.585578
 20
-2923.281657
 30
0.0
 40
0.888911
  0
CIRCLE
  5
82B
  8
1
 10
136.793479
 20
-2901.125092
 30
0.0
 40
0.888911
  0
ENDBLK
  5
82C
  8
0
  0
BLOCK
  5
82E
  8
1
  2
*U215
 70
    65
 10
0.0
 20
0.0
 30
0.0
  3
*U215
  1

  0
CIRCLE
  5
82F
  8
1
 10
162.377677
 20
-2886.354049
 30
0.0
 40
0.888911
  0
CIRCLE
  5
830
  8
1
 10
162.377677
 20
-2915.896135
 30
0.0
 40
0.888911
  0
CIRCLE
  5
831
  8
1
 10
175.169775
 20
-2893.73957
 30
0.0
 40
0.888911
  0
CIRCLE
  5
832
  8
1
 10
175.169775
 20
-2908.510614
 30
0.0
 40
0.888911
  0
CIRCLE
  5
833
  8
1
 10
175.169775
 20
-2923.281657
 30
0.0
 40
0.888911
  0
CIRCLE
  5
834
  8
1
 10
162.377677
 20
-2901.125092
 30
0.0
 40
0.888911
  0
ENDBLK
  5
835
  8
0
  0
BLOCK
  5
837
  8
1
  2
*U216
 70
    65
 10
0.0
 20
0.0
 30
0.0
  3
*U216
  1

  0
CIRCLE
  5
838
  8
1
 10
187.961874
 20
-2886.354049
 30
0.0
 40
0.888911
  0
CIRCLE
  5
839
  8
1
 10
187.961874
 20
-2915.896135
 30
0.0
 40
0.888911
  0
CIRCLE
  5
83A
  8
1
 10
200.753973
 20
-2893.73957
 30
0.0
 40
0.888911
  0
CIRCLE
  5
83B
  8
1
 10
200.753973
 20
-2908.510614
 30
0.0
 40
0.888911
  0
CIRCLE
  5
83C
  8
1
 10
200.753973
 20
-2923.281657
 30
0.0
 40
0.888911
  0
CIRCLE
  5
83D
  8
1
 10
187.961874
 20
-2901.125092
 30
0.0
 40
0.888911
  0
ENDBLK
  5
83E
  8
0
  0
BLOCK
  5
840
  8
1
  2
*U217
 70
    65
 10
0.0
 20
0.0
 30
0.0
  3
*U217
  1

  0
CIRCLE
  5
841
  8
1
 10
213.546071
 20
-2886.354049
 30
0.0
 40
0.888911
  0
CIRCLE
  5
842
  8
1
 10
213.546071
 20
-2915.896135
 30
0.0
 40
0.888911
  0
CIRCLE
  5
843
  8
1
 10
226.33817
 20
-2893.73957
 30
0.0
 40
0.888911
  0
CIRCLE
  5
844
  8
1
 10
226.33817
 20
-2908.510614
 30
0.0
 40
0.888911
  0
CIRCLE
  5
845
  8
1
 10
226.33817
 20
-2923.281657
 30
0.0
 40
0.888911
  0
CIRCLE
  5
846
  8
1
 10
213.546071
 20
-2901.125092
 30
0.0
 40
0.888911
  0
ENDBLK
  5
847
  8
0
  0
BLOCK
  5
849
  8
1
  2
*U218
 70
    65
 10
0.0
 20
0.0
 30
0.0
  3
*U218
  1

  0
CIRCLE
  5
84A
  8
1
 10
239.130269
 20
-2886.354049
 30
0.0
 40
0.888911
  0
CIRCLE
  5
84B
  8
1
 10
239.130269
 20
-2915.896135
 30
0.0
 40
0.888911
  0
CIRCLE
  5
84C
  8
1
 10
251.922368
 20
-2893.73957
 30
0.0
 40
0.888911
  0
CIRCLE
  5
84D
  8
1
 10
251.922368
 20
-2908.510614
 30
0.0
 40
0.888911
  0
CIRCLE
  5
84E
  8
1
 10
251.922368
 20
-2923.281657
 30
0.0
 40
0.888911
  0
CIRCLE
  5
84F
  8
1
 10
239.130269
 20
-2901.125092
 30
0.0
 40
0.888911
  0
ENDBLK
  5
850
  8
0
  0
BLOCK
  5
852
  8
1
  2
*U219
 70
    65
 10
0.0
 20
0.0
 30
0.0
  3
*U219
  1

  0
CIRCLE
  5
853
  8
1
 10
264.714466
 20
-2886.354049
 30
0.0
 40
0.888911
  0
CIRCLE
  5
854
  8
1
 10
264.714466
 20
-2915.896135
 30
0.0
 40
0.888911
  0
CIRCLE
  5
855
  8
1
 10
277.506565
 20
-2893.73957
 30
0.0
 40
0.888911
  0
CIRCLE
  5
856
  8
1
 10
277.506565
 20
-2908.510614
 30
0.0
 40
0.888911
  0
CIRCLE
  5
857
  8
1
 10
277.506565
 20
-2923.281657
 30
0.0
 40
0.888911
  0
CIRCLE
  5
858
  8
1
 10
264.714466
 20
-2901.125092
 30
0.0
 40
0.888911
  0
ENDBLK
  5
859
  8
0
  0
BLOCK
  5
85B
  8
1
  2
*U220
 70
    65
 10
0.0
 20
0.0
 30
0.0
  3
*U220
  1

  0
CIRCLE
  5
85C
  8
1
 10
290.298664
 20
-2886.354049
 30
0.0
 40
0.888911
  0
CIRCLE
  5
85D
  8
1
 10
290.298664
 20
-2915.896135
 30
0.0
 40
0.888911
  0
CIRCLE
  5
85E
  8
1
 10
303.090762
 20
-2893.73957
 30
0.0
 40
0.888911
  0
CIRCLE
  5
85F
  8
1
 10
303.090762
 20
-2908.510614
 30
0.0
 40
0.888911
  0
CIRCLE
  5
860
  8
1
 10
303.090762
 20
-2923.281657
 30
0.0
 40
0.888911
  0
CIRCLE
  5
861
  8
1
 10
290.298664
 20
-2901.125092
 30
0.0
 40
0.888911
  0
ENDBLK
  5
862
  8
0
  0
BLOCK
  5
864
  8
1
  2
*U221
 70
    65
 10
0.0
 20
0.0
 30
0.0
  3
*U221
  1

  0
CIRCLE
  5
865
  8
1
 10
315.882861
 20
-2886.354049
 30
0.0
 40
0.888911
  0
CIRCLE
  5
866
  8
1
 10
315.882861
 20
-2915.896135
 30
0.0
 40
0.888911
  0
CIRCLE
  5
867
  8
1
 10
328.67496
 20
-2893.73957
 30
0.0
 40
0.888911
  0
CIRCLE
  5
868
  8
1
 10
328.67496
 20
-2908.510614
 30
0.0
 40
0.888911
  0
CIRCLE
  5
869
  8
1
 10
328.67496
 20
-2923.281657
 30
0.0
 40
0.888911
  0
CIRCLE
  5
86A
  8
1
 10
315.882861
 20
-2901.125092
 30
0.0
 40
0.888911
  0
ENDBLK
  5
86B
  8
0
  0
BLOCK
  5
86D
  8
1
  2
*U222
 70
    65
 10
0.0
 20
0.0
 30
0.0
  3
*U222
  1

  0
CIRCLE
  5
86E
  8
1
 10
341.467059
 20
-2886.354049
 30
0.0
 40
0.888911
  0
CIRCLE
  5
86F
  8
1
 10
341.467059
 20
-2915.896135
 30
0.0
 40
0.888911
  0
CIRCLE
  5
870
  8
1
 10
354.259157
 20
-2893.73957
 30
0.0
 40
0.888911
  0
CIRCLE
  5
871
  8
1
 10
354.259157
 20
-2908.510614
 30
0.0
 40
0.888911
  0
CIRCLE
  5
872
  8
1
 10
354.259157
 20
-2923.281657
 30
0.0
 40
0.888911
  0
CIRCLE
  5
873
  8
1
 10
341.467059
 20
-2901.125092
 30
0.0
 40
0.888911
  0
ENDBLK
  5
874
  8
0
  0
BLOCK
  5
876
  8
1
  2
*U223
 70
    65
 10
0.0
 20
0.0
 30
0.0
  3
*U223
  1

  0
CIRCLE
  5
877
  8
1
 10
367.051256
 20
-2886.354049
 30
0.0
 40
0.888911
  0
CIRCLE
  5
878
  8
1
 10
367.051256
 20
-2915.896135
 30
0.0
 40
0.888911
  0
CIRCLE
  5
879
  8
1
 10
379.843355
 20
-2893.73957
 30
0.0
 40
0.888911
  0
CIRCLE
  5
87A
  8
1
 10
379.843355
 20
-2908.510614
 30
0.0
 40
0.888911
  0
CIRCLE
  5
87B
  8
1
 10
379.843355
 20
-2923.281657
 30
0.0
 40
0.888911
  0
CIRCLE
  5
87C
  8
1
 10
367.051256
 20
-2901.125092
 30
0.0
 40
0.888911
  0
ENDBLK
  5
87D
  8
0
  0
BLOCK
  5
87F
  8
1
  2
*U224
 70
    65
 10
0.0
 20
0.0
 30
0.0
  3
*U224
  1

  0
CIRCLE
  5
880
  8
1
 10
392.635453
 20
-2886.354049
 30
0.0
 40
0.888911
  0
CIRCLE
  5
881
  8
1
 10
392.635453
 20
-2915.896135
 30
0.0
 40
0.888911
  0
CIRCLE
  5
882
  8
1
 10
405.427552
 20
-2893.73957
 30
0.0
 40
0.888911
  0
CIRCLE
  5
883
  8
1
 10
405.427552
 20
-2908.510614
 30
0.0
 40
0.888911
  0
CIRCLE
  5
884
  8
1
 10
405.427552
 20
-2923.281657
 30
0.0
 40
0.888911
  0
CIRCLE
  5
885
  8
1
 10
392.635453
 20
-2901.125092
 30
0.0
 40
0.888911
  0
ENDBLK
  5
886
  8
0
  0
BLOCK
  5
888
  8
1
  2
*U225
 70
    65
 10
0.0
 20
0.0
 30
0.0
  3
*U225
  1

  0
CIRCLE
  5
889
  8
1
 10
418.219651
 20
-2886.354049
 30
0.0
 40
0.888911
  0
CIRCLE
  5
88A
  8
1
 10
418.219651
 20
-2915.896135
 30
0.0
 40
0.888911
  0
CIRCLE
  5
88B
  8
1
 10
431.011749
 20
-2893.73957
 30
0.0
 40
0.888911
  0
CIRCLE
  5
88C
  8
1
 10
431.011749
 20
-2908.510614
 30
0.0
 40
0.888911
  0
CIRCLE
  5
88D
  8
1
 10
431.011749
 20
-2923.281657
 30
0.0
 40
0.888911
  0
CIRCLE
  5
88E
  8
1
 10
418.219651
 20
-2901.125092
 30
0.0
 40
0.888911
  0
ENDBLK
  5
88F
  8
0
  0
BLOCK
  5
891
  8
1
  2
*U226
 70
    65
 10
0.0
 20
0.0
 30
0.0
  3
*U226
  1

  0
CIRCLE
  5
892
  8
1
 10
443.803848
 20
-2886.354049
 30
0.0
 40
0.888911
  0
CIRCLE
  5
893
  8
1
 10
443.803848
 20
-2915.896135
 30
0.0
 40
0.888911
  0
CIRCLE
  5
894
  8
1
 10
456.595947
 20
-2893.73957
 30
0.0
 40
0.888911
  0
CIRCLE
  5
895
  8
1
 10
456.595947
 20
-2908.510614
 30
0.0
 40
0.888911
  0
CIRCLE
  5
896
  8
1
 10
456.595947
 20
-2923.281657
 30
0.0
 40
0.888911
  0
CIRCLE
  5
897
  8
1
 10
443.803848
 20
-2901.125092
 30
0.0
 40
0.888911
  0
ENDBLK
  5
898
  8
0
  0
BLOCK
  5
89A
  8
1
  2
*U227
 70
    65
 10
0.0
 20
0.0
 30
0.0
  3
*U227
  1

  0
CIRCLE
  5
89B
  8
1
 10
469.388046
 20
-2886.354049
 30
0.0
 40
0.888911
  0
CIRCLE
  5
89C
  8
1
 10
469.388046
 20
-2915.896135
 30
0.0
 40
0.888911
  0
CIRCLE
  5
89D
  8
1
 10
482.180144
 20
-2893.73957
 30
0.0
 40
0.888911
  0
CIRCLE
  5
89E
  8
1
 10
482.180144
 20
-2908.510614
 30
0.0
 40
0.888911
  0
CIRCLE
  5
89F
  8
1
 10
482.180144
 20
-2923.281657
 30
0.0
 40
0.888911
  0
CIRCLE
  5
8A0
  8
1
 10
469.388046
 20
-2901.125092
 30
0.0
 40
0.888911
  0
ENDBLK
  5
8A1
  8
0
  0
BLOCK
  5
8A3
  8
1
  2
*U228
 70
    65
 10
0.0
 20
0.0
 30
0.0
  3
*U228
  1

  0
CIRCLE
  5
8A4
  8
1
 10
494.972243
 20
-2886.354049
 30
0.0
 40
0.888911
  0
CIRCLE
  5
8A5
  8
1
 10
494.972243
 20
-2915.896135
 30
0.0
 40
0.888911
  0
CIRCLE
  5
8A6
  8
1
 10
507.764342
 20
-2893.73957
 30
0.0
 40
0.888911
  0
CIRCLE
  5
8A7
  8
1
 10
507.764342
 20
-2908.510614
 30
0.0
 40
0.888911
  0
CIRCLE
  5
8A8
  8
1
 10
507.764342
 20
-2923.281657
 30
0.0
 40
0.888911
  0
CIRCLE
  5
8A9
  8
1
 10
494.972243
 20
-2901.125092
 30
0.0
 40
0.888911
  0
ENDBLK
  5
8AA
  8
0
  0
BLOCK
  5
8AC
  8
1
  2
*U229
 70
    65
 10
0.0
 20
0.0
 30
0.0
  3
*U229
  1

  0
CIRCLE
  5
8AD
  8
1
 10
520.55644
 20
-2886.354049
 30
0.0
 40
0.888911
  0
CIRCLE
  5
8AE
  8
1
 10
520.55644
 20
-2915.896135
 30
0.0
 40
0.888911
  0
CIRCLE
  5
8AF
  8
1
 10
533.348539
 20
-2893.73957
 30
0.0
 40
0.888911
  0
CIRCLE
  5
8B0
  8
1
 10
533.348539
 20
-2908.510614
 30
0.0
 40
0.888911
  0
CIRCLE
  5
8B1
  8
1
 10
533.348539
 20
-2923.281657
 30
0.0
 40
0.888911
  0
CIRCLE
  5
8B2
  8
1
 10
520.55644
 20
-2901.125092
 30
0.0
 40
0.888911
  0
ENDBLK
  5
8B3
  8
0
  0
BLOCK
  5
8B5
  8
1
  2
*U230
 70
    65
 10
0.0
 20
0.0
 30
0.0
  3
*U230
  1

  0
CIRCLE
  5
8B6
  8
1
 10
546.140638
 20
-2886.354049
 30
0.0
 40
0.888911
  0
CIRCLE
  5
8B7
  8
1
 10
546.140638
 20
-2915.896135
 30
0.0
 40
0.888911
  0
CIRCLE
  5
8B8
  8
1
 10
558.932737
 20
-2893.73957
 30
0.0
 40
0.888911
  0
CIRCLE
  5
8B9
  8
1
 10
558.932737
 20
-2908.510614
 30
0.0
 40
0.888911
  0
CIRCLE
  5
8BA
  8
1
 10
558.932737
 20
-2923.281657
 30
0.0
 40
0.888911
  0
CIRCLE
  5
8BB
  8
1
 10
546.140638
 20
-2901.125092
 30
0.0
 40
0.888911
  0
ENDBLK
  5
8BC
  8
0
  0
BLOCK
  5
8BE
  8
1
  2
*U231
 70
    65
 10
0.0
 20
0.0
 30
0.0
  3
*U231
  1

  0
CIRCLE
  5
8BF
  8
1
 10
571.724835
 20
-2886.354049
 30
0.0
 40
0.888911
  0
CIRCLE
  5
8C0
  8
1
 10
571.724835
 20
-2915.896135
 30
0.0
 40
0.888911
  0
CIRCLE
  5
8C1
  8
1
 10
584.516934
 20
-2893.73957
 30
0.0
 40
0.888911
  0
CIRCLE
  5
8C2
  8
1
 10
584.516934
 20
-2908.510614
 30
0.0
 40
0.888911
  0
CIRCLE
  5
8C3
  8
1
 10
584.516934
 20
-2923.281657
 30
0.0
 40
0.888911
  0
CIRCLE
  5
8C4
  8
1
 10
571.724835
 20
-2901.125092
 30
0.0
 40
0.888911
  0
ENDBLK
  5
8C5
  8
0
  0
BLOCK
  5
8C7
  8
1
  2
*U232
 70
    65
 10
0.0
 20
0.0
 30
0.0
  3
*U232
  1

  0
CIRCLE
  5
8C8
  8
1
 10
597.309033
 20
-2886.354049
 30
0.0
 40
0.888911
  0
CIRCLE
  5
8C9
  8
1
 10
597.309033
 20
-2915.896135
 30
0.0
 40
0.888911
  0
CIRCLE
  5
8CA
  8
1
 10
610.101131
 20
-2893.73957
 30
0.0
 40
0.888911
  0
CIRCLE
  5
8CB
  8
1
 10
610.101131
 20
-2908.510614
 30
0.0
 40
0.888911
  0
CIRCLE
  5
8CC
  8
1
 10
610.101131
 20
-2923.281657
 30
0.0
 40
0.888911
  0
CIRCLE
  5
8CD
  8
1
 10
597.309033
 20
-2901.125092
 30
0.0
 40
0.888911
  0
ENDBLK
  5
8CE
  8
0
  0
BLOCK
  5
8D0
  8
1
  2
*U233
 70
    65
 10
0.0
 20
0.0
 30
0.0
  3
*U233
  1

  0
CIRCLE
  5
8D1
  8
1
 10
622.89323
 20
-2886.354049
 30
0.0
 40
0.888911
  0
CIRCLE
  5
8D2
  8
1
 10
622.89323
 20
-2915.896135
 30
0.0
 40
0.888911
  0
CIRCLE
  5
8D3
  8
1
 10
635.685329
 20
-2893.73957
 30
0.0
 40
0.888911
  0
CIRCLE
  5
8D4
  8
1
 10
635.685329
 20
-2908.510614
 30
0.0
 40
0.888911
  0
CIRCLE
  5
8D5
  8
1
 10
635.685329
 20
-2923.281657
 30
0.0
 40
0.888911
  0
CIRCLE
  5
8D6
  8
1
 10
622.89323
 20
-2901.125092
 30
0.0
 40
0.888911
  0
ENDBLK
  5
8D7
  8
0
  0
BLOCK
  5
8D9
  8
1
  2
*U234
 70
    65
 10
0.0
 20
0.0
 30
0.0
  3
*U234
  1

  0
CIRCLE
  5
8DA
  8
1
 10
648.477427
 20
-2886.354049
 30
0.0
 40
0.888911
  0
CIRCLE
  5
8DB
  8
1
 10
648.477427
 20
-2915.896135
 30
0.0
 40
0.888911
  0
CIRCLE
  5
8DC
  8
1
 10
661.269526
 20
-2893.73957
 30
0.0
 40
0.888911
  0
CIRCLE
  5
8DD
  8
1
 10
661.269526
 20
-2908.510614
 30
0.0
 40
0.888911
  0
CIRCLE
  5
8DE
  8
1
 10
661.269526
 20
-2923.281657
 30
0.0
 40
0.888911
  0
CIRCLE
  5
8DF
  8
1
 10
648.477427
 20
-2901.125092
 30
0.0
 40
0.888911
  0
ENDBLK
  5
8E0
  8
0
  0
BLOCK
  5
8E2
  8
1
  2
*U235
 70
    65
 10
0.0
 20
0.0
 30
0.0
  3
*U235
  1

  0
CIRCLE
  5
8E3
  8
1
 10
674.061625
 20
-2886.354049
 30
0.0
 40
0.888911
  0
CIRCLE
  5
8E4
  8
1
 10
674.061625
 20
-2915.896135
 30
0.0
 40
0.888911
  0
CIRCLE
  5
8E5
  8
1
 10
686.853724
 20
-2893.73957
 30
0.0
 40
0.888911
  0
CIRCLE
  5
8E6
  8
1
 10
686.853724
 20
-2908.510614
 30
0.0
 40
0.888911
  0
CIRCLE
  5
8E7
  8
1
 10
686.853724
 20
-2923.281657
 30
0.0
 40
0.888911
  0
CIRCLE
  5
8E8
  8
1
 10
674.061625
 20
-2901.125092
 30
0.0
 40
0.888911
  0
ENDBLK
  5
8E9
  8
0
  0
BLOCK
  5
8EB
  8
1
  2
*U236
 70
    65
 10
0.0
 20
0.0
 30
0.0
  3
*U236
  1

  0
CIRCLE
  5
8EC
  8
1
 10
699.645822
 20
-2886.354049
 30
0.0
 40
0.888911
  0
CIRCLE
  5
8ED
  8
1
 10
699.645822
 20
-2915.896135
 30
0.0
 40
0.888911
  0
CIRCLE
  5
8EE
  8
1
 10
712.437921
 20
-2893.73957
 30
0.0
 40
0.888911
  0
CIRCLE
  5
8EF
  8
1
 10
712.437921
 20
-2908.510614
 30
0.0
 40
0.888911
  0
CIRCLE
  5
8F0
  8
1
 10
712.437921
 20
-2923.281657
 30
0.0
 40
0.888911
  0
CIRCLE
  5
8F1
  8
1
 10
699.645822
 20
-2901.125092
 30
0.0
 40
0.888911
  0
ENDBLK
  5
8F2
  8
0
  0
BLOCK
  5
8F4
  8
1
  2
*U237
 70
    65
 10
0.0
 20
0.0
 30
0.0
  3
*U237
  1

  0
CIRCLE
  5
8F5
  8
1
 10
725.23002
 20
-2886.354049
 30
0.0
 40
0.888911
  0
CIRCLE
  5
8F6
  8
1
 10
725.23002
 20
-2915.896135
 30
0.0
 40
0.888911
  0
CIRCLE
  5
8F7
  8
1
 10
738.022118
 20
-2893.73957
 30
0.0
 40
0.888911
  0
CIRCLE
  5
8F8
  8
1
 10
738.022118
 20
-2908.510614
 30
0.0
 40
0.888911
  0
CIRCLE
  5
8F9
  8
1
 10
738.022118
 20
-2923.281657
 30
0.0
 40
0.888911
  0
CIRCLE
  5
8FA
  8
1
 10
725.23002
 20
-2901.125092
 30
0.0
 40
0.888911
  0
ENDBLK
  5
8FB
  8
0
  0
BLOCK
  5
8FD
  8
1
  2
*U238
 70
    65
 10
0.0
 20
0.0
 30
0.0
  3
*U238
  1

  0
CIRCLE
  5
8FE
  8
1
 10
750.814217
 20
-2886.354049
 30
0.0
 40
0.888911
  0
CIRCLE
  5
8FF
  8
1
 10
750.814217
 20
-2915.896135
 30
0.0
 40
0.888911
  0
CIRCLE
  5
900
  8
1
 10
763.606316
 20
-2893.73957
 30
0.0
 40
0.888911
  0
CIRCLE
  5
901
  8
1
 10
763.606316
 20
-2908.510614
 30
0.0
 40
0.888911
  0
CIRCLE
  5
902
  8
1
 10
763.606316
 20
-2923.281657
 30
0.0
 40
0.888911
  0
CIRCLE
  5
903
  8
1
 10
750.814217
 20
-2901.125092
 30
0.0
 40
0.888911
  0
ENDBLK
  5
904
  8
0
  0
BLOCK
  5
906
  8
1
  2
*U239
 70
    65
 10
0.0
 20
0.0
 30
0.0
  3
*U239
  1

  0
CIRCLE
  5
907
  8
1
 10
674.061625
 20
-2398.114493
 30
0.0
 40
0.888911
  0
CIRCLE
  5
908
  8
1
 10
674.061625
 20
-2368.572407
 30
0.0
 40
0.888911
  0
CIRCLE
  5
909
  8
1
 10
686.853724
 20
-2390.728971
 30
0.0
 40
0.888911
  0
CIRCLE
  5
90A
  8
1
 10
686.853724
 20
-2375.957928
 30
0.0
 40
0.888911
  0
CIRCLE
  5
90B
  8
1
 10
686.853724
 20
-2361.186885
 30
0.0
 40
0.888911
  0
CIRCLE
  5
90C
  8
1
 10
674.061625
 20
-2383.34345
 30
0.0
 40
0.888911
  0
ENDBLK
  5
90D
  8
0
  0
BLOCK
  5
90F
  8
1
  2
*U240
 70
    65
 10
0.0
 20
0.0
 30
0.0
  3
*U240
  1

  0
CIRCLE
  5
910
  8
1
 10
699.645822
 20
-2398.114493
 30
0.0
 40
0.888911
  0
CIRCLE
  5
911
  8
1
 10
699.645822
 20
-2368.572407
 30
0.0
 40
0.888911
  0
CIRCLE
  5
912
  8
1
 10
712.437921
 20
-2390.728971
 30
0.0
 40
0.888911
  0
CIRCLE
  5
913
  8
1
 10
712.437921
 20
-2375.957928
 30
0.0
 40
0.888911
  0
CIRCLE
  5
914
  8
1
 10
712.437921
 20
-2361.186885
 30
0.0
 40
0.888911
  0
CIRCLE
  5
915
  8
1
 10
699.645822
 20
-2383.34345
 30
0.0
 40
0.888911
  0
ENDBLK
  5
916
  8
0
  0
BLOCK
  5
918
  8
1
  2
*U241
 70
    65
 10
0.0
 20
0.0
 30
0.0
  3
*U241
  1

  0
CIRCLE
  5
919
  8
1
 10
725.23002
 20
-2398.114493
 30
0.0
 40
0.888911
  0
CIRCLE
  5
91A
  8
1
 10
725.23002
 20
-2368.572407
 30
0.0
 40
0.888911
  0
CIRCLE
  5
91B
  8
1
 10
738.022118
 20
-2390.728971
 30
0.0
 40
0.888911
  0
CIRCLE
  5
91C
  8
1
 10
738.022118
 20
-2375.957928
 30
0.0
 40
0.888911
  0
CIRCLE
  5
91D
  8
1
 10
738.022118
 20
-2361.186885
 30
0.0
 40
0.888911
  0
CIRCLE
  5
91E
  8
1
 10
725.23002
 20
-2383.34345
 30
0.0
 40
0.888911
  0
ENDBLK
  5
91F
  8
0
  0
BLOCK
  5
921
  8
1
  2
*U242
 70
    65
 10
0.0
 20
0.0
 30
0.0
  3
*U242
  1

  0
CIRCLE
  5
922
  8
1
 10
750.814217
 20
-2398.114493
 30
0.0
 40
0.888911
  0
CIRCLE
  5
923
  8
1
 10
750.814217
 20
-2368.572407
 30
0.0
 40
0.888911
  0
CIRCLE
  5
924
  8
1
 10
763.606316
 20
-2390.728971
 30
0.0
 40
0.888911
  0
CIRCLE
  5
925
  8
1
 10
763.606316
 20
-2375.957928
 30
0.0
 40
0.888911
  0
CIRCLE
  5
926
  8
1
 10
763.606316
 20
-2361.186885
 30
0.0
 40
0.888911
  0
CIRCLE
  5
927
  8
1
 10
750.814217
 20
-2383.34345
 30
0.0
 40
0.888911
  0
ENDBLK
  5
928
  8
0
  0
BLOCK
  5
92A
  8
1
  2
*U243
 70
    65
 10
0.0
 20
0.0
 30
0.0
  3
*U243
  1

  0
CIRCLE
  5
92B
  8
1
 10
776.398415
 20
-2398.114493
 30
0.0
 40
0.888911
  0
CIRCLE
  5
92C
  8
1
 10
776.398415
 20
-2368.572407
 30
0.0
 40
0.888911
  0
CIRCLE
  5
92D
  8
1
 10
789.190513
 20
-2390.728971
 30
0.0
 40
0.888911
  0
CIRCLE
  5
92E
  8
1
 10
789.190513
 20
-2375.957928
 30
0.0
 40
0.888911
  0
CIRCLE
  5
92F
  8
1
 10
789.190513
 20
-2361.186885
 30
0.0
 40
0.888911
  0
CIRCLE
  5
930
  8
1
 10
776.398415
 20
-2383.34345
 30
0.0
 40
0.888911
  0
ENDBLK
  5
931
  8
0
  0
BLOCK
  5
933
  8
1
  2
*U244
 70
    65
 10
0.0
 20
0.0
 30
0.0
  3
*U244
  1

  0
CIRCLE
  5
934
  8
1
 10
801.982612
 20
-2398.114493
 30
0.0
 40
0.888911
  0
CIRCLE
  5
935
  8
1
 10
801.982612
 20
-2368.572407
 30
0.0
 40
0.888911
  0
CIRCLE
  5
936
  8
1
 10
814.774711
 20
-2390.728971
 30
0.0
 40
0.888911
  0
CIRCLE
  5
937
  8
1
 10
814.774711
 20
-2375.957928
 30
0.0
 40
0.888911
  0
CIRCLE
  5
938
  8
1
 10
814.774711
 20
-2361.186885
 30
0.0
 40
0.888911
  0
CIRCLE
  5
939
  8
1
 10
801.982612
 20
-2383.34345
 30
0.0
 40
0.888911
  0
ENDBLK
  5
93A
  8
0
  0
BLOCK
  5
93C
  8
1
  2
*U245
 70
    65
 10
0.0
 20
0.0
 30
0.0
  3
*U245
  1

  0
CIRCLE
  5
93D
  8
1
 10
827.566809
 20
-2398.114493
 30
0.0
 40
0.888911
  0
CIRCLE
  5
93E
  8
1
 10
827.566809
 20
-2368.572407
 30
0.0
 40
0.888911
  0
CIRCLE
  5
93F
  8
1
 10
840.358908
 20
-2390.728971
 30
0.0
 40
0.888911
  0
CIRCLE
  5
940
  8
1
 10
840.358908
 20
-2375.957928
 30
0.0
 40
0.888911
  0
CIRCLE
  5
941
  8
1
 10
840.358908
 20
-2361.186885
 30
0.0
 40
0.888911
  0
CIRCLE
  5
942
  8
1
 10
827.566809
 20
-2383.34345
 30
0.0
 40
0.888911
  0
ENDBLK
  5
943
  8
0
  0
BLOCK
  5
945
  8
1
  2
*U246
 70
    65
 10
0.0
 20
0.0
 30
0.0
  3
*U246
  1

  0
CIRCLE
  5
946
  8
1
 10
853.151007
 20
-2398.114493
 30
0.0
 40
0.888911
  0
CIRCLE
  5
947
  8
1
 10
853.151007
 20
-2368.572407
 30
0.0
 40
0.888911
  0
CIRCLE
  5
948
  8
1
 10
865.943105
 20
-2390.728971
 30
0.0
 40
0.888911
  0
CIRCLE
  5
949
  8
1
 10
865.943105
 20
-2375.957928
 30
0.0
 40
0.888911
  0
CIRCLE
  5
94A
  8
1
 10
865.943105
 20
-2361.186885
 30
0.0
 40
0.888911
  0
CIRCLE
  5
94B
  8
1
 10
853.151007
 20
-2383.34345
 30
0.0
 40
0.888911
  0
ENDBLK
  5
94C
  8
0
  0
BLOCK
  5
94E
  8
1
  2
*U247
 70
    65
 10
0.0
 20
0.0
 30
0.0
  3
*U247
  1

  0
CIRCLE
  5
94F
  8
1
 10
878.735204
 20
-2398.114493
 30
0.0
 40
0.888911
  0
CIRCLE
  5
950
  8
1
 10
878.735204
 20
-2368.572407
 30
0.0
 40
0.888911
  0
CIRCLE
  5
951
  8
1
 10
891.527303
 20
-2390.728971
 30
0.0
 40
0.888911
  0
CIRCLE
  5
952
  8
1
 10
891.527303
 20
-2375.957928
 30
0.0
 40
0.888911
  0
CIRCLE
  5
953
  8
1
 10
891.527303
 20
-2361.186885
 30
0.0
 40
0.888911
  0
CIRCLE
  5
954
  8
1
 10
878.735204
 20
-2383.34345
 30
0.0
 40
0.888911
  0
ENDBLK
  5
955
  8
0
  0
BLOCK
  5
957
  8
1
  2
*U248
 70
    65
 10
0.0
 20
0.0
 30
0.0
  3
*U248
  1

  0
CIRCLE
  5
958
  8
1
 10
904.319402
 20
-2398.114493
 30
0.0
 40
0.888911
  0
CIRCLE
  5
959
  8
1
 10
904.319402
 20
-2368.572407
 30
0.0
 40
0.888911
  0
CIRCLE
  5
95A
  8
1
 10
917.1115
 20
-2390.728971
 30
0.0
 40
0.888911
  0
CIRCLE
  5
95B
  8
1
 10
917.1115
 20
-2375.957928
 30
0.0
 40
0.888911
  0
CIRCLE
  5
95C
  8
1
 10
917.1115
 20
-2361.186885
 30
0.0
 40
0.888911
  0
CIRCLE
  5
95D
  8
1
 10
904.319402
 20
-2383.34345
 30
0.0
 40
0.888911
  0
ENDBLK
  5
95E
  8
0
  0
BLOCK
  5
960
  8
1
  2
*U249
 70
    65
 10
0.0
 20
0.0
 30
0.0
  3
*U249
  1

  0
CIRCLE
  5
961
  8
1
 10
929.903599
 20
-2398.114493
 30
0.0
 40
0.888911
  0
CIRCLE
  5
962
  8
1
 10
929.903599
 20
-2368.572407
 30
0.0
 40
0.888911
  0
CIRCLE
  5
963
  8
1
 10
942.695698
 20
-2390.728971
 30
0.0
 40
0.888911
  0
CIRCLE
  5
964
  8
1
 10
942.695698
 20
-2375.957928
 30
0.0
 40
0.888911
  0
CIRCLE
  5
965
  8
1
 10
942.695698
 20
-2361.186885
 30
0.0
 40
0.888911
  0
CIRCLE
  5
966
  8
1
 10
929.903599
 20
-2383.34345
 30
0.0
 40
0.888911
  0
ENDBLK
  5
967
  8
0
  0
BLOCK
  5
969
  8
1
  2
*U250
 70
    65
 10
0.0
 20
0.0
 30
0.0
  3
*U250
  1

  0
CIRCLE
  5
96A
  8
1
 10
955.487796
 20
-2398.114493
 30
0.0
 40
0.888911
  0
CIRCLE
  5
96B
  8
1
 10
955.487796
 20
-2368.572407
 30
0.0
 40
0.888911
  0
CIRCLE
  5
96C
  8
1
 10
968.279895
 20
-2390.728971
 30
0.0
 40
0.888911
  0
CIRCLE
  5
96D
  8
1
 10
968.279895
 20
-2375.957928
 30
0.0
 40
0.888911
  0
CIRCLE
  5
96E
  8
1
 10
968.279895
 20
-2361.186885
 30
0.0
 40
0.888911
  0
CIRCLE
  5
96F
  8
1
 10
955.487796
 20
-2383.34345
 30
0.0
 40
0.888911
  0
ENDBLK
  5
970
  8
0
  0
BLOCK
  5
972
  8
1
  2
*U251
 70
    65
 10
0.0
 20
0.0
 30
0.0
  3
*U251
  1

  0
CIRCLE
  5
973
  8
1
 10
981.071994
 20
-2398.114493
 30
0.0
 40
0.888911
  0
CIRCLE
  5
974
  8
1
 10
981.071994
 20
-2368.572407
 30
0.0
 40
0.888911
  0
CIRCLE
  5
975
  8
1
 10
993.864093
 20
-2390.728971
 30
0.0
 40
0.888911
  0
CIRCLE
  5
976
  8
1
 10
993.864093
 20
-2375.957928
 30
0.0
 40
0.888911
  0
CIRCLE
  5
977
  8
1
 10
993.864093
 20
-2361.186885
 30
0.0
 40
0.888911
  0
CIRCLE
  5
978
  8
1
 10
981.071994
 20
-2383.34345
 30
0.0
 40
0.888911
  0
ENDBLK
  5
979
  8
0
  0
BLOCK
  5
97B
  8
1
  2
*U252
 70
    65
 10
0.0
 20
0.0
 30
0.0
  3
*U252
  1

  0
CIRCLE
  5
97C
  8
1
 10
1006.656191
 20
-2398.114493
 30
0.0
 40
0.888911
  0
CIRCLE
  5
97D
  8
1
 10
1006.656191
 20
-2368.572407
 30
0.0
 40
0.888911
  0
CIRCLE
  5
97E
  8
1
 10
1019.44829
 20
-2390.728971
 30
0.0
 40
0.888911
  0
CIRCLE
  5
97F
  8
1
 10
1019.44829
 20
-2375.957928
 30
0.0
 40
0.888911
  0
CIRCLE
  5
980
  8
1
 10
1019.44829
 20
-2361.186885
 30
0.0
 40
0.888911
  0
CIRCLE
  5
981
  8
1
 10
1006.656191
 20
-2383.34345
 30
0.0
 40
0.888911
  0
ENDBLK
  5
982
  8
0
  0
BLOCK
  5
984
  8
1
  2
*U253
 70
    65
 10
0.0
 20
0.0
 30
0.0
  3
*U253
  1

  0
CIRCLE
  5
985
  8
1
 10
1032.240389
 20
-2398.114493
 30
0.0
 40
0.888911
  0
CIRCLE
  5
986
  8
1
 10
1032.240389
 20
-2368.572407
 30
0.0
 40
0.888911
  0
CIRCLE
  5
987
  8
1
 10
1045.032487
 20
-2390.728971
 30
0.0
 40
0.888911
  0
CIRCLE
  5
988
  8
1
 10
1045.032487
 20
-2375.957928
 30
0.0
 40
0.888911
  0
CIRCLE
  5
989
  8
1
 10
1045.032487
 20
-2361.186885
 30
0.0
 40
0.888911
  0
CIRCLE
  5
98A
  8
1
 10
1032.240389
 20
-2383.34345
 30
0.0
 40
0.888911
  0
ENDBLK
  5
98B
  8
0
  0
BLOCK
  5
98D
  8
1
  2
*U254
 70
    65
 10
0.0
 20
0.0
 30
0.0
  3
*U254
  1

  0
CIRCLE
  5
98E
  8
1
 10
1057.824586
 20
-2398.114493
 30
0.0
 40
0.888911
  0
CIRCLE
  5
98F
  8
1
 10
1057.824586
 20
-2368.572407
 30
0.0
 40
0.888911
  0
CIRCLE
  5
990
  8
1
 10
1070.616685
 20
-2390.728971
 30
0.0
 40
0.888911
  0
CIRCLE
  5
991
  8
1
 10
1070.616685
 20
-2375.957928
 30
0.0
 40
0.888911
  0
CIRCLE
  5
992
  8
1
 10
1070.616685
 20
-2361.186885
 30
0.0
 40
0.888911
  0
CIRCLE
  5
993
  8
1
 10
1057.824586
 20
-2383.34345
 30
0.0
 40
0.888911
  0
ENDBLK
  5
994
  8
0
  0
BLOCK
  5
996
  8
1
  2
*U255
 70
    65
 10
0.0
 20
0.0
 30
0.0
  3
*U255
  1

  0
CIRCLE
  5
997
  8
1
 10
1083.408784
 20
-2398.114493
 30
0.0
 40
0.888911
  0
CIRCLE
  5
998
  8
1
 10
1083.408784
 20
-2368.572407
 30
0.0
 40
0.888911
  0
CIRCLE
  5
999
  8
1
 10
1096.200882
 20
-2390.728971
 30
0.0
 40
0.888911
  0
CIRCLE
  5
99A
  8
1
 10
1096.200882
 20
-2375.957928
 30
0.0
 40
0.888911
  0
CIRCLE
  5
99B
  8
1
 10
1096.200882
 20
-2361.186885
 30
0.0
 40
0.888911
  0
CIRCLE
  5
99C
  8
1
 10
1083.408784
 20
-2383.34345
 30
0.0
 40
0.888911
  0
ENDBLK
  5
99D
  8
0
  0
BLOCK
  5
99F
  8
1
  2
*U256
 70
    65
 10
0.0
 20
0.0
 30
0.0
  3
*U256
  1

  0
CIRCLE
  5
9A0
  8
1
 10
1108.992981
 20
-2398.114493
 30
0.0
 40
0.888911
  0
CIRCLE
  5
9A1
  8
1
 10
1108.992981
 20
-2368.572407
 30
0.0
 40
0.888911
  0
CIRCLE
  5
9A2
  8
1
 10
1121.78508
 20
-2390.728971
 30
0.0
 40
0.888911
  0
CIRCLE
  5
9A3
  8
1
 10
1121.78508
 20
-2375.957928
 30
0.0
 40
0.888911
  0
CIRCLE
  5
9A4
  8
1
 10
1121.78508
 20
-2361.186885
 30
0.0
 40
0.888911
  0
CIRCLE
  5
9A5
  8
1
 10
1108.992981
 20
-2383.34345
 30
0.0
 40
0.888911
  0
ENDBLK
  5
9A6
  8
0
  0
BLOCK
  5
9A8
  8
1
  2
*U257
 70
    65
 10
0.0
 20
0.0
 30
0.0
  3
*U257
  1

  0
CIRCLE
  5
9A9
  8
1
 10
1134.577178
 20
-2398.114493
 30
0.0
 40
0.888911
  0
CIRCLE
  5
9AA
  8
1
 10
1134.577178
 20
-2368.572407
 30
0.0
 40
0.888911
  0
CIRCLE
  5
9AB
  8
1
 10
1147.369277
 20
-2390.728971
 30
0.0
 40
0.888911
  0
CIRCLE
  5
9AC
  8
1
 10
1147.369277
 20
-2375.957928
 30
0.0
 40
0.888911
  0
CIRCLE
  5
9AD
  8
1
 10
1147.369277
 20
-2361.186885
 30
0.0
 40
0.888911
  0
CIRCLE
  5
9AE
  8
1
 10
1134.577178
 20
-2383.34345
 30
0.0
 40
0.888911
  0
ENDBLK
  5
9AF
  8
0
  0
BLOCK
  5
9B1
  8
1
  2
*U258
 70
    65
 10
0.0
 20
0.0
 30
0.0
  3
*U258
  1

  0
CIRCLE
  5
9B2
  8
1
 10
1160.161376
 20
-2398.114493
 30
0.0
 40
0.888911
  0
CIRCLE
  5
9B3
  8
1
 10
1160.161376
 20
-2368.572407
 30
0.0
 40
0.888911
  0
CIRCLE
  5
9B4
  8
1
 10
1160.161376
 20
-2383.34345
 30
0.0
 40
0.888911
  0
ENDBLK
  5
9B5
  8
0
  0
BLOCK
  5
9B7
  8
1
  2
*U259
 70
    65
 10
0.0
 20
0.0
 30
0.0
  3
*U259
  1

  0
LINE
  5
9B8
  8
1
 10
-539.280838
 20
-2317.234271
 30
0.0
 11
-539.280838
 21
-2967.234271
 31
0.0
  0
LINE
  5
9B9
  8
1
 10
-524.280838
 20
-2982.234271
 30
0.0
 11
-474.280838
 21
-2982.234271
 31
0.0
  0
ARC
  5
9BA
  8
1
 10
-524.280838
 20
-2967.234271
 30
0.0
 40
15.0
 50
180.0
 51
270.0
  0
LINE
  5
9BB
  8
1
 10
-524.280838
 20
-2302.234271
 30
0.0
 11
-474.280838
 21
-2302.234271
 31
0.0
  0
ARC
  5
9BC
  8
1
 10
-524.280838
 20
-2317.234271
 30
0.0
 40
15.0
 50
90.0
 51
180.0
  0
LINE
  5
9BD
  8
1
 10
-474.280838
 20
-2302.234271
 30
0.0
 11
-474.280838
 21
-2982.234271
 31
0.0
  0
LINE
  5
9BE
  8
1
 10
1380.719162
 20
-2967.234271
 30
0.0
 11
1380.719162
 21
-2317.234271
 31
0.0
  0
LINE
  5
9BF
  8
1
 10
1365.719162
 20
-2302.234271
 30
0.0
 11
1315.719162
 21
-2302.234271
 31
0.0
  0
ARC
  5
9C0
  8
1
 10
1365.719162
 20
-2317.234271
 30
0.0
 40
15.0
 50
0.0
 51
90.0
  0
LINE
  5
9C1
  8
1
 10
1315.719162
 20
-2982.234271
 30
0.0
 11
1315.719162
 21
-2302.234271
 31
0.0
  0
LINE
  5
9C2
  8
1
 10
1365.719162
 20
-2982.234271
 30
0.0
 11
1315.719162
 21
-2982.234271
 31
0.0
  0
ARC
  5
9C3
  8
1
 10
1365.719162
 20
-2967.234271
 30
0.0
 40
15.0
 50
270.0
 51
0.0
  0
LINE
  5
9C4
  8
1
 10
1315.719162
 20
-2347.234271
 30
0.0
 11
1315.719162
 21
-2346.734271
 31
0.0
  0
LINE
  5
9C5
  8
1
 10
-474.280838
 20
-2982.234271
 30
0.0
 11
1315.719162
 21
-2982.234271
 31
0.0
  0
LINE
  5
9C6
  8
1
 10
-474.280838
 20
-2941.234271
 30
0.0
 11
1315.719162
 21
-2941.234271
 31
0.0
  0
LINE
  5
9C7
  8
1
 10
-474.280838
 20
-2882.734271
 30
0.0
 11
1315.719162
 21
-2882.734271
 31
0.0
  0
LINE
  5
9C8
  8
1
 10
-474.280838
 20
-2839.234271
 30
0.0
 11
1315.719162
 21
-2839.234271
 31
0.0
  0
LINE
  5
9C9
  8
1
 10
1215.219162
 20
-2839.234271
 30
0.0
 11
1200.719162
 21
-2839.234271
 31
0.0
  0
LINE
  5
9CA
  8
1
 10
-474.280838
 20
-2302.234271
 30
0.0
 11
1315.719162
 21
-2302.234271
 31
0.0
  0
LINE
  5
9CB
  8
1
 10
-474.280838
 20
-2343.234271
 30
0.0
 11
1315.719162
 21
-2343.234271
 31
0.0
  0
LINE
  5
9CC
  8
1
 10
-474.280838
 20
-2357.234271
 30
0.0
 11
1165.719162
 21
-2357.234271
 31
0.0
  0
LINE
  5
9CD
  8
1
 10
-474.280838
 20
-2401.734271
 30
0.0
 11
1315.719162
 21
-2401.734271
 31
0.0
  0
LINE
  5
9CE
  8
1
 10
-474.280838
 20
-2445.234271
 30
0.0
 11
1315.719162
 21
-2445.234271
 31
0.0
  0
LINE
  5
9CF
  8
1
  6
DASHDOT
 10
420.719162
 20
-2252.234271
 30
0.0
 11
420.719162
 21
-3032.234271
 31
0.0
  0
LINE
  5
9D0
  8
1
 10
1315.719162
 20
-2401.234271
 30
0.0
 11
1315.719162
 21
-2346.734271
 31
0.0
  0
LINE
  5
9D1
  8
1
 10
1165.719162
 20
-2401.234271
 30
0.0
 11
1165.719162
 21
-2346.734271
 31
0.0
  0
LINE
  5
9D2
  8
1
 10
1315.719162
 20
-2346.734271
 30
0.0
 11
1165.719162
 21
-2346.734271
 31
0.0
  0
LINE
  5
9D3
  8
1
 10
1165.719162
 20
-2401.234271
 30
0.0
 11
1315.719162
 21
-2401.234271
 31
0.0
  0
LINE
  5
9D4
  8
1
 10
1180.719162
 20
-2401.234271
 30
0.0
 11
1180.719162
 21
-2346.734271
 31
0.0
  0
LINE
  5
9D5
  8
1
 10
1181.719162
 20
-2401.234271
 30
0.0
 11
1181.719162
 21
-2346.734271
 31
0.0
  0
LINE
  5
9D6
  8
1
 10
1304.019162
 20
-2396.934271
 30
0.0
 11
1304.019162
 21
-2361.034271
 31
0.0
  0
ARC
  5
9D7
  8
1
 10
1301.919162
 20
-2396.934271
 30
0.0
 40
2.1
 50
270.0
 51
0.0
  0
LINE
  5
9D8
  8
1
 10
1301.919162
 20
-2399.034271
 30
0.0
 11
1195.519162
 21
-2399.034271
 31
0.0
  0
ARC
  5
9D9
  8
1
 10
1195.519162
 20
-2396.934271
 30
0.0
 40
2.1
 50
180.0
 51
270.0
  0
LINE
  5
9DA
  8
1
 10
1193.419162
 20
-2396.934271
 30
0.0
 11
1193.419162
 21
-2361.034271
 31
0.0
  0
ARC
  5
9DB
  8
1
 10
1195.519162
 20
-2361.034271
 30
0.0
 40
2.1
 50
90.0
 51
180.0
  0
LINE
  5
9DC
  8
1
 10
1301.919162
 20
-2358.934271
 30
0.0
 11
1195.519162
 21
-2358.934271
 31
0.0
  0
ARC
  5
9DD
  8
1
 10
1301.919162
 20
-2361.034271
 30
0.0
 40
2.1
 50
0.0
 51
90.0
  0
LINE
  5
9DE
  8
1
 10
1300.219162
 20
-2398.034271
 30
0.0
 11
1195.519162
 21
-2398.034271
 31
0.0
  0
LINE
  5
9DF
  8
1
 10
1303.019162
 20
-2395.234271
 30
0.0
 11
1303.019162
 21
-2361.034271
 31
0.0
  0
ARC
  5
9E0
  8
1
 10
1301.919162
 20
-2361.034271
 30
0.0
 40
1.1
 50
0.0
 51
90.0
  0
LINE
  5
9E1
  8
1
 10
1301.919162
 20
-2359.934271
 30
0.0
 11
1195.519162
 21
-2359.934271
 31
0.0
  0
ARC
  5
9E2
  8
1
 10
1195.519162
 20
-2361.034271
 30
0.0
 40
1.1
 50
90.0
 51
180.0
  0
LINE
  5
9E3
  8
1
 10
1194.419162
 20
-2396.934271
 30
0.0
 11
1194.419162
 21
-2361.034271
 31
0.0
  0
ARC
  5
9E4
  8
1
 10
1195.519162
 20
-2396.934271
 30
0.0
 40
1.1
 50
180.0
 51
270.0
  0
LINE
  5
9E5
  8
1
 10
1300.219162
 20
-2398.034271
 30
0.0
 11
1303.019162
 21
-2395.234271
 31
0.0
  0
LINE
  5
9E6
  8
1
 10
1315.719162
 20
-2396.734271
 30
0.0
 11
1315.719162
 21
-2395.734271
 31
0.0
  0
LINE
  5
9E7
  8
1
 10
1315.719162
 20
-2382.734271
 30
0.0
 11
1315.719162
 21
-2383.734271
 31
0.0
  0
LINE
  5
9E8
  8
1
 10
1315.719162
 20
-2926.104223
 30
0.0
 11
1300.719162
 21
-2926.104223
 31
0.0
  0
LINE
  5
9E9
  8
1
 10
1315.719162
 20
-2887.734271
 30
0.0
 11
1315.719162
 21
-2888.734271
 31
0.0
  0
LINE
  5
9EA
  8
1
 10
1315.719162
 20
-2901.734271
 30
0.0
 11
1315.719162
 21
-2900.734271
 31
0.0
  0
LINE
  5
9EB
  8
1
 10
1315.719162
 20
-2883.234271
 30
0.0
 11
1315.719162
 21
-2926.104223
 31
0.0
  0
LINE
  5
9EC
  8
1
 10
1300.719162
 20
-2883.234271
 30
0.0
 11
1300.719162
 21
-2926.104223
 31
0.0
  0
LINE
  5
9ED
  8
1
 10
1300.719162
 20
-2883.234271
 30
0.0
 11
1315.719162
 21
-2883.234271
 31
0.0
  0
LINE
  5
9EE
  8
1
 10
-474.280838
 20
-2926.104223
 30
0.0
 11
-459.280838
 21
-2926.104223
 31
0.0
  0
LINE
  5
9EF
  8
1
 10
-474.280838
 20
-2887.734271
 30
0.0
 11
-474.280838
 21
-2888.734271
 31
0.0
  0
LINE
  5
9F0
  8
1
 10
-474.280838
 20
-2901.734271
 30
0.0
 11
-474.280838
 21
-2900.734271
 31
0.0
  0
LINE
  5
9F1
  8
1
 10
-474.280838
 20
-2883.234271
 30
0.0
 11
-474.280838
 21
-2926.104223
 31
0.0
  0
LINE
  5
9F2
  8
1
 10
-459.280838
 20
-2883.234271
 30
0.0
 11
-459.280838
 21
-2926.104223
 31
0.0
  0
LINE
  5
9F3
  8
1
 10
-459.280838
 20
-2883.234271
 30
0.0
 11
-474.280838
 21
-2883.234271
 31
0.0
  0
LINE
  5
9F4
  8
1
 10
-474.280838
 20
-2358.364319
 30
0.0
 11
-459.280838
 21
-2358.364319
 31
0.0
  0
LINE
  5
9F5
  8
1
 10
-474.280838
 20
-2396.734271
 30
0.0
 11
-474.280838
 21
-2395.734271
 31
0.0
  0
LINE
  5
9F6
  8
1
 10
-474.280838
 20
-2382.734271
 30
0.0
 11
-474.280838
 21
-2383.734271
 31
0.0
  0
LINE
  5
9F7
  8
1
 10
-474.280838
 20
-2401.234271
 30
0.0
 11
-474.280838
 21
-2358.364319
 31
0.0
  0
LINE
  5
9F8
  8
1
 10
-459.280838
 20
-2401.234271
 30
0.0
 11
-459.280838
 21
-2358.364319
 31
0.0
  0
LINE
  5
9F9
  8
1
 10
-459.280838
 20
-2401.234271
 30
0.0
 11
-474.280838
 21
-2401.234271
 31
0.0
  0
LINE
  5
9FA
  8
1
  6
DASHDOT
 10
1430.719162
 20
-2642.234271
 30
0.0
 11
-589.280838
 21
-2642.234271
 31
0.0
  0
LINE
  5
9FB
  8
1
 10
-471.880838
 20
-2481.734271
 30
0.0
 11
-471.880838
 21
-2802.734271
 31
0.0
  0
LINE
  5
9FC
  8
1
 10
1313.319162
 20
-2481.734271
 30
0.0
 11
1313.319162
 21
-2802.734271
 31
0.0
  0
INSERT
  5
9FD
  8
1
  2
*U45
 10
0.0
 20
0.0
 30
0.0
  0
LINE
  5
9FE
  8
1
 10
1313.319162
 20
-2481.734271
 30
0.0
 11
473.506939
 21
-2481.734271
 31
0.0
  0
LINE
  5
9FF
  8
1
 10
1313.319162
 20
-2802.734271
 30
0.0
 11
387.495249
 21
-2802.734271
 31
0.0
  0
LINE
  5
A00
  8
1
 10
-441.880838
 20
-2512.234271
 30
0.0
 11
-441.880838
 21
-2772.234271
 31
0.0
  0
LINE
  5
A01
  8
1
  6
DIVIDE
 10
369.38098
 20
-2802.734271
 30
0.0
 11
455.39267
 21
-2481.734271
 31
0.0
  0
LINE
  5
A02
  8
1
  6
DIVIDE
 10
387.495249
 20
-2802.734271
 30
0.0
 11
473.506939
 21
-2481.734271
 31
0.0
  0
LINE
  5
A03
  8
1
 10
447.22022
 20
-2512.234271
 30
0.0
 11
-441.880838
 21
-2512.234271
 31
0.0
  0
LINE
  5
A04
  8
1
 10
377.55343
 20
-2772.234271
 30
0.0
 11
-441.880838
 21
-2772.234271
 31
0.0
  0
LINE
  5
A05
  8
1
 10
369.38098
 20
-2802.734271
 30
0.0
 11
-471.880838
 21
-2802.734271
 31
0.0
  0
LINE
  5
A06
  8
1
 10
455.39267
 20
-2481.734271
 30
0.0
 11
-471.880838
 21
-2481.734271
 31
0.0
  0
LINE
  5
A07
  8
1
 10
-474.280838
 20
-2927.234271
 30
0.0
 11
1315.719162
 21
-2927.234271
 31
0.0
  0
INSERT
  5
A08
  8
1
  2
*U46
 10
0.0
 20
0.0
 30
0.0
  0
INSERT
  5
A09
  8
1
  2
*U47
 10
0.0
 20
0.0
 30
0.0
  0
INSERT
  5
A0A
  8
1
  2
*U48
 10
0.0
 20
0.0
 30
0.0
  0
INSERT
  5
A0B
  8
1
  2
*U49
 10
0.0
 20
0.0
 30
0.0
  0
INSERT
  5
A0C
  8
1
  2
*U50
 10
0.0
 20
0.0
 30
0.0
  0
INSERT
  5
A0D
  8
1
  2
*U51
 10
0.0
 20
0.0
 30
0.0
  0
INSERT
  5
A0E
  8
1
  2
*U52
 10
0.0
 20
0.0
 30
0.0
  0
INSERT
  5
A0F
  8
1
  2
*U53
 10
0.0
 20
0.0
 30
0.0
  0
INSERT
  5
A10
  8
1
  2
*U54
 10
0.0
 20
0.0
 30
0.0
  0
INSERT
  5
A11
  8
1
  2
*U55
 10
0.0
 20
0.0
 30
0.0
  0
INSERT
  5
A12
  8
1
  2
*U56
 10
0.0
 20
0.0
 30
0.0
  0
INSERT
  5
A13
  8
1
  2
*U57
 10
0.0
 20
0.0
 30
0.0
  0
INSERT
  5
A14
  8
1
  2
*U58
 10
0.0
 20
0.0
 30
0.0
  0
INSERT
  5
A15
  8
1
  2
*U59
 10
0.0
 20
0.0
 30
0.0
  0
INSERT
  5
A16
  8
1
  2
*U60
 10
0.0
 20
0.0
 30
0.0
  0
INSERT
  5
A17
  8
1
  2
*U61
 10
0.0
 20
0.0
 30
0.0
  0
INSERT
  5
A18
  8
1
  2
*U62
 10
0.0
 20
0.0
 30
0.0
  0
INSERT
  5
A19
  8
1
  2
*U63
 10
0.0
 20
0.0
 30
0.0
  0
INSERT
  5
A1A
  8
1
  2
*U64
 10
0.0
 20
0.0
 30
0.0
  0
INSERT
  5
A1B
  8
1
  2
*U65
 10
0.0
 20
0.0
 30
0.0
  0
INSERT
  5
A1C
  8
1
  2
*U66
 10
0.0
 20
0.0
 30
0.0
  0
INSERT
  5
A1D
  8
1
  2
*U67
 10
0.0
 20
0.0
 30
0.0
  0
INSERT
  5
A1E
  8
1
  2
*U68
 10
0.0
 20
0.0
 30
0.0
  0
INSERT
  5
A1F
  8
1
  2
*U69
 10
0.0
 20
0.0
 30
0.0
  0
INSERT
  5
A20
  8
1
  2
*U70
 10
0.0
 20
0.0
 30
0.0
  0
INSERT
  5
A21
  8
1
  2
*U71
 10
0.0
 20
0.0
 30
0.0
  0
INSERT
  5
A22
  8
1
  2
*U72
 10
0.0
 20
0.0
 30
0.0
  0
INSERT
  5
A23
  8
1
  2
*U73
 10
0.0
 20
0.0
 30
0.0
  0
INSERT
  5
A24
  8
1
  2
*U74
 10
0.0
 20
0.0
 30
0.0
  0
INSERT
  5
A25
  8
1
  2
*U75
 10
0.0
 20
0.0
 30
0.0
  0
INSERT
  5
A26
  8
1
  2
*U76
 10
0.0
 20
0.0
 30
0.0
  0
INSERT
  5
A27
  8
1
  2
*U77
 10
0.0
 20
0.0
 30
0.0
  0
INSERT
  5
A28
  8
1
  2
*U78
 10
0.0
 20
0.0
 30
0.0
  0
INSERT
  5
A29
  8
1
  2
*U79
 10
0.0
 20
0.0
 30
0.0
  0
INSERT
  5
A2A
  8
1
  2
*U80
 10
0.0
 20
0.0
 30
0.0
  0
INSERT
  5
A2B
  8
1
  2
*U81
 10
0.0
 20
0.0
 30
0.0
  0
INSERT
  5
A2C
  8
1
  2
*U82
 10
0.0
 20
0.0
 30
0.0
  0
INSERT
  5
A2D
  8
1
  2
*U83
 10
0.0
 20
0.0
 30
0.0
  0
INSERT
  5
A2E
  8
1
  2
*U84
 10
0.0
 20
0.0
 30
0.0
  0
INSERT
  5
A2F
  8
1
  2
*U85
 10
0.0
 20
0.0
 30
0.0
  0
INSERT
  5
A30
  8
1
  2
*U86
 10
0.0
 20
0.0
 30
0.0
  0
INSERT
  5
A31
  8
1
  2
*U87
 10
0.0
 20
0.0
 30
0.0
  0
INSERT
  5
A32
  8
1
  2
*U88
 10
0.0
 20
0.0
 30
0.0
  0
INSERT
  5
A33
  8
1
  2
*U89
 10
0.0
 20
0.0
 30
0.0
  0
INSERT
  5
A34
  8
1
  2
*U90
 10
0.0
 20
0.0
 30
0.0
  0
INSERT
  5
A35
  8
1
  2
*U91
 10
0.0
 20
0.0
 30
0.0
  0
INSERT
  5
A36
  8
1
  2
*U92
 10
0.0
 20
0.0
 30
0.0
  0
INSERT
  5
A37
  8
1
  2
*U93
 10
0.0
 20
0.0
 30
0.0
  0
INSERT
  5
A38
  8
1
  2
*U94
 10
0.0
 20
0.0
 30
0.0
  0
INSERT
  5
A39
  8
1
  2
*U95
 10
0.0
 20
0.0
 30
0.0
  0
INSERT
  5
A3A
  8
1
  2
*U96
 10
0.0
 20
0.0
 30
0.0
  0
INSERT
  5
A3B
  8
1
  2
*U97
 10
0.0
 20
0.0
 30
0.0
  0
INSERT
  5
A3C
  8
1
  2
*U98
 10
0.0
 20
0.0
 30
0.0
  0
INSERT
  5
A3D
  8
1
  2
*U99
 10
0.0
 20
0.0
 30
0.0
  0
INSERT
  5
A3E
  8
1
  2
*U100
 10
0.0
 20
0.0
 30
0.0
  0
INSERT
  5
A3F
  8
1
  2
*U101
 10
0.0
 20
0.0
 30
0.0
  0
INSERT
  5
A40
  8
1
  2
*U102
 10
0.0
 20
0.0
 30
0.0
  0
INSERT
  5
A41
  8
1
  2
*U103
 10
0.0
 20
0.0
 30
0.0
  0
INSERT
  5
A42
  8
1
  2
*U104
 10
0.0
 20
0.0
 30
0.0
  0
INSERT
  5
A43
  8
1
  2
*U105
 10
0.0
 20
0.0
 30
0.0
  0
INSERT
  5
A44
  8
1
  2
*U106
 10
0.0
 20
0.0
 30
0.0
  0
INSERT
  5
A45
  8
1
  2
*U107
 10
0.0
 20
0.0
 30
0.0
  0
INSERT
  5
A46
  8
1
  2
*U108
 10
0.0
 20
0.0
 30
0.0
  0
INSERT
  5
A47
  8
1
  2
*U109
 10
0.0
 20
0.0
 30
0.0
  0
INSERT
  5
A48
  8
1
  2
*U110
 10
0.0
 20
0.0
 30
0.0
  0
INSERT
  5
A49
  8
1
  2
*U111
 10
0.0
 20
0.0
 30
0.0
  0
INSERT
  5
A4A
  8
1
  2
*U112
 10
0.0
 20
0.0
 30
0.0
  0
INSERT
  5
A4B
  8
1
  2
*U113
 10
0.0
 20
0.0
 30
0.0
  0
INSERT
  5
A4C
  8
1
  2
*U114
 10
0.0
 20
0.0
 30
0.0
  0
INSERT
  5
A4D
  8
1
  2
*U115
 10
0.0
 20
0.0
 30
0.0
  0
INSERT
  5
A4E
  8
1
  2
*U116
 10
0.0
 20
0.0
 30
0.0
  0
INSERT
  5
A4F
  8
1
  2
*U117
 10
0.0
 20
0.0
 30
0.0
  0
INSERT
  5
A50
  8
1
  2
*U118
 10
0.0
 20
0.0
 30
0.0
  0
INSERT
  5
A51
  8
1
  2
*U119
 10
0.0
 20
0.0
 30
0.0
  0
INSERT
  5
A52
  8
1
  2
*U120
 10
0.0
 20
0.0
 30
0.0
  0
INSERT
  5
A53
  8
1
  2
*U121
 10
0.0
 20
0.0
 30
0.0
  0
INSERT
  5
A54
  8
1
  2
*U122
 10
0.0
 20
0.0
 30
0.0
  0
INSERT
  5
A55
  8
1
  2
*U123
 10
0.0
 20
0.0
 30
0.0
  0
INSERT
  5
A56
  8
1
  2
*U124
 10
0.0
 20
0.0
 30
0.0
  0
INSERT
  5
A57
  8
1
  2
*U125
 10
0.0
 20
0.0
 30
0.0
  0
INSERT
  5
A58
  8
1
  2
*U126
 10
0.0
 20
0.0
 30
0.0
  0
INSERT
  5
A59
  8
1
  2
*U127
 10
0.0
 20
0.0
 30
0.0
  0
INSERT
  5
A5A
  8
1
  2
*U128
 10
0.0
 20
0.0
 30
0.0
  0
INSERT
  5
A5B
  8
1
  2
*U129
 10
0.0
 20
0.0
 30
0.0
  0
INSERT
  5
A5C
  8
1
  2
*U130
 10
0.0
 20
0.0
 30
0.0
  0
INSERT
  5
A5D
  8
1
  2
*U131
 10
0.0
 20
0.0
 30
0.0
  0
INSERT
  5
A5E
  8
1
  2
*U132
 10
0.0
 20
0.0
 30
0.0
  0
INSERT
  5
A5F
  8
1
  2
*U133
 10
0.0
 20
0.0
 30
0.0
  0
INSERT
  5
A60
  8
1
  2
*U134
 10
0.0
 20
0.0
 30
0.0
  0
INSERT
  5
A61
  8
1
  2
*U135
 10
0.0
 20
0.0
 30
0.0
  0
INSERT
  5
A62
  8
1
  2
*U136
 10
0.0
 20
0.0
 30
0.0
  0
INSERT
  5
A63
  8
1
  2
*U137
 10
0.0
 20
0.0
 30
0.0
  0
INSERT
  5
A64
  8
1
  2
*U138
 10
0.0
 20
0.0
 30
0.0
  0
INSERT
  5
A65
  8
1
  2
*U139
 10
0.0
 20
0.0
 30
0.0
  0
INSERT
  5
A66
  8
1
  2
*U140
 10
0.0
 20
0.0
 30
0.0
  0
CIRCLE
  5
A67
  8
1
 10
798.648699
 20
-2471.35903
 30
0.0
 40
0.888911
  0
CIRCLE
  5
A68
  8
1
 10
798.648699
 20
-2456.587986
 30
0.0
 40
0.888911
  0
CIRCLE
  5
A69
  8
1
 10
811.440798
 20
-2478.744551
 30
0.0
 40
0.888911
  0
CIRCLE
  5
A6A
  8
1
 10
811.440798
 20
-2463.973508
 30
0.0
 40
0.888911
  0
CIRCLE
  5
A6B
  8
1
 10
811.440798
 20
-2449.202465
 30
0.0
 40
0.888911
  0
INSERT
  5
A6C
  8
1
  2
*U141
 10
0.0
 20
0.0
 30
0.0
  0
INSERT
  5
A6D
  8
1
  2
*U142
 10
0.0
 20
0.0
 30
0.0
  0
INSERT
  5
A6E
  8
1
  2
*U143
 10
0.0
 20
0.0
 30
0.0
  0
INSERT
  5
A6F
  8
1
  2
*U144
 10
0.0
 20
0.0
 30
0.0
  0
INSERT
  5
A70
  8
1
  2
*U145
 10
0.0
 20
0.0
 30
0.0
  0
INSERT
  5
A71
  8
1
  2
*U146
 10
0.0
 20
0.0
 30
0.0
  0
INSERT
  5
A72
  8
1
  2
*U147
 10
0.0
 20
0.0
 30
0.0
  0
INSERT
  5
A73
  8
1
  2
*U148
 10
0.0
 20
0.0
 30
0.0
  0
INSERT
  5
A74
  8
1
  2
*U149
 10
0.0
 20
0.0
 30
0.0
  0
INSERT
  5
A75
  8
1
  2
*U150
 10
0.0
 20
0.0
 30
0.0
  0
INSERT
  5
A76
  8
1
  2
*U151
 10
0.0
 20
0.0
 30
0.0
  0
INSERT
  5
A77
  8
1
  2
*U152
 10
0.0
 20
0.0
 30
0.0
  0
INSERT
  5
A78
  8
1
  2
*U153
 10
0.0
 20
0.0
 30
0.0
  0
INSERT
  5
A79
  8
1
  2
*U154
 10
0.0
 20
0.0
 30
0.0
  0
INSERT
  5
A7A
  8
1
  2
*U155
 10
0.0
 20
0.0
 30
0.0
  0
INSERT
  5
A7B
  8
1
  2
*U156
 10
0.0
 20
0.0
 30
0.0
  0
INSERT
  5
A7C
  8
1
  2
*U157
 10
0.0
 20
0.0
 30
0.0
  0
INSERT
  5
A7D
  8
1
  2
*U158
 10
0.0
 20
0.0
 30
0.0
  0
INSERT
  5
A7E
  8
1
  2
*U159
 10
0.0
 20
0.0
 30
0.0
  0
INSERT
  5
A7F
  8
1
  2
*U160
 10
0.0
 20
0.0
 30
0.0
  0
INSERT
  5
A80
  8
1
  2
*U161
 10
0.0
 20
0.0
 30
0.0
  0
INSERT
  5
A81
  8
1
  2
*U162
 10
0.0
 20
0.0
 30
0.0
  0
INSERT
  5
A82
  8
1
  2
*U163
 10
0.0
 20
0.0
 30
0.0
  0
INSERT
  5
A83
  8
1
  2
*U164
 10
0.0
 20
0.0
 30
0.0
  0
INSERT
  5
A84
  8
1
  2
*U165
 10
0.0
 20
0.0
 30
0.0
  0
INSERT
  5
A85
  8
1
  2
*U166
 10
0.0
 20
0.0
 30
0.0
  0
INSERT
  5
A86
  8
1
  2
*U167
 10
0.0
 20
0.0
 30
0.0
  0
INSERT
  5
A87
  8
1
  2
*U168
 10
0.0
 20
0.0
 30
0.0
  0
INSERT
  5
A88
  8
1
  2
*U169
 10
0.0
 20
0.0
 30
0.0
  0
INSERT
  5
A89
  8
1
  2
*U170
 10
0.0
 20
0.0
 30
0.0
  0
INSERT
  5
A8A
  8
1
  2
*U171
 10
0.0
 20
0.0
 30
0.0
  0
INSERT
  5
A8B
  8
1
  2
*U172
 10
0.0
 20
0.0
 30
0.0
  0
INSERT
  5
A8C
  8
1
  2
*U173
 10
0.0
 20
0.0
 30
0.0
  0
INSERT
  5
A8D
  8
1
  2
*U174
 10
0.0
 20
0.0
 30
0.0
  0
INSERT
  5
A8E
  8
1
  2
*U175
 10
0.0
 20
0.0
 30
0.0
  0
INSERT
  5
A8F
  8
1
  2
*U176
 10
0.0
 20
0.0
 30
0.0
  0
INSERT
  5
A90
  8
1
  2
*U177
 10
0.0
 20
0.0
 30
0.0
  0
INSERT
  5
A91
  8
1
  2
*U178
 10
0.0
 20
0.0
 30
0.0
  0
INSERT
  5
A92
  8
1
  2
*U179
 10
0.0
 20
0.0
 30
0.0
  0
INSERT
  5
A93
  8
1
  2
*U180
 10
0.0
 20
0.0
 30
0.0
  0
INSERT
  5
A94
  8
1
  2
*U181
 10
0.0
 20
0.0
 30
0.0
  0
INSERT
  5
A95
  8
1
  2
*U182
 10
0.0
 20
0.0
 30
0.0
  0
INSERT
  5
A96
  8
1
  2
*U183
 10
0.0
 20
0.0
 30
0.0
  0
INSERT
  5
A97
  8
1
  2
*U184
 10
0.0
 20
0.0
 30
0.0
  0
INSERT
  5
A98
  8
1
  2
*U185
 10
0.0
 20
0.0
 30
0.0
  0
INSERT
  5
A99
  8
1
  2
*U186
 10
0.0
 20
0.0
 30
0.0
  0
INSERT
  5
A9A
  8
1
  2
*U187
 10
0.0
 20
0.0
 30
0.0
  0
INSERT
  5
A9B
  8
1
  2
*U188
 10
0.0
 20
0.0
 30
0.0
  0
INSERT
  5
A9C
  8
1
  2
*U189
 10
0.0
 20
0.0
 30
0.0
  0
INSERT
  5
A9D
  8
1
  2
*U190
 10
0.0
 20
0.0
 30
0.0
  0
CIRCLE
  5
A9E
  8
1
 10
798.648699
 20
-2813.109512
 30
0.0
 40
0.888911
  0
CIRCLE
  5
A9F
  8
1
 10
798.648699
 20
-2827.880556
 30
0.0
 40
0.888911
  0
CIRCLE
  5
AA0
  8
1
 10
811.440798
 20
-2805.723991
 30
0.0
 40
0.888911
  0
CIRCLE
  5
AA1
  8
1
 10
811.440798
 20
-2820.495034
 30
0.0
 40
0.888911
  0
CIRCLE
  5
AA2
  8
1
 10
811.440798
 20
-2835.266077
 30
0.0
 40
0.888911
  0
INSERT
  5
AA3
  8
1
  2
*U191
 10
0.0
 20
0.0
 30
0.0
  0
INSERT
  5
AA4
  8
1
  2
*U192
 10
0.0
 20
0.0
 30
0.0
  0
INSERT
  5
AA5
  8
1
  2
*U193
 10
0.0
 20
0.0
 30
0.0
  0
INSERT
  5
AA6
  8
1
  2
*U194
 10
0.0
 20
0.0
 30
0.0
  0
INSERT
  5
AA7
  8
1
  2
*U195
 10
0.0
 20
0.0
 30
0.0
  0
INSERT
  5
AA8
  8
1
  2
*U196
 10
0.0
 20
0.0
 30
0.0
  0
INSERT
  5
AA9
  8
1
  2
*U197
 10
0.0
 20
0.0
 30
0.0
  0
INSERT
  5
AAA
  8
1
  2
*U198
 10
0.0
 20
0.0
 30
0.0
  0
INSERT
  5
AAB
  8
1
  2
*U199
 10
0.0
 20
0.0
 30
0.0
  0
INSERT
  5
AAC
  8
1
  2
*U200
 10
0.0
 20
0.0
 30
0.0
  0
INSERT
  5
AAD
  8
1
  2
*U201
 10
0.0
 20
0.0
 30
0.0
  0
INSERT
  5
AAE
  8
1
  2
*U202
 10
0.0
 20
0.0
 30
0.0
  0
INSERT
  5
AAF
  8
1
  2
*U203
 10
0.0
 20
0.0
 30
0.0
  0
INSERT
  5
AB0
  8
1
  2
*U204
 10
0.0
 20
0.0
 30
0.0
  0
INSERT
  5
AB1
  8
1
  2
*U205
 10
0.0
 20
0.0
 30
0.0
  0
INSERT
  5
AB2
  8
1
  2
*U206
 10
0.0
 20
0.0
 30
0.0
  0
INSERT
  5
AB3
  8
1
  2
*U207
 10
0.0
 20
0.0
 30
0.0
  0
INSERT
  5
AB4
  8
1
  2
*U208
 10
0.0
 20
0.0
 30
0.0
  0
INSERT
  5
AB5
  8
1
  2
*U209
 10
0.0
 20
0.0
 30
0.0
  0
INSERT
  5
AB6
  8
1
  2
*U210
 10
0.0
 20
0.0
 30
0.0
  0
INSERT
  5
AB7
  8
1
  2
*U211
 10
0.0
 20
0.0
 30
0.0
  0
INSERT
  5
AB8
  8
1
  2
*U212
 10
0.0
 20
0.0
 30
0.0
  0
INSERT
  5
AB9
  8
1
  2
*U213
 10
0.0
 20
0.0
 30
0.0
  0
INSERT
  5
ABA
  8
1
  2
*U214
 10
0.0
 20
0.0
 30
0.0
  0
INSERT
  5
ABB
  8
1
  2
*U215
 10
0.0
 20
0.0
 30
0.0
  0
INSERT
  5
ABC
  8
1
  2
*U216
 10
0.0
 20
0.0
 30
0.0
  0
INSERT
  5
ABD
  8
1
  2
*U217
 10
0.0
 20
0.0
 30
0.0
  0
INSERT
  5
ABE
  8
1
  2
*U218
 10
0.0
 20
0.0
 30
0.0
  0
INSERT
  5
ABF
  8
1
  2
*U219
 10
0.0
 20
0.0
 30
0.0
  0
INSERT
  5
AC0
  8
1
  2
*U220
 10
0.0
 20
0.0
 30
0.0
  0
INSERT
  5
AC1
  8
1
  2
*U221
 10
0.0
 20
0.0
 30
0.0
  0
INSERT
  5
AC2
  8
1
  2
*U222
 10
0.0
 20
0.0
 30
0.0
  0
INSERT
  5
AC3
  8
1
  2
*U223
 10
0.0
 20
0.0
 30
0.0
  0
INSERT
  5
AC4
  8
1
  2
*U224
 10
0.0
 20
0.0
 30
0.0
  0
INSERT
  5
AC5
  8
1
  2
*U225
 10
0.0
 20
0.0
 30
0.0
  0
INSERT
  5
AC6
  8
1
  2
*U226
 10
0.0
 20
0.0
 30
0.0
  0
INSERT
  5
AC7
  8
1
  2
*U227
 10
0.0
 20
0.0
 30
0.0
  0
INSERT
  5
AC8
  8
1
  2
*U228
 10
0.0
 20
0.0
 30
0.0
  0
INSERT
  5
AC9
  8
1
  2
*U229
 10
0.0
 20
0.0
 30
0.0
  0
INSERT
  5
ACA
  8
1
  2
*U230
 10
0.0
 20
0.0
 30
0.0
  0
INSERT
  5
ACB
  8
1
  2
*U231
 10
0.0
 20
0.0
 30
0.0
  0
INSERT
  5
ACC
  8
1
  2
*U232
 10
0.0
 20
0.0
 30
0.0
  0
INSERT
  5
ACD
  8
1
  2
*U233
 10
0.0
 20
0.0
 30
0.0
  0
INSERT
  5
ACE
  8
1
  2
*U234
 10
0.0
 20
0.0
 30
0.0
  0
INSERT
  5
ACF
  8
1
  2
*U235
 10
0.0
 20
0.0
 30
0.0
  0
INSERT
  5
AD0
  8
1
  2
*U236
 10
0.0
 20
0.0
 30
0.0
  0
INSERT
  5
AD1
  8
1
  2
*U237
 10
0.0
 20
0.0
 30
0.0
  0
INSERT
  5
AD2
  8
1
  2
*U238
 10
0.0
 20
0.0
 30
0.0
  0
CIRCLE
  5
AD3
  8
1
 10
776.398415
 20
-2886.354049
 30
0.0
 40
0.888911
  0
CIRCLE
  5
AD4
  8
1
 10
776.398415
 20
-2915.896135
 30
0.0
 40
0.888911
  0
CIRCLE
  5
AD5
  8
1
 10
789.190513
 20
-2893.73957
 30
0.0
 40
0.888911
  0
CIRCLE
  5
AD6
  8
1
 10
789.190513
 20
-2908.510614
 30
0.0
 40
0.888911
  0
CIRCLE
  5
AD7
  8
1
 10
789.190513
 20
-2923.281657
 30
0.0
 40
0.888911
  0
CIRCLE
  5
AD8
  8
1
 10
776.398415
 20
-2901.125092
 30
0.0
 40
0.888911
  0
CIRCLE
  5
AD9
  8
1
 10
801.982612
 20
-2886.354049
 30
0.0
 40
0.888911
  0
CIRCLE
  5
ADA
  8
1
 10
801.982612
 20
-2915.896135
 30
0.0
 40
0.888911
  0
CIRCLE
  5
ADB
  8
1
 10
801.982612
 20
-2901.125092
 30
0.0
 40
0.888911
  0
CIRCLE
  5
ADC
  8
1
 10
837.024995
 20
-2820.495034
 30
0.0
 40
0.888911
  0
CIRCLE
  5
ADD
  8
1
 10
824.232896
 20
-2813.109512
 30
0.0
 40
0.888911
  0
CIRCLE
  5
ADE
  8
1
 10
824.232896
 20
-2827.880556
 30
0.0
 40
0.888911
  0
CIRCLE
  5
ADF
  8
1
 10
837.024995
 20
-2835.266077
 30
0.0
 40
0.888911
  0
CIRCLE
  5
AE0
  8
1
 10
837.024995
 20
-2805.723991
 30
0.0
 40
0.888911
  0
CIRCLE
  5
AE1
  8
1
 10
827.566809
 20
-2915.896135
 30
0.0
 40
0.888911
  0
CIRCLE
  5
AE2
  8
1
 10
827.566809
 20
-2901.125092
 30
0.0
 40
0.888911
  0
CIRCLE
  5
AE3
  8
1
 10
827.566809
 20
-2886.354049
 30
0.0
 40
0.888911
  0
CIRCLE
  5
AE4
  8
1
 10
814.774711
 20
-2893.73957
 30
0.0
 40
0.888911
  0
CIRCLE
  5
AE5
  8
1
 10
814.774711
 20
-2908.510614
 30
0.0
 40
0.888911
  0
CIRCLE
  5
AE6
  8
1
 10
814.774711
 20
-2923.281657
 30
0.0
 40
0.888911
  0
CIRCLE
  5
AE7
  8
1
 10
862.609193
 20
-2820.495034
 30
0.0
 40
0.888911
  0
CIRCLE
  5
AE8
  8
1
 10
849.817094
 20
-2813.109512
 30
0.0
 40
0.888911
  0
CIRCLE
  5
AE9
  8
1
 10
849.817094
 20
-2827.880556
 30
0.0
 40
0.888911
  0
CIRCLE
  5
AEA
  8
1
 10
862.609193
 20
-2835.266077
 30
0.0
 40
0.888911
  0
CIRCLE
  5
AEB
  8
1
 10
862.609193
 20
-2805.723991
 30
0.0
 40
0.888911
  0
CIRCLE
  5
AEC
  8
1
 10
853.151007
 20
-2915.896135
 30
0.0
 40
0.888911
  0
CIRCLE
  5
AED
  8
1
 10
853.151007
 20
-2901.125092
 30
0.0
 40
0.888911
  0
CIRCLE
  5
AEE
  8
1
 10
853.151007
 20
-2886.354049
 30
0.0
 40
0.888911
  0
CIRCLE
  5
AEF
  8
1
 10
840.358908
 20
-2893.73957
 30
0.0
 40
0.888911
  0
CIRCLE
  5
AF0
  8
1
 10
840.358908
 20
-2908.510614
 30
0.0
 40
0.888911
  0
CIRCLE
  5
AF1
  8
1
 10
840.358908
 20
-2923.281657
 30
0.0
 40
0.888911
  0
CIRCLE
  5
AF2
  8
1
 10
888.19339
 20
-2820.495034
 30
0.0
 40
0.888911
  0
CIRCLE
  5
AF3
  8
1
 10
875.401291
 20
-2813.109512
 30
0.0
 40
0.888911
  0
CIRCLE
  5
AF4
  8
1
 10
875.401291
 20
-2827.880556
 30
0.0
 40
0.888911
  0
CIRCLE
  5
AF5
  8
1
 10
888.19339
 20
-2835.266077
 30
0.0
 40
0.888911
  0
CIRCLE
  5
AF6
  8
1
 10
888.19339
 20
-2805.723991
 30
0.0
 40
0.888911
  0
CIRCLE
  5
AF7
  8
1
 10
878.735204
 20
-2915.896135
 30
0.0
 40
0.888911
  0
CIRCLE
  5
AF8
  8
1
 10
878.735204
 20
-2901.125092
 30
0.0
 40
0.888911
  0
CIRCLE
  5
AF9
  8
1
 10
878.735204
 20
-2886.354049
 30
0.0
 40
0.888911
  0
CIRCLE
  5
AFA
  8
1
 10
865.943105
 20
-2893.73957
 30
0.0
 40
0.888911
  0
CIRCLE
  5
AFB
  8
1
 10
865.943105
 20
-2908.510614
 30
0.0
 40
0.888911
  0
CIRCLE
  5
AFC
  8
1
 10
865.943105
 20
-2923.281657
 30
0.0
 40
0.888911
  0
CIRCLE
  5
AFD
  8
1
 10
913.777587
 20
-2820.495034
 30
0.0
 40
0.888911
  0
CIRCLE
  5
AFE
  8
1
 10
900.985489
 20
-2813.109512
 30
0.0
 40
0.888911
  0
CIRCLE
  5
AFF
  8
1
 10
900.985489
 20
-2827.880556
 30
0.0
 40
0.888911
  0
CIRCLE
  5
B00
  8
1
 10
913.777587
 20
-2835.266077
 30
0.0
 40
0.888911
  0
CIRCLE
  5
B01
  8
1
 10
913.777587
 20
-2805.723991
 30
0.0
 40
0.888911
  0
CIRCLE
  5
B02
  8
1
 10
904.319402
 20
-2915.896135
 30
0.0
 40
0.888911
  0
CIRCLE
  5
B03
  8
1
 10
904.319402
 20
-2901.125092
 30
0.0
 40
0.888911
  0
CIRCLE
  5
B04
  8
1
 10
904.319402
 20
-2886.354049
 30
0.0
 40
0.888911
  0
CIRCLE
  5
B05
  8
1
 10
891.527303
 20
-2893.73957
 30
0.0
 40
0.888911
  0
CIRCLE
  5
B06
  8
1
 10
891.527303
 20
-2908.510614
 30
0.0
 40
0.888911
  0
CIRCLE
  5
B07
  8
1
 10
891.527303
 20
-2923.281657
 30
0.0
 40
0.888911
  0
CIRCLE
  5
B08
  8
1
 10
939.361785
 20
-2820.495034
 30
0.0
 40
0.888911
  0
CIRCLE
  5
B09
  8
1
 10
926.569686
 20
-2813.109512
 30
0.0
 40
0.888911
  0
CIRCLE
  5
B0A
  8
1
 10
926.569686
 20
-2827.880556
 30
0.0
 40
0.888911
  0
CIRCLE
  5
B0B
  8
1
 10
939.361785
 20
-2835.266077
 30
0.0
 40
0.888911
  0
CIRCLE
  5
B0C
  8
1
 10
939.361785
 20
-2805.723991
 30
0.0
 40
0.888911
  0
CIRCLE
  5
B0D
  8
1
 10
929.903599
 20
-2915.896135
 30
0.0
 40
0.888911
  0
CIRCLE
  5
B0E
  8
1
 10
929.903599
 20
-2901.125092
 30
0.0
 40
0.888911
  0
CIRCLE
  5
B0F
  8
1
 10
929.903599
 20
-2886.354049
 30
0.0
 40
0.888911
  0
CIRCLE
  5
B10
  8
1
 10
917.1115
 20
-2893.73957
 30
0.0
 40
0.888911
  0
CIRCLE
  5
B11
  8
1
 10
917.1115
 20
-2908.510614
 30
0.0
 40
0.888911
  0
CIRCLE
  5
B12
  8
1
 10
917.1115
 20
-2923.281657
 30
0.0
 40
0.888911
  0
CIRCLE
  5
B13
  8
1
 10
964.945982
 20
-2820.495034
 30
0.0
 40
0.888911
  0
CIRCLE
  5
B14
  8
1
 10
952.153884
 20
-2813.109512
 30
0.0
 40
0.888911
  0
CIRCLE
  5
B15
  8
1
 10
952.153884
 20
-2827.880556
 30
0.0
 40
0.888911
  0
CIRCLE
  5
B16
  8
1
 10
964.945982
 20
-2835.266077
 30
0.0
 40
0.888911
  0
CIRCLE
  5
B17
  8
1
 10
964.945982
 20
-2805.723991
 30
0.0
 40
0.888911
  0
CIRCLE
  5
B18
  8
1
 10
955.487796
 20
-2915.896135
 30
0.0
 40
0.888911
  0
CIRCLE
  5
B19
  8
1
 10
955.487796
 20
-2901.125092
 30
0.0
 40
0.888911
  0
CIRCLE
  5
B1A
  8
1
 10
955.487796
 20
-2886.354049
 30
0.0
 40
0.888911
  0
CIRCLE
  5
B1B
  8
1
 10
942.695698
 20
-2893.73957
 30
0.0
 40
0.888911
  0
CIRCLE
  5
B1C
  8
1
 10
942.695698
 20
-2908.510614
 30
0.0
 40
0.888911
  0
CIRCLE
  5
B1D
  8
1
 10
942.695698
 20
-2923.281657
 30
0.0
 40
0.888911
  0
CIRCLE
  5
B1E
  8
1
 10
990.53018
 20
-2820.495034
 30
0.0
 40
0.888911
  0
CIRCLE
  5
B1F
  8
1
 10
977.738081
 20
-2813.109512
 30
0.0
 40
0.888911
  0
CIRCLE
  5
B20
  8
1
 10
977.738081
 20
-2827.880556
 30
0.0
 40
0.888911
  0
CIRCLE
  5
B21
  8
1
 10
990.53018
 20
-2835.266077
 30
0.0
 40
0.888911
  0
CIRCLE
  5
B22
  8
1
 10
990.53018
 20
-2805.723991
 30
0.0
 40
0.888911
  0
CIRCLE
  5
B23
  8
1
 10
981.071994
 20
-2915.896135
 30
0.0
 40
0.888911
  0
CIRCLE
  5
B24
  8
1
 10
981.071994
 20
-2901.125092
 30
0.0
 40
0.888911
  0
CIRCLE
  5
B25
  8
1
 10
981.071994
 20
-2886.354049
 30
0.0
 40
0.888911
  0
CIRCLE
  5
B26
  8
1
 10
968.279895
 20
-2893.73957
 30
0.0
 40
0.888911
  0
CIRCLE
  5
B27
  8
1
 10
968.279895
 20
-2908.510614
 30
0.0
 40
0.888911
  0
CIRCLE
  5
B28
  8
1
 10
968.279895
 20
-2923.281657
 30
0.0
 40
0.888911
  0
CIRCLE
  5
B29
  8
1
 10
1016.114377
 20
-2820.495034
 30
0.0
 40
0.888911
  0
CIRCLE
  5
B2A
  8
1
 10
1003.322278
 20
-2813.109512
 30
0.0
 40
0.888911
  0
CIRCLE
  5
B2B
  8
1
 10
1003.322278
 20
-2827.880556
 30
0.0
 40
0.888911
  0
CIRCLE
  5
B2C
  8
1
 10
1016.114377
 20
-2835.266077
 30
0.0
 40
0.888911
  0
CIRCLE
  5
B2D
  8
1
 10
1016.114377
 20
-2805.723991
 30
0.0
 40
0.888911
  0
CIRCLE
  5
B2E
  8
1
 10
1006.656191
 20
-2915.896135
 30
0.0
 40
0.888911
  0
CIRCLE
  5
B2F
  8
1
 10
1006.656191
 20
-2901.125092
 30
0.0
 40
0.888911
  0
CIRCLE
  5
B30
  8
1
 10
1006.656191
 20
-2886.354049
 30
0.0
 40
0.888911
  0
CIRCLE
  5
B31
  8
1
 10
993.864093
 20
-2893.73957
 30
0.0
 40
0.888911
  0
CIRCLE
  5
B32
  8
1
 10
993.864093
 20
-2908.510614
 30
0.0
 40
0.888911
  0
CIRCLE
  5
B33
  8
1
 10
993.864093
 20
-2923.281657
 30
0.0
 40
0.888911
  0
CIRCLE
  5
B34
  8
1
 10
1041.698574
 20
-2820.495034
 30
0.0
 40
0.888911
  0
CIRCLE
  5
B35
  8
1
 10
1028.906476
 20
-2813.109512
 30
0.0
 40
0.888911
  0
CIRCLE
  5
B36
  8
1
 10
1028.906476
 20
-2827.880556
 30
0.0
 40
0.888911
  0
CIRCLE
  5
B37
  8
1
 10
1041.698574
 20
-2835.266077
 30
0.0
 40
0.888911
  0
CIRCLE
  5
B38
  8
1
 10
1041.698574
 20
-2805.723991
 30
0.0
 40
0.888911
  0
CIRCLE
  5
B39
  8
1
 10
1032.240389
 20
-2915.896135
 30
0.0
 40
0.888911
  0
CIRCLE
  5
B3A
  8
1
 10
1032.240389
 20
-2901.125092
 30
0.0
 40
0.888911
  0
CIRCLE
  5
B3B
  8
1
 10
1032.240389
 20
-2886.354049
 30
0.0
 40
0.888911
  0
CIRCLE
  5
B3C
  8
1
 10
1019.44829
 20
-2893.73957
 30
0.0
 40
0.888911
  0
CIRCLE
  5
B3D
  8
1
 10
1019.44829
 20
-2908.510614
 30
0.0
 40
0.888911
  0
CIRCLE
  5
B3E
  8
1
 10
1019.44829
 20
-2923.281657
 30
0.0
 40
0.888911
  0
CIRCLE
  5
B3F
  8
1
 10
1067.282772
 20
-2820.495034
 30
0.0
 40
0.888911
  0
CIRCLE
  5
B40
  8
1
 10
1054.490673
 20
-2813.109512
 30
0.0
 40
0.888911
  0
CIRCLE
  5
B41
  8
1
 10
1054.490673
 20
-2827.880556
 30
0.0
 40
0.888911
  0
CIRCLE
  5
B42
  8
1
 10
1067.282772
 20
-2835.266077
 30
0.0
 40
0.888911
  0
CIRCLE
  5
B43
  8
1
 10
1067.282772
 20
-2805.723991
 30
0.0
 40
0.888911
  0
CIRCLE
  5
B44
  8
1
 10
1057.824586
 20
-2915.896135
 30
0.0
 40
0.888911
  0
CIRCLE
  5
B45
  8
1
 10
1057.824586
 20
-2901.125092
 30
0.0
 40
0.888911
  0
CIRCLE
  5
B46
  8
1
 10
1057.824586
 20
-2886.354049
 30
0.0
 40
0.888911
  0
CIRCLE
  5
B47
  8
1
 10
1045.032487
 20
-2893.73957
 30
0.0
 40
0.888911
  0
CIRCLE
  5
B48
  8
1
 10
1045.032487
 20
-2908.510614
 30
0.0
 40
0.888911
  0
CIRCLE
  5
B49
  8
1
 10
1045.032487
 20
-2923.281657
 30
0.0
 40
0.888911
  0
CIRCLE
  5
B4A
  8
1
 10
1092.866969
 20
-2820.495034
 30
0.0
 40
0.888911
  0
CIRCLE
  5
B4B
  8
1
 10
1080.074871
 20
-2813.109512
 30
0.0
 40
0.888911
  0
CIRCLE
  5
B4C
  8
1
 10
1080.074871
 20
-2827.880556
 30
0.0
 40
0.888911
  0
CIRCLE
  5
B4D
  8
1
 10
1092.866969
 20
-2835.266077
 30
0.0
 40
0.888911
  0
CIRCLE
  5
B4E
  8
1
 10
1092.866969
 20
-2805.723991
 30
0.0
 40
0.888911
  0
CIRCLE
  5
B4F
  8
1
 10
1083.408784
 20
-2915.896135
 30
0.0
 40
0.888911
  0
CIRCLE
  5
B50
  8
1
 10
1083.408784
 20
-2901.125092
 30
0.0
 40
0.888911
  0
CIRCLE
  5
B51
  8
1
 10
1083.408784
 20
-2886.354049
 30
0.0
 40
0.888911
  0
CIRCLE
  5
B52
  8
1
 10
1070.616685
 20
-2893.73957
 30
0.0
 40
0.888911
  0
CIRCLE
  5
B53
  8
1
 10
1070.616685
 20
-2908.510614
 30
0.0
 40
0.888911
  0
CIRCLE
  5
B54
  8
1
 10
1070.616685
 20
-2923.281657
 30
0.0
 40
0.888911
  0
CIRCLE
  5
B55
  8
1
 10
1118.451167
 20
-2820.495034
 30
0.0
 40
0.888911
  0
CIRCLE
  5
B56
  8
1
 10
1105.659068
 20
-2813.109512
 30
0.0
 40
0.888911
  0
CIRCLE
  5
B57
  8
1
 10
1105.659068
 20
-2827.880556
 30
0.0
 40
0.888911
  0
CIRCLE
  5
B58
  8
1
 10
1118.451167
 20
-2835.266077
 30
0.0
 40
0.888911
  0
CIRCLE
  5
B59
  8
1
 10
1118.451167
 20
-2805.723991
 30
0.0
 40
0.888911
  0
CIRCLE
  5
B5A
  8
1
 10
1108.992981
 20
-2915.896135
 30
0.0
 40
0.888911
  0
CIRCLE
  5
B5B
  8
1
 10
1108.992981
 20
-2901.125092
 30
0.0
 40
0.888911
  0
CIRCLE
  5
B5C
  8
1
 10
1108.992981
 20
-2886.354049
 30
0.0
 40
0.888911
  0
CIRCLE
  5
B5D
  8
1
 10
1096.200882
 20
-2893.73957
 30
0.0
 40
0.888911
  0
CIRCLE
  5
B5E
  8
1
 10
1096.200882
 20
-2908.510614
 30
0.0
 40
0.888911
  0
CIRCLE
  5
B5F
  8
1
 10
1096.200882
 20
-2923.281657
 30
0.0
 40
0.888911
  0
CIRCLE
  5
B60
  8
1
 10
1144.035364
 20
-2820.495034
 30
0.0
 40
0.888911
  0
CIRCLE
  5
B61
  8
1
 10
1131.243265
 20
-2813.109512
 30
0.0
 40
0.888911
  0
CIRCLE
  5
B62
  8
1
 10
1131.243265
 20
-2827.880556
 30
0.0
 40
0.888911
  0
CIRCLE
  5
B63
  8
1
 10
1144.035364
 20
-2835.266077
 30
0.0
 40
0.888911
  0
CIRCLE
  5
B64
  8
1
 10
1144.035364
 20
-2805.723991
 30
0.0
 40
0.888911
  0
CIRCLE
  5
B65
  8
1
 10
1134.577178
 20
-2915.896135
 30
0.0
 40
0.888911
  0
CIRCLE
  5
B66
  8
1
 10
1134.577178
 20
-2901.125092
 30
0.0
 40
0.888911
  0
CIRCLE
  5
B67
  8
1
 10
1134.577178
 20
-2886.354049
 30
0.0
 40
0.888911
  0
CIRCLE
  5
B68
  8
1
 10
1121.78508
 20
-2893.73957
 30
0.0
 40
0.888911
  0
CIRCLE
  5
B69
  8
1
 10
1121.78508
 20
-2908.510614
 30
0.0
 40
0.888911
  0
CIRCLE
  5
B6A
  8
1
 10
1121.78508
 20
-2923.281657
 30
0.0
 40
0.888911
  0
CIRCLE
  5
B6B
  8
1
 10
1169.619562
 20
-2820.495034
 30
0.0
 40
0.888911
  0
CIRCLE
  5
B6C
  8
1
 10
1156.827463
 20
-2813.109512
 30
0.0
 40
0.888911
  0
CIRCLE
  5
B6D
  8
1
 10
1156.827463
 20
-2827.880556
 30
0.0
 40
0.888911
  0
CIRCLE
  5
B6E
  8
1
 10
1169.619562
 20
-2835.266077
 30
0.0
 40
0.888911
  0
CIRCLE
  5
B6F
  8
1
 10
1169.619562
 20
-2805.723991
 30
0.0
 40
0.888911
  0
CIRCLE
  5
B70
  8
1
 10
1160.161376
 20
-2915.896135
 30
0.0
 40
0.888911
  0
CIRCLE
  5
B71
  8
1
 10
1160.161376
 20
-2901.125092
 30
0.0
 40
0.888911
  0
CIRCLE
  5
B72
  8
1
 10
1160.161376
 20
-2886.354049
 30
0.0
 40
0.888911
  0
CIRCLE
  5
B73
  8
1
 10
1147.369277
 20
-2893.73957
 30
0.0
 40
0.888911
  0
CIRCLE
  5
B74
  8
1
 10
1147.369277
 20
-2908.510614
 30
0.0
 40
0.888911
  0
CIRCLE
  5
B75
  8
1
 10
1147.369277
 20
-2923.281657
 30
0.0
 40
0.888911
  0
CIRCLE
  5
B76
  8
1
 10
1195.203759
 20
-2820.495034
 30
0.0
 40
0.888911
  0
CIRCLE
  5
B77
  8
1
 10
1182.41166
 20
-2813.109512
 30
0.0
 40
0.888911
  0
CIRCLE
  5
B78
  8
1
 10
1182.41166
 20
-2827.880556
 30
0.0
 40
0.888911
  0
CIRCLE
  5
B79
  8
1
 10
1195.203759
 20
-2835.266077
 30
0.0
 40
0.888911
  0
CIRCLE
  5
B7A
  8
1
 10
1195.203759
 20
-2805.723991
 30
0.0
 40
0.888911
  0
CIRCLE
  5
B7B
  8
1
 10
1185.745573
 20
-2915.896135
 30
0.0
 40
0.888911
  0
CIRCLE
  5
B7C
  8
1
 10
1185.745573
 20
-2901.125092
 30
0.0
 40
0.888911
  0
CIRCLE
  5
B7D
  8
1
 10
1185.745573
 20
-2886.354049
 30
0.0
 40
0.888911
  0
CIRCLE
  5
B7E
  8
1
 10
1172.953474
 20
-2893.73957
 30
0.0
 40
0.888911
  0
CIRCLE
  5
B7F
  8
1
 10
1172.953474
 20
-2908.510614
 30
0.0
 40
0.888911
  0
CIRCLE
  5
B80
  8
1
 10
1172.953474
 20
-2923.281657
 30
0.0
 40
0.888911
  0
CIRCLE
  5
B81
  8
1
 10
1220.787956
 20
-2820.495034
 30
0.0
 40
0.888911
  0
CIRCLE
  5
B82
  8
1
 10
1207.995858
 20
-2813.109512
 30
0.0
 40
0.888911
  0
CIRCLE
  5
B83
  8
1
 10
1207.995858
 20
-2827.880556
 30
0.0
 40
0.888911
  0
CIRCLE
  5
B84
  8
1
 10
1220.787956
 20
-2835.266077
 30
0.0
 40
0.888911
  0
CIRCLE
  5
B85
  8
1
 10
1220.787956
 20
-2805.723991
 30
0.0
 40
0.888911
  0
CIRCLE
  5
B86
  8
1
 10
1211.329771
 20
-2915.896135
 30
0.0
 40
0.888911
  0
CIRCLE
  5
B87
  8
1
 10
1211.329771
 20
-2901.125092
 30
0.0
 40
0.888911
  0
CIRCLE
  5
B88
  8
1
 10
1211.329771
 20
-2886.354049
 30
0.0
 40
0.888911
  0
CIRCLE
  5
B89
  8
1
 10
1198.537672
 20
-2893.73957
 30
0.0
 40
0.888911
  0
CIRCLE
  5
B8A
  8
1
 10
1198.537672
 20
-2908.510614
 30
0.0
 40
0.888911
  0
CIRCLE
  5
B8B
  8
1
 10
1198.537672
 20
-2923.281657
 30
0.0
 40
0.888911
  0
CIRCLE
  5
B8C
  8
1
 10
1246.372154
 20
-2820.495034
 30
0.0
 40
0.888911
  0
CIRCLE
  5
B8D
  8
1
 10
1233.580055
 20
-2813.109512
 30
0.0
 40
0.888911
  0
CIRCLE
  5
B8E
  8
1
 10
1233.580055
 20
-2827.880556
 30
0.0
 40
0.888911
  0
CIRCLE
  5
B8F
  8
1
 10
1246.372154
 20
-2835.266077
 30
0.0
 40
0.888911
  0
CIRCLE
  5
B90
  8
1
 10
1246.372154
 20
-2805.723991
 30
0.0
 40
0.888911
  0
CIRCLE
  5
B91
  8
1
 10
1236.913968
 20
-2915.896135
 30
0.0
 40
0.888911
  0
CIRCLE
  5
B92
  8
1
 10
1236.913968
 20
-2901.125092
 30
0.0
 40
0.888911
  0
CIRCLE
  5
B93
  8
1
 10
1236.913968
 20
-2886.354049
 30
0.0
 40
0.888911
  0
CIRCLE
  5
B94
  8
1
 10
1224.121869
 20
-2893.73957
 30
0.0
 40
0.888911
  0
CIRCLE
  5
B95
  8
1
 10
1224.121869
 20
-2908.510614
 30
0.0
 40
0.888911
  0
CIRCLE
  5
B96
  8
1
 10
1224.121869
 20
-2923.281657
 30
0.0
 40
0.888911
  0
CIRCLE
  5
B97
  8
1
 10
1271.956351
 20
-2820.495034
 30
0.0
 40
0.888911
  0
CIRCLE
  5
B98
  8
1
 10
1259.164252
 20
-2813.109512
 30
0.0
 40
0.888911
  0
CIRCLE
  5
B99
  8
1
 10
1259.164252
 20
-2827.880556
 30
0.0
 40
0.888911
  0
CIRCLE
  5
B9A
  8
1
 10
1271.956351
 20
-2835.266077
 30
0.0
 40
0.888911
  0
CIRCLE
  5
B9B
  8
1
 10
1271.956351
 20
-2805.723991
 30
0.0
 40
0.888911
  0
CIRCLE
  5
B9C
  8
1
 10
1262.498165
 20
-2915.896135
 30
0.0
 40
0.888911
  0
CIRCLE
  5
B9D
  8
1
 10
1262.498165
 20
-2901.125092
 30
0.0
 40
0.888911
  0
CIRCLE
  5
B9E
  8
1
 10
1262.498165
 20
-2886.354049
 30
0.0
 40
0.888911
  0
CIRCLE
  5
B9F
  8
1
 10
1249.706067
 20
-2893.73957
 30
0.0
 40
0.888911
  0
CIRCLE
  5
BA0
  8
1
 10
1249.706067
 20
-2908.510614
 30
0.0
 40
0.888911
  0
CIRCLE
  5
BA1
  8
1
 10
1249.706067
 20
-2923.281657
 30
0.0
 40
0.888911
  0
CIRCLE
  5
BA2
  8
1
 10
1297.540549
 20
-2820.495034
 30
0.0
 40
0.888911
  0
CIRCLE
  5
BA3
  8
1
 10
1284.74845
 20
-2813.109512
 30
0.0
 40
0.888911
  0
CIRCLE
  5
BA4
  8
1
 10
1284.74845
 20
-2827.880556
 30
0.0
 40
0.888911
  0
CIRCLE
  5
BA5
  8
1
 10
1297.540549
 20
-2835.266077
 30
0.0
 40
0.888911
  0
CIRCLE
  5
BA6
  8
1
 10
1297.540549
 20
-2805.723991
 30
0.0
 40
0.888911
  0
CIRCLE
  5
BA7
  8
1
 10
1288.082363
 20
-2915.896135
 30
0.0
 40
0.888911
  0
CIRCLE
  5
BA8
  8
1
 10
1288.082363
 20
-2901.125092
 30
0.0
 40
0.888911
  0
CIRCLE
  5
BA9
  8
1
 10
1288.082363
 20
-2886.354049
 30
0.0
 40
0.888911
  0
CIRCLE
  5
BAA
  8
1
 10
1275.290264
 20
-2893.73957
 30
0.0
 40
0.888911
  0
CIRCLE
  5
BAB
  8
1
 10
1275.290264
 20
-2908.510614
 30
0.0
 40
0.888911
  0
CIRCLE
  5
BAC
  8
1
 10
1275.290264
 20
-2923.281657
 30
0.0
 40
0.888911
  0
CIRCLE
  5
BAD
  8
1
 10
1310.332647
 20
-2813.109512
 30
0.0
 40
0.888911
  0
CIRCLE
  5
BAE
  8
1
 10
1310.332647
 20
-2827.880556
 30
0.0
 40
0.888911
  0
CIRCLE
  5
BAF
  8
1
 10
837.024995
 20
-2463.973508
 30
0.0
 40
0.888911
  0
CIRCLE
  5
BB0
  8
1
 10
837.024995
 20
-2449.202465
 30
0.0
 40
0.888911
  0
CIRCLE
  5
BB1
  8
1
 10
824.232896
 20
-2456.587986
 30
0.0
 40
0.888911
  0
CIRCLE
  5
BB2
  8
1
 10
824.232896
 20
-2471.35903
 30
0.0
 40
0.888911
  0
CIRCLE
  5
BB3
  8
1
 10
837.024995
 20
-2478.744551
 30
0.0
 40
0.888911
  0
INSERT
  5
BB4
  8
1
  2
*U239
 10
0.0
 20
0.0
 30
0.0
  0
CIRCLE
  5
BB5
  8
1
 10
862.609193
 20
-2463.973508
 30
0.0
 40
0.888911
  0
CIRCLE
  5
BB6
  8
1
 10
862.609193
 20
-2449.202465
 30
0.0
 40
0.888911
  0
CIRCLE
  5
BB7
  8
1
 10
849.817094
 20
-2456.587986
 30
0.0
 40
0.888911
  0
CIRCLE
  5
BB8
  8
1
 10
849.817094
 20
-2471.35903
 30
0.0
 40
0.888911
  0
CIRCLE
  5
BB9
  8
1
 10
862.609193
 20
-2478.744551
 30
0.0
 40
0.888911
  0
INSERT
  5
BBA
  8
1
  2
*U240
 10
0.0
 20
0.0
 30
0.0
  0
CIRCLE
  5
BBB
  8
1
 10
888.19339
 20
-2463.973508
 30
0.0
 40
0.888911
  0
CIRCLE
  5
BBC
  8
1
 10
888.19339
 20
-2449.202465
 30
0.0
 40
0.888911
  0
CIRCLE
  5
BBD
  8
1
 10
875.401291
 20
-2456.587986
 30
0.0
 40
0.888911
  0
CIRCLE
  5
BBE
  8
1
 10
875.401291
 20
-2471.35903
 30
0.0
 40
0.888911
  0
CIRCLE
  5
BBF
  8
1
 10
888.19339
 20
-2478.744551
 30
0.0
 40
0.888911
  0
INSERT
  5
BC0
  8
1
  2
*U241
 10
0.0
 20
0.0
 30
0.0
  0
CIRCLE
  5
BC1
  8
1
 10
913.777587
 20
-2463.973508
 30
0.0
 40
0.888911
  0
CIRCLE
  5
BC2
  8
1
 10
913.777587
 20
-2449.202465
 30
0.0
 40
0.888911
  0
CIRCLE
  5
BC3
  8
1
 10
900.985489
 20
-2456.587986
 30
0.0
 40
0.888911
  0
CIRCLE
  5
BC4
  8
1
 10
900.985489
 20
-2471.35903
 30
0.0
 40
0.888911
  0
CIRCLE
  5
BC5
  8
1
 10
913.777587
 20
-2478.744551
 30
0.0
 40
0.888911
  0
INSERT
  5
BC6
  8
1
  2
*U242
 10
0.0
 20
0.0
 30
0.0
  0
CIRCLE
  5
BC7
  8
1
 10
939.361785
 20
-2463.973508
 30
0.0
 40
0.888911
  0
CIRCLE
  5
BC8
  8
1
 10
939.361785
 20
-2449.202465
 30
0.0
 40
0.888911
  0
CIRCLE
  5
BC9
  8
1
 10
926.569686
 20
-2456.587986
 30
0.0
 40
0.888911
  0
CIRCLE
  5
BCA
  8
1
 10
926.569686
 20
-2471.35903
 30
0.0
 40
0.888911
  0
CIRCLE
  5
BCB
  8
1
 10
939.361785
 20
-2478.744551
 30
0.0
 40
0.888911
  0
INSERT
  5
BCC
  8
1
  2
*U243
 10
0.0
 20
0.0
 30
0.0
  0
CIRCLE
  5
BCD
  8
1
 10
964.945982
 20
-2463.973508
 30
0.0
 40
0.888911
  0
CIRCLE
  5
BCE
  8
1
 10
964.945982
 20
-2449.202465
 30
0.0
 40
0.888911
  0
CIRCLE
  5
BCF
  8
1
 10
952.153884
 20
-2456.587986
 30
0.0
 40
0.888911
  0
CIRCLE
  5
BD0
  8
1
 10
952.153884
 20
-2471.35903
 30
0.0
 40
0.888911
  0
CIRCLE
  5
BD1
  8
1
 10
964.945982
 20
-2478.744551
 30
0.0
 40
0.888911
  0
INSERT
  5
BD2
  8
1
  2
*U244
 10
0.0
 20
0.0
 30
0.0
  0
CIRCLE
  5
BD3
  8
1
 10
990.53018
 20
-2463.973508
 30
0.0
 40
0.888911
  0
CIRCLE
  5
BD4
  8
1
 10
990.53018
 20
-2449.202465
 30
0.0
 40
0.888911
  0
CIRCLE
  5
BD5
  8
1
 10
977.738081
 20
-2456.587986
 30
0.0
 40
0.888911
  0
CIRCLE
  5
BD6
  8
1
 10
977.738081
 20
-2471.35903
 30
0.0
 40
0.888911
  0
CIRCLE
  5
BD7
  8
1
 10
990.53018
 20
-2478.744551
 30
0.0
 40
0.888911
  0
INSERT
  5
BD8
  8
1
  2
*U245
 10
0.0
 20
0.0
 30
0.0
  0
CIRCLE
  5
BD9
  8
1
 10
1016.114377
 20
-2463.973508
 30
0.0
 40
0.888911
  0
CIRCLE
  5
BDA
  8
1
 10
1016.114377
 20
-2449.202465
 30
0.0
 40
0.888911
  0
CIRCLE
  5
BDB
  8
1
 10
1003.322278
 20
-2456.587986
 30
0.0
 40
0.888911
  0
CIRCLE
  5
BDC
  8
1
 10
1003.322278
 20
-2471.35903
 30
0.0
 40
0.888911
  0
CIRCLE
  5
BDD
  8
1
 10
1016.114377
 20
-2478.744551
 30
0.0
 40
0.888911
  0
INSERT
  5
BDE
  8
1
  2
*U246
 10
0.0
 20
0.0
 30
0.0
  0
CIRCLE
  5
BDF
  8
1
 10
1041.698574
 20
-2463.973508
 30
0.0
 40
0.888911
  0
CIRCLE
  5
BE0
  8
1
 10
1041.698574
 20
-2449.202465
 30
0.0
 40
0.888911
  0
CIRCLE
  5
BE1
  8
1
 10
1028.906476
 20
-2456.587986
 30
0.0
 40
0.888911
  0
CIRCLE
  5
BE2
  8
1
 10
1028.906476
 20
-2471.35903
 30
0.0
 40
0.888911
  0
CIRCLE
  5
BE3
  8
1
 10
1041.698574
 20
-2478.744551
 30
0.0
 40
0.888911
  0
INSERT
  5
BE4
  8
1
  2
*U247
 10
0.0
 20
0.0
 30
0.0
  0
CIRCLE
  5
BE5
  8
1
 10
1067.282772
 20
-2463.973508
 30
0.0
 40
0.888911
  0
CIRCLE
  5
BE6
  8
1
 10
1067.282772
 20
-2449.202465
 30
0.0
 40
0.888911
  0
CIRCLE
  5
BE7
  8
1
 10
1054.490673
 20
-2456.587986
 30
0.0
 40
0.888911
  0
CIRCLE
  5
BE8
  8
1
 10
1054.490673
 20
-2471.35903
 30
0.0
 40
0.888911
  0
CIRCLE
  5
BE9
  8
1
 10
1067.282772
 20
-2478.744551
 30
0.0
 40
0.888911
  0
INSERT
  5
BEA
  8
1
  2
*U248
 10
0.0
 20
0.0
 30
0.0
  0
CIRCLE
  5
BEB
  8
1
 10
1092.866969
 20
-2463.973508
 30
0.0
 40
0.888911
  0
CIRCLE
  5
BEC
  8
1
 10
1092.866969
 20
-2449.202465
 30
0.0
 40
0.888911
  0
CIRCLE
  5
BED
  8
1
 10
1080.074871
 20
-2456.587986
 30
0.0
 40
0.888911
  0
CIRCLE
  5
BEE
  8
1
 10
1080.074871
 20
-2471.35903
 30
0.0
 40
0.888911
  0
CIRCLE
  5
BEF
  8
1
 10
1092.866969
 20
-2478.744551
 30
0.0
 40
0.888911
  0
INSERT
  5
BF0
  8
1
  2
*U249
 10
0.0
 20
0.0
 30
0.0
  0
CIRCLE
  5
BF1
  8
1
 10
1118.451167
 20
-2463.973508
 30
0.0
 40
0.888911
  0
CIRCLE
  5
BF2
  8
1
 10
1118.451167
 20
-2449.202465
 30
0.0
 40
0.888911
  0
CIRCLE
  5
BF3
  8
1
 10
1105.659068
 20
-2456.587986
 30
0.0
 40
0.888911
  0
CIRCLE
  5
BF4
  8
1
 10
1105.659068
 20
-2471.35903
 30
0.0
 40
0.888911
  0
CIRCLE
  5
BF5
  8
1
 10
1118.451167
 20
-2478.744551
 30
0.0
 40
0.888911
  0
INSERT
  5
BF6
  8
1
  2
*U250
 10
0.0
 20
0.0
 30
0.0
  0
CIRCLE
  5
BF7
  8
1
 10
1144.035364
 20
-2463.973508
 30
0.0
 40
0.888911
  0
CIRCLE
  5
BF8
  8
1
 10
1144.035364
 20
-2449.202465
 30
0.0
 40
0.888911
  0
CIRCLE
  5
BF9
  8
1
 10
1131.243265
 20
-2456.587986
 30
0.0
 40
0.888911
  0
CIRCLE
  5
BFA
  8
1
 10
1131.243265
 20
-2471.35903
 30
0.0
 40
0.888911
  0
CIRCLE
  5
BFB
  8
1
 10
1144.035364
 20
-2478.744551
 30
0.0
 40
0.888911
  0
INSERT
  5
BFC
  8
1
  2
*U251
 10
0.0
 20
0.0
 30
0.0
  0
CIRCLE
  5
BFD
  8
1
 10
1169.619562
 20
-2463.973508
 30
0.0
 40
0.888911
  0
CIRCLE
  5
BFE
  8
1
 10
1169.619562
 20
-2449.202465
 30
0.0
 40
0.888911
  0
CIRCLE
  5
BFF
  8
1
 10
1156.827463
 20
-2456.587986
 30
0.0
 40
0.888911
  0
CIRCLE
  5
C00
  8
1
 10
1156.827463
 20
-2471.35903
 30
0.0
 40
0.888911
  0
CIRCLE
  5
C01
  8
1
 10
1169.619562
 20
-2478.744551
 30
0.0
 40
0.888911
  0
INSERT
  5
C02
  8
1
  2
*U252
 10
0.0
 20
0.0
 30
0.0
  0
CIRCLE
  5
C03
  8
1
 10
1195.203759
 20
-2463.973508
 30
0.0
 40
0.888911
  0
CIRCLE
  5
C04
  8
1
 10
1195.203759
 20
-2449.202465
 30
0.0
 40
0.888911
  0
CIRCLE
  5
C05
  8
1
 10
1182.41166
 20
-2456.587986
 30
0.0
 40
0.888911
  0
CIRCLE
  5
C06
  8
1
 10
1182.41166
 20
-2471.35903
 30
0.0
 40
0.888911
  0
CIRCLE
  5
C07
  8
1
 10
1195.203759
 20
-2478.744551
 30
0.0
 40
0.888911
  0
INSERT
  5
C08
  8
1
  2
*U253
 10
0.0
 20
0.0
 30
0.0
  0
CIRCLE
  5
C09
  8
1
 10
1220.787956
 20
-2463.973508
 30
0.0
 40
0.888911
  0
CIRCLE
  5
C0A
  8
1
 10
1220.787956
 20
-2449.202465
 30
0.0
 40
0.888911
  0
CIRCLE
  5
C0B
  8
1
 10
1207.995858
 20
-2456.587986
 30
0.0
 40
0.888911
  0
CIRCLE
  5
C0C
  8
1
 10
1207.995858
 20
-2471.35903
 30
0.0
 40
0.888911
  0
CIRCLE
  5
C0D
  8
1
 10
1220.787956
 20
-2478.744551
 30
0.0
 40
0.888911
  0
INSERT
  5
C0E
  8
1
  2
*U254
 10
0.0
 20
0.0
 30
0.0
  0
CIRCLE
  5
C0F
  8
1
 10
1246.372154
 20
-2463.973508
 30
0.0
 40
0.888911
  0
CIRCLE
  5
C10
  8
1
 10
1246.372154
 20
-2449.202465
 30
0.0
 40
0.888911
  0
CIRCLE
  5
C11
  8
1
 10
1233.580055
 20
-2456.587986
 30
0.0
 40
0.888911
  0
CIRCLE
  5
C12
  8
1
 10
1233.580055
 20
-2471.35903
 30
0.0
 40
0.888911
  0
CIRCLE
  5
C13
  8
1
 10
1246.372154
 20
-2478.744551
 30
0.0
 40
0.888911
  0
INSERT
  5
C14
  8
1
  2
*U255
 10
0.0
 20
0.0
 30
0.0
  0
CIRCLE
  5
C15
  8
1
 10
1271.956351
 20
-2463.973508
 30
0.0
 40
0.888911
  0
CIRCLE
  5
C16
  8
1
 10
1271.956351
 20
-2449.202465
 30
0.0
 40
0.888911
  0
CIRCLE
  5
C17
  8
1
 10
1259.164252
 20
-2456.587986
 30
0.0
 40
0.888911
  0
CIRCLE
  5
C18
  8
1
 10
1259.164252
 20
-2471.35903
 30
0.0
 40
0.888911
  0
CIRCLE
  5
C19
  8
1
 10
1271.956351
 20
-2478.744551
 30
0.0
 40
0.888911
  0
INSERT
  5
C1A
  8
1
  2
*U256
 10
0.0
 20
0.0
 30
0.0
  0
CIRCLE
  5
C1B
  8
1
 10
1297.540549
 20
-2463.973508
 30
0.0
 40
0.888911
  0
CIRCLE
  5
C1C
  8
1
 10
1297.540549
 20
-2449.202465
 30
0.0
 40
0.888911
  0
CIRCLE
  5
C1D
  8
1
 10
1284.74845
 20
-2456.587986
 30
0.0
 40
0.888911
  0
CIRCLE
  5
C1E
  8
1
 10
1284.74845
 20
-2471.35903
 30
0.0
 40
0.888911
  0
CIRCLE
  5
C1F
  8
1
 10
1297.540549
 20
-2478.744551
 30
0.0
 40
0.888911
  0
INSERT
  5
C20
  8
1
  2
*U257
 10
0.0
 20
0.0
 30
0.0
  0
CIRCLE
  5
C21
  8
1
 10
1310.332647
 20
-2456.587986
 30
0.0
 40
0.888911
  0
CIRCLE
  5
C22
  8
1
 10
1310.332647
 20
-2471.35903
 30
0.0
 40
0.888911
  0
INSERT
  5
C23
  8
1
  2
*U258
 10
0.0
 20
0.0
 30
0.0
  0
ENDBLK
  5
C24
  8
0
  0
BLOCK
  5
C26
  8
2
  2
*D260
 70
    65
 10
0.0
 20
0.0
 30
0.0
  3
*D260
  1

  0
POINT
  5
C27
  8
DEFPOINTS
 10
-441.880838
 20
-2772.234271
 30
0.0
  0
POINT
  5
C28
  8
DEFPOINTS
 10
-441.880838
 20
-2512.234271
 30
0.0
  0
POINT
  5
C29
  8
DEFPOINTS
 10
-686.59956
 20
-2935.548578
 30
0.0
  0
LINE
  5
C2A
  8
2
  6
CONTINUOUS
 10
-447.880838
 20
-2772.234271
 30
0.0
 11
-691.59956
 21
-2772.234271
 31
0.0
  0
LINE
  5
C2B
  8
2
  6
CONTINUOUS
 10
-447.880838
 20
-2512.234271
 30
0.0
 11
-691.59956
 21
-2512.234271
 31
0.0
  0
LINE
  5
C2C
  8
2
  6
CONTINUOUS
 10
-686.59956
 20
-3422.058429
 30
0.0
 11
-686.59956
 21
-2470.133738
 31
0.0
  0
LINE
  5
C2D
  8
2
  6
CONTINUOUS
 10
-681.650587
 20
-2800.301292
 30
0.0
 11
-686.59956
 21
-2772.234271
 31
0.0
  0
LINE
  5
C2E
  8
2
  6
CONTINUOUS
 10
-691.548533
 20
-2800.301292
 30
0.0
 11
-686.59956
 21
-2772.234271
 31
0.0
  0
LINE
  5
C2F
  8
2
  6
CONTINUOUS
 10
-691.54853
 20
-2484.167249
 30
0.0
 11
-686.59956
 21
-2512.234271
 31
0.0
  0
LINE
  5
C30
  8
2
  6
CONTINUOUS
 10
-681.650583
 20
-2484.167251
 30
0.0
 11
-686.59956
 21
-2512.234271
 31
0.0
  0
TEXT
  5
C31
  8
2
  6
CONTINUOUS
 10
-690.599548
 20
-3398.658447
 30
0.0
 40
52.0
  1
２６０（天井材部）
 50
90.000003
 41
0.9
  7
MONOTXT
  0
ENDBLK
  5
C32
  8
0
  0
BLOCK
  5
C34
  8
2
  2
*D261
 70
    65
 10
0.0
 20
0.0
 30
0.0
  3
*D261
  1

  0
POINT
  5
C35
  8
DEFPOINTS
 10
-524.280838
 20
-2982.234271
 30
0.0
  0
POINT
  5
C36
  8
DEFPOINTS
 10
-524.280838
 20
-2302.234271
 30
0.0
  0
POINT
  5
C37
  8
DEFPOINTS
 10
-785.227981
 20
-2678.410196
 30
0.0
  0
LINE
  5
C38
  8
2
  6
CONTINUOUS
 10
-530.280838
 20
-2982.234271
 30
0.0
 11
-790.227981
 21
-2982.234271
 31
0.0
  0
LINE
  5
C39
  8
2
  6
CONTINUOUS
 10
-530.280838
 20
-2302.234271
 30
0.0
 11
-790.227981
 21
-2302.234271
 31
0.0
  0
LINE
  5
C3A
  8
2
  6
CONTINUOUS
 10
-785.227981
 20
-2982.234271
 30
0.0
 11
-785.227981
 21
-2302.234271
 31
0.0
  0
LINE
  5
C3B
  8
2
  6
CONTINUOUS
 10
-790.176955
 20
-2954.16725
 30
0.0
 11
-785.227981
 21
-2982.234271
 31
0.0
  0
LINE
  5
C3C
  8
2
  6
CONTINUOUS
 10
-780.279009
 20
-2954.16725
 30
0.0
 11
-785.227981
 21
-2982.234271
 31
0.0
  0
LINE
  5
C3D
  8
2
  6
CONTINUOUS
 10
-780.279008
 20
-2330.301292
 30
0.0
 11
-785.227981
 21
-2302.234271
 31
0.0
  0
LINE
  5
C3E
  8
2
  6
CONTINUOUS
 10
-790.176954
 20
-2330.301292
 30
0.0
 11
-785.227981
 21
-2302.234271
 31
0.0
  0
TEXT
  5
C3F
  8
2
  6
CONTINUOUS
 10
-789.227966
 20
-2712.434326
 30
0.0
 40
52.0
  1
６８０
 50
90.000003
 41
0.9
  7
MONOTXT
  0
ENDBLK
  5
C40
  8
0
  0
BLOCK
  5
C42
  8
2
  2
*D262
 70
    65
 10
0.0
 20
0.0
 30
0.0
  3
*D262
  1

  0
POINT
  5
C43
  8
DEFPOINTS
 10
-539.280838
 20
-2967.234271
 30
0.0
  0
POINT
  5
C44
  8
DEFPOINTS
 10
1380.719162
 20
-2967.234271
 30
0.0
  0
POINT
  5
C45
  8
DEFPOINTS
 10
398.457624
 20
-3266.259
 30
0.0
  0
LINE
  5
C46
  8
2
  6
CONTINUOUS
 10
-539.280838
 20
-2973.234271
 30
0.0
 11
-539.280838
 21
-3271.259
 31
0.0
  0
LINE
  5
C47
  8
2
  6
CONTINUOUS
 10
1380.719162
 20
-2973.234271
 30
0.0
 11
1380.719162
 21
-3271.259
 31
0.0
  0
LINE
  5
C48
  8
2
  6
CONTINUOUS
 10
-539.280838
 20
-3266.259
 30
0.0
 11
1380.719162
 21
-3266.259
 31
0.0
  0
LINE
  5
C49
  8
2
  6
CONTINUOUS
 10
-511.213817
 20
-3261.310027
 30
0.0
 11
-539.280838
 21
-3266.259
 31
0.0
  0
LINE
  5
C4A
  8
2
  6
CONTINUOUS
 10
-511.213817
 20
-3271.207974
 30
0.0
 11
-539.280838
 21
-3266.259
 31
0.0
  0
LINE
  5
C4B
  8
2
  6
CONTINUOUS
 10
1352.652142
 20
-3271.207976
 30
0.0
 11
1380.719162
 21
-3266.259
 31
0.0
  0
LINE
  5
C4C
  8
2
  6
CONTINUOUS
 10
1352.652141
 20
-3261.31003
 30
0.0
 11
1380.719162
 21
-3266.259
 31
0.0
  0
TEXT
  5
C4D
  8
2
  6
CONTINUOUS
 10
327.119171
 20
-3262.259033
 30
0.0
 40
52.0
  1
１９２０
 41
0.9
  7
MONOTXT
  0
ENDBLK
  5
C4E
  8
0
  0
BLOCK
  5
C50
  8
2
  2
*D263
 70
    65
 10
0.0
 20
0.0
 30
0.0
  3
*D263
  1

  0
POINT
  5
C51
  8
DEFPOINTS
 10
-1682.122092
 20
-1550.517572
 30
0.0
  0
POINT
  5
C52
  8
DEFPOINTS
 10
-1921.25799
 20
-1321.101026
 30
0.0
  0
POINT
  5
C53
  8
DEFPOINTS
 10
-1514.802554
 20
-1386.681838
 30
0.0
  0
LINE
  5
C54
  8
2
  6
CONTINUOUS
 10
-1676.122092
 20
-1550.517572
 30
0.0
 11
-1509.802554
 21
-1550.517572
 31
0.0
  0
LINE
  5
C55
  8
2
  6
CONTINUOUS
 10
-1915.25799
 20
-1321.101026
 30
0.0
 11
-1509.802554
 21
-1321.101026
 31
0.0
  0
LINE
  5
C56
  8
2
  6
CONTINUOUS
 10
-1514.802554
 20
-1550.517572
 30
0.0
 11
-1514.802554
 21
-1321.101026
 31
0.0
  0
LINE
  5
C57
  8
2
  6
CONTINUOUS
 10
-1519.751528
 20
-1522.450551
 30
0.0
 11
-1514.802554
 21
-1550.517572
 31
0.0
  0
LINE
  5
C58
  8
2
  6
CONTINUOUS
 10
-1509.853582
 20
-1522.450551
 30
0.0
 11
-1514.802554
 21
-1550.517572
 31
0.0
  0
LINE
  5
C59
  8
2
  6
CONTINUOUS
 10
-1509.853581
 20
-1349.168046
 30
0.0
 11
-1514.802554
 21
-1321.101026
 31
0.0
  0
LINE
  5
C5A
  8
2
  6
CONTINUOUS
 10
-1519.751527
 20
-1349.168047
 30
0.0
 11
-1514.802554
 21
-1321.101026
 31
0.0
  0
TEXT
  5
C5B
  8
2
  6
CONTINUOUS
 10
-1518.80249
 20
-1506.009277
 30
0.0
 40
52.0
  1
２３０
 50
90.000003
 41
0.9
  7
MONOTXT
  0
ENDBLK
  5
C5C
  8
0
  0
BLOCK
  5
C5E
  8
2
  2
*D264
 70
    65
 10
0.0
 20
0.0
 30
0.0
  3
*D264
  1

  0
POINT
  5
C5F
  8
DEFPOINTS
 10
-2022.122092
 20
-1121.76446
 30
0.0
  0
POINT
  5
C60
  8
DEFPOINTS
 10
-1971.801209
 20
-1231.682247
 30
0.0
  0
POINT
  5
C61
  8
DEFPOINTS
 10
-2200.811669
 20
-969.570601
 30
0.0
  0
LINE
  5
C62
  8
2
  6
CONTINUOUS
 10
-2022.122092
 20
-1115.76446
 30
0.0
 11
-2022.122092
 21
-964.570601
 31
0.0
  0
LINE
  5
C63
  8
2
  6
CONTINUOUS
 10
-1971.801209
 20
-1225.682247
 30
0.0
 11
-1971.801209
 21
-964.570601
 31
0.0
  0
LINE
  5
C64
  8
2
  6
CONTINUOUS
 10
-2162.522086
 20
-969.570601
 30
0.0
 11
-1929.700677
 21
-969.570601
 31
0.0
  0
LINE
  5
C65
  8
2
  6
CONTINUOUS
 10
-2050.189113
 20
-974.519576
 30
0.0
 11
-2022.122092
 21
-969.570601
 31
0.0
  0
LINE
  5
C66
  8
2
  6
CONTINUOUS
 10
-2050.189114
 20
-964.62163
 30
0.0
 11
-2022.122092
 21
-969.570601
 31
0.0
  0
LINE
  5
C67
  8
2
  6
CONTINUOUS
 10
-1943.734189
 20
-964.621623
 30
0.0
 11
-1971.801209
 21
-969.570601
 31
0.0
  0
LINE
  5
C68
  8
2
  6
CONTINUOUS
 10
-1943.734188
 20
-974.519569
 30
0.0
 11
-1971.801209
 21
-969.570601
 31
0.0
  0
TEXT
  5
C69
  8
2
  6
CONTINUOUS
 10
-2139.12207
 20
-965.570618
 30
0.0
 40
52.0
  1
５０
 41
0.9
  7
MONOTXT
  0
ENDBLK
  5
C6A
  8
0
  0
ENDSEC
  0
SECTION
  2
ENTITIES
  0
DIMENSION
  5
C6B
  8
2
  6
CONTINUOUS
 62
     7
  2
*D2
 10
-722.663278
 20
-9.01034
 30
0.0
 11
-752.663278
 21
44.295632
 31
0.0
  1
５２０（吊り位置）
 13
-456.957071
 23
-215.704365
 33
0.0
 14
-455.40686
 24
304.295635
 34
0.0
 50
90.000003
  0
DIMENSION
  5
C6C
  8
2
  6
CONTINUOUS
 62
     7
  2
*D3
 10
-819.654005
 20
-163.449175
 30
0.0
 11
-849.654002
 21
43.895629
 31
0.0
  1
６４０（天井開口部）
 13
-519.280769
 23
-276.104365
 33
0.0
 14
-519.280769
 24
363.895635
 34
0.0
 50
90.000003
  0
DIMENSION
  5
C6D
  8
2
  6
CONTINUOUS
 62
     7
  2
*D4
 10
1434.681736
 20
-397.821848
 30
0.0
 11
1448.398633
 21
-367.821838
 31
0.0
  1
６０
 13
1250.319231
 23
-256.104365
 33
0.0
 14
1310.919231
 24
-5.504365
 34
0.0
  0
DIMENSION
  5
C6E
  8
2
  6
CONTINUOUS
 62
     7
  2
*D5
 10
1428.660454
 20
488.475422
 30
0.0
 11
1406.578564
 21
518.475433
 31
0.0
  1
５０
 13
1250.319231
 23
343.895635
 33
0.0
 14
1302.719231
 24
174.495635
 34
0.0
  0
DIMENSION
  5
C6F
  8
2
  6
CONTINUOUS
 62
     7
  2
*D6
 10
142.925637
 20
-556.667116
 30
0.0
 11
420.719244
 21
-526.667114
 31
0.0
  1
１８８０（天井開口部）
 13
-519.280769
 23
-276.104365
 33
0.0
 14
1360.719231
 24
-276.104365
 34
0.0
  0
DIMENSION
  5
C70
  8
2
  6
CONTINUOUS
 62
     7
  2
*D7
 10
136.835631
 20
-471.40703
 30
0.0
 11
420.719238
 21
-441.407043
 31
0.0
  1
１７１０（吊り位置）
 13
-433.880769
 23
-243.388355
 33
0.0
 14
1275.319231
 24
-242.992512
 34
0.0
  0
DIMENSION
  5
C71
  8
2
  6
CONTINUOUS
 62
     7
  2
*D8
 10
-902.908705
 20
-1423.623403
 30
0.0
 11
-932.908694
 21
-1680.033644
 31
0.0
  1
２４０
 13
-719.280538
 23
-1550.517672
 33
0.0
 14
-287.297843
 24
-1311.817572
 34
0.0
 50
90.000003
  0
DIMENSION
  5
C72
  8
2
  6
CONTINUOUS
 62
     7
  2
*D9
 10
-534.037665
 20
-1754.664821
 30
0.0
 11
-408.180408
 21
-1724.664795
 31
0.0
  1
４０
 13
-519.280938
 23
-1550.517472
 33
0.0
 14
-478.380419
 24
-1550.518181
 34
0.0
  0
DIMENSION
  5
C73
  8
2
  6
CONTINUOUS
 62
     7
  2
*D10
 10
-534.037665
 20
-1754.664821
 30
0.0
 11
-609.480823
 21
-1724.664795
 31
0.0
  1
２０
 13
-539.280838
 23
-1560.517572
 33
0.0
 14
-519.280938
 24
-1550.517472
 34
0.0
  0
DIMENSION
  5
C74
  8
2
  6
CONTINUOUS
 62
     7
  2
*D11
 10
20.6101
 20
-837.341344
 30
0.0
 11
-632.880811
 21
-807.34137
 31
0.0
  1
１２５
 13
-539.280838
 23
-1550.517572
 33
0.0
 14
-408.880769
 24
-1201.517572
 34
0.0
  0
DIMENSION
  5
C75
  8
2
  6
CONTINUOUS
 62
     7
  2
*D12
 10
980.338094
 20
-1005.595675
 30
0.0
 11
971.019238
 21
-975.595703
 31
0.0
  1
８５
 13
1041.219231
 23
-1310.317572
 33
0.0
 14
1126.219231
 24
-1310.317572
 34
0.0
  0
DIMENSION
  5
C76
  8
2
  6
CONTINUOUS
 62
     7
  2
*D13
 10
1553.81806
 20
-1477.355231
 30
0.0
 11
1523.818113
 21
-1460.517628
 31
0.0
  1
８０
 13
1126.219231
 23
-1390.317572
 33
0.0
 14
1126.219231
 24
-1310.317572
 34
0.0
 50
90.000003
  0
DIMENSION
  5
C77
  8
2
  6
CONTINUOUS
 62
     7
  2
*D14
 10
1908.528367
 20
-1242.019195
 30
0.0
 11
1878.528317
 21
-1403.029737
 31
0.0
  1
２９０
 13
1560.719162
 23
-1550.517472
 33
0.0
 14
1529.319231
 24
-1255.542101
 34
0.0
 50
90.000003
  0
DIMENSION
  5
C78
  8
2
  6
CONTINUOUS
 62
     7
  2
*D15
 10
1772.674061
 20
-1604.427304
 30
0.0
 11
1742.674069
 21
-1435.108595
 31
0.0
  1
２００
 13
1560.719162
 23
-1550.517472
 33
0.0
 14
1138.915792
 24
-1350.317572
 34
0.0
 50
90.000003
  0
DIMENSION
  5
C79
  8
2
  6
CONTINUOUS
 62
     7
  2
*D16
 10
1772.674061
 20
-1604.427304
 30
0.0
 11
1742.674071
 21
-1652.002223
 31
0.0
  1
８
 13
1375.719589
 23
-1565.516912
 33
0.0
 14
1560.719162
 24
-1550.517472
 34
0.0
 50
90.000003
  0
DIMENSION
  5
C7A
  8
2
  6
CONTINUOUS
 62
     7
  2
*D17
 10
1377.43363
 20
-1760.242718
 30
0.0
 11
1450.919141
 21
-1730.242676
 31
0.0
  1
２０
 13
1360.719162
 23
-1550.517472
 33
0.0
 14
1380.719162
 24
-1560.517572
 34
0.0
  0
DIMENSION
  5
C7B
  8
2
  6
CONTINUOUS
 62
     7
  2
*D18
 10
1377.43363
 20
-1760.242718
 30
0.0
 11
1270.519604
 21
-1730.242676
 31
0.0
  1
２０
 13
1340.719581
 23
-1550.516944
 33
0.0
 14
1360.719162
 24
-1550.517472
 34
0.0
  0
DIMENSION
  5
C7C
  8
2
  6
CONTINUOUS
 62
     7
  2
*D19
 10
265.6101
 20
-837.341344
 30
0.0
 11
1468.929248
 21
-807.34137
 31
0.0
  1
１２５
 13
1250.319231
 23
-1201.517572
 33
0.0
 14
1380.719162
 24
-1550.517572
 34
0.0
  0
DIMENSION
  5
C7D
  8
2
  6
CONTINUOUS
 62
     7
  2
*D20
 10
265.6101
 20
-837.341344
 30
0.0
 11
420.719232
 21
-807.34137
 31
0.0
  1
１６７０
 13
-408.880769
 23
-1201.517572
 33
0.0
 14
1250.319231
 24
-1201.517572
 34
0.0
  0
DIMENSION
  5
C7E
  8
2
  6
CONTINUOUS
 62
     7
  2
*D21
 10
-804.106962
 20
-1367.889086
 30
0.0
 11
-834.106937
 21
-1681.801588
 31
0.0
  1
１３５
 13
-150.280838
 23
-1379.317572
 33
0.0
 14
-150.280838
 24
-1244.317572
 34
0.0
 50
90.000003
  0
DIMENSION
  5
C7F
  8
2
  6
CONTINUOUS
 62
     7
  2
*D22
 10
542.398173
 20
-1783.48287
 30
0.0
 11
268.469165
 21
-1753.48291
 31
0.0
  1
３０５
 13
116.219162
 23
-1407.919272
 33
0.0
 14
420.719162
 24
-1600.02516
 34
0.0
  0
DIMENSION
  5
C80
  8
2
  6
CONTINUOUS
 62
     7
  2
*D23
 10
-1017.816686
 20
-1470.209923
 30
0.0
 11
-1047.816652
 21
-1661.620778
 31
0.0
  1
４５
 13
-719.280538
 23
-1550.517672
 33
0.0
 14
-478.380466
 24
-1499.518181
 34
0.0
 50
90.000003
  0
DIMENSION
  5
C81
  8
2
  6
CONTINUOUS
 62
     7
  2
*D24
 10
-1017.816686
 20
-1470.209923
 30
0.0
 11
-1047.816714
 21
-1350.517897
 31
0.0
  1
３０５
 13
-478.380466
 23
-1499.518181
 33
0.0
 14
-408.880769
 24
-1201.517572
 34
0.0
 50
90.000003
  0
DIMENSION
  5
C82
  8
2
  6
CONTINUOUS
 62
     7
  2
*D25
 10
542.398173
 20
-1783.48287
 30
0.0
 11
752.219226
 21
-1753.48291
 31
0.0
  1
６６５
 13
420.719162
 23
-1589.914324
 33
0.0
 14
1083.719231
 24
-1405.210519
 34
0.0
  0
DIMENSION
  5
C83
  8
2
  6
CONTINUOUS
 62
     7
  2
*D26
 10
528.257259
 20
-1703.351025
 30
0.0
 11
537.719165
 21
-1673.351074
 31
0.0
  1
２３５
 13
420.719162
 23
-1594.969742
 33
0.0
 14
654.719162
 24
-1412.97469
 34
0.0
  0
DIMENSION
  5
C84
  8
2
  6
CONTINUOUS
 62
     7
  2
*D27
 10
596.05739
 20
-1023.707494
 30
0.0
 11
654.719165
 21
-993.70752
 31
0.0
  1
３９０
 13
458.719162
 23
-1244.317572
 33
0.0
 14
850.719162
 24
-1244.317572
 34
0.0
  0
DIMENSION
  5
C85
  8
2
  6
CONTINUOUS
 62
     7
  2
*D28
 10
110.73725
 20
-1018.652076
 30
0.0
 11
116.219165
 21
-988.6521
 31
0.0
  1
５３０
 13
-150.280838
 23
-1244.317572
 33
0.0
 14
382.719162
 24
-1244.317572
 34
0.0
  0
DIMENSION
  5
C86
  8
2
  6
CONTINUOUS
 62
     7
  2
*D29
 10
1593.817889
 20
125.388605
 30
0.0
 11
1563.817868
 21
109.021154
 31
0.0
  1
２４０
 13
2043.945497
 23
-10.329178
 33
0.0
 14
1794.989092
 24
228.371487
 34
0.0
 50
90.000003
  0
DIMENSION
  5
C87
  8
2
  6
CONTINUOUS
 62
     7
  2
*D30
 10
1675.240289
 20
-24.17286
 30
0.0
 11
1645.240353
 21
-182.391661
 31
0.0
  1
１３５
 13
2183.988803
 23
-77.829227
 33
0.0
 14
2183.988803
 24
57.170773
 34
0.0
 50
90.000003
  0
DIMENSION
  5
C88
  8
2
  6
CONTINUOUS
 62
     7
  2
*D31
 10
2758.901299
 20
-284.565285
 30
0.0
 11
2602.738818
 21
-254.565277
 31
0.0
  1
３０５
 13
2450.488803
 23
-103.012039
 33
0.0
 14
2754.988693
 24
-181.168876
 34
0.0
  0
DIMENSION
  5
C89
  8
2
  6
CONTINUOUS
 62
     7
  2
*D32
 10
2733.543551
 20
353.604704
 30
0.0
 11
2988.988818
 21
383.604706
 31
0.0
  1
３９０
 13
2792.988803
 23
57.170926
 33
0.0
 14
3184.988803
 24
57.170926
 34
0.0
  0
DIMENSION
  5
C8A
  8
2
  6
CONTINUOUS
 62
     7
  2
*D33
 10
2733.543551
 20
353.604704
 30
0.0
 11
2450.488818
 21
383.604706
 31
0.0
  1
５３０
 13
2183.988803
 23
57.170773
 33
0.0
 14
2716.988803
 24
57.170926
 34
0.0
  0
DIMENSION
  5
C8B
  8
2
  6
CONTINUOUS
 62
     7
  2
*D34
 10
2758.901299
 20
-284.565285
 30
0.0
 11
2871.988818
 21
-254.565277
 31
0.0
  1
２３５
 13
2754.988704
 23
-156.300792
 33
0.0
 14
2988.988803
 24
-103.012039
 34
0.0
  0
DIMENSION
  5
C8C
  8
2
  6
CONTINUOUS
 62
     7
  2
*D35
 10
2317.656875
 20
-1427.737638
 30
0.0
 11
2287.656979
 21
-1463.01753
 31
0.0
  1
１７５
 13
2471.821238
 23
-1550.517572
 33
0.0
 14
2759.806824
 24
-1375.517572
 34
0.0
 50
90.000003
  0
DIMENSION
  5
C8D
  8
2
  6
CONTINUOUS
 62
     7
  2
*D36
 10
2382.345473
 20
-1485.033253
 30
0.0
 11
2352.345456
 21
-1470.51753
 31
0.0
  1
１６０
 13
2471.821238
 23
-1550.517572
 33
0.0
 14
2513.821238
 24
-1390.517572
 34
0.0
 50
90.000003
  0
DIMENSION
  5
C8E
  8
2
  6
CONTINUOUS
 62
     7
  2
*D37
 10
2847.679504
 20
-901.193216
 30
0.0
 11
2811.821338
 21
-871.193237
 31
0.0
  1
６００
 13
2517.221238
 23
-1201.517572
 33
0.0
 14
3106.421238
 24
-1201.517572
 34
0.0
  0
DIMENSION
  5
C8F
  8
2
  6
CONTINUOUS
 62
     7
  2
*D38
 10
2793.170738
 20
-1110.566695
 30
0.0
 11
3007.323438
 21
-1080.56665
 31
0.0
  1
５５
 13
2811.821238
 23
-1100.795897
 33
0.0
 14
2866.821209
 24
-1354.177762
 34
0.0
  0
DIMENSION
  5
C90
  8
2
  6
CONTINUOUS
 62
     7
  2
*D39
 10
3263.040428
 20
-1421.117013
 30
0.0
 11
3233.040524
 21
-1462.878859
 31
0.0
  1
１７５
 13
3151.821238
 23
-1550.517572
 33
0.0
 14
2878.473648
 24
-1375.240072
 34
0.0
 50
90.000003
  0
DIMENSION
  5
C91
  8
2
  6
CONTINUOUS
 62
     7
  2
*D40
 10
3350.423152
 20
-1385.999484
 30
0.0
 11
3320.423093
 21
-1403.02986
 31
0.0
  1
２９０
 13
3151.821238
 23
-1550.517572
 33
0.0
 14
2965.900652
 24
-1255.542101
 34
0.0
 50
90.000003
  0
DIMENSION
  5
C92
  8
2
  6
CONTINUOUS
 62
     7
  2
*D41
 10
2970.719734
 20
-1014.939831
 30
0.0
 11
3030.464404
 21
-984.939819
 31
0.0
  1
１２５
 13
2811.821238
 23
-1181.376047
 33
0.0
 14
2936.864438
 24
-1230.690481
 34
0.0
  0
DIMENSION
  5
C93
  8
2
  6
CONTINUOUS
 62
     7
  2
*D42
 10
2793.170738
 20
-1110.566695
 30
0.0
 11
2664.583447
 21
-1080.56665
 31
0.0
  1
４５
 13
2766.821309
 23
-1357.634002
 33
0.0
 14
2811.821238
 24
-1117.287657
 34
0.0
  0
DIMENSION
  5
C94
  8
2
  6
CONTINUOUS
 62
     7
  2
*D43
 10
3106.421238
 20
-901.193216
 30
0.0
 11
3222.021191
 21
-871.193237
 31
0.0
  1
４０
 13
3106.421238
 23
-1201.517572
 33
0.0
 14
3151.821238
 24
-1550.517572
 34
0.0
  0
DIMENSION
  5
C95
  8
2
  6
CONTINUOUS
 62
     7
  2
*D44
 10
2517.221238
 20
-901.193216
 30
0.0
 11
2401.621289
 21
-871.193237
 31
0.0
  1
４０
 13
2471.821238
 23
-1550.517572
 33
0.0
 14
2517.221238
 24
-1201.517572
 34
0.0
  0
INSERT
  5
C96
  8
1
  2
*U259
 10
0.0
 20
0.0
 30
0.0
  0
DIMENSION
  5
C97
  8
2
  6
CONTINUOUS
 62
     7
  2
*D260
 10
-686.59956
 20
-2935.548578
 30
0.0
 11
-716.599558
 21
-3188.058448
 31
0.0
  1
２６０（天井材部）
 13
-441.880838
 23
-2772.234271
 33
0.0
 14
-441.880838
 24
-2512.234271
 34
0.0
 50
90.000003
  0
DIMENSION
  5
C98
  8
2
  6
CONTINUOUS
 62
     7
  2
*D261
 10
-785.227981
 20
-2678.410196
 30
0.0
 11
-815.227969
 21
-2642.234327
 31
0.0
  1
６８０
 13
-524.280838
 23
-2982.234271
 33
0.0
 14
-524.280838
 24
-2302.234271
 34
0.0
 50
90.000003
  0
DIMENSION
  5
C99
  8
2
  6
CONTINUOUS
 62
     7
  2
*D262
 10
398.457624
 20
-3266.259
 30
0.0
 11
420.719171
 21
-3236.259033
 31
0.0
  1
１９２０
 13
-539.280838
 23
-2967.234271
 33
0.0
 14
1380.719162
 24
-2967.234271
 34
0.0
  0
DIMENSION
  5
C9A
  8
2
  6
CONTINUOUS
 62
     7
  2
*D263
 10
-1514.802554
 20
-1386.681838
 30
0.0
 11
-1544.802493
 21
-1435.809278
 31
0.0
  1
２３０
 13
-1682.122092
 23
-1550.517572
 33
0.0
 14
-1921.25799
 24
-1321.101026
 34
0.0
 50
90.000003
  0
DIMENSION
  5
C9B
  8
2
  6
CONTINUOUS
 62
     7
  2
*D264
 10
-2200.811669
 20
-969.570601
 30
0.0
 11
-2092.32207
 21
-939.570618
 31
0.0
  1
５０
 13
-2022.122092
 23
-1121.76446
 33
0.0
 14
-1971.801209
 24
-1231.682247
 34
0.0
  0
LINE
  5
C9C
  8
1
 10
-539.280769
 20
-281.104365
 30
0.0
 11
-539.280769
 21
368.895635
 31
0.0
  0
LINE
  5
C9D
  8
1
 10
1380.719231
 20
-281.104365
 30
0.0
 11
1380.719231
 21
368.895635
 31
0.0
  0
LINE
  5
C9E
  8
1
  6
DIVIDE
 10
1360.719231
 20
-276.104365
 30
0.0
 11
1360.719231
 21
363.895635
 31
0.0
  0
LINE
  5
C9F
  8
1
  6
DIVIDE
 10
-519.280769
 20
-276.104365
 30
0.0
 11
-519.280769
 21
363.895635
 31
0.0
  0
LINE
  5
CA0
  8
1
 10
1365.719231
 20
383.895635
 30
0.0
 11
-524.280769
 21
383.895635
 31
0.0
  0
LINE
  5
CA1
  8
1
 10
1365.719231
 20
-296.104365
 30
0.0
 11
-524.280769
 21
-296.104365
 31
0.0
  0
LINE
  5
CA2
  8
1
  6
DIVIDE
 10
1360.719231
 20
-276.104365
 30
0.0
 11
-519.280769
 21
-276.104365
 31
0.0
  0
LINE
  5
CA3
  8
1
  6
DIVIDE
 10
1360.719231
 20
363.895635
 30
0.0
 11
-519.280769
 21
363.895635
 31
0.0
  0
LINE
  5
CA4
  8
1
  6
DASHDOT
 10
420.719231
 20
-369.443291
 30
0.0
 11
420.719231
 21
450.240671
 31
0.0
  0
LINE
  5
CA5
  8
1
  6
DASHDOT
 10
1461.97181
 20
43.895635
 30
0.0
 11
-603.036156
 21
43.895635
 31
0.0
  0
LINE
  5
CA6
  8
1
 10
1250.319231
 20
-256.104365
 30
0.0
 11
-408.880769
 21
-256.104365
 31
0.0
  0
LINE
  5
CA7
  8
1
 10
1250.319231
 20
338.895635
 30
0.0
 11
1250.319231
 21
338.295635
 31
0.0
  0
LINE
  5
CA8
  8
1
 10
1250.319231
 20
343.895635
 30
0.0
 11
1250.319231
 21
-256.104365
 31
0.0
  0
LINE
  5
CA9
  8
1
 10
1250.319231
 20
-249.704365
 30
0.0
 11
1250.319231
 21
-250.304365
 31
0.0
  0
LINE
  5
CAA
  8
1
  6
DASHDOT
 10
-473.88022
 20
304.295635
 30
0.0
 11
-389.291788
 21
304.295635
 31
0.0
  0
LINE
  5
CAB
  8
1
 10
-436.809701
 20
266.295635
 30
0.0
 11
-423.880769
 21
266.295635
 31
0.0
  0
LINE
  5
CAC
  8
1
 10
-436.809701
 20
342.295635
 30
0.0
 11
-423.880769
 21
342.295635
 31
0.0
  0
LINE
  5
CAD
  8
1
  6
DASHED
 10
-411.180769
 20
327.295635
 30
0.0
 11
-411.180769
 21
281.295635
 31
0.0
  0
LINE
  5
CAE
  8
1
  6
DASHED
 10
-453.880769
 20
327.295635
 30
0.0
 11
-453.880769
 21
310.295635
 31
0.0
  0
LINE
  5
CAF
  8
1
 10
-456.180769
 20
327.295635
 30
0.0
 11
-456.180769
 21
310.295635
 31
0.0
  0
LINE
  5
CB0
  8
1
 10
-456.180769
 20
298.295635
 30
0.0
 11
-442.880769
 21
298.295635
 31
0.0
  0
LINE
  5
CB1
  8
1
 10
-456.180769
 20
310.295635
 30
0.0
 11
-442.880769
 21
310.295635
 31
0.0
  0
LINE
  5
CB2
  8
1
 10
-456.180769
 20
327.295635
 30
0.0
 11
-453.880769
 21
327.295635
 31
0.0
  0
LINE
  5
CB3
  8
1
 10
-456.180769
 20
281.295635
 30
0.0
 11
-453.880769
 21
281.295635
 31
0.0
  0
LINE
  5
CB4
  8
1
  6
DASHDOT
 10
-433.880769
 20
344.295635
 30
0.0
 11
-433.880769
 21
263.820478
 31
0.0
  0
LINE
  5
CB5
  8
1
 10
-427.880769
 20
321.295635
 30
0.0
 11
-427.880769
 21
287.295635
 31
0.0
  0
LINE
  5
CB6
  8
1
 10
-439.880769
 20
321.295635
 30
0.0
 11
-439.880769
 21
313.295635
 31
0.0
  0
LINE
  5
CB7
  8
1
 10
-453.880769
 20
327.295635
 30
0.0
 11
-440.345235
 21
340.831169
 31
0.0
  0
LINE
  5
CB8
  8
1
 10
-453.880769
 20
281.295635
 30
0.0
 11
-440.345235
 21
267.760101
 31
0.0
  0
LINE
  5
CB9
  8
1
 10
-418.880769
 20
337.295635
 30
0.0
 11
-418.880769
 21
332.295635
 31
0.0
  0
ARC
  5
CBA
  8
1
 10
-413.880769
 20
332.295635
 30
0.0
 40
5.0
 50
180.0
 51
270.0
  0
ARC
  5
CBB
  8
1
 10
-423.880769
 20
337.295635
 30
0.0
 40
5.0
 50
0.0
 51
90.0
  0
ARC
  5
CBC
  8
1
 10
-413.880769
 20
276.295635
 30
0.0
 40
5.0
 50
90.0
 51
180.0
  0
ARC
  5
CBD
  8
1
 10
-423.880769
 20
271.295635
 30
0.0
 40
5.0
 50
270.0
 51
0.0
  0
ARC
  5
CBE
  8
1
 10
-436.809701
 20
271.295635
 30
0.0
 40
5.0
 50
225.0
 51
270.0
  0
ARC
  5
CBF
  8
1
 10
-436.809701
 20
337.295635
 30
0.0
 40
5.0
 50
90.0
 51
135.0
  0
ARC
  5
CC0
  8
1
 10
-442.880769
 20
313.295635
 30
0.0
 40
3.0
 50
270.0
 51
0.0
  0
ARC
  5
CC1
  8
1
 10
-442.880769
 20
295.295635
 30
0.0
 40
3.0
 50
0.0
 51
90.0
  0
ARC
  5
CC2
  8
1
 10
-433.880769
 20
287.295635
 30
0.0
 40
6.0
 50
180.0
 51
270.0
  0
ARC
  5
CC3
  8
1
 10
-433.880769
 20
287.295635
 30
0.0
 40
6.0
 50
270.0
 51
0.0
  0
ARC
  5
CC4
  8
1
 10
-433.880769
 20
321.295635
 30
0.0
 40
6.0
 50
0.0
 51
90.0
  0
ARC
  5
CC5
  8
1
 10
-433.880769
 20
321.295635
 30
0.0
 40
6.0
 50
90.0
 51
180.0
  0
LINE
  5
CC6
  8
1
 10
-456.180769
 20
298.295635
 30
0.0
 11
-456.180769
 21
281.295635
 31
0.0
  0
LINE
  5
CC7
  8
1
  6
DASHED
 10
-453.880769
 20
298.295635
 30
0.0
 11
-453.880769
 21
281.295635
 31
0.0
  0
LINE
  5
CC8
  8
1
 10
-413.880769
 20
327.295635
 30
0.0
 11
-408.880769
 21
327.295635
 31
0.0
  0
LINE
  5
CC9
  8
1
 10
-413.880769
 20
281.295635
 30
0.0
 11
-408.880769
 21
281.295635
 31
0.0
  0
LINE
  5
CCA
  8
1
 10
-418.880769
 20
276.295635
 30
0.0
 11
-418.880769
 21
271.295635
 31
0.0
  0
LINE
  5
CCB
  8
1
 10
-439.880769
 20
295.295635
 30
0.0
 11
-439.880769
 21
287.295635
 31
0.0
  0
LINE
  5
CCC
  8
1
 10
-408.880769
 20
281.295635
 30
0.0
 11
-408.880769
 21
327.295635
 31
0.0
  0
LINE
  5
CCD
  8
1
  6
DASHDOT
 10
-473.88022
 20
-215.704365
 30
0.0
 11
-389.291788
 21
-215.704365
 31
0.0
  0
LINE
  5
CCE
  8
1
 10
-436.809701
 20
-253.704365
 30
0.0
 11
-423.880769
 21
-253.704365
 31
0.0
  0
LINE
  5
CCF
  8
1
 10
-436.809701
 20
-177.704365
 30
0.0
 11
-423.880769
 21
-177.704365
 31
0.0
  0
LINE
  5
CD0
  8
1
  6
DASHED
 10
-411.180769
 20
-192.704365
 30
0.0
 11
-411.180769
 21
-238.704365
 31
0.0
  0
LINE
  5
CD1
  8
1
  6
DASHED
 10
-453.880769
 20
-192.704365
 30
0.0
 11
-453.880769
 21
-209.704365
 31
0.0
  0
LINE
  5
CD2
  8
1
 10
-456.180769
 20
-192.704365
 30
0.0
 11
-456.180769
 21
-209.704365
 31
0.0
  0
LINE
  5
CD3
  8
1
 10
-456.180769
 20
-221.704365
 30
0.0
 11
-442.880769
 21
-221.704365
 31
0.0
  0
LINE
  5
CD4
  8
1
 10
-456.180769
 20
-209.704365
 30
0.0
 11
-442.880769
 21
-209.704365
 31
0.0
  0
LINE
  5
CD5
  8
1
 10
-456.180769
 20
-192.704365
 30
0.0
 11
-453.880769
 21
-192.704365
 31
0.0
  0
LINE
  5
CD6
  8
1
 10
-456.180769
 20
-238.704365
 30
0.0
 11
-453.880769
 21
-238.704365
 31
0.0
  0
LINE
  5
CD7
  8
1
  6
DASHDOT
 10
-433.880769
 20
-175.704365
 30
0.0
 11
-433.880769
 21
-256.179522
 31
0.0
  0
LINE
  5
CD8
  8
1
 10
-427.880769
 20
-198.704365
 30
0.0
 11
-427.880769
 21
-232.704365
 31
0.0
  0
LINE
  5
CD9
  8
1
 10
-439.880769
 20
-198.704365
 30
0.0
 11
-439.880769
 21
-206.704365
 31
0.0
  0
LINE
  5
CDA
  8
1
 10
-453.880769
 20
-192.704365
 30
0.0
 11
-440.345235
 21
-179.168831
 31
0.0
  0
LINE
  5
CDB
  8
1
 10
-453.880769
 20
-238.704365
 30
0.0
 11
-440.345235
 21
-252.239899
 31
0.0
  0
LINE
  5
CDC
  8
1
 10
-418.880769
 20
-182.704365
 30
0.0
 11
-418.880769
 21
-187.704365
 31
0.0
  0
ARC
  5
CDD
  8
1
 10
-413.880769
 20
-187.704365
 30
0.0
 40
5.0
 50
180.0
 51
270.0
  0
ARC
  5
CDE
  8
1
 10
-423.880769
 20
-182.704365
 30
0.0
 40
5.0
 50
0.0
 51
90.0
  0
ARC
  5
CDF
  8
1
 10
-413.880769
 20
-243.704365
 30
0.0
 40
5.0
 50
90.0
 51
180.0
  0
ARC
  5
CE0
  8
1
 10
-423.880769
 20
-248.704365
 30
0.0
 40
5.0
 50
270.0
 51
0.0
  0
ARC
  5
CE1
  8
1
 10
-436.809701
 20
-248.704365
 30
0.0
 40
5.0
 50
225.0
 51
270.0
  0
ARC
  5
CE2
  8
1
 10
-436.809701
 20
-182.704365
 30
0.0
 40
5.0
 50
90.0
 51
135.0
  0
ARC
  5
CE3
  8
1
 10
-442.880769
 20
-206.704365
 30
0.0
 40
3.0
 50
270.0
 51
0.0
  0
ARC
  5
CE4
  8
1
 10
-442.880769
 20
-224.704365
 30
0.0
 40
3.0
 50
0.0
 51
90.0
  0
ARC
  5
CE5
  8
1
 10
-433.880769
 20
-232.704365
 30
0.0
 40
6.0
 50
180.0
 51
270.0
  0
ARC
  5
CE6
  8
1
 10
-433.880769
 20
-232.704365
 30
0.0
 40
6.0
 50
270.0
 51
0.0
  0
ARC
  5
CE7
  8
1
 10
-433.880769
 20
-198.704365
 30
0.0
 40
6.0
 50
0.0
 51
90.0
  0
ARC
  5
CE8
  8
1
 10
-433.880769
 20
-198.704365
 30
0.0
 40
6.0
 50
90.0
 51
180.0
  0
LINE
  5
CE9
  8
1
 10
-456.180769
 20
-221.704365
 30
0.0
 11
-456.180769
 21
-238.704365
 31
0.0
  0
LINE
  5
CEA
  8
1
  6
DASHED
 10
-453.880769
 20
-221.704365
 30
0.0
 11
-453.880769
 21
-238.704365
 31
0.0
  0
LINE
  5
CEB
  8
1
 10
-413.880769
 20
-192.704365
 30
0.0
 11
-408.880769
 21
-192.704365
 31
0.0
  0
LINE
  5
CEC
  8
1
 10
-413.880769
 20
-238.704365
 30
0.0
 11
-408.880769
 21
-238.704365
 31
0.0
  0
LINE
  5
CED
  8
1
 10
-418.880769
 20
-243.704365
 30
0.0
 11
-418.880769
 21
-248.704365
 31
0.0
  0
LINE
  5
CEE
  8
1
 10
-439.880769
 20
-224.704365
 30
0.0
 11
-439.880769
 21
-232.704365
 31
0.0
  0
LINE
  5
CEF
  8
1
 10
-408.880769
 20
-238.704365
 30
0.0
 11
-408.880769
 21
-192.704365
 31
0.0
  0
LINE
  5
CF0
  8
1
  6
DASHDOT
 10
1315.517898
 20
-215.704365
 30
0.0
 11
1232.829051
 21
-215.704365
 31
0.0
  0
LINE
  5
CF1
  8
1
 10
1278.248164
 20
-253.704365
 30
0.0
 11
1265.319231
 21
-253.704365
 31
0.0
  0
LINE
  5
CF2
  8
1
 10
1278.248164
 20
-177.704365
 30
0.0
 11
1265.319231
 21
-177.704365
 31
0.0
  0
LINE
  5
CF3
  8
1
  6
DASHED
 10
1252.619231
 20
-192.704365
 30
0.0
 11
1252.619231
 21
-238.704365
 31
0.0
  0
LINE
  5
CF4
  8
1
  6
DASHED
 10
1295.319231
 20
-192.704365
 30
0.0
 11
1295.319231
 21
-209.704365
 31
0.0
  0
LINE
  5
CF5
  8
1
 10
1297.619231
 20
-192.704365
 30
0.0
 11
1297.619231
 21
-209.704365
 31
0.0
  0
LINE
  5
CF6
  8
1
 10
1297.619231
 20
-221.704365
 30
0.0
 11
1284.319231
 21
-221.704365
 31
0.0
  0
LINE
  5
CF7
  8
1
 10
1297.619231
 20
-209.704365
 30
0.0
 11
1284.319231
 21
-209.704365
 31
0.0
  0
LINE
  5
CF8
  8
1
 10
1297.619231
 20
-192.704365
 30
0.0
 11
1295.319231
 21
-192.704365
 31
0.0
  0
LINE
  5
CF9
  8
1
 10
1297.619231
 20
-238.704365
 30
0.0
 11
1295.319231
 21
-238.704365
 31
0.0
  0
LINE
  5
CFA
  8
1
  6
DASHDOT
 10
1275.319231
 20
-175.704365
 30
0.0
 11
1275.319231
 21
-256.179522
 31
0.0
  0
LINE
  5
CFB
  8
1
 10
1269.319231
 20
-198.704365
 30
0.0
 11
1269.319231
 21
-232.704365
 31
0.0
  0
LINE
  5
CFC
  8
1
 10
1281.319231
 20
-198.704365
 30
0.0
 11
1281.319231
 21
-206.704365
 31
0.0
  0
LINE
  5
CFD
  8
1
 10
1295.319231
 20
-192.704365
 30
0.0
 11
1281.783697
 21
-179.168831
 31
0.0
  0
LINE
  5
CFE
  8
1
 10
1295.319231
 20
-238.704365
 30
0.0
 11
1281.783697
 21
-252.239899
 31
0.0
  0
LINE
  5
CFF
  8
1
 10
1260.319231
 20
-182.704365
 30
0.0
 11
1260.319231
 21
-187.704365
 31
0.0
  0
ARC
  5
D00
  8
1
 10
1255.319231
 20
-187.704365
 30
0.0
 40
5.0
 50
270.0
 51
0.0
  0
ARC
  5
D01
  8
1
 10
1265.319231
 20
-182.704365
 30
0.0
 40
5.0
 50
90.0
 51
180.0
  0
ARC
  5
D02
  8
1
 10
1255.319231
 20
-243.704365
 30
0.0
 40
5.0
 50
0.0
 51
90.0
  0
ARC
  5
D03
  8
1
 10
1265.319231
 20
-248.704365
 30
0.0
 40
5.0
 50
180.0
 51
270.0
  0
ARC
  5
D04
  8
1
 10
1278.248164
 20
-248.704365
 30
0.0
 40
5.0
 50
270.0
 51
315.0
  0
ARC
  5
D05
  8
1
 10
1278.248164
 20
-182.704365
 30
0.0
 40
5.0
 50
45.0
 51
90.0
  0
ARC
  5
D06
  8
1
 10
1284.319231
 20
-206.704365
 30
0.0
 40
3.0
 50
180.0
 51
270.0
  0
ARC
  5
D07
  8
1
 10
1284.319231
 20
-224.704365
 30
0.0
 40
3.0
 50
90.0
 51
180.0
  0
ARC
  5
D08
  8
1
 10
1275.319231
 20
-232.704365
 30
0.0
 40
6.0
 50
270.0
 51
0.0
  0
ARC
  5
D09
  8
1
 10
1275.319231
 20
-232.704365
 30
0.0
 40
6.0
 50
180.0
 51
270.0
  0
ARC
  5
D0A
  8
1
 10
1275.319231
 20
-198.704365
 30
0.0
 40
6.0
 50
90.0
 51
180.0
  0
ARC
  5
D0B
  8
1
 10
1275.319231
 20
-198.704365
 30
0.0
 40
6.0
 50
0.0
 51
90.0
  0
LINE
  5
D0C
  8
1
 10
1297.619231
 20
-221.704365
 30
0.0
 11
1297.619231
 21
-238.704365
 31
0.0
  0
LINE
  5
D0D
  8
1
  6
DASHED
 10
1295.319231
 20
-221.704365
 30
0.0
 11
1295.319231
 21
-238.704365
 31
0.0
  0
LINE
  5
D0E
  8
1
 10
1255.319231
 20
-192.704365
 30
0.0
 11
1250.319231
 21
-192.704365
 31
0.0
  0
LINE
  5
D0F
  8
1
 10
1255.319231
 20
-238.704365
 30
0.0
 11
1250.319231
 21
-238.704365
 31
0.0
  0
LINE
  5
D10
  8
1
 10
1260.319231
 20
-243.704365
 30
0.0
 11
1260.319231
 21
-248.704365
 31
0.0
  0
LINE
  5
D11
  8
1
 10
1281.319231
 20
-224.704365
 30
0.0
 11
1281.319231
 21
-232.704365
 31
0.0
  0
LINE
  5
D12
  8
1
 10
1250.319231
 20
-238.704365
 30
0.0
 11
1250.319231
 21
-192.704365
 31
0.0
  0
LINE
  5
D13
  8
1
  6
DASHDOT
 10
1315.517898
 20
304.295635
 30
0.0
 11
1232.829051
 21
304.295635
 31
0.0
  0
LINE
  5
D14
  8
1
 10
1278.248164
 20
266.295635
 30
0.0
 11
1265.319231
 21
266.295635
 31
0.0
  0
LINE
  5
D15
  8
1
 10
1278.248164
 20
342.295635
 30
0.0
 11
1265.319231
 21
342.295635
 31
0.0
  0
LINE
  5
D16
  8
1
  6
DASHED
 10
1252.619231
 20
327.295635
 30
0.0
 11
1252.619231
 21
281.295635
 31
0.0
  0
LINE
  5
D17
  8
1
  6
DASHED
 10
1295.319231
 20
327.295635
 30
0.0
 11
1295.319231
 21
310.295635
 31
0.0
  0
LINE
  5
D18
  8
1
 10
1297.619231
 20
327.295635
 30
0.0
 11
1297.619231
 21
310.295635
 31
0.0
  0
LINE
  5
D19
  8
1
 10
1297.619231
 20
298.295635
 30
0.0
 11
1284.319231
 21
298.295635
 31
0.0
  0
LINE
  5
D1A
  8
1
 10
1297.619231
 20
310.295635
 30
0.0
 11
1284.319231
 21
310.295635
 31
0.0
  0
LINE
  5
D1B
  8
1
 10
1297.619231
 20
327.295635
 30
0.0
 11
1295.319231
 21
327.295635
 31
0.0
  0
LINE
  5
D1C
  8
1
 10
1297.619231
 20
281.295635
 30
0.0
 11
1295.319231
 21
281.295635
 31
0.0
  0
LINE
  5
D1D
  8
1
  6
DASHDOT
 10
1275.319231
 20
344.295635
 30
0.0
 11
1275.319231
 21
263.820478
 31
0.0
  0
LINE
  5
D1E
  8
1
 10
1269.319231
 20
321.295635
 30
0.0
 11
1269.319231
 21
287.295635
 31
0.0
  0
LINE
  5
D1F
  8
1
 10
1281.319231
 20
321.295635
 30
0.0
 11
1281.319231
 21
313.295635
 31
0.0
  0
LINE
  5
D20
  8
1
 10
1295.319231
 20
327.295635
 30
0.0
 11
1281.783697
 21
340.831169
 31
0.0
  0
LINE
  5
D21
  8
1
 10
1295.319231
 20
281.295635
 30
0.0
 11
1281.783697
 21
267.760101
 31
0.0
  0
LINE
  5
D22
  8
1
 10
1260.319231
 20
337.295635
 30
0.0
 11
1260.319231
 21
332.295635
 31
0.0
  0
ARC
  5
D23
  8
1
 10
1255.319231
 20
332.295635
 30
0.0
 40
5.0
 50
270.0
 51
0.0
  0
ARC
  5
D24
  8
1
 10
1265.319231
 20
337.295635
 30
0.0
 40
5.0
 50
90.0
 51
180.0
  0
ARC
  5
D25
  8
1
 10
1255.319231
 20
276.295635
 30
0.0
 40
5.0
 50
0.0
 51
90.0
  0
ARC
  5
D26
  8
1
 10
1265.319231
 20
271.295635
 30
0.0
 40
5.0
 50
180.0
 51
270.0
  0
ARC
  5
D27
  8
1
 10
1278.248164
 20
271.295635
 30
0.0
 40
5.0
 50
270.0
 51
315.0
  0
ARC
  5
D28
  8
1
 10
1278.248164
 20
337.295635
 30
0.0
 40
5.0
 50
45.0
 51
90.0
  0
ARC
  5
D29
  8
1
 10
1284.319231
 20
313.295635
 30
0.0
 40
3.0
 50
180.0
 51
270.0
  0
ARC
  5
D2A
  8
1
 10
1284.319231
 20
295.295635
 30
0.0
 40
3.0
 50
90.0
 51
180.0
  0
ARC
  5
D2B
  8
1
 10
1275.319231
 20
287.295635
 30
0.0
 40
6.0
 50
270.0
 51
0.0
  0
ARC
  5
D2C
  8
1
 10
1275.319231
 20
287.295635
 30
0.0
 40
6.0
 50
180.0
 51
270.0
  0
ARC
  5
D2D
  8
1
 10
1275.319231
 20
321.295635
 30
0.0
 40
6.0
 50
90.0
 51
180.0
  0
ARC
  5
D2E
  8
1
 10
1275.319231
 20
321.295635
 30
0.0
 40
6.0
 50
0.0
 51
90.0
  0
LINE
  5
D2F
  8
1
 10
1297.619231
 20
298.295635
 30
0.0
 11
1297.619231
 21
281.295635
 31
0.0
  0
LINE
  5
D30
  8
1
  6
DASHED
 10
1295.319231
 20
298.295635
 30
0.0
 11
1295.319231
 21
281.295635
 31
0.0
  0
LINE
  5
D31
  8
1
 10
1255.319231
 20
327.295635
 30
0.0
 11
1250.319231
 21
327.295635
 31
0.0
  0
LINE
  5
D32
  8
1
 10
1255.319231
 20
281.295635
 30
0.0
 11
1250.319231
 21
281.295635
 31
0.0
  0
LINE
  5
D33
  8
1
 10
1260.319231
 20
276.295635
 30
0.0
 11
1260.319231
 21
271.295635
 31
0.0
  0
LINE
  5
D34
  8
1
 10
1281.319231
 20
295.295635
 30
0.0
 11
1281.319231
 21
287.295635
 31
0.0
  0
LINE
  5
D35
  8
1
 10
1250.319231
 20
281.295635
 30
0.0
 11
1250.319231
 21
327.295635
 31
0.0
  0
LINE
  5
D36
  8
1
 10
-408.880769
 20
-249.704365
 30
0.0
 11
-408.880769
 21
-250.304365
 31
0.0
  0
LINE
  5
D37
  8
1
 10
-408.880769
 20
343.895635
 30
0.0
 11
-408.880769
 21
-256.104365
 31
0.0
  0
LINE
  5
D38
  8
1
 10
-408.880769
 20
338.895635
 30
0.0
 11
-408.880769
 21
338.295635
 31
0.0
  0
LINE
  5
D39
  8
1
  6
DASHDOT
 10
1315.517898
 20
158.495635
 30
0.0
 11
1233.13141
 21
158.495635
 31
0.0
  0
LINE
  5
D3A
  8
1
 10
1302.719231
 20
142.495635
 30
0.0
 11
1302.719231
 21
174.495635
 31
0.0
  0
LINE
  5
D3B
  8
1
 10
1302.719231
 20
174.495635
 30
0.0
 11
1250.319231
 21
175.019635
 31
0.0
  0
LINE
  5
D3C
  8
1
 10
1302.719231
 20
142.495635
 30
0.0
 11
1250.319231
 21
141.971635
 31
0.0
  0
LINE
  5
D3D
  8
1
 10
1250.319231
 20
-37.704365
 30
0.0
 11
1250.319231
 21
112.295635
 31
0.0
  0
LINE
  5
D3E
  8
1
 10
1250.319231
 20
106.495635
 30
0.0
 11
1274.419231
 21
106.495635
 31
0.0
  0
LINE
  5
D3F
  8
1
 10
1250.319231
 20
90.495635
 30
0.0
 11
1274.419231
 21
90.495635
 31
0.0
  0
LINE
  5
D40
  8
1
  6
DASHDOT
 10
1314.898687
 20
98.495635
 30
0.0
 11
1229.940636
 21
98.495635
 31
0.0
  0
LINE
  5
D41
  8
1
 10
1285.919231
 20
84.645635
 30
0.0
 11
1279.919231
 21
84.645635
 31
0.0
  0
LINE
  5
D42
  8
1
 10
1285.919231
 20
112.345635
 30
0.0
 11
1279.919231
 21
112.345635
 31
0.0
  0
LINE
  5
D43
  8
1
 10
1310.919231
 20
91.745635
 30
0.0
 11
1310.919231
 21
105.245635
 31
0.0
  0
LINE
  5
D44
  8
1
 10
1308.169231
 20
88.995635
 30
0.0
 11
1308.169231
 21
107.995635
 31
0.0
  0
LINE
  5
D45
  8
1
 10
1291.419231
 20
88.995635
 30
0.0
 11
1288.419231
 21
88.995635
 31
0.0
  0
LINE
  5
D46
  8
1
 10
1291.419231
 20
107.995635
 30
0.0
 11
1288.419231
 21
107.995635
 31
0.0
  0
LINE
  5
D47
  8
1
 10
1303.919231
 20
87.995635
 30
0.0
 11
1291.419231
 21
87.995635
 31
0.0
  0
LINE
  5
D48
  8
1
 10
1303.919231
 20
108.995635
 30
0.0
 11
1291.419231
 21
108.995635
 31
0.0
  0
LINE
  5
D49
  8
1
 10
1310.919231
 20
91.745635
 30
0.0
 11
1308.169231
 21
88.995635
 31
0.0
  0
LINE
  5
D4A
  8
1
 10
1310.919231
 20
105.245635
 30
0.0
 11
1308.169231
 21
107.995635
 31
0.0
  0
LINE
  5
D4B
  8
1
 10
1303.919231
 20
87.995635
 30
0.0
 11
1303.919231
 21
108.995635
 31
0.0
  0
LINE
  5
D4C
  8
1
 10
1291.419231
 20
87.995635
 30
0.0
 11
1291.419231
 21
108.995635
 31
0.0
  0
LINE
  5
D4D
  8
1
 10
1288.419231
 20
87.145635
 30
0.0
 11
1288.419231
 21
109.845635
 31
0.0
  0
LINE
  5
D4E
  8
1
 10
1274.419231
 20
87.395635
 30
0.0
 11
1274.419231
 21
109.595635
 31
0.0
  0
LINE
  5
D4F
  8
1
 10
1277.419231
 20
87.145635
 30
0.0
 11
1277.419231
 21
109.845635
 31
0.0
  0
LINE
  5
D50
  8
1
 10
1277.419231
 20
87.395635
 30
0.0
 11
1274.419231
 21
87.395635
 31
0.0
  0
LINE
  5
D51
  8
1
 10
1277.419231
 20
109.595635
 30
0.0
 11
1274.419231
 21
109.595635
 31
0.0
  0
LINE
  5
D52
  8
1
 10
1308.169231
 20
88.995635
 30
0.0
 11
1303.919231
 21
88.995635
 31
0.0
  0
LINE
  5
D53
  8
1
 10
1308.169231
 20
107.995635
 30
0.0
 11
1303.919231
 21
107.995635
 31
0.0
  0
LINE
  5
D54
  8
1
 10
1285.919231
 20
91.567432
 30
0.0
 11
1279.919231
 21
91.567432
 31
0.0
  0
LINE
  5
D55
  8
1
 10
1285.919231
 20
105.423838
 30
0.0
 11
1279.919231
 21
105.423838
 31
0.0
  0
ARC
  5
D56
  8
1
 10
1285.919231
 20
89.067432
 30
0.0
 40
2.5
 50
0.0
 51
90.0
  0
ARC
  5
D57
  8
1
 10
1285.919231
 20
107.923838
 30
0.0
 40
2.5
 50
270.0
 51
0.0
  0
ARC
  5
D58
  8
1
 10
1285.919231
 20
102.923838
 30
0.0
 40
2.5
 50
0.0
 51
90.0
  0
ARC
  5
D59
  8
1
 10
1285.919231
 20
94.067432
 30
0.0
 40
2.5
 50
270.0
 51
0.0
  0
ARC
  5
D5A
  8
1
 10
1279.919231
 20
89.067432
 30
0.0
 40
2.5
 50
90.0
 51
180.0
  0
ARC
  5
D5B
  8
1
 10
1279.919231
 20
94.067432
 30
0.0
 40
2.5
 50
180.0
 51
270.0
  0
ARC
  5
D5C
  8
1
 10
1279.919231
 20
102.923838
 30
0.0
 40
2.5
 50
90.0
 51
180.0
  0
ARC
  5
D5D
  8
1
 10
1279.919231
 20
107.923838
 30
0.0
 40
2.5
 50
180.0
 51
270.0
  0
LINE
  5
D5E
  8
1
 10
1288.419231
 20
87.145635
 30
0.0
 11
1285.919231
 21
84.645635
 31
0.0
  0
LINE
  5
D5F
  8
1
 10
1288.419231
 20
109.845635
 30
0.0
 11
1285.919231
 21
112.345635
 31
0.0
  0
LINE
  5
D60
  8
1
 10
1279.919231
 20
112.345635
 30
0.0
 11
1277.419231
 21
109.845635
 31
0.0
  0
LINE
  5
D61
  8
1
 10
1279.919231
 20
84.645635
 30
0.0
 11
1277.419231
 21
87.145635
 31
0.0
  0
LINE
  5
D62
  8
1
 10
1250.319231
 20
3.320635
 30
0.0
 11
1284.919231
 21
3.320635
 31
0.0
  0
LINE
  5
D63
  8
1
 10
1250.319231
 20
-6.329365
 30
0.0
 11
1284.919231
 21
-6.329365
 31
0.0
  0
LINE
  5
D64
  8
1
  6
DASHDOT
 10
1315.641869
 20
-1.504365
 30
0.0
 11
1229.940636
 21
-1.504365
 31
0.0
  0
LINE
  5
D65
  8
1
 10
1310.919231
 20
-5.504365
 30
0.0
 11
1310.919231
 21
2.495635
 31
0.0
  0
LINE
  5
D66
  8
1
 10
1284.919231
 20
-9.454365
 30
0.0
 11
1284.919231
 21
6.445635
 31
0.0
  0
LINE
  5
D67
  8
1
 10
1308.169231
 20
5.245635
 30
0.0
 11
1294.919231
 21
5.245635
 31
0.0
  0
LINE
  5
D68
  8
1
 10
1308.169231
 20
-8.254365
 30
0.0
 11
1294.919231
 21
-8.254365
 31
0.0
  0
LINE
  5
D69
  8
1
 10
1308.169231
 20
-8.254365
 30
0.0
 11
1308.169231
 21
5.245635
 31
0.0
  0
LINE
  5
D6A
  8
1
 10
1310.919231
 20
-5.504365
 30
0.0
 11
1308.169231
 21
-8.254365
 31
0.0
  0
LINE
  5
D6B
  8
1
 10
1310.919231
 20
2.495635
 30
0.0
 11
1308.169231
 21
5.245635
 31
0.0
  0
LINE
  5
D6C
  8
1
 10
1305.419231
 20
-9.254365
 30
0.0
 11
1305.419231
 21
6.245635
 31
0.0
  0
LINE
  5
D6D
  8
1
 10
1296.919231
 20
-9.254365
 30
0.0
 11
1296.919231
 21
6.245635
 31
0.0
  0
LINE
  5
D6E
  8
1
 10
1294.919231
 20
-9.304365
 30
0.0
 11
1294.919231
 21
6.295635
 31
0.0
  0
LINE
  5
D6F
  8
1
 10
1292.919231
 20
8.295635
 30
0.0
 11
1288.919231
 21
8.295635
 31
0.0
  0
LINE
  5
D70
  8
1
 10
1292.919231
 20
-11.304365
 30
0.0
 11
1288.919231
 21
-11.304365
 31
0.0
  0
LINE
  5
D71
  8
1
 10
1305.419231
 20
-9.254365
 30
0.0
 11
1296.919231
 21
-9.254365
 31
0.0
  0
LINE
  5
D72
  8
1
 10
1305.419231
 20
6.245635
 30
0.0
 11
1296.919231
 21
6.245635
 31
0.0
  0
LINE
  5
D73
  8
1
 10
1286.919231
 20
-9.304365
 30
0.0
 11
1286.919231
 21
6.295635
 31
0.0
  0
LINE
  5
D74
  8
1
 10
1286.919231
 20
-9.454365
 30
0.0
 11
1284.919231
 21
-9.454365
 31
0.0
  0
LINE
  5
D75
  8
1
 10
1286.919231
 20
6.445635
 30
0.0
 11
1284.919231
 21
6.445635
 31
0.0
  0
LINE
  5
D76
  8
1
 10
1294.919231
 20
-9.304365
 30
0.0
 11
1292.919231
 21
-11.304365
 31
0.0
  0
LINE
  5
D77
  8
1
 10
1288.919231
 20
-11.304365
 30
0.0
 11
1286.919231
 21
-9.304365
 31
0.0
  0
LINE
  5
D78
  8
1
 10
1294.919231
 20
6.295635
 30
0.0
 11
1292.919231
 21
8.295635
 31
0.0
  0
LINE
  5
D79
  8
1
 10
1288.919231
 20
8.295635
 30
0.0
 11
1286.919231
 21
6.295635
 31
0.0
  0
LINE
  5
D7A
  8
1
 10
1292.919231
 20
-6.411842
 30
0.0
 11
1288.919231
 21
-6.411842
 31
0.0
  0
LINE
  5
D7B
  8
1
 10
1292.919231
 20
3.403112
 30
0.0
 11
1288.919231
 21
3.403112
 31
0.0
  0
ARC
  5
D7C
  8
1
 10
1292.919231
 20
5.403112
 30
0.0
 40
2.0
 50
270.0
 51
0.0
  0
ARC
  5
D7D
  8
1
 10
1292.919231
 20
1.403112
 30
0.0
 40
2.0
 50
0.0
 51
90.0
  0
ARC
  5
D7E
  8
1
 10
1292.919231
 20
-4.411842
 30
0.0
 40
2.0
 50
270.0
 51
0.0
  0
ARC
  5
D7F
  8
1
 10
1292.919231
 20
-8.411842
 30
0.0
 40
2.0
 50
0.0
 51
90.0
  0
ARC
  5
D80
  8
1
 10
1288.919231
 20
-8.411842
 30
0.0
 40
2.0
 50
90.0
 51
180.0
  0
ARC
  5
D81
  8
1
 10
1288.919231
 20
5.403112
 30
0.0
 40
2.0
 50
180.0
 51
270.0
  0
ARC
  5
D82
  8
1
 10
1288.919231
 20
1.403112
 30
0.0
 40
2.0
 50
90.0
 51
180.0
  0
ARC
  5
D83
  8
1
 10
1288.919231
 20
-4.411842
 30
0.0
 40
2.0
 50
180.0
 51
270.0
  0
LINE
  5
D84
  8
1
 10
1250.319231
 20
343.895635
 30
0.0
 11
-408.880769
 21
343.895635
 31
0.0
  0
ARC
  5
D85
  8
1
 10
-524.280769
 20
-281.104365
 30
0.0
 40
15.0
 50
180.0
 51
270.0
  0
ARC
  5
D86
  8
1
 10
-524.280769
 20
368.895635
 30
0.0
 40
15.0
 50
90.0
 51
180.0
  0
ARC
  5
D87
  8
1
 10
1365.719231
 20
368.895635
 30
0.0
 40
15.0
 50
0.0
 51
90.0
  0
ARC
  5
D88
  8
1
 10
1365.719231
 20
-281.104365
 30
0.0
 40
15.0
 50
270.0
 51
0.0
  0
LINE
  5
D89
  8
1
 10
1250.319231
 20
-1499.517572
 30
0.0
 11
-408.880769
 21
-1499.517572
 31
0.0
  0
LINE
  5
D8A
  8
1
 10
-408.880769
 20
-1201.517572
 30
0.0
 11
-408.880769
 21
-1499.517572
 31
0.0
  0
LINE
  5
D8B
  8
1
 10
1250.319231
 20
-1201.517572
 30
0.0
 11
1250.319231
 21
-1498.917572
 31
0.0
  0
LINE
  5
D8C
  8
1
 10
1250.319231
 20
-1201.517572
 30
0.0
 11
-408.880769
 21
-1201.517572
 31
0.0
  0
LINE
  5
D8D
  8
1
  6
DASHDOT
 10
1529.319231
 20
-1255.542101
 30
0.0
 11
1238.834281
 21
-1255.542101
 31
0.0
  0
LINE
  5
D8E
  8
1
 10
1252.719231
 20
-1238.642101
 30
0.0
 11
1250.319231
 21
-1238.642101
 31
0.0
  0
LINE
  5
D8F
  8
1
 10
1252.719231
 20
-1272.442101
 30
0.0
 11
1250.319231
 21
-1272.442101
 31
0.0
  0
LINE
  5
D90
  8
1
  6
DOT
 10
1302.719231
 20
-1271.542101
 30
0.0
 11
1252.719231
 21
-1272.042101
 31
0.0
  0
LINE
  5
D91
  8
1
  6
DOT
 10
1302.719231
 20
-1271.542101
 30
0.0
 11
1302.719231
 21
-1239.542101
 31
0.0
  0
LINE
  5
D92
  8
1
  6
DOT
 10
1302.719231
 20
-1239.542101
 30
0.0
 11
1252.719231
 21
-1239.042101
 31
0.0
  0
LINE
  5
D93
  8
1
 10
1250.319231
 20
-1499.517572
 30
0.0
 11
1250.319231
 21
-1365.517572
 31
0.0
  0
LINE
  5
D94
  8
1
 10
1250.319231
 20
-1445.517572
 30
0.0
 11
1250.319231
 21
-1390.517572
 31
0.0
  0
LINE
  5
D95
  8
1
 10
1253.619231
 20
-1445.517572
 30
0.0
 11
1253.619231
 21
-1393.817572
 31
0.0
  0
LINE
  5
D96
  8
1
 10
1295.319231
 20
-1402.517572
 30
0.0
 11
1295.319231
 21
-1393.817572
 31
0.0
  0
LINE
  5
D97
  8
1
 10
1298.619231
 20
-1402.517572
 30
0.0
 11
1298.619231
 21
-1390.517572
 31
0.0
  0
LINE
  5
D98
  8
1
  6
DASHDOT
 10
1275.319231
 20
-1407.009089
 30
0.0
 11
1275.319231
 21
-1378.845204
 31
0.0
  0
LINE
  5
D99
  8
1
 10
1250.319231
 20
-1390.517572
 30
0.0
 11
1298.619231
 21
-1390.517572
 31
0.0
  0
LINE
  5
D9A
  8
1
 10
1253.619231
 20
-1393.817572
 30
0.0
 11
1295.319231
 21
-1393.817572
 31
0.0
  0
LINE
  5
D9B
  8
1
 10
1295.319231
 20
-1402.517572
 30
0.0
 11
1298.619231
 21
-1402.517572
 31
0.0
  0
LINE
  5
D9C
  8
1
 10
1250.319231
 20
-1445.517572
 30
0.0
 11
1253.619231
 21
-1445.517572
 31
0.0
  0
LINE
  5
D9D
  8
1
 10
-408.880769
 20
-1445.517572
 30
0.0
 11
-408.880769
 21
-1390.517572
 31
0.0
  0
LINE
  5
D9E
  8
1
 10
-412.180769
 20
-1445.517572
 30
0.0
 11
-412.180769
 21
-1393.817572
 31
0.0
  0
LINE
  5
D9F
  8
1
 10
-453.880769
 20
-1402.517572
 30
0.0
 11
-453.880769
 21
-1393.817572
 31
0.0
  0
LINE
  5
DA0
  8
1
 10
-457.180769
 20
-1402.517572
 30
0.0
 11
-457.180769
 21
-1390.517572
 31
0.0
  0
LINE
  5
DA1
  8
1
  6
DASHDOT
 10
-433.880769
 20
-1407.009089
 30
0.0
 11
-433.880769
 21
-1378.845204
 31
0.0
  0
LINE
  5
DA2
  8
1
 10
-408.880769
 20
-1390.517572
 30
0.0
 11
-457.180769
 21
-1390.517572
 31
0.0
  0
LINE
  5
DA3
  8
1
 10
-412.180769
 20
-1393.817572
 30
0.0
 11
-453.880769
 21
-1393.817572
 31
0.0
  0
LINE
  5
DA4
  8
1
 10
-453.880769
 20
-1402.517572
 30
0.0
 11
-457.180769
 21
-1402.517572
 31
0.0
  0
LINE
  5
DA5
  8
1
 10
-408.880769
 20
-1445.517572
 30
0.0
 11
-412.180769
 21
-1445.517572
 31
0.0
  0
LINE
  5
DA6
  8
1
 10
382.719162
 20
-1379.317572
 30
0.0
 11
382.719162
 21
-1244.317572
 31
0.0
  0
LINE
  5
DA7
  8
1
 10
-150.280838
 20
-1244.317572
 30
0.0
 11
382.719162
 21
-1244.317572
 31
0.0
  0
LINE
  5
DA8
  8
1
 10
-150.280838
 20
-1379.317572
 30
0.0
 11
382.719162
 21
-1379.317572
 31
0.0
  0
LINE
  5
DA9
  8
1
 10
-150.280838
 20
-1379.317572
 30
0.0
 11
-150.280838
 21
-1244.317572
 31
0.0
  0
LINE
  5
DAA
  8
1
 10
1041.219231
 20
-1390.317572
 30
0.0
 11
1041.219231
 21
-1310.317572
 31
0.0
  0
LINE
  5
DAB
  8
1
 10
1041.219231
 20
-1310.317572
 30
0.0
 11
1126.219231
 21
-1310.317572
 31
0.0
  0
LINE
  5
DAC
  8
1
 10
1126.219231
 20
-1390.317572
 30
0.0
 11
1126.219231
 21
-1310.317572
 31
0.0
  0
LINE
  5
DAD
  8
1
 10
1041.219231
 20
-1390.317572
 30
0.0
 11
1126.219231
 21
-1390.317572
 31
0.0
  0
LINE
  5
DAE
  8
1
 10
-519.280838
 20
-1540.517472
 30
0.0
 11
-719.280938
 21
-1540.517472
 31
0.0
  0
LINE
  5
DAF
  8
1
 10
-719.280938
 20
-1540.517472
 30
0.0
 11
-719.280938
 21
-1550.517472
 31
0.0
  0
LINE
  5
DB0
  8
1
 10
-519.280838
 20
-1550.517472
 30
0.0
 11
-719.280538
 21
-1550.517672
 31
0.0
  0
LINE
  5
DB1
  8
1
 10
-569.735338
 20
-1550.517472
 30
0.0
 11
-559.735338
 21
-1540.517472
 31
0.0
  0
LINE
  5
DB2
  8
1
 10
-602.161738
 20
-1540.517472
 30
0.0
 11
-612.161738
 21
-1550.517472
 31
0.0
  0
LINE
  5
DB3
  8
1
 10
-654.588138
 20
-1550.517472
 30
0.0
 11
-644.588138
 21
-1540.517472
 31
0.0
  0
LINE
  5
DB4
  8
1
 10
-687.014538
 20
-1540.517472
 30
0.0
 11
-697.014538
 21
-1550.517472
 31
0.0
  0
LINE
  5
DB5
  8
1
 10
-519.280938
 20
-1542.489372
 30
0.0
 11
-527.309038
 21
-1550.517472
 31
0.0
  0
LINE
  5
DB6
  8
1
 10
-519.280938
 20
-1550.517472
 30
0.0
 11
-519.280938
 21
-1540.517472
 31
0.0
  0
LINE
  5
DB7
  8
1
 10
1560.719162
 20
-1550.517472
 30
0.0
 11
1360.719162
 21
-1550.517572
 31
0.0
  0
LINE
  5
DB8
  8
1
 10
1560.719162
 20
-1540.517472
 30
0.0
 11
1360.719162
 21
-1540.517472
 31
0.0
  0
LINE
  5
DB9
  8
1
 10
1560.719162
 20
-1540.517472
 30
0.0
 11
1560.719162
 21
-1550.517472
 31
0.0
  0
LINE
  5
DBA
  8
1
 10
1360.719162
 20
-1540.517472
 30
0.0
 11
1360.719162
 21
-1550.517472
 31
0.0
  0
LINE
  5
DBB
  8
1
 10
1494.422262
 20
-1540.517472
 30
0.0
 11
1484.422262
 21
-1550.517472
 31
0.0
  0
LINE
  5
DBC
  8
1
 10
1526.848762
 20
-1550.517472
 30
0.0
 11
1536.848762
 21
-1540.517472
 31
0.0
  0
LINE
  5
DBD
  8
1
 10
1441.995762
 20
-1550.517572
 30
0.0
 11
1451.995762
 21
-1540.517472
 31
0.0
  0
LINE
  5
DBE
  8
1
 10
1409.569262
 20
-1540.517472
 30
0.0
 11
1399.569262
 21
-1550.517572
 31
0.0
  0
LINE
  5
DBF
  8
1
 10
1360.719162
 20
-1546.941172
 30
0.0
 11
1367.142762
 21
-1540.517472
 31
0.0
  0
ARC
  5
DC0
  8
1
 10
1267.568031
 20
-1411.801172
 30
0.0
 40
16.0161
 50
241.0607
 51
298.94
  0
ARC
  5
DC1
  8
1
 10
1267.568031
 20
-1428.833472
 30
0.0
 40
16.0161
 50
61.0603
 51
118.9396
  0
LINE
  5
DC2
  8
1
 10
1267.567731
 20
-1427.817272
 30
0.0
 11
1283.067731
 21
-1427.817272
 31
0.0
  0
LINE
  5
DC3
  8
1
 10
1268.318031
 20
-1427.817272
 30
0.0
 11
1268.318031
 21
-1432.817272
 31
0.0
  0
ARC
  5
DC4
  8
1
 10
1267.568031
 20
-1396.801172
 30
0.0
 40
16.0161
 50
241.0607
 51
298.94
  0
LINE
  5
DC5
  8
1
 10
1259.818231
 20
-1397.817272
 30
0.0
 11
1259.818231
 21
-1425.817472
 31
0.0
  0
ARC
  5
DC6
  8
1
 10
1267.568031
 20
-1413.833472
 30
0.0
 40
16.0161
 50
61.0603
 51
118.9396
  0
LINE
  5
DC7
  8
1
 10
1258.318231
 20
-1397.817272
 30
0.0
 11
1292.318031
 21
-1397.817572
 31
0.0
  0
LINE
  5
DC8
  8
1
 10
1258.318231
 20
-1393.817572
 30
0.0
 11
1258.318231
 21
-1397.817072
 31
0.0
  0
LINE
  5
DC9
  8
1
 10
1292.318031
 20
-1393.817572
 30
0.0
 11
1292.318031
 21
-1397.817572
 31
0.0
  0
LINE
  5
DCA
  8
1
 10
1290.818031
 20
-1397.817572
 30
0.0
 11
1290.817731
 21
-1425.817472
 31
0.0
  0
ARC
  5
DCB
  8
1
 10
1283.068031
 20
-1413.833472
 30
0.0
 40
16.0161
 50
61.0605
 51
118.9398
  0
ARC
  5
DCC
  8
1
 10
1283.068031
 20
-1428.833472
 30
0.0
 40
16.0161
 50
61.0605
 51
118.9398
  0
ARC
  5
DCD
  8
1
 10
1283.068031
 20
-1396.801172
 30
0.0
 40
16.0161
 50
241.0605
 51
298.9398
  0
ARC
  5
DCE
  8
1
 10
1283.068031
 20
-1411.801172
 30
0.0
 40
16.0161
 50
241.0605
 51
298.9398
  0
LINE
  5
DCF
  8
1
 10
1258.318231
 20
-1386.517272
 30
0.0
 11
1258.318231
 21
-1390.517572
 31
0.0
  0
LINE
  5
DD0
  8
1
 10
1258.318231
 20
-1386.517572
 30
0.0
 11
1292.318031
 21
-1386.517572
 31
0.0
  0
ARC
  5
DD1
  8
1
 10
1267.568031
 20
-1370.501672
 30
0.0
 40
16.0161
 50
241.0607
 51
298.94
  0
LINE
  5
DD2
  8
1
 10
1259.818231
 20
-1386.517772
 30
0.0
 11
1259.818231
 21
-1373.517772
 31
0.0
  0
ARC
  5
DD3
  8
1
 10
1267.568031
 20
-1387.533872
 30
0.0
 40
16.0161
 50
61.0603
 51
118.9396
  0
LINE
  5
DD4
  8
1
  6
DASHDOT
 10
1275.318031
 20
-995.239972
 30
0.0
 11
1275.318031
 21
-1438.593272
 31
0.0
  0
LINE
  5
DD5
  8
1
  6
DIVIDE
 10
1268.318731
 20
-1010.240472
 30
0.0
 11
1268.318031
 21
-1371.517772
 31
0.0
  0
LINE
  5
DD6
  8
1
  6
DIVIDE
 10
1282.317731
 20
-1010.240472
 30
0.0
 11
1282.318031
 21
-1371.517772
 31
0.0
  0
ARC
  5
DD7
  8
1
 10
1283.068031
 20
-1387.533872
 30
0.0
 40
16.0161
 50
61.0605
 51
118.9398
  0
LINE
  5
DD8
  8
1
 10
1290.818031
 20
-1386.517572
 30
0.0
 11
1290.818031
 21
-1373.517572
 31
0.0
  0
ARC
  5
DD9
  8
1
 10
1283.068031
 20
-1370.501672
 30
0.0
 40
16.0161
 50
241.0605
 51
298.9398
  0
LINE
  5
DDA
  8
1
 10
1292.318031
 20
-1386.517772
 30
0.0
 11
1292.318031
 21
-1390.517572
 31
0.0
  0
LINE
  5
DDB
  8
1
 10
1267.567731
 20
-1371.517772
 30
0.0
 11
1283.067731
 21
-1371.517772
 31
0.0
  0
LINE
  5
DDC
  8
1
 10
1282.318231
 20
-1432.817072
 30
0.0
 11
1268.318031
 21
-1432.817272
 31
0.0
  0
LINE
  5
DDD
  8
1
 10
1282.318031
 20
-1427.817272
 30
0.0
 11
1282.318231
 21
-1432.817072
 31
0.0
  0
ARC
  5
DDE
  8
1
 10
-426.12946
 20
-1411.801732
 30
0.0
 40
16.0161
 50
241.060053
 51
298.939353
  0
ARC
  5
DDF
  8
1
 10
-426.129445
 20
-1428.834032
 30
0.0
 40
16.0161
 50
61.060453
 51
118.939753
  0
LINE
  5
DE0
  8
1
 10
-426.129146
 20
-1427.817832
 30
0.0
 11
-441.629146
 21
-1427.817847
 31
0.0
  0
LINE
  5
DE1
  8
1
 10
-426.879446
 20
-1427.817833
 30
0.0
 11
-426.879441
 21
-1432.817833
 31
0.0
  0
ARC
  5
DE2
  8
1
 10
-426.129474
 20
-1396.801732
 30
0.0
 40
16.0161
 50
241.060053
 51
298.939353
  0
LINE
  5
DE3
  8
1
 10
-418.379673
 20
-1397.817825
 30
0.0
 11
-418.379647
 21
-1425.818025
 31
0.0
  0
ARC
  5
DE4
  8
1
 10
-426.129459
 20
-1413.834032
 30
0.0
 40
16.0161
 50
61.060453
 51
118.939753
  0
LINE
  5
DE5
  8
1
 10
-416.879673
 20
-1397.817824
 30
0.0
 11
-450.879473
 21
-1397.818155
 31
0.0
  0
LINE
  5
DE6
  8
1
 10
-416.879677
 20
-1393.818124
 30
0.0
 11
-416.879673
 21
-1397.817624
 31
0.0
  0
LINE
  5
DE7
  8
1
 10
-450.879477
 20
-1393.818155
 30
0.0
 11
-450.879473
 21
-1397.818155
 31
0.0
  0
LINE
  5
DE8
  8
1
 10
-449.379473
 20
-1397.818154
 30
0.0
 11
-449.379147
 21
-1425.818054
 31
0.0
  0
ARC
  5
DE9
  8
1
 10
-441.629459
 20
-1413.834047
 30
0.0
 40
16.0161
 50
61.060253
 51
118.939553
  0
ARC
  5
DEA
  8
1
 10
-441.629445
 20
-1428.834047
 30
0.0
 40
16.0161
 50
61.060253
 51
118.939553
  0
ARC
  5
DEB
  8
1
 10
-441.629474
 20
-1396.801747
 30
0.0
 40
16.0161
 50
241.060253
 51
298.939553
  0
ARC
  5
DEC
  8
1
 10
-441.62946
 20
-1411.801747
 30
0.0
 40
16.0161
 50
241.060253
 51
298.939553
  0
LINE
  5
DED
  8
1
 10
-416.879683
 20
-1386.517824
 30
0.0
 11
-416.879679
 21
-1390.518124
 31
0.0
  0
LINE
  5
DEE
  8
1
 10
-416.879683
 20
-1386.518124
 30
0.0
 11
-450.879483
 21
-1386.518155
 31
0.0
  0
ARC
  5
DEF
  8
1
 10
-426.129498
 20
-1370.502232
 30
0.0
 40
16.0161
 50
241.060053
 51
298.939353
  0
LINE
  5
DF0
  8
1
 10
-418.379683
 20
-1386.518325
 30
0.0
 11
-418.379695
 21
-1373.518325
 31
0.0
  0
ARC
  5
DF1
  8
1
 10
-426.129482
 20
-1387.534432
 30
0.0
 40
16.0161
 50
61.060453
 51
118.939753
  0
LINE
  5
DF2
  8
1
  6
DASHDOT
 10
-433.879847
 20
-995.240539
 30
0.0
 11
-433.879436
 21
-1438.593839
 31
0.0
  0
LINE
  5
DF3
  8
1
  6
DIVIDE
 10
-426.880533
 20
-1010.241033
 30
0.0
 11
-426.879497
 21
-1371.518333
 31
0.0
  0
LINE
  5
DF4
  8
1
  6
DIVIDE
 10
-440.879533
 20
-1010.241046
 30
0.0
 11
-440.879497
 21
-1371.518346
 31
0.0
  0
ARC
  5
DF5
  8
1
 10
-441.629482
 20
-1387.534447
 30
0.0
 40
16.0161
 50
61.060253
 51
118.939553
  0
LINE
  5
DF6
  8
1
 10
-449.379483
 20
-1386.518154
 30
0.0
 11
-449.379495
 21
-1373.518154
 31
0.0
  0
ARC
  5
DF7
  8
1
 10
-441.629498
 20
-1370.502247
 30
0.0
 40
16.0161
 50
241.060253
 51
298.939553
  0
LINE
  5
DF8
  8
1
 10
-450.879483
 20
-1386.518355
 30
0.0
 11
-450.879479
 21
-1390.518155
 31
0.0
  0
LINE
  5
DF9
  8
1
 10
-426.129197
 20
-1371.518332
 30
0.0
 11
-441.629197
 21
-1371.518347
 31
0.0
  0
LINE
  5
DFA
  8
1
 10
-440.879641
 20
-1432.817646
 30
0.0
 11
-426.879441
 21
-1432.817833
 31
0.0
  0
LINE
  5
DFB
  8
1
 10
-440.879446
 20
-1427.817846
 30
0.0
 11
-440.879641
 21
-1432.817646
 31
0.0
  0
LINE
  5
DFC
  8
1
 10
-539.280419
 20
-1550.518237
 30
0.0
 11
1380.719581
 21
-1550.516907
 31
0.0
  0
LINE
  5
DFD
  8
1
 10
-534.280411
 20
-1565.518233
 30
0.0
 11
1375.719589
 21
-1565.516912
 31
0.0
  0
LINE
  5
DFE
  8
1
 10
-539.280838
 20
-1560.517572
 30
0.0
 11
-539.280838
 21
-1550.517572
 31
0.0
  0
LINE
  5
DFF
  8
1
 10
1380.719162
 20
-1560.517572
 30
0.0
 11
1380.719162
 21
-1550.517572
 31
0.0
  0
ARC
  5
E00
  8
1
 10
-534.280838
 20
-1560.517572
 30
0.0
 40
5.0
 50
180.0
 51
270.0
  0
ARC
  5
E01
  8
1
 10
1375.719162
 20
-1560.517572
 30
0.0
 40
5.0
 50
270.0
 51
0.0
  0
LINE
  5
E02
  8
1
 10
-478.380466
 20
-1499.518181
 30
0.0
 11
1319.819534
 21
-1499.516964
 31
0.0
  0
LINE
  5
E03
  8
1
 10
-478.380419
 20
-1550.518181
 30
0.0
 11
-478.380466
 21
-1499.518181
 31
0.0
  0
LINE
  5
E04
  8
1
 10
1340.719581
 20
-1550.516944
 30
0.0
 11
1340.719504
 21
-1468.016944
 31
0.0
  0
LINE
  5
E05
  8
1
 10
1275.219534
 20
-1499.517005
 30
0.0
 11
1275.219504
 21
-1468.017005
 31
0.0
  0
LINE
  5
E06
  8
1
 10
1275.219504
 20
-1468.017005
 30
0.0
 11
1340.719504
 21
-1468.016944
 31
0.0
  0
LINE
  5
E07
  8
1
 10
1315.219524
 20
-1489.516968
 30
0.0
 11
1340.719524
 21
-1489.516944
 31
0.0
  0
LINE
  5
E08
  8
1
 10
1315.219534
 20
-1499.516968
 30
0.0
 11
1315.219524
 21
-1489.516968
 31
0.0
  0
LINE
  5
E09
  8
1
 10
1319.819581
 20
-1550.516964
 30
0.0
 11
1319.819534
 21
-1499.516964
 31
0.0
  0
LINE
  5
E0A
  8
1
  6
DASHDOT
 10
420.719162
 20
-1631.199504
 30
0.0
 11
420.719162
 21
-1056.681365
 31
0.0
  0
LINE
  5
E0B
  8
1
  6
DASHDOT
 10
116.219162
 20
-1443.267808
 30
0.0
 11
116.219162
 21
-1213.439568
 31
0.0
  0
LINE
  5
E0C
  8
1
  6
DASHDOT
 10
925.551021
 20
-1311.817572
 30
0.0
 11
-321.923022
 21
-1311.817572
 31
0.0
  0
LINE
  5
E0D
  8
1
  6
DASHDOT
 10
1156.219231
 20
-1350.317572
 30
0.0
 11
1011.219231
 21
-1350.317572
 31
0.0
  0
LINE
  5
E0E
  8
1
  6
DASHDOT
 10
1083.719231
 20
-1420.317572
 30
0.0
 11
1083.719231
 21
-1280.317572
 31
0.0
  0
LINE
  5
E0F
  8
1
 10
1512.319231
 20
-1239.542101
 30
0.0
 11
1512.319231
 21
-1271.542101
 31
0.0
  0
LINE
  5
E10
  8
1
 10
1512.319231
 20
-1239.542101
 30
0.0
 11
1455.319231
 21
-1239.542101
 31
0.0
  0
LINE
  5
E11
  8
1
 10
1512.319231
 20
-1271.542101
 30
0.0
 11
1455.319231
 21
-1271.542101
 31
0.0
  0
LINE
  5
E12
  8
1
 10
1455.319231
 20
-1230.542101
 30
0.0
 11
1455.319231
 21
-1280.542101
 31
0.0
  0
LINE
  5
E13
  8
1
 10
1455.319231
 20
-1230.542101
 30
0.0
 11
1250.319231
 21
-1230.542101
 31
0.0
  0
LINE
  5
E14
  8
1
 10
1455.319231
 20
-1280.542101
 30
0.0
 11
1250.319231
 21
-1280.542101
 31
0.0
  0
LINE
  5
E15
  8
1
 10
850.719162
 20
-1379.317572
 30
0.0
 11
850.719162
 21
-1244.317572
 31
0.0
  0
LINE
  5
E16
  8
1
 10
458.719162
 20
-1379.317572
 30
0.0
 11
458.719162
 21
-1244.317572
 31
0.0
  0
LINE
  5
E17
  8
1
 10
850.719162
 20
-1244.317572
 30
0.0
 11
458.719162
 21
-1244.317572
 31
0.0
  0
LINE
  5
E18
  8
1
 10
850.719162
 20
-1379.317572
 30
0.0
 11
458.719162
 21
-1379.317572
 31
0.0
  0
LINE
  5
E19
  8
1
  6
DASHDOT
 10
654.719162
 20
-1443.267808
 30
0.0
 11
654.719162
 21
-1213.439568
 31
0.0
  0
LINE
  5
E1A
  8
1
 10
-1727.522092
 20
-1201.517572
 30
0.0
 11
-2316.722092
 21
-1201.517572
 31
0.0
  0
LINE
  5
E1B
  8
1
 10
-1727.522092
 20
-1201.517572
 30
0.0
 11
-1727.522092
 21
-1539.018405
 31
0.0
  0
LINE
  5
E1C
  8
1
 10
-2316.722092
 20
-1201.517572
 30
0.0
 11
-2316.722092
 21
-1539.018405
 31
0.0
  0
LINE
  5
E1D
  8
1
 10
-1800.122092
 20
-1390.517572
 30
0.0
 11
-1724.122092
 21
-1390.517572
 31
0.0
  0
LINE
  5
E1E
  8
1
 10
-1800.122092
 20
-1392.817572
 30
0.0
 11
-1785.122092
 21
-1392.817572
 31
0.0
  0
LINE
  5
E1F
  8
1
 10
-1724.122092
 20
-1392.817572
 30
0.0
 11
-1724.122092
 21
-1390.517572
 31
0.0
  0
LINE
  5
E20
  8
1
 10
-1800.122092
 20
-1392.817572
 30
0.0
 11
-1800.122092
 21
-1390.517572
 31
0.0
  0
LINE
  5
E21
  8
1
 10
-1785.122092
 20
-1399.517572
 30
0.0
 11
-1785.122092
 21
-1390.517572
 31
0.0
  0
LINE
  5
E22
  8
1
 10
-1768.122092
 20
-1399.517572
 30
0.0
 11
-1768.122092
 21
-1390.517572
 31
0.0
  0
LINE
  5
E23
  8
1
 10
-1756.122092
 20
-1399.517572
 30
0.0
 11
-1756.122092
 21
-1390.517572
 31
0.0
  0
LINE
  5
E24
  8
1
 10
-1739.122092
 20
-1434.783728
 30
0.0
 11
-1739.122092
 21
-1390.517572
 31
0.0
  0
LINE
  5
E25
  8
1
 10
-1782.122092
 20
-1402.517572
 30
0.0
 11
-1771.122092
 21
-1402.517572
 31
0.0
  0
ARC
  5
E26
  8
1
 10
-1742.122092
 20
-1399.517572
 30
0.0
 40
3.0
 50
270.0
 51
0.0
  0
ARC
  5
E27
  8
1
 10
-1753.122092
 20
-1399.517572
 30
0.0
 40
3.0
 50
180.0
 51
270.0
  0
ARC
  5
E28
  8
1
 10
-1771.122092
 20
-1399.517572
 30
0.0
 40
3.0
 50
270.0
 51
0.0
  0
ARC
  5
E29
  8
1
 10
-1782.122092
 20
-1399.517572
 30
0.0
 40
3.0
 50
180.0
 51
270.0
  0
LINE
  5
E2A
  8
1
 10
-1778.401939
 20
-1445.517572
 30
0.0
 11
-1745.842245
 21
-1445.517572
 31
0.0
  0
CIRCLE
  5
E2B
  8
1
 10
-1762.122092
 20
-1405.517572
 30
0.0
 40
3.5
  0
CIRCLE
  5
E2C
  8
1
 10
-1762.122092
 20
-1435.517572
 30
0.0
 40
3.5
  0
LINE
  5
E2D
  8
1
 10
-1741.053114
 20
-1441.954312
 30
0.0
 11
-1739.332961
 21
-1436.220467
 31
0.0
  0
LINE
  5
E2E
  8
1
 10
-1783.19107
 20
-1441.954312
 30
0.0
 11
-1784.911224
 21
-1436.220467
 31
0.0
  0
ARC
  5
E2F
  8
1
 10
-1745.842245
 20
-1440.517572
 30
0.0
 40
5.0
 50
270.0
 51
343.300756
  0
ARC
  5
E30
  8
1
 10
-1744.122092
 20
-1434.783728
 30
0.0
 40
5.0
 50
343.300756
 51
0.0
  0
ARC
  5
E31
  8
1
 10
-1778.401939
 20
-1440.517572
 30
0.0
 40
5.0
 50
196.699244
 51
270.0
  0
ARC
  5
E32
  8
1
 10
-1780.122092
 20
-1434.783728
 30
0.0
 40
5.0
 50
180.0
 51
196.699244
  0
LINE
  5
E33
  8
1
 10
-1753.122092
 20
-1402.517572
 30
0.0
 11
-1742.122092
 21
-1402.517572
 31
0.0
  0
LINE
  5
E34
  8
1
 10
-1785.122092
 20
-1399.517572
 30
0.0
 11
-1785.122092
 21
-1434.783728
 31
0.0
  0
LINE
  5
E35
  8
1
 10
-1739.122092
 20
-1392.817572
 30
0.0
 11
-1724.122092
 21
-1392.817572
 31
0.0
  0
LINE
  5
E36
  8
1
 10
-1768.122092
 20
-1392.817572
 30
0.0
 11
-1756.122092
 21
-1392.817572
 31
0.0
  0
LINE
  5
E37
  8
1
 10
-2244.122092
 20
-1390.517572
 30
0.0
 11
-2320.122092
 21
-1390.517572
 31
0.0
  0
LINE
  5
E38
  8
1
 10
-2244.122092
 20
-1392.817572
 30
0.0
 11
-2259.122092
 21
-1392.817572
 31
0.0
  0
LINE
  5
E39
  8
1
 10
-2320.122092
 20
-1392.817572
 30
0.0
 11
-2320.122092
 21
-1390.517572
 31
0.0
  0
LINE
  5
E3A
  8
1
 10
-2244.122092
 20
-1392.817572
 30
0.0
 11
-2244.122092
 21
-1390.517572
 31
0.0
  0
LINE
  5
E3B
  8
1
 10
-2259.122092
 20
-1399.517572
 30
0.0
 11
-2259.122092
 21
-1390.517572
 31
0.0
  0
LINE
  5
E3C
  8
1
 10
-2276.122092
 20
-1399.517572
 30
0.0
 11
-2276.122092
 21
-1390.517572
 31
0.0
  0
LINE
  5
E3D
  8
1
 10
-2288.122092
 20
-1399.517572
 30
0.0
 11
-2288.122092
 21
-1390.517572
 31
0.0
  0
LINE
  5
E3E
  8
1
 10
-2305.122092
 20
-1434.783728
 30
0.0
 11
-2305.122092
 21
-1390.517572
 31
0.0
  0
LINE
  5
E3F
  8
1
 10
-2262.122092
 20
-1402.517572
 30
0.0
 11
-2273.122092
 21
-1402.517572
 31
0.0
  0
ARC
  5
E40
  8
1
 10
-2302.122092
 20
-1399.517572
 30
0.0
 40
3.0
 50
180.0
 51
270.0
  0
ARC
  5
E41
  8
1
 10
-2291.122092
 20
-1399.517572
 30
0.0
 40
3.0
 50
270.0
 51
0.0
  0
ARC
  5
E42
  8
1
 10
-2273.122092
 20
-1399.517572
 30
0.0
 40
3.0
 50
180.0
 51
270.0
  0
ARC
  5
E43
  8
1
 10
-2262.122092
 20
-1399.517572
 30
0.0
 40
3.0
 50
270.0
 51
0.0
  0
LINE
  5
E44
  8
1
 10
-2265.842245
 20
-1445.517572
 30
0.0
 11
-2298.401939
 21
-1445.517572
 31
0.0
  0
CIRCLE
  5
E45
  8
1
 10
-2282.122092
 20
-1405.517572
 30
0.0
 40
3.5
  0
CIRCLE
  5
E46
  8
1
 10
-2282.122092
 20
-1435.517572
 30
0.0
 40
3.5
  0
LINE
  5
E47
  8
1
 10
-2303.19107
 20
-1441.954312
 30
0.0
 11
-2304.911224
 21
-1436.220467
 31
0.0
  0
LINE
  5
E48
  8
1
 10
-2261.053114
 20
-1441.954312
 30
0.0
 11
-2259.332961
 21
-1436.220467
 31
0.0
  0
ARC
  5
E49
  8
1
 10
-2298.401939
 20
-1440.517572
 30
0.0
 40
5.0
 50
196.699244
 51
270.0
  0
ARC
  5
E4A
  8
1
 10
-2300.122092
 20
-1434.783728
 30
0.0
 40
5.0
 50
180.0
 51
196.699244
  0
ARC
  5
E4B
  8
1
 10
-2265.842245
 20
-1440.517572
 30
0.0
 40
5.0
 50
270.0
 51
343.300756
  0
ARC
  5
E4C
  8
1
 10
-2264.122092
 20
-1434.783728
 30
0.0
 40
5.0
 50
343.300756
 51
0.0
  0
LINE
  5
E4D
  8
1
 10
-2291.122092
 20
-1402.517572
 30
0.0
 11
-2302.122092
 21
-1402.517572
 31
0.0
  0
LINE
  5
E4E
  8
1
 10
-2259.122092
 20
-1399.517572
 30
0.0
 11
-2259.122092
 21
-1434.783728
 31
0.0
  0
LINE
  5
E4F
  8
1
 10
-2305.122092
 20
-1392.817572
 30
0.0
 11
-2320.122092
 21
-1392.817572
 31
0.0
  0
LINE
  5
E50
  8
1
 10
-2276.122092
 20
-1392.817572
 30
0.0
 11
-2288.122092
 21
-1392.817572
 31
0.0
  0
ARC
  5
E51
  8
1
 10
-2316.622092
 20
-1545.017572
 30
0.0
 40
6.0
 50
90.954974
 51
180.0
  0
LINE
  5
E52
  8
1
 10
-2322.622092
 20
-1550.517572
 30
0.0
 11
-2322.622092
 21
-1545.017572
 31
0.0
  0
ARC
  5
E53
  8
1
 10
-1727.622092
 20
-1545.017572
 30
0.0
 40
6.0
 50
0.0
 51
89.045026
  0
LINE
  5
E54
  8
1
 10
-1721.622092
 20
-1550.517572
 30
0.0
 11
-1721.622092
 21
-1545.017572
 31
0.0
  0
LINE
  5
E55
  8
1
  6
DASHDOT
 10
-2022.122092
 20
-1574.436703
 30
0.0
 11
-2022.122092
 21
-1100.795897
 31
0.0
  0
LINE
  5
E56
  8
1
 10
-2348.122092
 20
-1565.517572
 30
0.0
 11
-1696.122092
 21
-1565.517572
 31
0.0
  0
ARC
  5
E57
  8
1
 10
-2348.122092
 20
-1535.517572
 30
0.0
 40
30.0
 50
243.985634
 51
270.0
  0
ARC
  5
E58
  8
1
 10
-2360.622092
 20
-1561.130069
 30
0.0
 40
1.5
 50
180.0
 51
243.985634
  0
LINE
  5
E59
  8
1
 10
-2362.122092
 20
-1561.130069
 30
0.0
 11
-2362.122092
 21
-1550.517572
 31
0.0
  0
LINE
  5
E5A
  8
1
 10
-2362.122092
 20
-1550.517572
 30
0.0
 11
-1682.122092
 21
-1550.517572
 31
0.0
  0
LINE
  5
E5B
  8
1
 10
-1682.122092
 20
-1561.130069
 30
0.0
 11
-1682.122092
 21
-1550.517572
 31
0.0
  0
ARC
  5
E5C
  8
1
 10
-1683.622092
 20
-1561.130069
 30
0.0
 40
1.5
 50
296.014366
 51
0.0
  0
ARC
  5
E5D
  8
1
 10
-1696.122092
 20
-1535.517572
 30
0.0
 40
30.0
 50
270.0
 51
296.014366
  0
ARC
  5
E5E
  8
1
 10
-1750.122092
 20
-1490.517572
 30
0.0
 40
1.0
 50
0.0
 51
90.0
  0
ARC
  5
E5F
  8
1
 10
-2294.122092
 20
-1490.517572
 30
0.0
 40
1.0
 50
90.0
 51
180.0
  0
LINE
  5
E60
  8
1
 10
-2316.722092
 20
-1499.517572
 30
0.0
 11
-1727.522092
 21
-1499.517572
 31
0.0
  0
CIRCLE
  5
E61
  8
1
  6
DASHDOT
 10
-1971.801209
 20
-1321.101026
 30
0.0
 40
80.0
  0
CIRCLE
  5
E62
  8
1
 10
-1971.801209
 20
-1321.101026
 30
0.0
 40
62.5
  0
LINE
  5
E63
  8
1
  6
DASHDOT
 10
-1971.801209
 20
-1220.132828
 30
0.0
 11
-1971.801209
 21
-1422.069223
 31
0.0
  0
LINE
  5
E64
  8
1
  6
DASHDOT
 10
-2072.769407
 20
-1321.101026
 30
0.0
 11
-1870.833012
 21
-1321.101026
 31
0.0
  0
CIRCLE
  5
E65
  8
1
 10
-2011.801209
 20
-1390.383058
 30
0.0
 40
3.534976
  0
CIRCLE
  5
E66
  8
1
 10
-1931.801209
 20
-1390.383058
 30
0.0
 40
3.534976
  0
CIRCLE
  5
E67
  8
1
 10
-1891.801209
 20
-1321.101026
 30
0.0
 40
3.534976
  0
CIRCLE
  5
E68
  8
1
 10
-1931.801209
 20
-1251.818993
 30
0.0
 40
3.534976
  0
CIRCLE
  5
E69
  8
1
 10
-2011.801209
 20
-1251.818993
 30
0.0
 40
3.534976
  0
CIRCLE
  5
E6A
  8
1
 10
-2051.801209
 20
-1321.101026
 30
0.0
 40
3.534976
  0
LINE
  5
E6B
  8
1
 10
3584.588743
 20
177.370822
 30
0.0
 11
1925.388743
 21
177.370822
 31
0.0
  0
LINE
  5
E6C
  8
1
 10
1925.388743
 20
-120.629178
 30
0.0
 11
1925.388743
 21
177.370822
 31
0.0
  0
LINE
  5
E6D
  8
1
 10
3584.588743
 20
-120.629178
 30
0.0
 11
3584.588743
 21
176.770822
 31
0.0
  0
LINE
  5
E6E
  8
1
 10
3584.588743
 20
-120.629178
 30
0.0
 11
1925.388743
 21
-120.629178
 31
0.0
  0
LINE
  5
E6F
  8
1
  6
DASHDOT
 10
3649.78741
 20
-66.604649
 30
0.0
 11
3568.754893
 21
-66.604649
 31
0.0
  0
LINE
  5
E70
  8
1
  6
DASHDOT
 10
3638.988743
 20
-66.604649
 30
0.0
 11
3573.103792
 21
-66.604649
 31
0.0
  0
LINE
  5
E71
  8
1
 10
3586.988743
 20
-83.504649
 30
0.0
 11
3584.588743
 21
-83.504649
 31
0.0
  0
LINE
  5
E72
  8
1
 10
3586.988743
 20
-49.704649
 30
0.0
 11
3584.588743
 21
-49.704649
 31
0.0
  0
LINE
  5
E73
  8
1
 10
3636.988743
 20
-50.604649
 30
0.0
 11
3586.988743
 21
-50.104649
 31
0.0
  0
LINE
  5
E74
  8
1
 10
3636.988743
 20
-50.604649
 30
0.0
 11
3636.988743
 21
-82.604649
 31
0.0
  0
LINE
  5
E75
  8
1
 10
3636.988743
 20
-82.604649
 30
0.0
 11
3586.988743
 21
-83.104649
 31
0.0
  0
LINE
  5
E76
  8
1
 10
3584.588743
 20
177.370822
 30
0.0
 11
3584.588743
 21
43.370822
 31
0.0
  0
LINE
  5
E77
  8
1
 10
3584.588743
 20
123.370822
 30
0.0
 11
3584.588743
 21
68.370822
 31
0.0
  0
LINE
  5
E78
  8
1
 10
3587.888743
 20
123.370822
 30
0.0
 11
3587.888743
 21
71.670822
 31
0.0
  0
LINE
  5
E79
  8
1
 10
3629.588743
 20
80.370822
 30
0.0
 11
3629.588743
 21
71.670822
 31
0.0
  0
LINE
  5
E7A
  8
1
 10
3632.888743
 20
80.370822
 30
0.0
 11
3632.888743
 21
68.370822
 31
0.0
  0
LINE
  5
E7B
  8
1
  6
DASHDOT
 10
3609.588743
 20
84.862339
 30
0.0
 11
3609.588743
 21
56.698453
 31
0.0
  0
LINE
  5
E7C
  8
1
 10
3584.588743
 20
68.370822
 30
0.0
 11
3632.888743
 21
68.370822
 31
0.0
  0
LINE
  5
E7D
  8
1
 10
3587.888743
 20
71.670822
 30
0.0
 11
3629.588743
 21
71.670822
 31
0.0
  0
LINE
  5
E7E
  8
1
 10
3629.588743
 20
80.370822
 30
0.0
 11
3632.888743
 21
80.370822
 31
0.0
  0
LINE
  5
E7F
  8
1
 10
3584.588743
 20
123.370822
 30
0.0
 11
3587.888743
 21
123.370822
 31
0.0
  0
LINE
  5
E80
  8
1
 10
1925.388743
 20
123.370822
 30
0.0
 11
1925.388743
 21
68.370822
 31
0.0
  0
LINE
  5
E81
  8
1
 10
1922.088743
 20
123.370822
 30
0.0
 11
1922.088743
 21
71.670822
 31
0.0
  0
LINE
  5
E82
  8
1
 10
1880.388743
 20
80.370822
 30
0.0
 11
1880.388743
 21
71.670822
 31
0.0
  0
LINE
  5
E83
  8
1
 10
1877.088743
 20
80.370822
 30
0.0
 11
1877.088743
 21
68.370822
 31
0.0
  0
LINE
  5
E84
  8
1
  6
DASHDOT
 10
1900.388743
 20
84.862339
 30
0.0
 11
1900.388743
 21
56.698453
 31
0.0
  0
LINE
  5
E85
  8
1
 10
1925.388743
 20
68.370822
 30
0.0
 11
1877.088743
 21
68.370822
 31
0.0
  0
LINE
  5
E86
  8
1
 10
1922.088743
 20
71.670822
 30
0.0
 11
1880.388743
 21
71.670822
 31
0.0
  0
LINE
  5
E87
  8
1
 10
1880.388743
 20
80.370822
 30
0.0
 11
1877.088743
 21
80.370822
 31
0.0
  0
LINE
  5
E88
  8
1
 10
1925.388743
 20
123.370822
 30
0.0
 11
1922.088743
 21
123.370822
 31
0.0
  0
LINE
  5
E89
  8
1
 10
2716.988803
 20
57.170926
 30
0.0
 11
2716.988803
 21
-77.829074
 31
0.0
  0
LINE
  5
E8A
  8
1
 10
2183.988803
 20
-77.829227
 30
0.0
 11
2716.988803
 21
-77.829074
 31
0.0
  0
LINE
  5
E8B
  8
1
 10
2183.988803
 20
57.170773
 30
0.0
 11
2716.988803
 21
57.170926
 31
0.0
  0
LINE
  5
E8C
  8
1
 10
2183.988803
 20
57.170773
 30
0.0
 11
2183.988803
 21
-77.829227
 31
0.0
  0
LINE
  5
E8D
  8
1
  6
DASHDOT
 10
2754.988921
 20
309.675432
 30
0.0
 11
2754.988674
 21
-221.911738
 31
0.0
  0
LINE
  5
E8E
  8
1
 10
1794.989092
 20
228.371487
 30
0.0
 11
3714.989092
 21
228.370157
 31
0.0
  0
LINE
  5
E8F
  8
1
 10
1799.9891
 20
243.371483
 30
0.0
 11
3709.9891
 21
243.370162
 31
0.0
  0
LINE
  5
E90
  8
1
 10
1794.988674
 20
238.370822
 30
0.0
 11
1794.988674
 21
228.370822
 31
0.0
  0
ARC
  5
E91
  8
1
 10
1799.988674
 20
238.370822
 30
0.0
 40
5.0
 50
90.0
 51
180.0
  0
LINE
  5
E92
  8
1
 10
1855.889045
 20
177.371431
 30
0.0
 11
3654.089045
 21
177.370214
 31
0.0
  0
LINE
  5
E93
  8
1
 10
1855.889092
 20
228.371431
 30
0.0
 11
1855.889045
 21
177.371431
 31
0.0
  0
LINE
  5
E94
  8
1
 10
3674.989092
 20
228.370194
 30
0.0
 11
3674.989016
 21
145.870194
 31
0.0
  0
LINE
  5
E95
  8
1
 10
3609.489045
 20
177.370255
 30
0.0
 11
3609.489016
 21
145.870255
 31
0.0
  0
LINE
  5
E96
  8
1
 10
3609.489016
 20
145.870255
 30
0.0
 11
3674.989016
 21
145.870194
 31
0.0
  0
LINE
  5
E97
  8
1
 10
3649.489036
 20
167.370218
 30
0.0
 11
3674.989036
 21
167.370194
 31
0.0
  0
LINE
  5
E98
  8
1
 10
3649.489045
 20
177.370218
 30
0.0
 11
3649.489036
 21
167.370218
 31
0.0
  0
LINE
  5
E99
  8
1
 10
3654.089092
 20
228.370214
 30
0.0
 11
3654.089045
 21
177.370214
 31
0.0
  0
LINE
  5
E9A
  8
1
  6
DASHDOT
 10
3296.447065
 20
-10.329178
 30
0.0
 11
2012.346489
 21
-10.329178
 31
0.0
  0
LINE
  5
E9B
  8
1
  6
DASHDOT
 10
2450.488803
 20
-141.779466
 30
0.0
 11
2450.488803
 21
112.343933
 31
0.0
  0
LINE
  5
E9C
  8
1
 10
3184.988803
 20
57.170926
 30
0.0
 11
3184.988741
 21
-77.829074
 31
0.0
  0
LINE
  5
E9D
  8
1
 10
2792.988803
 20
57.170926
 30
0.0
 11
2792.988741
 21
-77.829074
 31
0.0
  0
LINE
  5
E9E
  8
1
 10
3184.988803
 20
57.170926
 30
0.0
 11
2792.988803
 21
57.170926
 31
0.0
  0
LINE
  5
E9F
  8
1
 10
3184.988741
 20
-77.829074
 30
0.0
 11
2792.988741
 21
-77.829074
 31
0.0
  0
LINE
  5
EA0
  8
1
  6
DASHDOT
 10
2988.988803
 20
-141.77939
 30
0.0
 11
2988.988803
 21
112.344009
 31
0.0
  0
LINE
  5
EA1
  8
1
 10
2683.365266
 20
-86.203051
 30
0.0
 11
2656.123262
 21
-77.829092
 31
0.0
  0
LINE
  5
EA2
  8
1
 10
2678.85831
 20
-95.015353
 30
0.0
 11
2656.123262
 21
-77.829092
 31
0.0
  0
LINE
  5
EA3
  8
1
 10
2517.221238
 20
-1201.517572
 30
0.0
 11
3106.421238
 21
-1201.517572
 31
0.0
  0
LINE
  5
EA4
  8
1
 10
2517.221238
 20
-1201.517572
 30
0.0
 11
2517.221238
 21
-1390.517572
 31
0.0
  0
LINE
  5
EA5
  8
1
 10
3106.421238
 20
-1201.517572
 30
0.0
 11
3106.421238
 21
-1390.517572
 31
0.0
  0
LINE
  5
EA6
  8
1
 10
3084.821238
 20
-1499.517572
 30
0.0
 11
3106.421238
 21
-1499.517572
 31
0.0
  0
LINE
  5
EA7
  8
1
 10
2589.821238
 20
-1390.517572
 30
0.0
 11
2513.821238
 21
-1390.517572
 31
0.0
  0
LINE
  5
EA8
  8
1
 10
2589.821238
 20
-1393.817572
 30
0.0
 11
2574.821238
 21
-1393.817572
 31
0.0
  0
LINE
  5
EA9
  8
1
 10
2513.821238
 20
-1393.817572
 30
0.0
 11
2513.821238
 21
-1390.517572
 31
0.0
  0
LINE
  5
EAA
  8
1
 10
2589.821238
 20
-1393.817572
 30
0.0
 11
2589.821238
 21
-1390.517572
 31
0.0
  0
LINE
  5
EAB
  8
1
 10
2574.821238
 20
-1399.517572
 30
0.0
 11
2574.821238
 21
-1390.517572
 31
0.0
  0
LINE
  5
EAC
  8
1
 10
2557.821238
 20
-1399.517572
 30
0.0
 11
2557.821238
 21
-1390.517572
 31
0.0
  0
LINE
  5
EAD
  8
1
 10
2545.821238
 20
-1399.517572
 30
0.0
 11
2545.821238
 21
-1390.517572
 31
0.0
  0
LINE
  5
EAE
  8
1
 10
2528.821238
 20
-1434.783728
 30
0.0
 11
2528.821238
 21
-1390.517572
 31
0.0
  0
LINE
  5
EAF
  8
1
 10
2571.821238
 20
-1402.517572
 30
0.0
 11
2560.821238
 21
-1402.517572
 31
0.0
  0
ARC
  5
EB0
  8
1
 10
2531.821238
 20
-1399.517572
 30
0.0
 40
3.0
 50
180.0
 51
270.0
  0
ARC
  5
EB1
  8
1
 10
2542.821238
 20
-1399.517572
 30
0.0
 40
3.0
 50
270.0
 51
0.0
  0
ARC
  5
EB2
  8
1
 10
2560.821238
 20
-1399.517572
 30
0.0
 40
3.0
 50
180.0
 51
270.0
  0
ARC
  5
EB3
  8
1
 10
2571.821238
 20
-1399.517572
 30
0.0
 40
3.0
 50
270.0
 51
0.0
  0
LINE
  5
EB4
  8
1
 10
2568.101085
 20
-1445.517572
 30
0.0
 11
2535.541391
 21
-1445.517572
 31
0.0
  0
CIRCLE
  5
EB5
  8
1
 10
2551.821238
 20
-1405.517572
 30
0.0
 40
3.5
  0
CIRCLE
  5
EB6
  8
1
 10
2551.821238
 20
-1435.517572
 30
0.0
 40
3.5
  0
LINE
  5
EB7
  8
1
 10
2530.75226
 20
-1441.954312
 30
0.0
 11
2529.032106
 21
-1436.220467
 31
0.0
  0
LINE
  5
EB8
  8
1
 10
2572.890216
 20
-1441.954312
 30
0.0
 11
2574.610369
 21
-1436.220467
 31
0.0
  0
ARC
  5
EB9
  8
1
 10
2535.541391
 20
-1440.517572
 30
0.0
 40
5.0
 50
196.699244
 51
270.0
  0
ARC
  5
EBA
  8
1
 10
2533.821238
 20
-1434.783728
 30
0.0
 40
5.0
 50
180.0
 51
196.699244
  0
ARC
  5
EBB
  8
1
 10
2568.101085
 20
-1440.517572
 30
0.0
 40
5.0
 50
270.0
 51
343.300756
  0
ARC
  5
EBC
  8
1
 10
2569.821238
 20
-1434.783728
 30
0.0
 40
5.0
 50
343.300756
 51
0.0
  0
LINE
  5
EBD
  8
1
 10
2542.821238
 20
-1402.517572
 30
0.0
 11
2531.821238
 21
-1402.517572
 31
0.0
  0
LINE
  5
EBE
  8
1
 10
2574.821238
 20
-1399.517572
 30
0.0
 11
2574.821238
 21
-1434.783728
 31
0.0
  0
LINE
  5
EBF
  8
1
 10
2528.821238
 20
-1393.817572
 30
0.0
 11
2513.821238
 21
-1393.817572
 31
0.0
  0
LINE
  5
EC0
  8
1
 10
2557.821238
 20
-1393.817572
 30
0.0
 11
2545.821238
 21
-1393.817572
 31
0.0
  0
LINE
  5
EC1
  8
1
 10
3033.821238
 20
-1390.517572
 30
0.0
 11
3109.821238
 21
-1390.517572
 31
0.0
  0
LINE
  5
EC2
  8
1
 10
3033.821238
 20
-1393.817572
 30
0.0
 11
3048.821238
 21
-1393.817572
 31
0.0
  0
LINE
  5
EC3
  8
1
 10
3109.821238
 20
-1393.817572
 30
0.0
 11
3109.821238
 21
-1390.517572
 31
0.0
  0
LINE
  5
EC4
  8
1
 10
3033.821238
 20
-1393.817572
 30
0.0
 11
3033.821238
 21
-1390.517572
 31
0.0
  0
LINE
  5
EC5
  8
1
 10
3048.821238
 20
-1399.517572
 30
0.0
 11
3048.821238
 21
-1390.517572
 31
0.0
  0
LINE
  5
EC6
  8
1
 10
3065.821238
 20
-1399.517572
 30
0.0
 11
3065.821238
 21
-1390.517572
 31
0.0
  0
LINE
  5
EC7
  8
1
 10
3077.821238
 20
-1399.517572
 30
0.0
 11
3077.821238
 21
-1390.517572
 31
0.0
  0
LINE
  5
EC8
  8
1
 10
3094.821238
 20
-1434.783728
 30
0.0
 11
3094.821238
 21
-1390.517572
 31
0.0
  0
LINE
  5
EC9
  8
1
 10
3051.821238
 20
-1402.517572
 30
0.0
 11
3062.821238
 21
-1402.517572
 31
0.0
  0
ARC
  5
ECA
  8
1
 10
3091.821238
 20
-1399.517572
 30
0.0
 40
3.0
 50
270.0
 51
0.0
  0
ARC
  5
ECB
  8
1
 10
3080.821238
 20
-1399.517572
 30
0.0
 40
3.0
 50
180.0
 51
270.0
  0
ARC
  5
ECC
  8
1
 10
3062.821238
 20
-1399.517572
 30
0.0
 40
3.0
 50
270.0
 51
0.0
  0
ARC
  5
ECD
  8
1
 10
3051.821238
 20
-1399.517572
 30
0.0
 40
3.0
 50
180.0
 51
270.0
  0
LINE
  5
ECE
  8
1
 10
3055.541391
 20
-1445.517572
 30
0.0
 11
3088.101085
 21
-1445.517572
 31
0.0
  0
CIRCLE
  5
ECF
  8
1
 10
3071.821238
 20
-1405.517572
 30
0.0
 40
3.5
  0
CIRCLE
  5
ED0
  8
1
 10
3071.821238
 20
-1435.517572
 30
0.0
 40
3.5
  0
LINE
  5
ED1
  8
1
 10
3092.890216
 20
-1441.954312
 30
0.0
 11
3094.610369
 21
-1436.220467
 31
0.0
  0
LINE
  5
ED2
  8
1
 10
3050.75226
 20
-1441.954312
 30
0.0
 11
3049.032106
 21
-1436.220467
 31
0.0
  0
ARC
  5
ED3
  8
1
 10
3088.101085
 20
-1440.517572
 30
0.0
 40
5.0
 50
270.0
 51
343.300756
  0
ARC
  5
ED4
  8
1
 10
3089.821238
 20
-1434.783728
 30
0.0
 40
5.0
 50
343.300756
 51
0.0
  0
ARC
  5
ED5
  8
1
 10
3055.541391
 20
-1440.517572
 30
0.0
 40
5.0
 50
196.699244
 51
270.0
  0
ARC
  5
ED6
  8
1
 10
3053.821238
 20
-1434.783728
 30
0.0
 40
5.0
 50
180.0
 51
196.699244
  0
LINE
  5
ED7
  8
1
 10
3080.821238
 20
-1402.517572
 30
0.0
 11
3091.821238
 21
-1402.517572
 31
0.0
  0
LINE
  5
ED8
  8
1
 10
3048.821238
 20
-1399.517572
 30
0.0
 11
3048.821238
 21
-1434.783728
 31
0.0
  0
LINE
  5
ED9
  8
1
 10
3094.821238
 20
-1393.817572
 30
0.0
 11
3109.821238
 21
-1393.817572
 31
0.0
  0
LINE
  5
EDA
  8
1
 10
3065.821238
 20
-1393.817572
 30
0.0
 11
3077.821238
 21
-1393.817572
 31
0.0
  0
LINE
  5
EDB
  8
1
  6
DASHDOT
 10
2979.409826
 20
-1255.542101
 30
0.0
 11
2894.31905
 21
-1255.542101
 31
0.0
  0
LINE
  5
EDC
  8
1
  6
DASHDOT
 10
2936.864438
 20
-1298.087489
 30
0.0
 11
2936.864438
 21
-1212.996713
 31
0.0
  0
LINE
  5
EDD
  8
1
 10
2878.821238
 20
-1474.517572
 30
0.0
 11
2839.296833
 21
-1474.517572
 31
0.0
  0
LINE
  5
EDE
  8
1
  6
DOT
 10
2878.821238
 20
-1499.517572
 30
0.0
 11
2878.821238
 21
-1489.517572
 31
0.0
  0
LINE
  5
EDF
  8
1
  6
DOT
 10
2758.821238
 20
-1499.517572
 30
0.0
 11
2758.821238
 21
-1489.517572
 31
0.0
  0
LINE
  5
EE0
  8
1
 10
2538.821238
 20
-1550.517572
 30
0.0
 11
2538.821238
 21
-1490.517572
 31
0.0
  0
ARC
  5
EE1
  8
1
 10
3106.321238
 20
-1545.017572
 30
0.0
 40
6.0
 50
0.0
 51
89.045026
  0
LINE
  5
EE2
  8
1
 10
3112.321238
 20
-1550.517572
 30
0.0
 11
3112.321238
 21
-1545.017572
 31
0.0
  0
ARC
  5
EE3
  8
1
 10
2517.321238
 20
-1545.017572
 30
0.0
 40
6.0
 50
90.954974
 51
180.0
  0
LINE
  5
EE4
  8
1
 10
2511.321238
 20
-1550.517572
 30
0.0
 11
2511.321238
 21
-1545.017572
 31
0.0
  0
LINE
  5
EE5
  8
1
  6
DASHDOT
 10
2811.821238
 20
-1574.436703
 30
0.0
 11
2811.821238
 21
-942.546228
 31
0.0
  0
LINE
  5
EE6
  8
1
 10
3137.821238
 20
-1565.517572
 30
0.0
 11
2485.821238
 21
-1565.517572
 31
0.0
  0
ARC
  5
EE7
  8
1
 10
3137.821238
 20
-1535.517572
 30
0.0
 40
30.0
 50
270.0
 51
296.014366
  0
ARC
  5
EE8
  8
1
 10
3150.321238
 20
-1561.130069
 30
0.0
 40
1.5
 50
296.014366
 51
0.0
  0
LINE
  5
EE9
  8
1
 10
3151.821238
 20
-1561.130069
 30
0.0
 11
3151.821238
 21
-1550.517572
 31
0.0
  0
LINE
  5
EEA
  8
1
 10
3151.821238
 20
-1550.517572
 30
0.0
 11
2471.821238
 21
-1550.517572
 31
0.0
  0
LINE
  5
EEB
  8
1
 10
2471.821238
 20
-1561.130069
 30
0.0
 11
2471.821238
 21
-1550.517572
 31
0.0
  0
ARC
  5
EEC
  8
1
 10
2473.321238
 20
-1561.130069
 30
0.0
 40
1.5
 50
180.0
 51
243.985634
  0
ARC
  5
EED
  8
1
 10
2485.821238
 20
-1535.517572
 30
0.0
 40
30.0
 50
243.985634
 51
270.0
  0
LINE
  5
EEE
  8
1
 10
2818.821238
 20
-1468.017572
 30
0.0
 11
2800.821238
 21
-1468.017572
 31
0.0
  0
LINE
  5
EEF
  8
1
 10
3083.821238
 20
-1489.517572
 30
0.0
 11
2851.444083
 21
-1489.517572
 31
0.0
  0
ARC
  5
EF0
  8
1
 10
2539.821238
 20
-1490.517572
 30
0.0
 40
1.0
 50
90.0
 51
180.0
  0
ARC
  5
EF1
  8
1
 10
3083.821238
 20
-1490.517572
 30
0.0
 40
1.0
 50
0.0
 51
90.0
  0
LINE
  5
EF2
  8
1
 10
3084.821238
 20
-1550.517572
 30
0.0
 11
3084.821238
 21
-1490.517572
 31
0.0
  0
LINE
  5
EF3
  8
1
 10
2768.198393
 20
-1489.517572
 30
0.0
 11
2539.821238
 21
-1489.517572
 31
0.0
  0
ARC
  5
EF4
  8
1
 10
2800.821238
 20
-1503.517572
 30
0.0
 40
35.5
 50
90.0
 51
156.773549
  0
ARC
  5
EF5
  8
1
 10
2818.821238
 20
-1503.517572
 30
0.0
 40
35.5
 50
23.226451
 51
90.0
  0
LINE
  5
EF6
  8
1
 10
2818.821238
 20
-1468.017572
 30
0.0
 11
2800.821238
 21
-1468.017572
 31
0.0
  0
LINE
  5
EF7
  8
1
  6
DOT
 10
2758.821238
 20
-1499.517572
 30
0.0
 11
2878.821238
 21
-1499.517572
 31
0.0
  0
LINE
  5
EF8
  8
1
 10
2538.821238
 20
-1499.517572
 30
0.0
 11
2517.221238
 21
-1499.517572
 31
0.0
  0
CIRCLE
  5
EF9
  8
1
 10
2866.821238
 20
-1375.517572
 30
0.0
 40
16.0
  0
LINE
  5
EFA
  8
1
 10
2889.821738
 20
-1361.961072
 30
0.0
 11
2866.821738
 21
-1348.681972
 31
0.0
  0
LINE
  5
EFB
  8
1
 10
2866.821738
 20
-1348.681972
 30
0.0
 11
2843.821738
 21
-1361.961072
 31
0.0
  0
LINE
  5
EFC
  8
1
  6
DASHDOT
 10
2836.822738
 20
-1375.240072
 30
0.0
 11
2896.820538
 21
-1375.240072
 31
0.0
  0
LINE
  5
EFD
  8
1
  6
DASHDOT
 10
2866.821238
 20
-1345.517272
 30
0.0
 11
2866.821038
 21
-1405.517672
 31
0.0
  0
LINE
  5
EFE
  8
1
 10
2843.821738
 20
-1388.519172
 30
0.0
 11
2866.821738
 21
-1401.798172
 31
0.0
  0
LINE
  5
EFF
  8
1
 10
2843.821738
 20
-1361.961072
 30
0.0
 11
2843.821738
 21
-1388.519172
 31
0.0
  0
LINE
  5
F00
  8
1
 10
2889.821738
 20
-1388.519172
 30
0.0
 11
2889.821738
 21
-1361.961072
 31
0.0
  0
LINE
  5
F01
  8
1
 10
2866.821738
 20
-1401.798172
 30
0.0
 11
2889.821738
 21
-1388.519172
 31
0.0
  0
CIRCLE
  5
F02
  8
1
 10
2766.821337
 20
-1375.795172
 30
0.0
 40
12.0
  0
LINE
  5
F03
  8
1
 10
2784.821337
 20
-1365.125272
 30
0.0
 11
2766.821337
 21
-1354.732872
 31
0.0
  0
LINE
  5
F04
  8
1
  6
DASHDOT
 10
2791.820337
 20
-1375.517572
 30
0.0
 11
2741.822837
 21
-1375.517572
 31
0.0
  0
LINE
  5
F05
  8
1
  6
DASHDOT
 10
2766.821337
 20
-1350.795072
 30
0.0
 11
2766.821137
 21
-1400.795272
 31
0.0
  0
LINE
  5
F06
  8
1
 10
2766.821337
 20
-1354.732872
 30
0.0
 11
2748.821337
 21
-1365.125272
 31
0.0
  0
LINE
  5
F07
  8
1
 10
2748.821337
 20
-1365.125272
 30
0.0
 11
2748.821337
 21
-1385.909872
 31
0.0
  0
LINE
  5
F08
  8
1
 10
2748.821337
 20
-1385.909872
 30
0.0
 11
2766.821337
 21
-1396.302272
 31
0.0
  0
LINE
  5
F09
  8
1
 10
2766.821337
 20
-1396.302272
 30
0.0
 11
2784.821337
 21
-1385.909872
 31
0.0
  0
LINE
  5
F0A
  8
1
 10
2784.821512
 20
-1385.909771
 30
0.0
 11
2784.821337
 21
-1365.125272
 31
0.0
  0
CIRCLE
  5
F0B
  8
1
 10
2936.864438
 20
-1255.542101
 30
0.0
 40
16.0
  0
CIRCLE
  5
F0C
  8
1
 10
2996.821238
 20
-1458.716019
 30
0.0
 40
18.538375
  0
CIRCLE
  5
F0D
  8
1
 10
2667.821337
 20
-1324.517573
 30
0.0
 40
25.0
  0
LINE
  5
F0E
  8
1
 10
2878.821238
 20
-1489.517572
 30
0.0
 11
2878.821238
 21
-1474.517572
 31
0.0
  0
LINE
  5
F0F
  8
1
 10
2758.821238
 20
-1489.517572
 30
0.0
 11
2758.821238
 21
-1474.517572
 31
0.0
  0
LINE
  5
F10
  8
1
 10
2780.345643
 20
-1474.517572
 30
0.0
 11
2758.821238
 21
-1474.517572
 31
0.0
  0
LINE
  5
F11
  8
1
  6
DOT
 10
2839.296833
 20
-1474.517572
 30
0.0
 11
2780.345643
 21
-1474.517572
 31
0.0
  0
LINE
  5
F12
  8
1
 10
3106.421238
 20
-1393.817572
 30
0.0
 11
3106.421238
 21
-1539.018405
 31
0.0
  0
LINE
  5
F13
  8
1
 10
2517.221238
 20
-1393.817572
 30
0.0
 11
2517.221238
 21
-1539.018405
 31
0.0
  0
CIRCLE
  5
F14
  8
1
 10
2667.821238
 20
-1324.517573
 30
0.0
 40
18.61604
  0
LINE
  5
F15
  8
1
 10
2649.448515
 20
-1321.517573
 30
0.0
 11
2686.193961
 21
-1321.517573
 31
0.0
  0
LINE
  5
F16
  8
1
 10
2649.448515
 20
-1327.517573
 30
0.0
 11
2686.193961
 21
-1327.517573
 31
0.0
  0
CIRCLE
  5
F17
  8
1
 10
2996.821238
 20
-1458.716019
 30
0.0
 40
11.910391
  0
LINE
  5
F18
  8
2
  6
CONTINUOUS
 10
-441.880838
 20
-2778.234271
 30
0.0
 11
-441.880838
 21
-3152.948165
 31
0.0
  0
LINE
  5
F19
  8
2
  6
CONTINUOUS
 10
-441.880838
 20
-3147.948165
 30
0.0
 11
565.528055
 21
-3147.948165
 31
0.0
  0
LINE
  5
F1A
  8
1
 10
-413.813817
 20
-3142.999192
 30
0.0
 11
-441.880838
 21
-3147.948165
 31
0.0
  0
LINE
  5
F1B
  8
1
 10
-413.813817
 20
-3152.897138
 30
0.0
 11
-441.880838
 21
-3147.948165
 31
0.0
  0
TEXT
  5
F1C
  8
2
  6
CONTINUOUS
 10
105.923141
 20
-3143.948242
 30
0.0
 40
52.0
  1
１７２５（天井材部）
 41
0.6
  7
MONOTXT
  0
TEXT
  8
3
  40
150
  5
105A
  72
0
  71
0
 10
2546.31
 20
-2310.35
 30
0.000000
  1

  0
TEXT
  8
3
  40
150
  5
105B
  72
0
  71
0
 10
2546.31
 20
-2505.35
 30
0.000000
  1
GBC6_4
  0
TEXT
  8
3
  40
150
  5
105C
  72
0
  71
0
 10
2546.31
 20
-2700.35
 30
0.000000
  1
FXYC80KVE
  0
TEXT
  8
3
  40
150
  5
105D
  72
0
  71
0
 10
2546.31
 20
-2895.35
 30
0.000000
  1
FXYC125KVE
  0
ENDSEC
  0
EOF
