  0
SECTION
  2
HEADER
  9
$ACADVER
  1
AC1009
  9
$DWGCODEPAGE
  3
dos932
  9
$INSBASE
 10
0.0
 20
0.0
 30
0.0
  9
$EXTMIN
 10
-3221.935696
 20
-1570.062942
 30
0.0
  9
$EXTMAX
 10
1149.84375
 20
1943.624142
 30
0.0
  9
$LIMMIN
 10
0.0
 20
0.0
  9
$LIMMAX
 10
420.0
 20
296.987823
  9
$ORTHOMODE
 70
     0
  9
$REGENMODE
 70
     1
  9
$FILLMODE
 70
     1
  9
$QTEXTMODE
 70
     0
  9
$MIRRTEXT
 70
     0
  9
$DRAGMODE
 70
     2
  9
$LTSCALE
 40
1.0
  9
$OSMODE
 70
     0
  9
$ATTMODE
 70
     1
  9
$TEXTSIZE
 40
0.2
  9
$TRACEWID
 40
0.05
  9
$TEXTSTYLE
  7
STANDARD
  9
$CLAYER
  8
0
  9
$CELTYPE
  6
BYLAYER
  9
$CECOLOR
 62
   256
  9
$DIMSCALE
 40
1.0
  9
$DIMASZ
 40
0.18
  9
$DIMEXO
 40
3.0
  9
$DIMDLI
 40
0.38
  9
$DIMRND
 40
0.0
  9
$DIMDLE
 40
0.0
  9
$DIMEXE
 40
5.0
  9
$DIMTP
 40
0.0
  9
$DIMTM
 40
0.0
  9
$DIMTXT
 40
0.18
  9
$DIMCEN
 40
0.09
  9
$DIMTSZ
 40
0.0
  9
$DIMTOL
 70
     0
  9
$DIMLIM
 70
     0
  9
$DIMTIH
 70
     1
  9
$DIMTOH
 70
     1
  9
$DIMSE1
 70
     0
  9
$DIMSE2
 70
     0
  9
$DIMTAD
 70
     1
  9
$DIMZIN
 70
     0
  9
$DIMBLK
  1

  9
$DIMASO
 70
     1
  9
$DIMSHO
 70
     0
  9
$DIMPOST
  1

  9
$DIMAPOST
  1

  9
$DIMALT
 70
     0
  9
$DIMALTD
 70
     2
  9
$DIMALTF
 40
25.4
  9
$DIMLFAC
 40
1.0
  9
$DIMTOFL
 70
     0
  9
$DIMTVP
 40
1.0
  9
$DIMTIX
 70
     0
  9
$DIMSOXD
 70
     0
  9
$DIMSAH
 70
     0
  9
$DIMBLK1
  1

  9
$DIMBLK2
  1

  9
$DIMSTYLE
  2
STANDARD
  9
$DIMCLRD
 70
     0
  9
$DIMCLRE
 70
     0
  9
$DIMCLRT
 70
     0
  9
$DIMTFAC
 40
1.0
  9
$DIMGAP
 40
0.09
  9
$LUNITS
 70
     2
  9
$LUPREC
 70
     4
  9
$SKETCHINC
 40
0.1
  9
$FILLETRAD
 40
0.05
  9
$AUNITS
 70
     0
  9
$AUPREC
 70
     0
  9
$MENU
  1
acad
  9
$ELEVATION
 40
0.0
  9
$PELEVATION
 40
0.0
  9
$THICKNESS
 40
0.0
  9
$LIMCHECK
 70
     0
  9
$BLIPMODE
 70
     1
  9
$CHAMFERA
 40
0.0
  9
$CHAMFERB
 40
0.0
  9
$SKPOLY
 70
     0
  9
$TDCREATE
 40
0.0
  9
$TDUPDATE
 40
0.0
  9
$TDINDWG
 40
0.0
  9
$TDUSRTIMER
 40
0.0
  9
$USRTIMER
 70
     1
  9
$ANGBASE
 50
0.0
  9
$ANGDIR
 70
     0
  9
$PDMODE
 70
     0
  9
$PDSIZE
 40
0.0
  9
$PLINEWID
 40
0.0
  9
$COORDS
 70
     0
  9
$SPLFRAME
 70
     0
  9
$SPLINETYPE
 70
     6
  9
$SPLINESEGS
 70
     8
  9
$ATTDIA
 70
     1
  9
$ATTREQ
 70
     1
  9
$HANDLING
 70
     1
  9
$HANDSEED
  5
3B7
  9
$SURFTAB1
 70
     6
  9
$SURFTAB2
 70
     6
  9
$SURFTYPE
 70
     6
  9
$SURFU
 70
     6
  9
$SURFV
 70
     6
  9
$UCSNAME
  2

  9
$UCSORG
 10
0.0
 20
0.0
 30
0.0
  9
$UCSXDIR
 10
1.0
 20
0.0
 30
0.0
  9
$UCSYDIR
 10
0.0
 20
1.0
 30
0.0
  9
$PUCSNAME
  2

  9
$PUCSORG
 10
0.0
 20
0.0
 30
0.0
  9
$PUCSXDIR
 10
1.0
 20
0.0
 30
0.0
  9
$PUCSYDIR
 10
0.0
 20
1.0
 30
0.0
  9
$USERI1
 70
     0
  9
$USERI2
 70
     0
  9
$USERI3
 70
     0
  9
$USERI4
 70
     0
  9
$USERI5
 70
     0
  9
$USERR1
 40
0.0
  9
$USERR2
 40
0.0
  9
$USERR3
 40
0.0
  9
$USERR4
 40
0.0
  9
$USERR5
 40
0.0
  9
$WORLDVIEW
 70
     1
  9
$SHADEDGE
 70
     3
  9
$SHADEDIF
 70
    70
  9
$TILEMODE
 70
     1
  9
$MAXACTVP
 70
    16
  9
$PINSBASE
 10
0.0
 20
0.0
 30
0.0
  9
$PLIMCHECK
 70
     0
  9
$PEXTMIN
 10
1.000000E+020
 20
1.000000E+020
 30
1.000000E+020
  9
$PEXTMAX
 10
-1.000000E+020
 20
-1.000000E+020
 30
-1.000000E+020
  9
$PLIMMIN
 10
0.0
 20
0.0
  9
$PLIMMAX
 10
12.0
 20
9.0
  9
$UNITMODE
 70
     0
  9
$VISRETAIN
 70
     0
  9
$PLINEGEN
 70
     0
  9
$PSLTSCALE
 70
     1
  9
$TREEDEPTH
 70
  3020
  0
ENDSEC
  0
SECTION
  2
TABLES
  0
TABLE
  2
VPORT
 70
     2
  0
VPORT
  2
*ACTIVE
 70
     0
 10
0.0
 20
0.0
 11
1.0
 21
1.0
 12
1182.209468
 22
-123.249827
 13
0.0
 23
0.0
 14
1.0
 24
1.0
 15
0.0
 25
0.0
 16
0.0
 26
0.0
 36
1.0
 17
0.0
 27
0.0
 37
0.0
 40
4603.480692
 41
1.938119
 42
50.0
 43
0.0
 44
0.0
 50
0.0
 51
0.0
 71
     0
 72
   100
 73
     1
 74
     1
 75
     0
 76
     0
 77
     0
 78
     0
  0
ENDTAB
  0
TABLE
  2
LTYPE
 70
     5
  0
LTYPE
  2
CONTINUOUS
 70
    64
  3
Solid line
 72
    65
 73
     0
 40
0.0
  0
LTYPE
  2
DASHDOT
 70
    64
  3
__ . __ . __ . __ . __ . __ . __ . __ . __ . __
 72
    65
 73
     4
 40
1.0
 49
0.5
 49
-0.25
 49
0.0
 49
-0.25
  0
LTYPE
  2
DASHED
 70
    64
  3
__ __ __ __ __ __ __ __ __ __ __ __ __ __ __
 72
    65
 73
     2
 40
0.75
 49
0.5
 49
-0.25
  0
LTYPE
  2
DIVIDE
 70
    64
  3
__ . . __ . . __ . . __ . . __ . . __ . . __
 72
    65
 73
     6
 40
1.25
 49
0.5
 49
-0.25
 49
0.0
 49
-0.25
 49
0.0
 49
-0.25
  0
LTYPE
  2
DOT
 70
    64
  3
...............................................
 72
    65
 73
     2
 40
0.25
 49
0.0
 49
-0.25
  0
ENDTAB
  0
TABLE
  2
LAYER
 70
     5
  0
LAYER
  2
0
 70
     0
 62
     7
  6
CONTINUOUS
  0
LAYER
  2
DEFPOINTS
 70
     0
 62
    -7
  6
CONTINUOUS
  0
LAYER
  2
1
 70
     0
 62
     7
  6
CONTINUOUS
  0
LAYER
  2
2
 70
     0
 62
     7
  6
CONTINUOUS
  0
LAYER
  2
3
 70
     0
 62
     7
  6
CONTINUOUS
  0
ENDTAB
  0
TABLE
  2
STYLE
 70
     3
  0
STYLE
  2
STANDARD
 70
    64
 40
100.0
 41
0.8
 50
0.0
 71
     0
 42
0.2
  3
txt
  4

  0
STYLE
  2
MONOTXT
 70
    64
 40
0.0
 41
0.5
 50
0.0
 71
     0
 42
4.191412
  3
monotxt
  4
BIGFONT
  0
STYLE
  2
VERTICAL
 70
    68
 40
0.0
 41
0.5
 50
0.0
 71
     0
 42
4.191412
  3
monotxt
  4
BIGFONT
  0
ENDTAB
  0
TABLE
  2
VIEW
 70
     0
  0
ENDTAB
  0
TABLE
  2
UCS
 70
     0
  0
ENDTAB
  0
TABLE
  2
APPID
 70
     1
  0
APPID
  2
ACAD
 70
     0
  0
ENDTAB
  0
TABLE
  2
DIMSTYLE
 70
     1
  0
DIMSTYLE
  2
STANDARD
 70
     0
  3

  4

  5

  6

  7

 40
1.0
 41
0.18
 42
0.0625
 43
0.38
 44
0.18
 45
0.0
 46
0.0
 47
0.0
 48
0.0
140
0.18
141
0.09
142
0.0
143
25.4
144
1.0
145
0.0
146
1.0
147
0.09
 71
     0
 72
     0
 73
     1
 74
     1
 75
     0
 76
     0
 77
     0
 78
     0
170
     0
171
     2
172
     0
173
     0
174
     0
175
     0
176
     0
177
     0
178
     0
  0
ENDTAB
  0
ENDSEC
  0
SECTION
  2
BLOCKS
  0
BLOCK
  5
37C
  8
0
  2
$MODEL_SPACE
 70
     0
 10
0.0
 20
0.0
 30
0.0
  3
$MODEL_SPACE
  1

  0
ENDBLK
  5
37D
  8
0
  0
BLOCK
  5
379
 67
     1
  8
0
  2
$PAPER_SPACE
 70
     0
 10
0.0
 20
0.0
 30
0.0
  3
$PAPER_SPACE
  1

  0
ENDBLK
  5
37A
 67
     1
  8
0
  0
BLOCK
  5
2B
  8
1
  2
*U2
 70
    65
 10
0.0
 20
0.0
 30
0.0
  3
*U2
  1

  0
LINE
  5
2C
  8
1
  6
DASHDOT
 10
-107.813663
 20
843.105346
 30
0.0
 11
-27.222063
 21
843.105346
 31
0.0
  0
LINE
  5
2D
  8
1
  6
DASHDOT
 10
-48.722063
 20
843.105346
 30
0.0
 11
-59.176563
 21
843.105346
 31
0.0
  0
LINE
  5
2E
  8
1
 10
-58.150963
 20
849.611646
 30
0.0
 11
-62.922363
 21
849.611646
 31
0.0
  0
LINE
  5
2F
  8
1
 10
-58.150963
 20
836.599046
 30
0.0
 11
-61.631163
 21
836.599046
 31
0.0
  0
LINE
  5
30
  8
1
 10
-63.119163
 20
848.789946
 30
0.0
 11
-63.119163
 21
843.105346
 31
0.0
  0
LINE
  5
31
  8
1
 10
-57.954063
 20
848.789946
 30
0.0
 11
-57.954063
 21
843.105346
 31
0.0
  0
LINE
  5
32
  8
1
 10
-58.413863
 20
846.358546
 30
0.0
 11
-62.714063
 21
846.358546
 31
0.0
  0
LINE
  5
33
  8
1
 10
-58.359163
 20
839.852246
 30
0.0
 11
-62.714063
 21
839.852246
 31
0.0
  0
LINE
  5
34
  8
1
 10
-56.545263
 20
850.618246
 30
0.0
 11
-56.545563
 21
835.592446
 31
0.0
  0
ARC
  5
35
  8
1
 10
-62.649663
 20
848.266446
 30
0.0
 40
4.6956
 50
336.0274
 51
16.6484
  0
ARC
  5
36
  8
1
 10
-69.692963
 20
843.105246
 30
0.0
 40
11.7389
 50
343.9118
 51
16.0895
  0
ARC
  5
37
  8
1
 10
-51.380263
 20
843.105246
 30
0.0
 40
11.7389
 50
163.9107
 51
196.0884
  0
ARC
  5
38
  8
1
 10
-58.423563
 20
837.944246
 30
0.0
 40
4.6956
 50
156.0275
 51
196.6485
  0
ARC
  5
39
  8
1
 10
-62.649663
 20
837.944246
 30
0.0
 40
4.6956
 50
343.3522
 51
23.9732
  0
LINE
  5
3A
  8
1
 10
-57.954063
 20
837.420646
 30
0.0
 11
-57.954063
 21
843.105246
 31
0.0
  0
LINE
  5
3B
  8
1
 10
-63.119163
 20
837.420646
 30
0.0
 11
-63.119163
 21
843.105246
 31
0.0
  0
ARC
  5
3C
  8
1
 10
-58.423563
 20
848.266446
 30
0.0
 40
4.6956
 50
163.3518
 51
203.9728
  0
LINE
  5
3D
  8
1
 10
-60.733463
 20
836.599046
 30
0.0
 11
-62.922263
 21
836.599046
 31
0.0
  0
LINE
  5
3E
  8
1
 10
-64.527863
 20
846.861746
 30
0.0
 11
-99.813663
 21
846.861846
 31
0.0
  0
LINE
  5
3F
  8
1
 10
-64.527863
 20
839.348846
 30
0.0
 11
-99.813663
 21
839.348846
 31
0.0
  0
LINE
  5
40
  8
1
 10
-63.119163
 20
847.297646
 30
0.0
 11
-64.527863
 21
847.297646
 31
0.0
  0
LINE
  5
41
  8
1
 10
-64.527863
 20
847.297646
 30
0.0
 11
-64.527863
 21
838.913046
 31
0.0
  0
LINE
  5
42
  8
1
 10
-63.119163
 20
838.913046
 30
0.0
 11
-64.527863
 21
838.913046
 31
0.0
  0
LINE
  5
43
  8
1
 10
-56.545463
 20
848.317446
 30
0.0
 11
-57.954063
 21
848.317346
 31
0.0
  0
LINE
  5
44
  8
1
 10
-56.545463
 20
837.893346
 30
0.0
 11
-57.954063
 21
837.893246
 31
0.0
  0
ARC
  5
45
  8
1
 10
-52.788863
 20
837.940246
 30
0.0
 40
5.2825
 50
333.6121
 51
16.5563
  0
LINE
  5
46
  8
1
 10
-48.093263
 20
850.618246
 30
0.0
 11
-56.545263
 21
850.618246
 31
0.0
  0
LINE
  5
47
  8
1
 10
-48.093263
 20
835.592446
 30
0.0
 11
-56.545563
 21
835.592446
 31
0.0
  0
LINE
  5
48
  8
1
 10
-44.336863
 20
848.740046
 30
0.0
 11
-44.337063
 21
837.470646
 31
0.0
  0
ARC
  5
49
  8
1
 10
-57.648963
 20
843.105346
 30
0.0
 40
10.565
 50
339.7324
 51
20.2683
  0
LINE
  5
4A
  8
1
 10
-47.738063
 20
846.765246
 30
0.0
 11
-55.488963
 21
846.765146
 31
0.0
  0
LINE
  5
4B
  8
1
 10
-47.738063
 20
839.445546
 30
0.0
 11
-55.488863
 21
839.445446
 31
0.0
  0
ARC
  5
4C
  8
1
 10
-44.336863
 20
853.435646
 30
0.0
 40
4.6956
 50
216.8698
 51
270.0002
  0
ARC
  5
4D
  8
1
 10
-44.336863
 20
832.775046
 30
0.0
 40
4.6956
 50
90.0
 51
143.1304
  0
ARC
  5
4E
  8
1
 10
-52.788863
 20
848.270446
 30
0.0
 40
5.2825
 50
343.4442
 51
26.3884
  0
ENDBLK
  5
4F
  8
0
  0
BLOCK
  5
51
  8
1
  2
*U3
 70
    65
 10
0.0
 20
0.0
 30
0.0
  3
*U3
  1

  0
LINE
  5
52
  8
1
  6
DASHDOT
 10
-107.813663
 20
760.105346
 30
0.0
 11
-27.222063
 21
760.105446
 31
0.0
  0
ARC
  5
53
  8
1
 10
-57.673663
 20
768.513346
 30
0.0
 40
8.8425
 50
343.4442
 51
26.3884
  0
ARC
  5
54
  8
1
 10
-43.525663
 20
742.575346
 30
0.0
 40
7.86
 50
90.0
 51
143.1304
  0
ARC
  5
55
  8
1
 10
-43.525663
 20
777.159446
 30
0.0
 40
7.86
 50
216.8698
 51
270.0002
  0
LINE
  5
56
  8
1
 10
-49.218963
 20
753.741146
 30
0.0
 11
-63.961963
 21
753.741046
 31
0.0
  0
LINE
  5
57
  8
1
 10
-49.218963
 20
765.993746
 30
0.0
 11
-63.961763
 21
765.993646
 31
0.0
  0
ARC
  5
58
  8
1
 10
-65.809063
 20
759.867346
 30
0.0
 40
17.685
 50
339.7324
 51
20.2683
  0
LINE
  5
59
  8
1
 10
-43.525663
 20
769.299446
 30
0.0
 11
-43.526063
 21
750.435446
 31
0.0
  0
LINE
  5
5A
  8
1
 10
-49.813663
 20
747.291346
 30
0.0
 11
-63.962063
 21
747.291346
 31
0.0
  0
LINE
  5
5B
  8
1
 10
-49.813663
 20
772.443446
 30
0.0
 11
-63.961663
 21
772.443446
 31
0.0
  0
ARC
  5
5C
  8
1
 10
-57.673663
 20
751.221346
 30
0.0
 40
8.8425
 50
333.6121
 51
16.5563
  0
LINE
  5
5D
  8
1
 10
-63.961963
 20
751.142846
 30
0.0
 11
-66.319863
 21
751.142846
 31
0.0
  0
LINE
  5
5E
  8
1
 10
-63.961863
 20
768.592046
 30
0.0
 11
-66.319863
 21
768.592046
 31
0.0
  0
LINE
  5
5F
  8
1
 10
-74.965863
 20
752.849946
 30
0.0
 11
-77.323863
 21
752.849946
 31
0.0
  0
LINE
  5
60
  8
1
 10
-77.323863
 20
766.885046
 30
0.0
 11
-77.323863
 21
752.849946
 31
0.0
  0
LINE
  5
61
  8
1
 10
-74.965863
 20
766.885046
 30
0.0
 11
-77.323863
 21
766.885046
 31
0.0
  0
LINE
  5
62
  8
1
 10
-77.323863
 20
753.579446
 30
0.0
 11
-99.813663
 21
753.579346
 31
0.0
  0
LINE
  5
63
  8
1
 10
-77.323863
 20
766.155446
 30
0.0
 11
-99.813663
 21
766.155346
 31
0.0
  0
LINE
  5
64
  8
1
 10
-70.972363
 20
748.976246
 30
0.0
 11
-74.636363
 21
748.976246
 31
0.0
  0
ARC
  5
65
  8
1
 10
-67.105863
 20
768.506646
 30
0.0
 40
7.86
 50
163.3518
 51
203.9728
  0
LINE
  5
66
  8
1
 10
-74.965863
 20
750.351846
 30
0.0
 11
-74.965863
 21
759.867346
 31
0.0
  0
LINE
  5
67
  8
1
 10
-66.319863
 20
750.351846
 30
0.0
 11
-66.319863
 21
759.867346
 31
0.0
  0
ARC
  5
68
  8
1
 10
-74.179863
 20
751.228046
 30
0.0
 40
7.86
 50
343.3522
 51
23.9732
  0
ARC
  5
69
  8
1
 10
-67.105863
 20
751.228046
 30
0.0
 40
7.86
 50
156.0275
 51
196.6485
  0
ARC
  5
6A
  8
1
 10
-85.969963
 20
759.867346
 30
0.0
 40
19.65
 50
343.9118
 51
16.0895
  0
ARC
  5
6B
  8
1
 10
-74.179863
 20
768.506746
 30
0.0
 40
7.86
 50
336.0274
 51
16.6484
  0
LINE
  5
6C
  8
1
 10
-63.961663
 20
772.443446
 30
0.0
 11
-63.962063
 21
747.291346
 31
0.0
  0
LINE
  5
6D
  8
1
 10
-66.997963
 20
754.421946
 30
0.0
 11
-74.287863
 21
754.421946
 31
0.0
  0
LINE
  5
6E
  8
1
 10
-67.089563
 20
765.313046
 30
0.0
 11
-74.287863
 21
765.313046
 31
0.0
  0
LINE
  5
6F
  8
1
 10
-66.319863
 20
769.383046
 30
0.0
 11
-66.319863
 21
759.867446
 31
0.0
  0
LINE
  5
70
  8
1
 10
-74.965863
 20
769.383046
 30
0.0
 11
-74.965863
 21
759.867446
 31
0.0
  0
LINE
  5
71
  8
1
 10
-66.649363
 20
748.976346
 30
0.0
 11
-72.474863
 21
748.976346
 31
0.0
  0
LINE
  5
72
  8
1
 10
-66.649363
 20
770.758546
 30
0.0
 11
-74.636363
 21
770.758446
 31
0.0
  0
ARC
  5
73
  8
1
 10
-55.315763
 20
759.867346
 30
0.0
 40
19.65
 50
163.9109
 51
196.0887
  0
ENDBLK
  5
74
  8
0
  0
BLOCK
  5
76
  8
2
  2
*D4
 70
    65
 10
0.0
 20
0.0
 30
0.0
  3
*D4
  1

  0
POINT
  5
77
  8
DEFPOINTS
 10
857.283752
 20
-686.717715
 30
0.0
  0
POINT
  5
78
  8
DEFPOINTS
 10
978.283752
 20
-151.717715
 30
0.0
  0
POINT
  5
79
  8
DEFPOINTS
 10
597.283752
 20
-300.665706
 30
0.0
  0
LINE
  5
7A
  8
2
 10
849.283752
 20
-686.717715
 30
0.0
 11
592.283752
 21
-686.717715
 31
0.0
  0
LINE
  5
7B
  8
2
 10
970.283752
 20
-151.717715
 30
0.0
 11
592.283752
 21
-151.717715
 31
0.0
  0
LINE
  5
7C
  8
2
 10
597.283752
 20
-686.717715
 30
0.0
 11
597.283752
 21
-151.717715
 31
0.0
  0
LINE
  5
7D
  8
2
 10
592.942547
 20
-662.097522
 30
0.0
 11
597.283752
 21
-686.717715
 31
0.0
  0
LINE
  5
7E
  8
2
 10
601.624956
 20
-662.097521
 30
0.0
 11
597.283752
 21
-686.717715
 31
0.0
  0
LINE
  5
7F
  8
2
 10
601.624958
 20
-176.337909
 30
0.0
 11
597.283752
 21
-151.717715
 31
0.0
  0
LINE
  5
80
  8
2
 10
592.942549
 20
-176.337909
 30
0.0
 11
597.283752
 21
-151.717715
 31
0.0
  0
TEXT
  5
81
  8
2
 10
587.283752
 20
-468.497711
 30
0.0
 40
38.5
  1
525
 50
90.000003
 41
0.9
  7
MONOTXT
  0
ENDBLK
  5
82
  8
0
  0
BLOCK
  5
84
  8
2
  2
*D5
 70
    65
 10
0.0
 20
0.0
 30
0.0
  3
*D5
  1

  0
POINT
  5
85
  8
DEFPOINTS
 10
857.283752
 20
-686.717715
 30
0.0
  0
POINT
  5
86
  8
DEFPOINTS
 10
889.183752
 20
-473.717715
 30
0.0
  0
POINT
  5
87
  8
DEFPOINTS
 10
757.283752
 20
-561.986153
 30
0.0
  0
LINE
  5
88
  8
2
 10
849.283752
 20
-686.717715
 30
0.0
 11
752.283752
 21
-686.717715
 31
0.0
  0
LINE
  5
89
  8
2
 10
881.183752
 20
-473.717715
 30
0.0
 11
752.283752
 21
-473.717715
 31
0.0
  0
LINE
  5
8A
  8
2
 10
757.283752
 20
-686.717715
 30
0.0
 11
757.283752
 21
-473.717715
 31
0.0
  0
LINE
  5
8B
  8
2
 10
752.942547
 20
-662.097522
 30
0.0
 11
757.283752
 21
-686.717715
 31
0.0
  0
LINE
  5
8C
  8
2
 10
761.624956
 20
-662.097521
 30
0.0
 11
757.283752
 21
-686.717715
 31
0.0
  0
LINE
  5
8D
  8
2
 10
761.624958
 20
-498.337909
 30
0.0
 11
757.283752
 21
-473.717715
 31
0.0
  0
LINE
  5
8E
  8
2
 10
752.942549
 20
-498.337909
 30
0.0
 11
757.283752
 21
-473.717715
 31
0.0
  0
TEXT
  5
8F
  8
2
 10
747.283752
 20
-629.497742
 30
0.0
 40
38.5
  1
213
 50
90.000003
 41
0.9
  7
MONOTXT
  0
ENDBLK
  5
90
  8
0
  0
BLOCK
  5
92
  8
2
  2
*D6
 70
    65
 10
0.0
 20
0.0
 30
0.0
  3
*D6
  1

  0
POINT
  5
93
  8
DEFPOINTS
 10
857.283752
 20
-686.717715
 30
0.0
  0
POINT
  5
94
  8
DEFPOINTS
 10
901.283752
 20
-271.717715
 30
0.0
  0
POINT
  5
95
  8
DEFPOINTS
 10
677.283752
 20
-364.074344
 30
0.0
  0
LINE
  5
96
  8
2
 10
849.283752
 20
-686.717715
 30
0.0
 11
672.283752
 21
-686.717715
 31
0.0
  0
LINE
  5
97
  8
2
 10
893.283752
 20
-271.717715
 30
0.0
 11
672.283752
 21
-271.717715
 31
0.0
  0
LINE
  5
98
  8
2
 10
677.283752
 20
-686.717715
 30
0.0
 11
677.283752
 21
-271.717715
 31
0.0
  0
LINE
  5
99
  8
2
 10
672.942547
 20
-662.097522
 30
0.0
 11
677.283752
 21
-686.717715
 31
0.0
  0
LINE
  5
9A
  8
2
 10
681.624956
 20
-662.097521
 30
0.0
 11
677.283752
 21
-686.717715
 31
0.0
  0
LINE
  5
9B
  8
2
 10
681.624958
 20
-296.337909
 30
0.0
 11
677.283752
 21
-271.717715
 31
0.0
  0
LINE
  5
9C
  8
2
 10
672.942549
 20
-296.337909
 30
0.0
 11
677.283752
 21
-271.717715
 31
0.0
  0
TEXT
  5
9D
  8
2
 10
667.283752
 20
-528.497742
 30
0.0
 40
38.5
  1
415
 50
90.000003
 41
0.9
  7
MONOTXT
  0
ENDBLK
  5
9E
  8
0
  0
BLOCK
  5
A0
  8
2
  2
*D7
 70
    65
 10
0.0
 20
0.0
 30
0.0
  3
*D7
  1

  0
POINT
  5
A1
  8
DEFPOINTS
 10
849.283752
 20
-676.717815
 30
0.0
  0
POINT
  5
A2
  8
DEFPOINTS
 10
1047.283752
 20
-607.717715
 30
0.0
  0
POINT
  5
A3
  8
DEFPOINTS
 10
936.308621
 20
-901.717715
 30
0.0
  0
LINE
  5
A4
  8
2
 10
849.283752
 20
-684.717815
 30
0.0
 11
849.283752
 21
-906.717715
 31
0.0
  0
LINE
  5
A5
  8
2
 10
1047.283752
 20
-615.717715
 30
0.0
 11
1047.283752
 21
-906.717715
 31
0.0
  0
LINE
  5
A6
  8
2
 10
849.283752
 20
-901.717715
 30
0.0
 11
1047.283752
 21
-901.717715
 31
0.0
  0
LINE
  5
A7
  8
2
 10
873.903946
 20
-897.376511
 30
0.0
 11
849.283752
 21
-901.717715
 31
0.0
  0
LINE
  5
A8
  8
2
 10
873.903946
 20
-906.05892
 30
0.0
 11
849.283752
 21
-901.717715
 31
0.0
  0
LINE
  5
A9
  8
2
 10
1022.663558
 20
-906.05892
 30
0.0
 11
1047.283752
 21
-901.717715
 31
0.0
  0
LINE
  5
AA
  8
2
 10
1022.663558
 20
-897.376511
 30
0.0
 11
1047.283752
 21
-901.717715
 31
0.0
  0
TEXT
  5
AB
  8
2
 10
899.003723
 20
-891.717712
 30
0.0
 40
38.5
  1
198
 41
0.9
  7
MONOTXT
  0
ENDBLK
  5
AC
  8
0
  0
BLOCK
  5
AE
  8
2
  2
*D8
 70
    65
 10
0.0
 20
0.0
 30
0.0
  3
*D8
  1

  0
POINT
  5
AF
  8
DEFPOINTS
 10
1047.283752
 20
-607.717715
 30
0.0
  0
POINT
  5
B0
  8
DEFPOINTS
 10
1051.283752
 20
-561.717715
 30
0.0
  0
POINT
  5
B1
  8
DEFPOINTS
 10
1101.555373
 20
-901.717715
 30
0.0
  0
LINE
  5
B2
  8
2
 10
1047.283752
 20
-615.717715
 30
0.0
 11
1047.283752
 21
-906.717715
 31
0.0
  0
LINE
  5
B3
  8
2
 10
1051.283752
 20
-569.717715
 30
0.0
 11
1051.283752
 21
-906.717715
 31
0.0
  0
LINE
  5
B4
  8
2
 10
1010.353462
 20
-901.717715
 30
0.0
 11
1149.84375
 21
-901.717715
 31
0.0
  0
LINE
  5
B5
  8
2
 10
1022.663558
 20
-906.05892
 30
0.0
 11
1047.283752
 21
-901.717715
 31
0.0
  0
LINE
  5
B6
  8
2
 10
1022.663558
 20
-897.376511
 30
0.0
 11
1047.283752
 21
-901.717715
 31
0.0
  0
LINE
  5
B7
  8
2
 10
1075.903946
 20
-897.376511
 30
0.0
 11
1051.283752
 21
-901.717715
 31
0.0
  0
LINE
  5
B8
  8
2
 10
1075.903946
 20
-906.05892
 30
0.0
 11
1051.283752
 21
-901.717715
 31
0.0
  0
TEXT
  5
B9
  8
2
 10
1083.23877
 20
-891.717712
 30
0.0
 40
38.5
  1
4
 41
0.9
  7
MONOTXT
  0
ENDBLK
  5
BA
  8
0
  0
BLOCK
  5
BC
  8
2
  2
*D9
 70
    65
 10
0.0
 20
0.0
 30
0.0
  3
*D9
  1

  0
POINT
  5
BD
  8
DEFPOINTS
 10
899.283752
 20
-481.717715
 30
0.0
  0
POINT
  5
BE
  8
DEFPOINTS
 10
1047.283752
 20
-607.717715
 30
0.0
  0
POINT
  5
BF
  8
DEFPOINTS
 10
978.581046
 20
-821.717715
 30
0.0
  0
LINE
  5
C0
  8
2
 10
899.283752
 20
-489.717715
 30
0.0
 11
899.283752
 21
-826.717715
 31
0.0
  0
LINE
  5
C1
  8
2
 10
1047.283752
 20
-615.717715
 30
0.0
 11
1047.283752
 21
-826.717715
 31
0.0
  0
LINE
  5
C2
  8
2
 10
899.283752
 20
-821.717715
 30
0.0
 11
1047.283752
 21
-821.717715
 31
0.0
  0
LINE
  5
C3
  8
2
 10
923.903946
 20
-817.376511
 30
0.0
 11
899.283752
 21
-821.717715
 31
0.0
  0
LINE
  5
C4
  8
2
 10
923.903946
 20
-826.05892
 30
0.0
 11
899.283752
 21
-821.717715
 31
0.0
  0
LINE
  5
C5
  8
2
 10
1022.663558
 20
-826.05892
 30
0.0
 11
1047.283752
 21
-821.717715
 31
0.0
  0
LINE
  5
C6
  8
2
 10
1022.663558
 20
-817.376511
 30
0.0
 11
1047.283752
 21
-821.717715
 31
0.0
  0
TEXT
  5
C7
  8
2
 10
924.003723
 20
-811.717712
 30
0.0
 40
38.5
  1
148
 41
0.9
  7
MONOTXT
  0
ENDBLK
  5
C8
  8
0
  0
BLOCK
  5
CA
  8
2
  2
*D10
 70
    65
 10
0.0
 20
0.0
 30
0.0
  3
*D10
  1

  0
POINT
  5
CB
  8
DEFPOINTS
 10
947.283752
 20
-697.717715
 30
0.0
  0
POINT
  5
CC
  8
DEFPOINTS
 10
1047.283752
 20
-607.717715
 30
0.0
  0
POINT
  5
CD
  8
DEFPOINTS
 10
992.031363
 20
-741.717715
 30
0.0
  0
LINE
  5
CE
  8
2
 10
947.283752
 20
-705.717715
 30
0.0
 11
947.283752
 21
-746.717715
 31
0.0
  0
LINE
  5
CF
  8
2
 10
1047.283752
 20
-615.717715
 30
0.0
 11
1047.283752
 21
-746.717715
 31
0.0
  0
LINE
  5
D0
  8
2
 10
947.283752
 20
-741.717715
 30
0.0
 11
1047.283752
 21
-741.717715
 31
0.0
  0
LINE
  5
D1
  8
2
 10
971.903946
 20
-737.376511
 30
0.0
 11
947.283752
 21
-741.717715
 31
0.0
  0
LINE
  5
D2
  8
2
 10
971.903946
 20
-746.05892
 30
0.0
 11
947.283752
 21
-741.717715
 31
0.0
  0
LINE
  5
D3
  8
2
 10
1022.663558
 20
-746.05892
 30
0.0
 11
1047.283752
 21
-741.717715
 31
0.0
  0
LINE
  5
D4
  8
2
 10
1022.663558
 20
-737.376511
 30
0.0
 11
1047.283752
 21
-741.717715
 31
0.0
  0
TEXT
  5
D5
  8
2
 10
942.814087
 20
-731.717712
 30
0.0
 40
38.5
  1
100
 41
0.9
  7
MONOTXT
  0
ENDBLK
  5
D6
  8
0
  0
BLOCK
  5
D8
  8
2
  2
*D11
 70
    65
 10
0.0
 20
0.0
 30
0.0
  3
*D11
  1

  0
POINT
  5
D9
  8
DEFPOINTS
 10
827.283752
 20
-428.897715
 30
0.0
  0
POINT
  5
DA
  8
DEFPOINTS
 10
1047.283752
 20
-111.717715
 30
0.0
  0
POINT
  5
DB
  8
DEFPOINTS
 10
947.837464
 20
238.282285
 30
0.0
  0
LINE
  5
DC
  8
2
 10
827.283752
 20
-420.897715
 30
0.0
 11
827.283752
 21
243.282285
 31
0.0
  0
LINE
  5
DD
  8
2
 10
1047.283752
 20
-103.717715
 30
0.0
 11
1047.283752
 21
243.282285
 31
0.0
  0
LINE
  5
DE
  8
2
 10
827.283752
 20
238.282285
 30
0.0
 11
1047.283752
 21
238.282285
 31
0.0
  0
LINE
  5
DF
  8
2
 10
851.903946
 20
242.623489
 30
0.0
 11
827.283752
 21
238.282285
 31
0.0
  0
LINE
  5
E0
  8
2
 10
851.903946
 20
233.94108
 30
0.0
 11
827.283752
 21
238.282285
 31
0.0
  0
LINE
  5
E1
  8
2
 10
1022.663558
 20
233.94108
 30
0.0
 11
1047.283752
 21
238.282285
 31
0.0
  0
LINE
  5
E2
  8
2
 10
1022.663558
 20
242.623489
 30
0.0
 11
1047.283752
 21
238.282285
 31
0.0
  0
TEXT
  5
E3
  8
2
 10
888.003723
 20
248.282288
 30
0.0
 40
38.5
  1
220
 41
0.9
  7
MONOTXT
  0
ENDBLK
  5
E4
  8
0
  0
BLOCK
  5
E6
  8
2
  2
*D12
 70
    65
 10
0.0
 20
0.0
 30
0.0
  3
*D12
  1

  0
POINT
  5
E7
  8
DEFPOINTS
 10
920.283752
 20
-249.717715
 30
0.0
  0
POINT
  5
E8
  8
DEFPOINTS
 10
1047.283752
 20
-111.717715
 30
0.0
  0
POINT
  5
E9
  8
DEFPOINTS
 10
988.188415
 20
158.282285
 30
0.0
  0
LINE
  5
EA
  8
2
 10
920.283752
 20
-241.717715
 30
0.0
 11
920.283752
 21
163.282285
 31
0.0
  0
LINE
  5
EB
  8
2
 10
1047.283752
 20
-103.717715
 30
0.0
 11
1047.283752
 21
163.282285
 31
0.0
  0
LINE
  5
EC
  8
2
 10
920.283752
 20
158.282285
 30
0.0
 11
1047.283752
 21
158.282285
 31
0.0
  0
LINE
  5
ED
  8
2
 10
944.903946
 20
162.623489
 30
0.0
 11
920.283752
 21
158.282285
 31
0.0
  0
LINE
  5
EE
  8
2
 10
944.903946
 20
153.94108
 30
0.0
 11
920.283752
 21
158.282285
 31
0.0
  0
LINE
  5
EF
  8
2
 10
1022.663558
 20
153.94108
 30
0.0
 11
1047.283752
 21
158.282285
 31
0.0
  0
LINE
  5
F0
  8
2
 10
1022.663558
 20
162.623489
 30
0.0
 11
1047.283752
 21
158.282285
 31
0.0
  0
TEXT
  5
F1
  8
2
 10
934.503723
 20
168.282288
 30
0.0
 40
38.5
  1
127
 41
0.9
  7
MONOTXT
  0
ENDBLK
  5
F2
  8
0
  0
BLOCK
  5
F4
  8
2
  2
*D13
 70
    65
 10
0.0
 20
0.0
 30
0.0
  3
*D13
  1

  0
POINT
  5
F5
  8
DEFPOINTS
 10
998.283752
 20
-131.717715
 30
0.0
  0
POINT
  5
F6
  8
DEFPOINTS
 10
1047.283752
 20
-111.717715
 30
0.0
  0
POINT
  5
F7
  8
DEFPOINTS
 10
1025.49395
 20
1.928627
 30
0.0
  0
LINE
  5
F8
  8
2
 10
998.283752
 20
-123.717715
 30
0.0
 11
998.283752
 21
6.928627
 31
0.0
  0
LINE
  5
F9
  8
2
 10
1047.283752
 20
-103.717715
 30
0.0
 11
1047.283752
 21
6.928627
 31
0.0
  0
LINE
  5
FA
  8
2
 10
998.283752
 20
1.928627
 30
0.0
 11
1047.283752
 21
1.928627
 31
0.0
  0
LINE
  5
FB
  8
2
 10
1022.903946
 20
6.269831
 30
0.0
 11
998.283752
 21
1.928627
 31
0.0
  0
LINE
  5
FC
  8
2
 10
1022.903946
 20
-2.412578
 30
0.0
 11
998.283752
 21
1.928627
 31
0.0
  0
LINE
  5
FD
  8
2
 10
1022.663558
 20
-2.412578
 30
0.0
 11
1047.283752
 21
1.928627
 31
0.0
  0
LINE
  5
FE
  8
2
 10
1022.663558
 20
6.269831
 30
0.0
 11
1047.283752
 21
1.928627
 31
0.0
  0
TEXT
  5
FF
  8
2
 10
985.086548
 20
11.928627
 30
0.0
 40
38.5
  1
52
 41
0.9
  7
MONOTXT
  0
ENDBLK
  5
100
  8
0
  0
BLOCK
  5
102
  8
2
  2
*D14
 70
    65
 10
0.0
 20
0.0
 30
0.0
  3
*D14
  1

  0
POINT
  5
103
  8
DEFPOINTS
 10
905.783752
 20
-81.717715
 30
0.0
  0
POINT
  5
104
  8
DEFPOINTS
 10
970.783852
 20
-81.717715
 30
0.0
  0
POINT
  5
105
  8
DEFPOINTS
 10
940.151568
 20
-1.717715
 30
0.0
  0
LINE
  5
106
  8
2
 10
905.783752
 20
-73.717715
 30
0.0
 11
905.783752
 21
3.282285
 31
0.0
  0
LINE
  5
107
  8
2
 10
970.783852
 20
-73.717715
 30
0.0
 11
970.783852
 21
3.282285
 31
0.0
  0
LINE
  5
108
  8
2
 10
905.783752
 20
-1.717715
 30
0.0
 11
970.783852
 21
-1.717715
 31
0.0
  0
LINE
  5
109
  8
2
 10
930.403946
 20
2.623489
 30
0.0
 11
905.783752
 21
-1.717715
 31
0.0
  0
LINE
  5
10A
  8
2
 10
930.403946
 20
-6.05892
 30
0.0
 11
905.783752
 21
-1.717715
 31
0.0
  0
LINE
  5
10B
  8
2
 10
946.163658
 20
-6.05892
 30
0.0
 11
970.783852
 21
-1.717715
 31
0.0
  0
LINE
  5
10C
  8
2
 10
946.163658
 20
2.623489
 30
0.0
 11
970.783852
 21
-1.717715
 31
0.0
  0
TEXT
  5
10D
  8
2
 10
903.297424
 20
8.282285
 30
0.0
 40
38.5
  1
65
 41
0.9
  7
MONOTXT
  0
ENDBLK
  5
10E
  8
0
  0
BLOCK
  5
110
  8
2
  2
*D15
 70
    65
 10
0.0
 20
0.0
 30
0.0
  3
*D15
  1

  0
POINT
  5
111
  8
DEFPOINTS
 10
932.283752
 20
-86.717715
 30
0.0
  0
POINT
  5
112
  8
DEFPOINTS
 10
1047.283752
 20
-111.717715
 30
0.0
  0
POINT
  5
113
  8
DEFPOINTS
 10
997.795784
 20
78.282285
 30
0.0
  0
LINE
  5
114
  8
2
 10
932.283752
 20
-78.717715
 30
0.0
 11
932.283752
 21
83.282285
 31
0.0
  0
LINE
  5
115
  8
2
 10
1047.283752
 20
-103.717715
 30
0.0
 11
1047.283752
 21
83.282285
 31
0.0
  0
LINE
  5
116
  8
2
 10
932.283752
 20
78.282285
 30
0.0
 11
1047.283752
 21
78.282285
 31
0.0
  0
LINE
  5
117
  8
2
 10
956.903946
 20
82.623489
 30
0.0
 11
932.283752
 21
78.282285
 31
0.0
  0
LINE
  5
118
  8
2
 10
956.903946
 20
73.94108
 30
0.0
 11
932.283752
 21
78.282285
 31
0.0
  0
LINE
  5
119
  8
2
 10
1022.663558
 20
73.94108
 30
0.0
 11
1047.283752
 21
78.282285
 31
0.0
  0
LINE
  5
11A
  8
2
 10
1022.663558
 20
82.623489
 30
0.0
 11
1047.283752
 21
78.282285
 31
0.0
  0
TEXT
  5
11B
  8
2
 10
937.049683
 20
88.282288
 30
0.0
 40
38.5
  1
109
 41
0.9
  7
MONOTXT
  0
ENDBLK
  5
11C
  8
0
  0
BLOCK
  5
11E
  8
2
  2
*D16
 70
    65
 10
0.0
 20
0.0
 30
0.0
  3
*D16
  1

  0
POINT
  5
11F
  8
DEFPOINTS
 10
895.783752
 20
-97.717715
 30
0.0
  0
POINT
  5
120
  8
DEFPOINTS
 10
867.283752
 20
-86.717715
 30
0.0
  0
POINT
  5
121
  8
DEFPOINTS
 10
757.283752
 20
-45.109682
 30
0.0
  0
LINE
  5
122
  8
2
 10
887.783752
 20
-97.717715
 30
0.0
 11
752.283752
 21
-97.717715
 31
0.0
  0
LINE
  5
123
  8
2
 10
859.283752
 20
-86.717715
 30
0.0
 11
752.283752
 21
-86.717715
 31
0.0
  0
LINE
  5
124
  8
2
 10
757.283752
 20
-134.648005
 30
0.0
 11
757.283752
 21
43.797284
 31
0.0
  0
LINE
  5
125
  8
2
 10
761.624958
 20
-122.337909
 30
0.0
 11
757.283752
 21
-97.717715
 31
0.0
  0
LINE
  5
126
  8
2
 10
752.942549
 20
-122.337909
 30
0.0
 11
757.283752
 21
-97.717715
 31
0.0
  0
LINE
  5
127
  8
2
 10
752.942547
 20
-62.097522
 30
0.0
 11
757.283752
 21
-86.717715
 31
0.0
  0
LINE
  5
128
  8
2
 10
761.624956
 20
-62.097521
 30
0.0
 11
757.283752
 21
-86.717715
 31
0.0
  0
TEXT
  5
129
  8
2
 10
747.283752
 20
-54.762718
 30
0.0
 40
38.5
  1
11
 50
90.000003
 41
0.9
  7
MONOTXT
  0
ENDBLK
  5
12A
  8
0
  0
BLOCK
  5
12C
  8
2
  2
*D17
 70
    65
 10
0.0
 20
0.0
 30
0.0
  3
*D17
  1

  0
POINT
  5
12D
  8
DEFPOINTS
 10
-139.813663
 20
723.105446
 30
0.0
  0
POINT
  5
12E
  8
DEFPOINTS
 10
-49.813663
 20
747.291346
 30
0.0
  0
POINT
  5
12F
  8
DEFPOINTS
 10
-93.539735
 20
621.105346
 30
0.0
  0
LINE
  5
130
  8
2
 10
-139.813663
 20
715.105446
 30
0.0
 11
-139.813663
 21
616.105346
 31
0.0
  0
LINE
  5
131
  8
2
 10
-49.813663
 20
739.291346
 30
0.0
 11
-49.813663
 21
616.105346
 31
0.0
  0
LINE
  5
132
  8
2
 10
-176.743954
 20
621.105346
 30
0.0
 11
-12.883373
 21
621.105346
 31
0.0
  0
LINE
  5
133
  8
2
 10
-164.433857
 20
616.764142
 30
0.0
 11
-139.813663
 21
621.105346
 31
0.0
  0
LINE
  5
134
  8
2
 10
-164.433857
 20
625.446551
 30
0.0
 11
-139.813663
 21
621.105346
 31
0.0
  0
LINE
  5
135
  8
2
 10
-25.193469
 20
625.446551
 30
0.0
 11
-49.813663
 21
621.105346
 31
0.0
  0
LINE
  5
136
  8
2
 10
-25.193469
 20
616.764142
 30
0.0
 11
-49.813663
 21
621.105346
 31
0.0
  0
TEXT
  5
137
  8
2
 10
-128.116165
 20
631.105347
 30
0.0
 40
38.5
  1
90
 41
0.9
  7
MONOTXT
  0
ENDBLK
  5
138
  8
0
  0
BLOCK
  5
13A
  8
2
  2
*D18
 70
    65
 10
0.0
 20
0.0
 30
0.0
  3
*D18
  1

  0
POINT
  5
13B
  8
DEFPOINTS
 10
-689.813563
 20
723.105346
 30
0.0
  0
POINT
  5
13C
  8
DEFPOINTS
 10
-139.813663
 20
723.105446
 30
0.0
  0
POINT
  5
13D
  8
DEFPOINTS
 10
-428.204189
 20
621.105346
 30
0.0
  0
LINE
  5
13E
  8
2
 10
-689.813563
 20
715.105346
 30
0.0
 11
-689.813563
 21
616.105346
 31
0.0
  0
LINE
  5
13F
  8
2
 10
-139.813663
 20
715.105446
 30
0.0
 11
-139.813663
 21
616.105346
 31
0.0
  0
LINE
  5
140
  8
2
 10
-689.813563
 20
621.105346
 30
0.0
 11
-139.813663
 21
621.105346
 31
0.0
  0
LINE
  5
141
  8
2
 10
-665.193369
 20
625.446551
 30
0.0
 11
-689.813563
 21
621.105346
 31
0.0
  0
LINE
  5
142
  8
2
 10
-665.193369
 20
616.764142
 30
0.0
 11
-689.813563
 21
621.105346
 31
0.0
  0
LINE
  5
143
  8
2
 10
-164.433857
 20
616.764142
 30
0.0
 11
-139.813663
 21
621.105346
 31
0.0
  0
LINE
  5
144
  8
2
 10
-164.433857
 20
625.446551
 30
0.0
 11
-139.813663
 21
621.105346
 31
0.0
  0
TEXT
  5
145
  8
2
 10
-464.093597
 20
631.105347
 30
0.0
 40
38.5
  1
550
 41
0.9
  7
MONOTXT
  0
ENDBLK
  5
146
  8
0
  0
BLOCK
  5
148
  8
2
  2
*D19
 70
    65
 10
0.0
 20
0.0
 30
0.0
  3
*D19
  1

  0
POINT
  5
149
  8
DEFPOINTS
 10
-889.813663
 20
841.105346
 30
0.0
  0
POINT
  5
14A
  8
DEFPOINTS
 10
-689.813563
 20
723.105346
 30
0.0
  0
POINT
  5
14B
  8
DEFPOINTS
 10
-787.119691
 20
621.105346
 30
0.0
  0
LINE
  5
14C
  8
2
 10
-889.813663
 20
833.105346
 30
0.0
 11
-889.813663
 21
616.105346
 31
0.0
  0
LINE
  5
14D
  8
2
 10
-689.813563
 20
715.105346
 30
0.0
 11
-689.813563
 21
616.105346
 31
0.0
  0
LINE
  5
14E
  8
2
 10
-889.813663
 20
621.105346
 30
0.0
 11
-689.813563
 21
621.105346
 31
0.0
  0
LINE
  5
14F
  8
2
 10
-865.193469
 20
625.446551
 30
0.0
 11
-889.813663
 21
621.105346
 31
0.0
  0
LINE
  5
150
  8
2
 10
-865.193469
 20
616.764142
 30
0.0
 11
-889.813663
 21
621.105346
 31
0.0
  0
LINE
  5
151
  8
2
 10
-714.433757
 20
616.764142
 30
0.0
 11
-689.813563
 21
621.105346
 31
0.0
  0
LINE
  5
152
  8
2
 10
-714.433757
 20
625.446551
 30
0.0
 11
-689.813563
 21
621.105346
 31
0.0
  0
TEXT
  5
153
  8
2
 10
-839.093628
 20
631.105347
 30
0.0
 40
38.5
  1
200
 41
0.9
  7
MONOTXT
  0
ENDBLK
  5
154
  8
0
  0
BLOCK
  5
156
  8
2
  2
*D20
 70
    65
 10
0.0
 20
0.0
 30
0.0
  3
*D20
  1

  0
POINT
  5
157
  8
DEFPOINTS
 10
-704.813563
 20
802.105346
 30
0.0
  0
POINT
  5
158
  8
DEFPOINTS
 10
-124.813563
 20
802.105346
 30
0.0
  0
POINT
  5
159
  8
DEFPOINTS
 10
-559.159845
 20
971.105346
 30
0.0
  0
LINE
  5
15A
  8
2
 10
-704.813563
 20
810.105346
 30
0.0
 11
-704.813563
 21
976.105346
 31
0.0
  0
LINE
  5
15B
  8
2
 10
-124.813563
 20
810.105346
 30
0.0
 11
-124.813563
 21
976.105346
 31
0.0
  0
LINE
  5
15C
  8
2
 10
-704.813563
 20
971.105346
 30
0.0
 11
-124.813563
 21
971.105346
 31
0.0
  0
LINE
  5
15D
  8
2
 10
-680.193369
 20
975.446551
 30
0.0
 11
-704.813563
 21
971.105346
 31
0.0
  0
LINE
  5
15E
  8
2
 10
-680.193369
 20
966.764142
 30
0.0
 11
-704.813563
 21
971.105346
 31
0.0
  0
LINE
  5
15F
  8
2
 10
-149.433757
 20
966.764142
 30
0.0
 11
-124.813563
 21
971.105346
 31
0.0
  0
LINE
  5
160
  8
2
 10
-149.433757
 20
975.446551
 30
0.0
 11
-124.813563
 21
971.105346
 31
0.0
  0
TEXT
  5
161
  8
2
 10
-464.093567
 20
981.105347
 30
0.0
 40
38.5
  1
580
 41
0.9
  7
MONOTXT
  0
ENDBLK
  5
162
  8
0
  0
BLOCK
  5
164
  8
2
  2
*D21
 70
    65
 10
0.0
 20
0.0
 30
0.0
  3
*D21
  1

  0
POINT
  5
165
  8
DEFPOINTS
 10
-719.813563
 20
699.105346
 30
0.0
  0
POINT
  5
166
  8
DEFPOINTS
 10
-693.813563
 20
723.105346
 30
0.0
  0
POINT
  5
167
  8
DEFPOINTS
 10
-959.813663
 20
651.441843
 30
0.0
  0
LINE
  5
168
  8
2
 10
-727.813563
 20
699.105346
 30
0.0
 11
-964.813663
 21
699.105346
 31
0.0
  0
LINE
  5
169
  8
2
 10
-701.813563
 20
723.105346
 30
0.0
 11
-964.813663
 21
723.105346
 31
0.0
  0
LINE
  5
16A
  8
2
 10
-959.813663
 20
568.590347
 30
0.0
 11
-959.813663
 21
760.035637
 31
0.0
  0
LINE
  5
16B
  8
2
 10
-955.472458
 20
674.485153
 30
0.0
 11
-959.813663
 21
699.105346
 31
0.0
  0
LINE
  5
16C
  8
2
 10
-964.154867
 20
674.485152
 30
0.0
 11
-959.813663
 21
699.105346
 31
0.0
  0
LINE
  5
16D
  8
2
 10
-964.154869
 20
747.72554
 30
0.0
 11
-959.813663
 21
723.105346
 31
0.0
  0
LINE
  5
16E
  8
2
 10
-955.47246
 20
747.72554
 30
0.0
 11
-959.813663
 21
723.105346
 31
0.0
  0
TEXT
  5
16F
  8
2
 10
-969.81366
 20
600.545349
 30
0.0
 40
38.5
  1
24
 50
90.000003
 41
0.9
  7
MONOTXT
  0
ENDBLK
  5
170
  8
0
  0
BLOCK
  5
172
  8
2
  2
*D22
 70
    65
 10
0.0
 20
0.0
 30
0.0
  3
*D22
  1

  0
POINT
  5
173
  8
DEFPOINTS
 10
-693.813563
 20
853.105346
 30
0.0
  0
POINT
  5
174
  8
DEFPOINTS
 10
-719.813663
 20
897.105346
 30
0.0
  0
POINT
  5
175
  8
DEFPOINTS
 10
-959.813663
 20
925.478679
 30
0.0
  0
LINE
  5
176
  8
2
 10
-701.813563
 20
853.105346
 30
0.0
 11
-964.813663
 21
853.105346
 31
0.0
  0
LINE
  5
177
  8
2
 10
-727.813663
 20
897.105346
 30
0.0
 11
-964.813663
 21
897.105346
 31
0.0
  0
LINE
  5
178
  8
2
 10
-959.813663
 20
816.175056
 30
0.0
 11
-959.813663
 21
1027.620346
 31
0.0
  0
LINE
  5
179
  8
2
 10
-955.472458
 20
828.485153
 30
0.0
 11
-959.813663
 21
853.105346
 31
0.0
  0
LINE
  5
17A
  8
2
 10
-964.154867
 20
828.485152
 30
0.0
 11
-959.813663
 21
853.105346
 31
0.0
  0
LINE
  5
17B
  8
2
 10
-964.154869
 20
921.72554
 30
0.0
 11
-959.813663
 21
897.105346
 31
0.0
  0
LINE
  5
17C
  8
2
 10
-955.47246
 20
921.72554
 30
0.0
 11
-959.813663
 21
897.105346
 31
0.0
  0
TEXT
  5
17D
  8
2
 10
-969.81366
 20
929.060364
 30
0.0
 40
38.5
  1
44
 50
90.000003
 41
0.9
  7
MONOTXT
  0
ENDBLK
  5
17E
  8
0
  0
BLOCK
  5
180
  8
2
  2
*D23
 70
    65
 10
0.0
 20
0.0
 30
0.0
  3
*D23
  1

  0
POINT
  5
181
  8
DEFPOINTS
 10
-693.813563
 20
723.105346
 30
0.0
  0
POINT
  5
182
  8
DEFPOINTS
 10
-693.813563
 20
853.105346
 30
0.0
  0
POINT
  5
183
  8
DEFPOINTS
 10
-959.813663
 20
773.909632
 30
0.0
  0
LINE
  5
184
  8
2
 10
-701.813563
 20
723.105346
 30
0.0
 11
-964.813663
 21
723.105346
 31
0.0
  0
LINE
  5
185
  8
2
 10
-701.813563
 20
853.105346
 30
0.0
 11
-964.813663
 21
853.105346
 31
0.0
  0
LINE
  5
186
  8
2
 10
-959.813663
 20
723.105346
 30
0.0
 11
-959.813663
 21
853.105346
 31
0.0
  0
LINE
  5
187
  8
2
 10
-964.154869
 20
747.72554
 30
0.0
 11
-959.813663
 21
723.105346
 31
0.0
  0
LINE
  5
188
  8
2
 10
-955.47246
 20
747.72554
 30
0.0
 11
-959.813663
 21
723.105346
 31
0.0
  0
LINE
  5
189
  8
2
 10
-955.472458
 20
828.485153
 30
0.0
 11
-959.813663
 21
853.105346
 31
0.0
  0
LINE
  5
18A
  8
2
 10
-964.154867
 20
828.485152
 30
0.0
 11
-959.813663
 21
853.105346
 31
0.0
  0
TEXT
  5
18B
  8
2
 10
-969.81366
 20
738.825317
 30
0.0
 40
38.5
  1
130
 50
90.000003
 41
0.9
  7
MONOTXT
  0
ENDBLK
  5
18C
  8
0
  0
BLOCK
  5
18E
  8
2
  2
*D24
 70
    65
 10
0.0
 20
0.0
 30
0.0
  3
*D24
  1

  0
POINT
  5
18F
  8
DEFPOINTS
 10
-704.813663
 20
-686.717715
 30
0.0
  0
POINT
  5
190
  8
DEFPOINTS
 10
-124.813663
 20
-686.717815
 30
0.0
  0
POINT
  5
191
  8
DEFPOINTS
 10
-510.305547
 20
-821.717715
 30
0.0
  0
LINE
  5
192
  8
2
 10
-704.813663
 20
-694.717715
 30
0.0
 11
-704.813663
 21
-826.717715
 31
0.0
  0
LINE
  5
193
  8
2
 10
-124.813663
 20
-694.717815
 30
0.0
 11
-124.813663
 21
-826.717715
 31
0.0
  0
LINE
  5
194
  8
2
 10
-704.813663
 20
-821.717715
 30
0.0
 11
-124.813663
 21
-821.717715
 31
0.0
  0
LINE
  5
195
  8
2
 10
-680.193469
 20
-817.376511
 30
0.0
 11
-704.813663
 21
-821.717715
 31
0.0
  0
LINE
  5
196
  8
2
 10
-680.193469
 20
-826.05892
 30
0.0
 11
-704.813663
 21
-821.717715
 31
0.0
  0
LINE
  5
197
  8
2
 10
-149.433857
 20
-826.05892
 30
0.0
 11
-124.813663
 21
-821.717715
 31
0.0
  0
LINE
  5
198
  8
2
 10
-149.433857
 20
-817.376511
 30
0.0
 11
-124.813663
 21
-821.717715
 31
0.0
  0
TEXT
  5
199
  8
2
 10
-464.093658
 20
-811.717712
 30
0.0
 40
38.5
  1
580
 41
0.9
  7
MONOTXT
  0
ENDBLK
  5
19A
  8
0
  0
BLOCK
  5
19C
  8
2
  2
*D25
 70
    65
 10
0.0
 20
0.0
 30
0.0
  3
*D25
  1

  0
POINT
  5
19D
  8
DEFPOINTS
 10
-124.813663
 20
-686.717815
 30
0.0
  0
POINT
  5
19E
  8
DEFPOINTS
 10
-59.813663
 20
-451.633715
 30
0.0
  0
POINT
  5
19F
  8
DEFPOINTS
 10
-34.681353
 20
-821.717715
 30
0.0
  0
LINE
  5
1A0
  8
2
 10
-124.813663
 20
-694.717815
 30
0.0
 11
-124.813663
 21
-826.717715
 31
0.0
  0
LINE
  5
1A1
  8
2
 10
-59.813663
 20
-459.633715
 30
0.0
 11
-59.813663
 21
-826.717715
 31
0.0
  0
LINE
  5
1A2
  8
2
 10
-161.743954
 20
-821.717715
 30
0.0
 11
70.701336
 21
-821.717715
 31
0.0
  0
LINE
  5
1A3
  8
2
 10
-149.433857
 20
-826.05892
 30
0.0
 11
-124.813663
 21
-821.717715
 31
0.0
  0
LINE
  5
1A4
  8
2
 10
-149.433857
 20
-817.376511
 30
0.0
 11
-124.813663
 21
-821.717715
 31
0.0
  0
LINE
  5
1A5
  8
2
 10
-35.193469
 20
-817.376511
 30
0.0
 11
-59.813663
 21
-821.717715
 31
0.0
  0
LINE
  5
1A6
  8
2
 10
-35.193469
 20
-826.05892
 30
0.0
 11
-59.813663
 21
-821.717715
 31
0.0
  0
TEXT
  5
1A7
  8
2
 10
-27.858665
 20
-811.717712
 30
0.0
 40
38.5
  1
65
 41
0.9
  7
MONOTXT
  0
ENDBLK
  5
1A8
  8
0
  0
BLOCK
  5
1AA
  8
2
  2
*D26
 70
    65
 10
0.0
 20
0.0
 30
0.0
  3
*D26
  1

  0
POINT
  5
1AB
  8
DEFPOINTS
 10
-124.813663
 20
-686.717815
 30
0.0
  0
POINT
  5
1AC
  8
DEFPOINTS
 10
-84.813663
 20
-481.717715
 30
0.0
  0
POINT
  5
1AD
  8
DEFPOINTS
 10
-182.994274
 20
-741.717715
 30
0.0
  0
LINE
  5
1AE
  8
2
 10
-124.813663
 20
-694.717815
 30
0.0
 11
-124.813663
 21
-746.717715
 31
0.0
  0
LINE
  5
1AF
  8
2
 10
-84.813663
 20
-489.717715
 30
0.0
 11
-84.813663
 21
-746.717715
 31
0.0
  0
LINE
  5
1B0
  8
2
 10
-255.328663
 20
-741.717715
 30
0.0
 11
-47.883373
 21
-741.717715
 31
0.0
  0
LINE
  5
1B1
  8
2
 10
-149.433857
 20
-746.05892
 30
0.0
 11
-124.813663
 21
-741.717715
 31
0.0
  0
LINE
  5
1B2
  8
2
 10
-149.433857
 20
-737.376511
 30
0.0
 11
-124.813663
 21
-741.717715
 31
0.0
  0
LINE
  5
1B3
  8
2
 10
-60.193469
 20
-737.376511
 30
0.0
 11
-84.813663
 21
-741.717715
 31
0.0
  0
LINE
  5
1B4
  8
2
 10
-60.193469
 20
-746.05892
 30
0.0
 11
-84.813663
 21
-741.717715
 31
0.0
  0
TEXT
  5
1B5
  8
2
 10
-223.373657
 20
-731.717712
 30
0.0
 40
38.5
  1
40
 41
0.9
  7
MONOTXT
  0
ENDBLK
  5
1B6
  8
0
  0
BLOCK
  5
1B8
  8
2
  2
*D27
 70
    65
 10
0.0
 20
0.0
 30
0.0
  3
*D27
  1

  0
POINT
  5
1B9
  8
DEFPOINTS
 10
-109.813663
 20
-686.717715
 30
0.0
  0
POINT
  5
1BA
  8
DEFPOINTS
 10
-109.813663
 20
-566.717715
 30
0.0
  0
POINT
  5
1BB
  8
DEFPOINTS
 10
90.186337
 20
-634.945937
 30
0.0
  0
LINE
  5
1BC
  8
2
 10
-101.813663
 20
-686.717715
 30
0.0
 11
95.186337
 21
-686.717715
 31
0.0
  0
LINE
  5
1BD
  8
2
 10
-101.813663
 20
-566.717715
 30
0.0
 11
95.186337
 21
-566.717715
 31
0.0
  0
LINE
  5
1BE
  8
2
 10
90.186337
 20
-723.648005
 30
0.0
 11
90.186337
 21
-529.787425
 31
0.0
  0
LINE
  5
1BF
  8
2
 10
94.527542
 20
-711.337909
 30
0.0
 11
90.186337
 21
-686.717715
 31
0.0
  0
LINE
  5
1C0
  8
2
 10
85.845133
 20
-711.337909
 30
0.0
 11
90.186337
 21
-686.717715
 31
0.0
  0
LINE
  5
1C1
  8
2
 10
85.845131
 20
-542.097522
 30
0.0
 11
90.186337
 21
-566.717715
 31
0.0
  0
LINE
  5
1C2
  8
2
 10
94.52754
 20
-542.097521
 30
0.0
 11
90.186337
 21
-566.717715
 31
0.0
  0
TEXT
  5
1C3
  8
2
 10
80.18634
 20
-675.997742
 30
0.0
 40
38.5
  1
120
 50
90.000003
 41
0.9
  7
MONOTXT
  0
ENDBLK
  5
1C4
  8
0
  0
BLOCK
  5
1C6
  8
2
  2
*D28
 70
    65
 10
0.0
 20
0.0
 30
0.0
  3
*D28
  1

  0
POINT
  5
1C7
  8
DEFPOINTS
 10
-109.813663
 20
-566.717715
 30
0.0
  0
POINT
  5
1C8
  8
DEFPOINTS
 10
-109.813663
 20
-288.717715
 30
0.0
  0
POINT
  5
1C9
  8
DEFPOINTS
 10
90.186337
 20
-416.738421
 30
0.0
  0
LINE
  5
1CA
  8
2
 10
-101.813663
 20
-566.717715
 30
0.0
 11
95.186337
 21
-566.717715
 31
0.0
  0
LINE
  5
1CB
  8
2
 10
-101.813663
 20
-288.717715
 30
0.0
 11
95.186337
 21
-288.717715
 31
0.0
  0
LINE
  5
1CC
  8
2
 10
90.186337
 20
-566.717715
 30
0.0
 11
90.186337
 21
-288.717715
 31
0.0
  0
LINE
  5
1CD
  8
2
 10
85.845131
 20
-542.097522
 30
0.0
 11
90.186337
 21
-566.717715
 31
0.0
  0
LINE
  5
1CE
  8
2
 10
94.52754
 20
-542.097521
 30
0.0
 11
90.186337
 21
-566.717715
 31
0.0
  0
LINE
  5
1CF
  8
2
 10
94.527542
 20
-313.337909
 30
0.0
 11
90.186337
 21
-288.717715
 31
0.0
  0
LINE
  5
1D0
  8
2
 10
85.845133
 20
-313.337909
 30
0.0
 11
90.186337
 21
-288.717715
 31
0.0
  0
TEXT
  5
1D1
  8
2
 10
80.18634
 20
-476.997711
 30
0.0
 40
38.5
  1
280
 50
90.000003
 41
0.9
  7
MONOTXT
  0
ENDBLK
  5
1D2
  8
0
  0
BLOCK
  5
1D4
  8
2
  2
*D29
 70
    65
 10
0.0
 20
0.0
 30
0.0
  3
*D29
  1

  0
POINT
  5
1D5
  8
DEFPOINTS
 10
-719.813663
 20
-686.717715
 30
0.0
  0
POINT
  5
1D6
  8
DEFPOINTS
 10
-689.813663
 20
-86.717715
 30
0.0
  0
POINT
  5
1D7
  8
DEFPOINTS
 10
-999.813663
 20
-481.518777
 30
0.0
  0
LINE
  5
1D8
  8
2
 10
-727.813663
 20
-686.717715
 30
0.0
 11
-1004.813663
 21
-686.717715
 31
0.0
  0
LINE
  5
1D9
  8
2
 10
-697.813663
 20
-86.717715
 30
0.0
 11
-1004.813663
 21
-86.717715
 31
0.0
  0
LINE
  5
1DA
  8
2
 10
-999.813663
 20
-686.717715
 30
0.0
 11
-999.813663
 21
-86.717715
 31
0.0
  0
LINE
  5
1DB
  8
2
 10
-1004.154869
 20
-662.097522
 30
0.0
 11
-999.813663
 21
-686.717715
 31
0.0
  0
LINE
  5
1DC
  8
2
 10
-995.47246
 20
-662.097521
 30
0.0
 11
-999.813663
 21
-686.717715
 31
0.0
  0
LINE
  5
1DD
  8
2
 10
-995.472458
 20
-111.337909
 30
0.0
 11
-999.813663
 21
-86.717715
 31
0.0
  0
LINE
  5
1DE
  8
2
 10
-1004.154867
 20
-111.337909
 30
0.0
 11
-999.813663
 21
-86.717715
 31
0.0
  0
TEXT
  5
1DF
  8
2
 10
-1009.81366
 20
-435.997711
 30
0.0
 40
38.5
  1
600
 50
90.000003
 41
0.9
  7
MONOTXT
  0
ENDBLK
  5
1E0
  8
0
  0
BLOCK
  5
1E2
  8
2
  2
*D30
 70
    65
 10
0.0
 20
0.0
 30
0.0
  3
*D30
  1

  0
POINT
  5
1E3
  8
DEFPOINTS
 10
-879.813663
 20
-601.717815
 30
0.0
  0
POINT
  5
1E4
  8
DEFPOINTS
 10
-879.813663
 20
-181.717815
 30
0.0
  0
POINT
  5
1E5
  8
DEFPOINTS
 10
-929.813663
 20
-486.633016
 30
0.0
  0
LINE
  5
1E6
  8
2
 10
-887.813663
 20
-601.717815
 30
0.0
 11
-934.813663
 21
-601.717815
 31
0.0
  0
LINE
  5
1E7
  8
2
 10
-887.813663
 20
-181.717815
 30
0.0
 11
-934.813663
 21
-181.717815
 31
0.0
  0
LINE
  5
1E8
  8
2
 10
-929.813663
 20
-601.717815
 30
0.0
 11
-929.813663
 21
-181.717815
 31
0.0
  0
LINE
  5
1E9
  8
2
 10
-934.154869
 20
-577.097622
 30
0.0
 11
-929.813663
 21
-601.717815
 31
0.0
  0
LINE
  5
1EA
  8
2
 10
-925.47246
 20
-577.097621
 30
0.0
 11
-929.813663
 21
-601.717815
 31
0.0
  0
LINE
  5
1EB
  8
2
 10
-925.472458
 20
-206.338009
 30
0.0
 11
-929.813663
 21
-181.717815
 31
0.0
  0
LINE
  5
1EC
  8
2
 10
-934.154867
 20
-206.338009
 30
0.0
 11
-929.813663
 21
-181.717815
 31
0.0
  0
TEXT
  5
1ED
  8
2
 10
-939.81366
 20
-440.997803
 30
0.0
 40
38.5
  1
420
 50
90.000003
 41
0.9
  7
MONOTXT
  0
ENDBLK
  5
1EE
  8
0
  0
BLOCK
  5
1F0
  8
2
  2
*D31
 70
    65
 10
0.0
 20
0.0
 30
0.0
  3
*D31
  1

  0
POINT
  5
1F1
  8
DEFPOINTS
 10
-719.813663
 20
-686.717715
 30
0.0
  0
POINT
  5
1F2
  8
DEFPOINTS
 10
-879.813663
 20
-601.717815
 30
0.0
  0
POINT
  5
1F3
  8
DEFPOINTS
 10
-929.813663
 20
-643.469668
 30
0.0
  0
LINE
  5
1F4
  8
2
 10
-727.813663
 20
-686.717715
 30
0.0
 11
-934.813663
 21
-686.717715
 31
0.0
  0
LINE
  5
1F5
  8
2
 10
-887.813663
 20
-601.717815
 30
0.0
 11
-934.813663
 21
-601.717815
 31
0.0
  0
LINE
  5
1F6
  8
2
 10
-929.813663
 20
-686.717715
 30
0.0
 11
-929.813663
 21
-601.717815
 31
0.0
  0
LINE
  5
1F7
  8
2
 10
-934.154869
 20
-662.097522
 30
0.0
 11
-929.813663
 21
-686.717715
 31
0.0
  0
LINE
  5
1F8
  8
2
 10
-925.47246
 20
-662.097521
 30
0.0
 11
-929.813663
 21
-686.717715
 31
0.0
  0
LINE
  5
1F9
  8
2
 10
-925.472458
 20
-626.338009
 30
0.0
 11
-929.813663
 21
-601.717815
 31
0.0
  0
LINE
  5
1FA
  8
2
 10
-934.154867
 20
-626.338009
 30
0.0
 11
-929.813663
 21
-601.717815
 31
0.0
  0
TEXT
  5
1FB
  8
2
 10
-939.81366
 20
-667.650208
 30
0.0
 40
38.5
  1
85
 50
90.000003
 41
0.9
  7
MONOTXT
  0
ENDBLK
  5
1FC
  8
0
  0
BLOCK
  5
1FE
  8
2
  2
*D32
 70
    65
 10
0.0
 20
0.0
 30
0.0
  3
*D32
  1

  0
POINT
  5
1FF
  8
DEFPOINTS
 10
-719.813663
 20
-111.717715
 30
0.0
  0
POINT
  5
200
  8
DEFPOINTS
 10
-689.813663
 20
-86.717715
 30
0.0
  0
POINT
  5
201
  8
DEFPOINTS
 10
-889.813663
 20
-53.627477
 30
0.0
  0
LINE
  5
202
  8
2
 10
-727.813663
 20
-111.717715
 30
0.0
 11
-894.813663
 21
-111.717715
 31
0.0
  0
LINE
  5
203
  8
2
 10
-697.813663
 20
-86.717715
 30
0.0
 11
-894.813663
 21
-86.717715
 31
0.0
  0
LINE
  5
204
  8
2
 10
-889.813663
 20
-148.648005
 30
0.0
 11
-889.813663
 21
43.797284
 31
0.0
  0
LINE
  5
205
  8
2
 10
-885.472458
 20
-136.337909
 30
0.0
 11
-889.813663
 21
-111.717715
 31
0.0
  0
LINE
  5
206
  8
2
 10
-894.154867
 20
-136.337909
 30
0.0
 11
-889.813663
 21
-111.717715
 31
0.0
  0
LINE
  5
207
  8
2
 10
-894.154869
 20
-62.097522
 30
0.0
 11
-889.813663
 21
-86.717715
 31
0.0
  0
LINE
  5
208
  8
2
 10
-885.47246
 20
-62.097521
 30
0.0
 11
-889.813663
 21
-86.717715
 31
0.0
  0
TEXT
  5
209
  8
2
 10
-899.81366
 20
-54.762718
 30
0.0
 40
38.5
  1
25
 50
90.000003
 41
0.9
  7
MONOTXT
  0
ENDBLK
  5
20A
  8
0
  0
BLOCK
  5
20C
  8
2
  2
*D33
 70
    65
 10
0.0
 20
0.0
 30
0.0
  3
*D33
  1

  0
POINT
  5
20D
  8
DEFPOINTS
 10
-678.329594
 20
-97.717715
 30
0.0
  0
POINT
  5
20E
  8
DEFPOINTS
 10
-689.813663
 20
-86.717715
 30
0.0
  0
POINT
  5
20F
  8
DEFPOINTS
 10
-809.813663
 20
-33.170523
 30
0.0
  0
LINE
  5
210
  8
2
 10
-686.329594
 20
-97.717715
 30
0.0
 11
-814.813663
 21
-97.717715
 31
0.0
  0
LINE
  5
211
  8
2
 10
-697.813663
 20
-86.717715
 30
0.0
 11
-814.813663
 21
-86.717715
 31
0.0
  0
LINE
  5
212
  8
2
 10
-809.813663
 20
-134.648005
 30
0.0
 11
-809.813663
 21
43.797284
 31
0.0
  0
LINE
  5
213
  8
2
 10
-805.472458
 20
-122.337909
 30
0.0
 11
-809.813663
 21
-97.717715
 31
0.0
  0
LINE
  5
214
  8
2
 10
-814.154867
 20
-122.337909
 30
0.0
 11
-809.813663
 21
-97.717715
 31
0.0
  0
LINE
  5
215
  8
2
 10
-814.154869
 20
-62.097522
 30
0.0
 11
-809.813663
 21
-86.717715
 31
0.0
  0
LINE
  5
216
  8
2
 10
-805.47246
 20
-62.097521
 30
0.0
 11
-809.813663
 21
-86.717715
 31
0.0
  0
TEXT
  5
217
  8
2
 10
-819.81366
 20
-54.762718
 30
0.0
 40
38.5
  1
11
 50
90.000003
 41
0.9
  7
MONOTXT
  0
ENDBLK
  5
218
  8
0
  0
BLOCK
  5
21A
  8
2
  2
*D34
 70
    65
 10
0.0
 20
0.0
 30
0.0
  3
*D34
  1

  0
POINT
  5
21B
  8
DEFPOINTS
 10
-719.813663
 20
-111.717715
 30
0.0
  0
POINT
  5
21C
  8
DEFPOINTS
 10
-109.813663
 20
-111.717715
 30
0.0
  0
POINT
  5
21D
  8
DEFPOINTS
 10
-523.943517
 20
78.282285
 30
0.0
  0
LINE
  5
21E
  8
2
 10
-719.813663
 20
-103.717715
 30
0.0
 11
-719.813663
 21
83.282285
 31
0.0
  0
LINE
  5
21F
  8
2
 10
-109.813663
 20
-103.717715
 30
0.0
 11
-109.813663
 21
83.282285
 31
0.0
  0
LINE
  5
220
  8
2
 10
-719.813663
 20
78.282285
 30
0.0
 11
-109.813663
 21
78.282285
 31
0.0
  0
LINE
  5
221
  8
2
 10
-695.193469
 20
82.623489
 30
0.0
 11
-719.813663
 21
78.282285
 31
0.0
  0
LINE
  5
222
  8
2
 10
-695.193469
 20
73.94108
 30
0.0
 11
-719.813663
 21
78.282285
 31
0.0
  0
LINE
  5
223
  8
2
 10
-134.433857
 20
73.94108
 30
0.0
 11
-109.813663
 21
78.282285
 31
0.0
  0
LINE
  5
224
  8
2
 10
-134.433857
 20
82.623489
 30
0.0
 11
-109.813663
 21
78.282285
 31
0.0
  0
TEXT
  5
225
  8
2
 10
-464.093658
 20
88.282288
 30
0.0
 40
38.5
  1
610
 41
0.9
  7
MONOTXT
  0
ENDBLK
  5
226
  8
0
  0
BLOCK
  5
228
  8
2
  2
*D35
 70
    65
 10
0.0
 20
0.0
 30
0.0
  3
*D35
  1

  0
POINT
  5
229
  8
DEFPOINTS
 10
-664.813663
 20
-79.717715
 30
0.0
  0
POINT
  5
22A
  8
DEFPOINTS
 10
-164.813663
 20
-76.717715
 30
0.0
  0
POINT
  5
22B
  8
DEFPOINTS
 10
-493.258085
 20
-1.717715
 30
0.0
  0
LINE
  5
22C
  8
2
 10
-664.813663
 20
-71.717715
 30
0.0
 11
-664.813663
 21
3.282285
 31
0.0
  0
LINE
  5
22D
  8
2
 10
-164.813663
 20
-68.717715
 30
0.0
 11
-164.813663
 21
3.282285
 31
0.0
  0
LINE
  5
22E
  8
2
 10
-664.813663
 20
-1.717715
 30
0.0
 11
-164.813663
 21
-1.717715
 31
0.0
  0
LINE
  5
22F
  8
2
 10
-640.193469
 20
2.623489
 30
0.0
 11
-664.813663
 21
-1.717715
 31
0.0
  0
LINE
  5
230
  8
2
 10
-640.193469
 20
-6.05892
 30
0.0
 11
-664.813663
 21
-1.717715
 31
0.0
  0
LINE
  5
231
  8
2
 10
-189.433857
 20
-6.05892
 30
0.0
 11
-164.813663
 21
-1.717715
 31
0.0
  0
LINE
  5
232
  8
2
 10
-189.433857
 20
2.623489
 30
0.0
 11
-164.813663
 21
-1.717715
 31
0.0
  0
TEXT
  5
233
  8
2
 10
-542.989807
 20
8.282285
 30
0.0
 40
38.5
  1
５×１００＝５００
 41
0.9
  7
MONOTXT
  0
ENDBLK
  5
234
  8
0
  0
ENDSEC
  0
SECTION
  2
ENTITIES
  0
INSERT
  5
235
  8
1
  2
*U2
 10
0.0
 20
0.0
 30
0.0
  0
INSERT
  5
236
  8
1
  2
*U3
 10
0.0
 20
0.0
 30
0.0
  0
DIMENSION
  5
237
  8
2
 62
     7
  2
*D4
 10
597.283752
 20
-300.665706
 30
0.0
 11
568.03375
 21
-419.217712
 31
0.0
  1
525
 13
857.283752
 23
-686.717715
 33
0.0
 14
978.283752
 24
-151.717715
 34
0.0
 50
90.000003
  0
DIMENSION
  5
238
  8
2
 62
     7
  2
*D5
 10
757.283752
 20
-561.986153
 30
0.0
 11
728.03375
 21
-580.217743
 31
0.0
 13
857.283752
 23
-686.717715
 33
0.0
 14
889.183752
 24
-473.717715
 34
0.0
 50
90.000003
  0
DIMENSION
  5
239
  8
2
 62
     7
  2
*D6
 10
677.283752
 20
-364.074344
 30
0.0
 11
648.03375
 21
-479.217743
 31
0.0
 13
857.283752
 23
-686.717715
 33
0.0
 14
901.283752
 24
-271.717715
 34
0.0
 50
90.000003
  0
DIMENSION
  5
23A
  8
2
 62
     7
  2
*D7
 10
936.308621
 20
-901.717715
 30
0.0
 11
948.283723
 21
-872.467712
 31
0.0
 13
849.283752
 23
-676.717815
 33
0.0
 14
1047.283752
 24
-607.717715
 34
0.0
  0
DIMENSION
  5
23B
  8
2
 62
     7
  2
*D8
 10
1101.555373
 20
-901.717715
 30
0.0
 11
1100.56377
 21
-872.467712
 31
0.0
 13
1047.283752
 23
-607.717715
 33
0.0
 14
1051.283752
 24
-561.717715
 34
0.0
  0
DIMENSION
  5
23C
  8
2
 62
     7
  2
*D9
 10
978.581046
 20
-821.717715
 30
0.0
 11
973.283723
 21
-792.467712
 31
0.0
 13
899.283752
 23
-481.717715
 33
0.0
 14
1047.283752
 24
-607.717715
 34
0.0
  0
DIMENSION
  5
23D
  8
2
 62
     7
  2
*D10
 10
992.031363
 20
-741.717715
 30
0.0
 11
992.094087
 21
-712.467712
 31
0.0
 13
947.283752
 23
-697.717715
 33
0.0
 14
1047.283752
 24
-607.717715
 34
0.0
  0
DIMENSION
  5
23E
  8
2
 62
     7
  2
*D11
 10
947.837464
 20
238.282285
 30
0.0
 11
937.283723
 21
267.532288
 31
0.0
 13
827.283752
 23
-428.897715
 33
0.0
 14
1047.283752
 24
-111.717715
 34
0.0
  0
DIMENSION
  5
23F
  8
2
 62
     7
  2
*D12
 10
988.188415
 20
158.282285
 30
0.0
 11
983.783723
 21
187.532288
 31
0.0
 13
920.283752
 23
-249.717715
 33
0.0
 14
1047.283752
 24
-111.717715
 34
0.0
  0
DIMENSION
  5
240
  8
2
 62
     7
  2
*D13
 10
1025.49395
 20
1.928627
 30
0.0
 11
1018.389048
 21
31.178627
 31
0.0
  1
52
 13
998.283752
 23
-131.717715
 33
0.0
 14
1047.283752
 24
-111.717715
 34
0.0
  0
DIMENSION
  5
241
  8
2
 62
     7
  2
*D14
 10
940.151568
 20
-1.717715
 30
0.0
 11
936.599924
 21
27.532285
 31
0.0
 13
905.783752
 23
-81.717715
 33
0.0
 14
970.783852
 24
-81.717715
 34
0.0
  0
DIMENSION
  5
242
  8
2
 62
     7
  2
*D15
 10
997.795784
 20
78.282285
 30
0.0
 11
986.329683
 21
107.532288
 31
0.0
  1
109
 13
932.283752
 23
-86.717715
 33
0.0
 14
1047.283752
 24
-111.717715
 34
0.0
  0
DIMENSION
  5
243
  8
2
 62
     7
  2
*D16
 10
757.283752
 20
-45.109682
 30
0.0
 11
728.033751
 21
-21.460219
 31
0.0
 13
895.783752
 23
-97.717715
 33
0.0
 14
867.283752
 24
-86.717715
 34
0.0
 50
90.000003
  0
DIMENSION
  5
244
  8
2
 62
     7
  2
*D17
 10
-93.539735
 20
621.105346
 30
0.0
 11
-94.813665
 21
650.355347
 31
0.0
 13
-139.813663
 23
723.105446
 33
0.0
 14
-49.813663
 24
747.291346
 34
0.0
  0
DIMENSION
  5
245
  8
2
 62
     7
  2
*D18
 10
-428.204189
 20
621.105346
 30
0.0
 11
-414.813597
 21
650.355347
 31
0.0
 13
-689.813563
 23
723.105346
 33
0.0
 14
-139.813663
 24
723.105446
 34
0.0
  0
DIMENSION
  5
246
  8
2
 62
     7
  2
*D19
 10
-787.119691
 20
621.105346
 30
0.0
 11
-789.813628
 21
650.355347
 31
0.0
 13
-889.813663
 23
841.105346
 33
0.0
 14
-689.813563
 24
723.105346
 34
0.0
  0
DIMENSION
  5
247
  8
2
 62
     7
  2
*D20
 10
-559.159845
 20
971.105346
 30
0.0
 11
-414.813567
 21
1000.355347
 31
0.0
 13
-704.813563
 23
802.105346
 33
0.0
 14
-124.813563
 24
802.105346
 34
0.0
  0
DIMENSION
  5
248
  8
2
 62
     7
  2
*D21
 10
-959.813663
 20
651.441843
 30
0.0
 11
-989.063661
 21
633.847848
 31
0.0
 13
-719.813563
 23
699.105346
 33
0.0
 14
-693.813563
 24
723.105346
 34
0.0
 50
90.000003
  0
DIMENSION
  5
249
  8
2
 62
     7
  2
*D22
 10
-959.813663
 20
925.478679
 30
0.0
 11
-989.063661
 21
962.362863
 31
0.0
 13
-693.813563
 23
853.105346
 33
0.0
 14
-719.813663
 24
897.105346
 34
0.0
 50
90.000003
  0
DIMENSION
  5
24A
  8
2
 62
     7
  2
*D23
 10
-959.813663
 20
773.909632
 30
0.0
 11
-989.063662
 21
788.105317
 31
0.0
 13
-693.813563
 23
723.105346
 33
0.0
 14
-693.813563
 24
853.105346
 34
0.0
 50
90.000003
  0
DIMENSION
  5
24B
  8
2
 62
     7
  2
*D24
 10
-510.305547
 20
-821.717715
 30
0.0
 11
-414.813658
 21
-792.467712
 31
0.0
 13
-704.813663
 23
-686.717715
 33
0.0
 14
-124.813663
 24
-686.717815
 34
0.0
  0
DIMENSION
  5
24C
  8
2
 62
     7
  2
*D25
 10
-34.681353
 20
-821.717715
 30
0.0
 11
5.443835
 21
-792.467712
 31
0.0
 13
-124.813663
 23
-686.717815
 33
0.0
 14
-59.813663
 24
-451.633715
 34
0.0
  0
DIMENSION
  5
24D
  8
2
 62
     7
  2
*D26
 10
-182.994274
 20
-741.717715
 30
0.0
 11
-190.071157
 21
-712.467712
 31
0.0
 13
-124.813663
 23
-686.717815
 33
0.0
 14
-84.813663
 24
-481.717715
 34
0.0
  0
DIMENSION
  5
24E
  8
2
 62
     7
  2
*D27
 10
90.186337
 20
-634.945937
 30
0.0
 11
60.936338
 21
-626.717743
 31
0.0
 13
-109.813663
 23
-686.717715
 33
0.0
 14
-109.813663
 24
-566.717715
 34
0.0
 50
90.000003
  0
DIMENSION
  5
24F
  8
2
 62
     7
  2
*D28
 10
90.186337
 20
-416.738421
 30
0.0
 11
60.936338
 21
-427.717712
 31
0.0
  1
280
 13
-109.813663
 23
-566.717715
 33
0.0
 14
-109.813663
 24
-288.717715
 34
0.0
 50
90.000003
  0
DIMENSION
  5
250
  8
2
 62
     7
  2
*D29
 10
-999.813663
 20
-481.518777
 30
0.0
 11
-1029.063662
 21
-386.717712
 31
0.0
 13
-719.813663
 23
-686.717715
 33
0.0
 14
-689.813663
 24
-86.717715
 34
0.0
 50
90.000003
  0
DIMENSION
  5
251
  8
2
 62
     7
  2
*D30
 10
-929.813663
 20
-486.633016
 30
0.0
 11
-959.063662
 21
-391.717804
 31
0.0
 13
-879.813663
 23
-601.717815
 33
0.0
 14
-879.813663
 24
-181.717815
 34
0.0
 50
90.000003
  0
DIMENSION
  5
252
  8
2
 62
     7
  2
*D31
 10
-929.813663
 20
-643.469668
 30
0.0
 11
-959.063661
 21
-634.347708
 31
0.0
 13
-719.813663
 23
-686.717715
 33
0.0
 14
-879.813663
 24
-601.717815
 34
0.0
 50
90.000003
  0
DIMENSION
  5
253
  8
2
 62
     7
  2
*D32
 10
-889.813663
 20
-53.627477
 30
0.0
 11
-919.063661
 21
-21.460219
 31
0.0
 13
-719.813663
 23
-111.717715
 33
0.0
 14
-689.813663
 24
-86.717715
 34
0.0
 50
90.000003
  0
DIMENSION
  5
254
  8
2
 62
     7
  2
*D33
 10
-809.813663
 20
-33.170523
 30
0.0
 11
-839.063661
 21
-21.460219
 31
0.0
 13
-678.329594
 23
-97.717715
 33
0.0
 14
-689.813663
 24
-86.717715
 34
0.0
 50
90.000003
  0
DIMENSION
  5
255
  8
2
 62
     7
  2
*D34
 10
-523.943517
 20
78.282285
 30
0.0
 11
-414.813658
 21
107.532288
 31
0.0
 13
-719.813663
 23
-111.717715
 33
0.0
 14
-109.813663
 24
-111.717715
 34
0.0
  0
DIMENSION
  5
256
  8
2
 62
     7
  2
*D35
 10
-493.258085
 20
-1.717715
 30
0.0
 11
-388.027307
 21
27.532285
 31
0.0
  1
５×１００＝５００
 13
-664.813663
 23
-79.717715
 33
0.0
 14
-164.813663
 24
-76.717715
 34
0.0
  0
LINE
  5
257
  8
1
 10
-719.813663
 20
-111.717715
 30
0.0
 11
-719.813663
 21
-686.717715
 31
0.0
  0
LINE
  5
258
  8
1
 10
-109.813663
 20
-111.717715
 30
0.0
 11
-109.813663
 21
-686.717815
 31
0.0
  0
LINE
  5
259
  8
1
 10
-109.813663
 20
-111.717715
 30
0.0
 11
-414.813663
 21
-111.717715
 31
0.0
  0
LINE
  5
25A
  8
1
 10
-139.813663
 20
-86.717715
 30
0.0
 11
-689.813663
 21
-86.717715
 31
0.0
  0
LINE
  5
25B
  8
1
 10
-109.813663
 20
-686.717715
 30
0.0
 11
-139.813663
 21
-686.717715
 31
0.0
  0
LINE
  5
25C
  8
1
 10
-109.813663
 20
-601.717715
 30
0.0
 11
-719.813663
 21
-601.717815
 31
0.0
  0
LINE
  5
25D
  8
1
  6
DASHDOT
 10
-414.813663
 20
-74.717715
 30
0.0
 11
-414.813663
 21
-636.717715
 31
0.0
  0
LINE
  5
25E
  8
1
  6
DASHDOT
 10
-704.813663
 20
-271.717715
 30
0.0
 11
-704.813663
 21
-686.717715
 31
0.0
  0
LINE
  5
25F
  8
1
  6
DASHDOT
 10
-139.813663
 20
-97.717715
 30
0.0
 11
-678.329594
 21
-97.717715
 31
0.0
  0
LINE
  5
260
  8
1
  6
DASHDOT
 10
-124.813563
 20
-271.717715
 30
0.0
 11
-124.813663
 21
-686.717815
 31
0.0
  0
LINE
  5
261
  8
1
 10
-689.813563
 20
-86.717715
 30
0.0
 11
-689.813563
 21
-111.717715
 31
0.0
  0
LINE
  5
262
  8
1
 10
-689.813663
 20
-686.717715
 30
0.0
 11
-719.813663
 21
-686.717715
 31
0.0
  0
LINE
  5
263
  8
1
 10
-139.813663
 20
-601.717715
 30
0.0
 11
-139.813663
 21
-686.717715
 31
0.0
  0
LINE
  5
264
  8
1
 10
-689.813663
 20
-601.717815
 30
0.0
 11
-689.813663
 21
-686.717715
 31
0.0
  0
LINE
  5
265
  8
1
 10
-414.813663
 20
-111.717715
 30
0.0
 11
-719.813663
 21
-111.717715
 31
0.0
  0
LINE
  5
266
  8
1
 10
-139.813663
 20
-86.717715
 30
0.0
 11
-139.813663
 21
-111.717715
 31
0.0
  0
LINE
  5
267
  8
1
  6
DASHED
 10
-689.813563
 20
-111.717715
 30
0.0
 11
-689.813663
 21
-601.717815
 31
0.0
  0
LINE
  5
268
  8
1
  6
DASHED
 10
-139.813663
 20
-111.717715
 30
0.0
 11
-139.813663
 21
-601.717715
 31
0.0
  0
LINE
  5
269
  8
1
  6
DASHDOT
 10
-689.813663
 20
-566.717715
 30
0.0
 11
-719.813663
 21
-566.717715
 31
0.0
  0
LINE
  5
26A
  8
1
  6
DASHDOT
 10
-109.813663
 20
-566.717715
 30
0.0
 11
-139.813663
 21
-566.717715
 31
0.0
  0
LINE
  5
26B
  8
1
  6
DASHDOT
 10
-689.813663
 20
-286.717715
 30
0.0
 11
-719.813663
 21
-286.717715
 31
0.0
  0
LINE
  5
26C
  8
1
 10
-109.813663
 20
897.105346
 30
0.0
 11
-479.813663
 21
897.105346
 31
0.0
  0
LINE
  5
26D
  8
1
 10
-99.813663
 20
-151.717715
 30
0.0
 11
-109.813663
 21
-151.717715
 31
0.0
  0
CIRCLE
  5
26E
  8
1
  6
DASHED
 10
-124.813663
 20
-288.717715
 30
0.0
 40
7.5
  0
CIRCLE
  5
26F
  8
1
  6
DASHED
 10
-124.813663
 20
-566.717715
 30
0.0
 40
7.5
  0
LINE
  5
270
  8
1
 10
-349.813663
 20
897.105346
 30
0.0
 11
-719.813663
 21
897.105346
 31
0.0
  0
CIRCLE
  5
271
  8
1
  6
DASHED
 10
-704.813663
 20
-286.717715
 30
0.0
 40
7.5
  0
CIRCLE
  5
272
  8
1
  6
DASHED
 10
-704.813663
 20
-566.717715
 30
0.0
 40
7.5
  0
LINE
  5
273
  8
1
 10
-109.813663
 20
-401.954215
 30
0.0
 11
-89.813663
 21
-401.954215
 31
0.0
  0
LINE
  5
274
  8
1
 10
-109.813663
 20
-396.744215
 30
0.0
 11
-89.813663
 21
-396.744215
 31
0.0
  0
LINE
  5
275
  8
1
 10
-109.813763
 20
-344.574115
 30
0.0
 11
-89.813663
 21
-344.574115
 31
0.0
  0
LINE
  5
276
  8
1
 10
-89.813663
 20
-344.574115
 30
0.0
 11
-89.813663
 21
-401.954215
 31
0.0
  0
LINE
  5
277
  8
1
 10
-729.813663
 20
-261.717715
 30
0.0
 11
-719.813663
 21
-261.717715
 31
0.0
  0
LINE
  5
278
  8
1
 10
-729.813663
 20
-241.717715
 30
0.0
 11
-719.813663
 21
-241.717715
 31
0.0
  0
LINE
  5
279
  8
1
 10
-729.813663
 20
-241.717715
 30
0.0
 11
-729.813663
 21
-261.717715
 31
0.0
  0
LINE
  5
27A
  8
1
 10
-99.813663
 20
782.105846
 30
0.0
 11
-59.813463
 21
782.105846
 31
0.0
  0
LINE
  5
27B
  8
1
 10
-99.813663
 20
742.105846
 30
0.0
 11
-59.813463
 21
742.105846
 31
0.0
  0
LINE
  5
27C
  8
1
 10
-109.813663
 20
-324.547715
 30
0.0
 11
-719.813663
 21
-324.547715
 31
0.0
  0
LINE
  5
27D
  8
1
 10
-109.813663
 20
-428.897715
 30
0.0
 11
-719.813663
 21
-428.897715
 31
0.0
  0
LINE
  5
27E
  8
1
 10
-59.813463
 20
782.105846
 30
0.0
 11
-59.813463
 21
772.443446
 31
0.0
  0
LINE
  5
27F
  8
1
 10
-739.813663
 20
726.104946
 30
0.0
 11
-719.813463
 21
726.104846
 31
0.0
  0
LINE
  5
280
  8
1
 10
-74.713663
 20
-451.633715
 30
0.0
 11
-74.713663
 21
-473.717715
 31
0.0
  0
LINE
  5
281
  8
1
 10
-94.913663
 20
-451.633715
 30
0.0
 11
-94.913663
 21
-473.717715
 31
0.0
  0
LINE
  5
282
  8
1
 10
-109.813663
 20
-432.764115
 30
0.0
 11
-59.813663
 21
-432.764115
 31
0.0
  0
LINE
  5
283
  8
1
 10
-109.813763
 20
-451.633715
 30
0.0
 11
-59.813663
 21
-451.633715
 31
0.0
  0
LINE
  5
284
  8
1
 10
-59.813663
 20
-432.764115
 30
0.0
 11
-59.813663
 21
-451.633715
 31
0.0
  0
LINE
  5
285
  8
1
  6
DASHED
 10
-149.813663
 20
-596.397715
 30
0.0
 11
-679.813663
 21
-596.397715
 31
0.0
  0
LINE
  5
286
  8
1
  6
DASHDOT
 10
-84.813663
 20
-428.897715
 30
0.0
 11
-84.813663
 21
-481.717715
 31
0.0
  0
LINE
  5
287
  8
1
 10
-94.913663
 20
-473.717715
 30
0.0
 11
-74.713663
 21
-473.717815
 31
0.0
  0
LINE
  5
288
  8
1
  6
DASHDOT
 10
-52.613663
 20
-293.717715
 30
0.0
 11
-83.213663
 21
-293.717615
 31
0.0
  0
LINE
  5
289
  8
1
 10
-889.813663
 20
891.105346
 30
0.0
 11
-889.813663
 21
841.105346
 31
0.0
  0
LINE
  5
28A
  8
1
 10
-719.813663
 20
891.105346
 30
0.0
 11
-889.813663
 21
891.105346
 31
0.0
  0
LINE
  5
28B
  8
1
 10
-879.813663
 20
841.105346
 30
0.0
 11
-889.813663
 21
841.105346
 31
0.0
  0
LINE
  5
28C
  8
1
 10
-729.813663
 20
-601.717815
 30
0.0
 11
-879.813663
 21
-601.717815
 31
0.0
  0
LINE
  5
28D
  8
1
 10
-59.813463
 20
747.291346
 30
0.0
 11
-59.813463
 21
742.105846
 31
0.0
  0
LINE
  5
28E
  8
1
  6
DASHED
 10
-679.813663
 20
-596.397715
 30
0.0
 11
-679.813663
 21
-601.717815
 31
0.0
  0
LINE
  5
28F
  8
1
  6
DASHED
 10
-149.813663
 20
-596.397715
 30
0.0
 11
-149.813663
 21
-601.717715
 31
0.0
  0
LINE
  5
290
  8
1
 10
-879.813663
 20
-181.717815
 30
0.0
 11
-879.813663
 21
-601.717815
 31
0.0
  0
LINE
  5
291
  8
1
 10
-729.813663
 20
-181.717815
 30
0.0
 11
-879.813663
 21
-181.717815
 31
0.0
  0
LINE
  5
292
  8
1
 10
-869.813663
 20
-181.717815
 30
0.0
 11
-869.813663
 21
-601.717815
 31
0.0
  0
LINE
  5
293
  8
1
  6
DASHDOT
 10
-664.813663
 20
-79.717715
 30
0.0
 11
-664.813663
 21
-116.717715
 31
0.0
  0
LINE
  5
294
  8
1
  6
DASHDOT
 10
-164.813663
 20
-76.717715
 30
0.0
 11
-164.813663
 21
-113.717715
 31
0.0
  0
LINE
  5
295
  8
1
 10
-349.813663
 20
853.105346
 30
0.0
 11
-693.813563
 21
853.105346
 31
0.0
  0
LINE
  5
296
  8
1
 10
-135.813663
 20
853.105446
 30
0.0
 11
-479.813663
 21
853.105346
 31
0.0
  0
CIRCLE
  5
297
  8
1
  6
DIVIDE
 10
-664.813663
 20
-97.717715
 30
0.0
 40
5.0
  0
LINE
  5
298
  8
1
 10
-109.813663
 20
857.105346
 30
0.0
 11
-479.813663
 21
857.105346
 31
0.0
  0
LINE
  5
299
  8
1
 10
-349.813663
 20
857.105346
 30
0.0
 11
-719.813663
 21
857.105346
 31
0.0
  0
LINE
  5
29A
  8
1
 10
-349.813663
 20
719.105346
 30
0.0
 11
-719.813563
 21
719.105346
 31
0.0
  0
LINE
  5
29B
  8
1
 10
-109.813663
 20
719.105346
 30
0.0
 11
-479.813663
 21
719.105346
 31
0.0
  0
LINE
  5
29C
  8
1
  6
DASHDOT
 10
-704.813563
 20
802.105346
 30
0.0
 11
-704.813463
 21
774.105346
 31
0.0
  0
LINE
  5
29D
  8
1
 10
-135.813663
 20
723.105446
 30
0.0
 11
-479.813663
 21
723.105346
 31
0.0
  0
LINE
  5
29E
  8
1
 10
-349.813663
 20
723.105346
 30
0.0
 11
-693.813563
 21
723.105346
 31
0.0
  0
LINE
  5
29F
  8
1
 10
-349.813663
 20
699.105346
 30
0.0
 11
-719.813563
 21
699.105346
 31
0.0
  0
LINE
  5
2A0
  8
1
 10
-135.813663
 20
857.105346
 30
0.0
 11
-135.813663
 21
719.105346
 31
0.0
  0
LINE
  5
2A1
  8
1
 10
-693.813563
 20
857.105346
 30
0.0
 11
-693.813663
 21
719.105346
 31
0.0
  0
LINE
  5
2A2
  8
1
  6
DASHDOT
 10
-113.813463
 20
788.105346
 30
0.0
 11
-135.813663
 21
788.105346
 31
0.0
  0
LINE
  5
2A3
  8
1
 10
-118.813463
 20
791.105346
 30
0.0
 11
-118.813263
 21
785.105346
 31
0.0
  0
LINE
  5
2A4
  8
1
 10
-130.813463
 20
791.105346
 30
0.0
 11
-130.813263
 21
785.105346
 31
0.0
  0
ARC
  5
2A5
  8
1
 10
-704.813463
 20
785.105346
 30
0.0
 40
6.0
 50
180.0002
 51
0.0
  0
ARC
  5
2A6
  8
1
 10
-704.813563
 20
791.105346
 30
0.0
 40
6.0
 50
0.0
 51
180.0002
  0
LINE
  5
2A7
  8
1
 10
-710.813463
 20
791.105346
 30
0.0
 11
-710.813263
 21
785.105346
 31
0.0
  0
LINE
  5
2A8
  8
1
 10
-698.813463
 20
791.105346
 30
0.0
 11
-698.813263
 21
785.105346
 31
0.0
  0
ARC
  5
2A9
  8
1
 10
-124.813563
 20
791.105346
 30
0.0
 40
6.0
 50
0.0
 51
180.0002
  0
ARC
  5
2AA
  8
1
 10
-124.813463
 20
785.105346
 30
0.0
 40
6.0
 50
180.0002
 51
0.0
  0
LINE
  5
2AB
  8
1
  6
DASHDOT
 10
-693.813463
 20
788.105346
 30
0.0
 11
-715.813663
 21
788.105346
 31
0.0
  0
LINE
  5
2AC
  8
1
 10
-109.813663
 20
699.105346
 30
0.0
 11
-479.813663
 21
699.105346
 31
0.0
  0
LINE
  5
2AD
  8
1
 10
-109.813663
 20
681.105346
 30
0.0
 11
-719.813563
 21
681.105346
 31
0.0
  0
LINE
  5
2AE
  8
1
 10
-139.813663
 20
853.105446
 30
0.0
 11
-139.813663
 21
723.105446
 31
0.0
  0
LINE
  5
2AF
  8
1
 10
-689.813563
 20
853.105446
 30
0.0
 11
-689.813563
 21
723.105346
 31
0.0
  0
LINE
  5
2B0
  8
1
 10
-349.813663
 20
901.105346
 30
0.0
 11
-719.813663
 21
901.105346
 31
0.0
  0
LINE
  5
2B1
  8
1
  6
DASHDOT
 10
-124.813563
 20
802.105346
 30
0.0
 11
-124.813463
 21
774.105346
 31
0.0
  0
LINE
  5
2B2
  8
1
  6
DASHDOT
 10
-414.813663
 20
916.105346
 30
0.0
 11
-414.813563
 21
673.105446
 31
0.0
  0
LINE
  5
2B3
  8
1
 10
-109.813663
 20
901.105346
 30
0.0
 11
-479.813663
 21
901.105346
 31
0.0
  0
LINE
  5
2B4
  8
1
 10
-109.813663
 20
901.105346
 30
0.0
 11
-109.813663
 21
681.105346
 31
0.0
  0
LINE
  5
2B5
  8
1
 10
-719.813663
 20
901.105346
 30
0.0
 11
-719.813663
 21
681.105446
 31
0.0
  0
LINE
  5
2B6
  8
1
 10
-99.813663
 20
871.105346
 30
0.0
 11
-109.813663
 21
871.105346
 31
0.0
  0
LINE
  5
2B7
  8
1
 10
-99.813663
 20
871.105346
 30
0.0
 11
-99.813663
 21
731.105346
 31
0.0
  0
LINE
  5
2B8
  8
1
 10
-99.813663
 20
731.105346
 30
0.0
 11
-109.813663
 21
731.105346
 31
0.0
  0
LINE
  5
2B9
  8
1
 10
-729.813663
 20
-501.717715
 30
0.0
 11
-729.813663
 21
-521.717715
 31
0.0
  0
LINE
  5
2BA
  8
1
 10
-99.813663
 20
-151.717715
 30
0.0
 11
-99.813663
 21
-311.717715
 31
0.0
  0
LINE
  5
2BB
  8
1
 10
-99.813663
 20
-311.717715
 30
0.0
 11
-109.813663
 21
-311.717715
 31
0.0
  0
LINE
  5
2BC
  8
1
 10
-729.813663
 20
-501.717715
 30
0.0
 11
-719.813663
 21
-501.717715
 31
0.0
  0
LINE
  5
2BD
  8
1
 10
-729.813663
 20
-521.717715
 30
0.0
 11
-719.813663
 21
-521.717715
 31
0.0
  0
LINE
  5
2BE
  8
1
 10
-729.813663
 20
-181.717815
 30
0.0
 11
-729.813663
 21
-601.717815
 31
0.0
  0
LINE
  5
2BF
  8
1
 10
-739.813663
 20
-181.717815
 30
0.0
 11
-739.813663
 21
-601.717815
 31
0.0
  0
LINE
  5
2C0
  8
1
 10
-879.813663
 20
841.105346
 30
0.0
 11
-739.813663
 21
726.104946
 31
0.0
  0
LINE
  5
2C1
  8
1
 10
-729.813663
 20
891.105246
 30
0.0
 11
-729.813663
 21
726.104846
 31
0.0
  0
CIRCLE
  5
2C2
  8
1
  6
DIVIDE
 10
-164.813663
 20
-97.717715
 30
0.0
 40
5.0
  0
TEXT
  5
2C3
  8
2
 10
-589.813599
 20
581.105225
 30
0.0
 40
25.0
  1
（吹出口フランジ内寸法）
 41
0.825
  7
MONOTXT
  0
LINE
  5
2C4
  8
1
 10
990.653752
 20
-126.758215
 30
0.0
 11
894.376052
 21
-274.877715
 31
0.0
  0
LINE
  5
2C5
  8
1
 10
870.463852
 20
-344.574115
 30
0.0
 11
922.653752
 21
-360.234115
 31
0.0
  0
LINE
  5
2C6
  8
1
 10
870.463852
 20
-396.744215
 30
0.0
 11
870.463852
 21
-344.574115
 31
0.0
  0
LINE
  5
2C7
  8
1
 10
901.763752
 20
-401.954215
 30
0.0
 11
870.463852
 21
-396.744215
 31
0.0
  0
LINE
  5
2C8
  8
1
 10
922.653752
 20
-360.234115
 30
0.0
 11
901.763752
 21
-401.954215
 31
0.0
  0
LINE
  5
2C9
  8
1
 10
849.283752
 20
-611.497715
 30
0.0
 11
849.283752
 21
-676.717815
 31
0.0
  0
LINE
  5
2CA
  8
1
 10
872.283752
 20
-666.717715
 30
0.0
 11
882.283752
 21
-666.717715
 31
0.0
  0
LINE
  5
2CB
  8
1
 10
872.283752
 20
-671.717715
 30
0.0
 11
882.283752
 21
-671.717715
 31
0.0
  0
LINE
  5
2CC
  8
1
 10
882.283752
 20
-666.717715
 30
0.0
 11
882.283752
 21
-671.717715
 31
0.0
  0
LINE
  5
2CD
  8
1
 10
872.283752
 20
-666.717715
 30
0.0
 11
872.283752
 21
-671.717715
 31
0.0
  0
LINE
  5
2CE
  8
1
 10
1019.783752
 20
-671.717815
 30
0.0
 11
1019.783752
 21
-676.717715
 31
0.0
  0
LINE
  5
2CF
  8
1
 10
874.783752
 20
-671.717715
 30
0.0
 11
874.783752
 21
-676.717715
 31
0.0
  0
LINE
  5
2D0
  8
1
 10
1014.783752
 20
-671.717715
 30
0.0
 11
1014.783752
 21
-676.717715
 31
0.0
  0
LINE
  5
2D1
  8
1
 10
1012.283752
 20
-666.717715
 30
0.0
 11
1012.283752
 21
-671.717715
 31
0.0
  0
LINE
  5
2D2
  8
1
 10
1022.283752
 20
-666.717715
 30
0.0
 11
1022.283752
 21
-671.717715
 31
0.0
  0
LINE
  5
2D3
  8
1
 10
1012.283752
 20
-671.717715
 30
0.0
 11
1022.283752
 21
-671.717715
 31
0.0
  0
LINE
  5
2D4
  8
1
 10
1012.283752
 20
-666.717715
 30
0.0
 11
1022.283752
 21
-666.717715
 31
0.0
  0
LINE
  5
2D5
  8
1
 10
879.783752
 20
-671.717815
 30
0.0
 11
879.783752
 21
-676.717715
 31
0.0
  0
LINE
  5
2D6
  8
1
 10
1043.283752
 20
-611.717815
 30
0.0
 11
1043.283752
 21
-672.717715
 31
0.0
  0
LINE
  5
2D7
  8
1
 10
1047.283752
 20
-561.717715
 30
0.0
 11
1047.283752
 21
-607.717715
 31
0.0
  0
LINE
  5
2D8
  8
1
  6
DASHDOT
 10
947.283752
 20
-651.717715
 30
0.0
 11
947.283752
 21
-697.717715
 31
0.0
  0
LINE
  5
2D9
  8
1
 10
1024.191552
 20
-148.557815
 30
0.0
 11
927.913752
 21
-296.677215
 31
0.0
  0
LINE
  5
2DA
  8
1
 10
1047.283752
 20
-561.717715
 30
0.0
 11
1051.283752
 21
-561.717715
 31
0.0
  0
LINE
  5
2DB
  8
1
 10
1028.383852
 20
-151.282715
 30
0.0
 11
932.106052
 21
-299.402215
 31
0.0
  0
LINE
  5
2DC
  8
1
 10
1047.283752
 20
-451.717715
 30
0.0
 11
1051.283752
 21
-451.717715
 31
0.0
  0
LINE
  5
2DD
  8
1
 10
867.283752
 20
-86.717715
 30
0.0
 11
867.283752
 21
-111.717715
 31
0.0
  0
LINE
  5
2DE
  8
1
 10
894.376052
 20
-274.877715
 30
0.0
 11
932.106052
 21
-299.402215
 31
0.0
  0
ARC
  5
2DF
  8
1
 10
857.283752
 20
-682.717715
 30
0.0
 40
4.0
 50
180.0001
 51
270.0002
  0
ARC
  5
2E0
  8
1
 10
1035.283752
 20
-682.717715
 30
0.0
 40
4.0
 50
270.0011
 51
0.0
  0
ARC
  5
2E1
  8
1
 10
1039.283752
 20
-672.717715
 30
0.0
 40
4.0
 50
270.0002
 51
0.0
  0
ARC
  5
2E2
  8
1
 10
1043.283752
 20
-607.717715
 30
0.0
 40
4.0
 50
270.0011
 51
0.0
  0
LINE
  5
2E3
  8
1
 10
849.283752
 20
-676.717715
 30
0.0
 11
1039.283752
 21
-676.717715
 31
0.0
  0
CIRCLE
  5
2E4
  8
1
 10
905.783752
 20
-97.717715
 30
0.0
 40
5.0
  0
CIRCLE
  5
2E5
  8
1
 10
970.783852
 20
-97.717715
 30
0.0
 40
5.0
  0
LINE
  5
2E6
  8
1
 10
990.653752
 20
-126.758215
 30
0.0
 11
1028.383852
 21
-151.282715
 31
0.0
  0
LINE
  5
2E7
  8
1
  6
DASHDOT
 10
895.783752
 20
-97.717715
 30
0.0
 11
980.783752
 21
-97.717715
 31
0.0
  0
LINE
  5
2E8
  8
1
 10
905.783752
 20
-81.717715
 30
0.0
 11
905.783752
 21
-107.717715
 31
0.0
  0
LINE
  5
2E9
  8
1
 10
970.783852
 20
-81.717715
 30
0.0
 11
970.783852
 21
-107.717715
 31
0.0
  0
LINE
  5
2EA
  8
1
 10
889.183752
 20
-473.717715
 30
0.0
 11
909.383752
 21
-473.717715
 31
0.0
  0
LINE
  5
2EB
  8
1
  6
DASHDOT
 10
899.283752
 20
-428.897715
 30
0.0
 11
899.283752
 21
-481.717715
 31
0.0
  0
LINE
  5
2EC
  8
1
 10
924.283752
 20
-432.764115
 30
0.0
 11
924.283752
 21
-451.633715
 31
0.0
  0
LINE
  5
2ED
  8
1
 10
874.283752
 20
-451.633715
 30
0.0
 11
924.283752
 21
-451.633715
 31
0.0
  0
LINE
  5
2EE
  8
1
 10
874.283752
 20
-432.764115
 30
0.0
 11
924.283752
 21
-432.764115
 31
0.0
  0
LINE
  5
2EF
  8
1
 10
889.183652
 20
-451.633715
 30
0.0
 11
889.183752
 21
-473.717715
 31
0.0
  0
LINE
  5
2F0
  8
1
 10
909.383652
 20
-451.633715
 30
0.0
 11
909.383752
 21
-473.717715
 31
0.0
  0
LINE
  5
2F1
  8
1
 10
1047.283752
 20
-451.717715
 30
0.0
 11
1047.283752
 21
-561.717715
 31
0.0
  0
CIRCLE
  5
2F2
  8
1
 10
920.283752
 20
-271.717715
 30
0.0
 40
10.0
  0
CIRCLE
  5
2F3
  8
1
 10
998.283852
 20
-151.717715
 30
0.0
 40
10.0
  0
LINE
  5
2F4
  8
1
 10
997.283752
 20
-86.717715
 30
0.0
 11
997.283752
 21
-111.717715
 31
0.0
  0
LINE
  5
2F5
  8
1
  6
DASHDOT
 10
920.283752
 20
-249.717715
 30
0.0
 11
920.283752
 21
-289.717715
 31
0.0
  0
LINE
  5
2F6
  8
1
  6
DASHDOT
 10
998.283752
 20
-131.717715
 30
0.0
 11
998.283752
 21
-171.717715
 31
0.0
  0
LINE
  5
2F7
  8
1
 10
1039.283752
 20
-119.717715
 30
0.0
 11
1039.283752
 21
-682.717615
 31
0.0
  0
LINE
  5
2F8
  8
1
 10
853.283752
 20
-119.717715
 30
0.0
 11
853.283752
 21
-682.717715
 31
0.0
  0
LINE
  5
2F9
  8
1
 10
853.283752
 20
-119.717715
 30
0.0
 11
1039.283752
 21
-119.717715
 31
0.0
  0
LINE
  5
2FA
  8
1
 10
1051.283752
 20
-451.717715
 30
0.0
 11
1051.283752
 21
-561.717715
 31
0.0
  0
LINE
  5
2FB
  8
1
 10
831.283752
 20
-607.497715
 30
0.0
 11
849.283852
 21
-607.497715
 31
0.0
  0
LINE
  5
2FC
  8
1
 10
831.283752
 20
-432.897715
 30
0.0
 11
849.283752
 21
-432.897715
 31
0.0
  0
LINE
  5
2FD
  8
1
 10
831.283752
 20
-432.897715
 30
0.0
 11
831.283752
 21
-607.497715
 31
0.0
  0
LINE
  5
2FE
  8
1
 10
845.283752
 20
-111.717715
 30
0.0
 11
845.283752
 21
-428.897715
 31
0.0
  0
LINE
  5
2FF
  8
1
 10
827.283752
 20
-611.497715
 30
0.0
 11
849.283752
 21
-611.497715
 31
0.0
  0
LINE
  5
300
  8
1
 10
827.283752
 20
-428.897715
 30
0.0
 11
845.283752
 21
-428.897715
 31
0.0
  0
LINE
  5
301
  8
1
 10
827.283752
 20
-428.897715
 30
0.0
 11
827.283752
 21
-611.497815
 31
0.0
  0
LINE
  5
302
  8
1
 10
1047.283752
 20
-111.717715
 30
0.0
 11
1047.283752
 21
-451.717715
 31
0.0
  0
LINE
  5
303
  8
1
  6
DASHDOT
 10
978.283752
 20
-151.717715
 30
0.0
 11
1018.283752
 21
-151.717715
 31
0.0
  0
LINE
  5
304
  8
1
  6
DASHDOT
 10
901.283752
 20
-271.717715
 30
0.0
 11
941.283752
 21
-271.717715
 31
0.0
  0
LINE
  5
305
  8
1
 10
874.283752
 20
-432.764115
 30
0.0
 11
874.283752
 21
-451.633715
 31
0.0
  0
LINE
  5
306
  8
1
 10
857.283752
 20
-686.717715
 30
0.0
 11
1035.283752
 21
-686.717715
 31
0.0
  0
LINE
  5
307
  8
1
 10
867.283752
 20
-86.717715
 30
0.0
 11
997.283752
 21
-86.717715
 31
0.0
  0
LINE
  5
308
  8
1
 10
845.283752
 20
-111.717715
 30
0.0
 11
1047.283752
 21
-111.717715
 31
0.0
  0
LINE
  5
309
  8
1
  6
DASHDOT
 10
-109.813663
 20
-288.717715
 30
0.0
 11
-139.813663
 21
-288.717715
 31
0.0
  0
LINE
  5
30A
  8
1
  6
DASHDOT
 10
-109.813663
 20
-171.717715
 30
0.0
 11
-33.321663
 21
-171.717715
 31
0.0
  0
LINE
  5
30B
  8
1
  6
DASHDOT
 10
-109.813663
 20
-293.717815
 30
0.0
 11
-33.321663
 21
-293.717715
 31
0.0
  0
ARC
  5
30C
  8
1
 10
-57.805263
 20
-283.571715
 30
0.0
 40
8.8425
 50
343.4442
 51
26.3884
  0
ARC
  5
30D
  8
1
 10
-43.657263
 20
-309.509715
 30
0.0
 40
7.86
 50
90.0
 51
143.1304
  0
ARC
  5
30E
  8
1
 10
-43.657263
 20
-274.925615
 30
0.0
 40
7.86
 50
216.8698
 51
270.0002
  0
LINE
  5
30F
  8
1
 10
-49.350663
 20
-298.343915
 30
0.0
 11
-64.093563
 21
-298.343915
 31
0.0
  0
LINE
  5
310
  8
1
 10
-49.350663
 20
-286.091415
 30
0.0
 11
-64.093363
 21
-286.091415
 31
0.0
  0
ARC
  5
311
  8
1
 10
-65.940663
 20
-292.217715
 30
0.0
 40
17.685
 50
339.7324
 51
20.2683
  0
LINE
  5
312
  8
1
 10
-43.657263
 20
-282.785615
 30
0.0
 11
-43.657663
 21
-301.649715
 31
0.0
  0
LINE
  5
313
  8
1
 10
-49.945263
 20
-304.793715
 30
0.0
 11
-64.093663
 21
-304.793715
 31
0.0
  0
LINE
  5
314
  8
1
 10
-49.945263
 20
-279.641715
 30
0.0
 11
-64.093263
 21
-279.641715
 31
0.0
  0
ARC
  5
315
  8
1
 10
-57.805263
 20
-300.863715
 30
0.0
 40
8.8425
 50
333.6121
 51
16.5563
  0
LINE
  5
316
  8
1
 10
-64.093563
 20
-300.942215
 30
0.0
 11
-66.451463
 21
-300.942315
 31
0.0
  0
LINE
  5
317
  8
1
 10
-64.093463
 20
-283.493115
 30
0.0
 11
-66.451463
 21
-283.493115
 31
0.0
  0
LINE
  5
318
  8
1
 10
-75.097463
 20
-299.235215
 30
0.0
 11
-77.455463
 21
-299.235215
 31
0.0
  0
LINE
  5
319
  8
1
 10
-77.455463
 20
-285.200115
 30
0.0
 11
-77.455463
 21
-299.235215
 31
0.0
  0
LINE
  5
31A
  8
1
 10
-75.097463
 20
-285.200115
 30
0.0
 11
-77.455463
 21
-285.200115
 31
0.0
  0
LINE
  5
31B
  8
1
 10
-77.455463
 20
-298.505715
 30
0.0
 11
-99.813663
 21
-298.505715
 31
0.0
  0
LINE
  5
31C
  8
1
 10
-77.455463
 20
-285.929615
 30
0.0
 11
-99.813663
 21
-285.929715
 31
0.0
  0
LINE
  5
31D
  8
1
 10
-71.103963
 20
-303.108815
 30
0.0
 11
-74.767963
 21
-303.108815
 31
0.0
  0
ARC
  5
31E
  8
1
 10
-67.237463
 20
-283.578415
 30
0.0
 40
7.86
 50
163.3518
 51
203.9728
  0
LINE
  5
31F
  8
1
 10
-75.097463
 20
-301.733315
 30
0.0
 11
-75.097463
 21
-292.217715
 31
0.0
  0
LINE
  5
320
  8
1
 10
-66.451463
 20
-301.733315
 30
0.0
 11
-66.451463
 21
-292.217715
 31
0.0
  0
ARC
  5
321
  8
1
 10
-74.311463
 20
-300.857015
 30
0.0
 40
7.86
 50
343.3522
 51
23.9732
  0
ARC
  5
322
  8
1
 10
-67.237463
 20
-300.857015
 30
0.0
 40
7.86
 50
156.0275
 51
196.6485
  0
ARC
  5
323
  8
1
 10
-86.101563
 20
-292.217715
 30
0.0
 40
19.65
 50
343.9118
 51
16.0895
  0
ARC
  5
324
  8
1
 10
-74.311463
 20
-283.578415
 30
0.0
 40
7.86
 50
336.0274
 51
16.6484
  0
LINE
  5
325
  8
1
 10
-64.093263
 20
-279.641715
 30
0.0
 11
-64.093663
 21
-304.793715
 31
0.0
  0
LINE
  5
326
  8
1
 10
-67.129563
 20
-297.663215
 30
0.0
 11
-74.419363
 21
-297.663215
 31
0.0
  0
LINE
  5
327
  8
1
 10
-67.221163
 20
-288.272115
 30
0.0
 11
-74.419363
 21
-288.272015
 31
0.0
  0
LINE
  5
328
  8
1
 10
-66.451463
 20
-282.702015
 30
0.0
 11
-66.451463
 21
-292.217615
 31
0.0
  0
LINE
  5
329
  8
1
 10
-75.097463
 20
-282.702015
 30
0.0
 11
-75.097463
 21
-292.217615
 31
0.0
  0
LINE
  5
32A
  8
1
 10
-66.780963
 20
-303.108715
 30
0.0
 11
-72.606463
 21
-303.108815
 31
0.0
  0
LINE
  5
32B
  8
1
 10
-66.780963
 20
-281.326515
 30
0.0
 11
-74.767963
 21
-281.326615
 31
0.0
  0
ARC
  5
32C
  8
1
 10
-55.447363
 20
-292.217715
 30
0.0
 40
19.65
 50
163.9109
 51
196.0887
  0
LINE
  5
32D
  8
1
  6
DASHDOT
 10
-50.220663
 20
-171.717715
 30
0.0
 11
-58.437863
 21
-171.717715
 31
0.0
  0
LINE
  5
32E
  8
1
 10
-58.282463
 20
-165.211315
 30
0.0
 11
-63.053963
 21
-165.211415
 31
0.0
  0
LINE
  5
32F
  8
1
 10
-58.282463
 20
-178.224015
 30
0.0
 11
-61.762763
 21
-178.224115
 31
0.0
  0
LINE
  5
330
  8
1
 10
-63.250763
 20
-166.033115
 30
0.0
 11
-63.250763
 21
-171.717715
 31
0.0
  0
LINE
  5
331
  8
1
 10
-58.085663
 20
-166.033115
 30
0.0
 11
-58.085663
 21
-171.717715
 31
0.0
  0
LINE
  5
332
  8
1
 10
-58.545463
 20
-168.464515
 30
0.0
 11
-62.845663
 21
-168.464515
 31
0.0
  0
LINE
  5
333
  8
1
 10
-58.490763
 20
-174.970815
 30
0.0
 11
-62.845663
 21
-174.970815
 31
0.0
  0
LINE
  5
334
  8
1
 10
-56.676863
 20
-164.204815
 30
0.0
 11
-56.677163
 21
-179.230615
 31
0.0
  0
ARC
  5
335
  8
1
 10
-62.781263
 20
-166.556615
 30
0.0
 40
4.6956
 50
336.0274
 51
16.6484
  0
ARC
  5
336
  8
1
 10
-69.824663
 20
-171.717815
 30
0.0
 40
11.7389
 50
343.9118
 51
16.0895
  0
ARC
  5
337
  8
1
 10
-51.511863
 20
-171.717815
 30
0.0
 40
11.7389
 50
163.9107
 51
196.0884
  0
ARC
  5
338
  8
1
 10
-58.555263
 20
-176.878915
 30
0.0
 40
4.6956
 50
156.0275
 51
196.6485
  0
ARC
  5
339
  8
1
 10
-62.781263
 20
-176.878915
 30
0.0
 40
4.6956
 50
343.3522
 51
23.9732
  0
LINE
  5
33A
  8
1
 10
-58.085663
 20
-177.402415
 30
0.0
 11
-58.085663
 21
-171.717815
 31
0.0
  0
LINE
  5
33B
  8
1
 10
-63.250763
 20
-177.402415
 30
0.0
 11
-63.250763
 21
-171.717815
 31
0.0
  0
ARC
  5
33C
  8
1
 10
-58.555263
 20
-166.556615
 30
0.0
 40
4.6956
 50
163.3518
 51
203.9728
  0
LINE
  5
33D
  8
1
 10
-60.865063
 20
-178.224115
 30
0.0
 11
-63.053863
 21
-178.224115
 31
0.0
  0
LINE
  5
33E
  8
1
 10
-64.659463
 20
-167.961315
 30
0.0
 11
-99.813663
 21
-167.961315
 31
0.0
  0
LINE
  5
33F
  8
1
 10
-64.659463
 20
-175.474215
 30
0.0
 11
-99.813663
 21
-175.474215
 31
0.0
  0
LINE
  5
340
  8
1
 10
-63.250763
 20
-167.525415
 30
0.0
 11
-64.659463
 21
-167.525415
 31
0.0
  0
LINE
  5
341
  8
1
 10
-64.659463
 20
-167.525415
 30
0.0
 11
-64.659463
 21
-175.910015
 31
0.0
  0
LINE
  5
342
  8
1
 10
-63.250763
 20
-175.910015
 30
0.0
 11
-64.659463
 21
-175.910015
 31
0.0
  0
LINE
  5
343
  8
1
 10
-56.677063
 20
-166.505615
 30
0.0
 11
-58.085663
 21
-166.505715
 31
0.0
  0
LINE
  5
344
  8
1
 10
-56.677063
 20
-176.929815
 30
0.0
 11
-58.085663
 21
-176.929815
 31
0.0
  0
ARC
  5
345
  8
1
 10
-52.920463
 20
-176.882815
 30
0.0
 40
5.2825
 50
333.6121
 51
16.5563
  0
LINE
  5
346
  8
1
 10
-48.224863
 20
-164.204815
 30
0.0
 11
-56.676863
 21
-164.204815
 31
0.0
  0
LINE
  5
347
  8
1
 10
-48.224863
 20
-179.230615
 30
0.0
 11
-56.677163
 21
-179.230615
 31
0.0
  0
LINE
  5
348
  8
1
 10
-44.468463
 20
-166.083015
 30
0.0
 11
-44.468563
 21
-177.352415
 31
0.0
  0
ARC
  5
349
  8
1
 10
-57.780563
 20
-171.717715
 30
0.0
 40
10.565
 50
339.7324
 51
20.2683
  0
LINE
  5
34A
  8
1
 10
-47.869663
 20
-168.057815
 30
0.0
 11
-55.620563
 21
-168.057915
 31
0.0
  0
LINE
  5
34B
  8
1
 10
-47.869663
 20
-175.377515
 30
0.0
 11
-55.620463
 21
-175.377615
 31
0.0
  0
ARC
  5
34C
  8
1
 10
-44.468463
 20
-161.387415
 30
0.0
 40
4.6956
 50
216.8698
 51
270.0002
  0
ARC
  5
34D
  8
1
 10
-44.468463
 20
-182.048015
 30
0.0
 40
4.6956
 50
90.0
 51
143.1304
  0
ARC
  5
34E
  8
1
 10
-52.920463
 20
-166.552615
 30
0.0
 40
5.2825
 50
343.4442
 51
26.3884
  0
LINE
  5
34F
  8
1
 10
1008.283752
 20
-157.491215
 30
0.0
 11
998.283852
 21
-163.264715
 31
0.0
  0
LINE
  5
350
  8
1
 10
930.283752
 20
-265.944215
 30
0.0
 11
930.283752
 21
-277.491215
 31
0.0
  0
LINE
  5
351
  8
1
 10
920.283752
 20
-260.170815
 30
0.0
 11
930.283752
 21
-265.944215
 31
0.0
  0
LINE
  5
352
  8
1
 10
998.283752
 20
-163.264615
 30
0.0
 11
988.283852
 21
-157.491215
 31
0.0
  0
LINE
  5
353
  8
1
 10
910.283852
 20
-265.944315
 30
0.0
 11
920.283752
 21
-260.170815
 31
0.0
  0
LINE
  5
354
  8
1
 10
910.283852
 20
-277.491215
 30
0.0
 11
910.283852
 21
-265.944315
 31
0.0
  0
LINE
  5
355
  8
1
 10
920.283752
 20
-283.264715
 30
0.0
 11
910.283852
 21
-277.491215
 31
0.0
  0
LINE
  5
356
  8
1
 10
930.283752
 20
-277.491215
 30
0.0
 11
920.283852
 21
-283.264715
 31
0.0
  0
LINE
  5
357
  8
1
 10
988.283852
 20
-157.491215
 30
0.0
 11
988.283852
 21
-145.944315
 31
0.0
  0
LINE
  5
358
  8
1
 10
988.283852
 20
-145.944315
 30
0.0
 11
998.283752
 21
-140.170815
 31
0.0
  0
LINE
  5
359
  8
1
 10
998.283752
 20
-140.170715
 30
0.0
 11
1008.283752
 21
-145.944215
 31
0.0
  0
LINE
  5
35A
  8
1
 10
1008.283752
 20
-145.944215
 30
0.0
 11
1008.283752
 21
-157.491215
 31
0.0
  0
LINE
  5
35C
  8
1
 10
849.283752
 20
-432.897715
 30
0.0
 11
849.283852
 21
-607.497715
 31
0.0
  0
TEXT
  8
3
  40
100
  5
3B3
  72
0
  71
0
 10
203.511
 20
-1100.06
 30
0.000000
  1

  0
TEXT
  8
3
  40
100
  5
3B4
  72
0
  71
0
 10
203.511
 20
-1230.06
 30
0.000000
  1
GBLM6_1
  0
TEXT
  8
3
  40
100
  5
3B5
  72
0
  71
0
 10
203.511
 20
-1360.06
 30
0.000000
  1
FXYLM25KV1
  0
TEXT
  8
3
  40
100
  5
3B6
  72
0
  71
0
 10
203.511
 20
-1490.06
 30
0.000000
  1
FXYLM25KVAL
  0
ENDSEC
  0
EOF
