  0
SECTION
  2
HEADER
  9
$ACADVER
  1
AC1009
  9
$DWGCODEPAGE
  3
dos932
  9
$INSBASE
 10
0.0
 20
0.0
 30
0.0
  9
$EXTMIN
 10
-3622.270345
 20
-1575.237215
 30
0.0
  9
$EXTMAX
 10
959.183739
 20
1985.874698
 30
0.0
  9
$LIMMIN
 10
0.0
 20
0.0
  9
$LIMMAX
 10
420.0
 20
296.987823
  9
$ORTHOMODE
 70
     0
  9
$REGENMODE
 70
     1
  9
$FILLMODE
 70
     1
  9
$QTEXTMODE
 70
     0
  9
$MIRRTEXT
 70
     0
  9
$DRAGMODE
 70
     2
  9
$LTSCALE
 40
1.0
  9
$OSMODE
 70
     0
  9
$ATTMODE
 70
     1
  9
$TEXTSIZE
 40
0.2
  9
$TRACEWID
 40
0.05
  9
$TEXTSTYLE
  7
STANDARD
  9
$CLAYER
  8
0
  9
$CELTYPE
  6
BYLAYER
  9
$CECOLOR
 62
   256
  9
$DIMSCALE
 40
1.0
  9
$DIMASZ
 40
0.18
  9
$DIMEXO
 40
3.0
  9
$DIMDLI
 40
0.38
  9
$DIMRND
 40
0.0
  9
$DIMDLE
 40
0.0
  9
$DIMEXE
 40
5.0
  9
$DIMTP
 40
0.0
  9
$DIMTM
 40
0.0
  9
$DIMTXT
 40
0.18
  9
$DIMCEN
 40
0.09
  9
$DIMTSZ
 40
0.0
  9
$DIMTOL
 70
     0
  9
$DIMLIM
 70
     0
  9
$DIMTIH
 70
     1
  9
$DIMTOH
 70
     1
  9
$DIMSE1
 70
     0
  9
$DIMSE2
 70
     0
  9
$DIMTAD
 70
     1
  9
$DIMZIN
 70
     0
  9
$DIMBLK
  1

  9
$DIMASO
 70
     1
  9
$DIMSHO
 70
     0
  9
$DIMPOST
  1

  9
$DIMAPOST
  1

  9
$DIMALT
 70
     0
  9
$DIMALTD
 70
     2
  9
$DIMALTF
 40
25.4
  9
$DIMLFAC
 40
1.0
  9
$DIMTOFL
 70
     0
  9
$DIMTVP
 40
1.0
  9
$DIMTIX
 70
     0
  9
$DIMSOXD
 70
     0
  9
$DIMSAH
 70
     0
  9
$DIMBLK1
  1

  9
$DIMBLK2
  1

  9
$DIMSTYLE
  2
STANDARD
  9
$DIMCLRD
 70
     0
  9
$DIMCLRE
 70
     0
  9
$DIMCLRT
 70
     0
  9
$DIMTFAC
 40
1.0
  9
$DIMGAP
 40
0.09
  9
$LUNITS
 70
     2
  9
$LUPREC
 70
     4
  9
$SKETCHINC
 40
0.1
  9
$FILLETRAD
 40
0.05
  9
$AUNITS
 70
     0
  9
$AUPREC
 70
     0
  9
$MENU
  1
acad
  9
$ELEVATION
 40
0.0
  9
$PELEVATION
 40
0.0
  9
$THICKNESS
 40
0.0
  9
$LIMCHECK
 70
     0
  9
$BLIPMODE
 70
     1
  9
$CHAMFERA
 40
0.0
  9
$CHAMFERB
 40
0.0
  9
$SKPOLY
 70
     0
  9
$TDCREATE
 40
0.0
  9
$TDUPDATE
 40
0.0
  9
$TDINDWG
 40
0.0
  9
$TDUSRTIMER
 40
0.0
  9
$USRTIMER
 70
     1
  9
$ANGBASE
 50
0.0
  9
$ANGDIR
 70
     0
  9
$PDMODE
 70
     0
  9
$PDSIZE
 40
0.0
  9
$PLINEWID
 40
0.0
  9
$COORDS
 70
     0
  9
$SPLFRAME
 70
     0
  9
$SPLINETYPE
 70
     6
  9
$SPLINESEGS
 70
     8
  9
$ATTDIA
 70
     1
  9
$ATTREQ
 70
     1
  9
$HANDLING
 70
     1
  9
$HANDSEED
  5
3B8
  9
$SURFTAB1
 70
     6
  9
$SURFTAB2
 70
     6
  9
$SURFTYPE
 70
     6
  9
$SURFU
 70
     6
  9
$SURFV
 70
     6
  9
$UCSNAME
  2

  9
$UCSORG
 10
0.0
 20
0.0
 30
0.0
  9
$UCSXDIR
 10
1.0
 20
0.0
 30
0.0
  9
$UCSYDIR
 10
0.0
 20
1.0
 30
0.0
  9
$PUCSNAME
  2

  9
$PUCSORG
 10
0.0
 20
0.0
 30
0.0
  9
$PUCSXDIR
 10
1.0
 20
0.0
 30
0.0
  9
$PUCSYDIR
 10
0.0
 20
1.0
 30
0.0
  9
$USERI1
 70
     0
  9
$USERI2
 70
     0
  9
$USERI3
 70
     0
  9
$USERI4
 70
     0
  9
$USERI5
 70
     0
  9
$USERR1
 40
0.0
  9
$USERR2
 40
0.0
  9
$USERR3
 40
0.0
  9
$USERR4
 40
0.0
  9
$USERR5
 40
0.0
  9
$WORLDVIEW
 70
     1
  9
$SHADEDGE
 70
     3
  9
$SHADEDIF
 70
    70
  9
$TILEMODE
 70
     1
  9
$MAXACTVP
 70
    16
  9
$PINSBASE
 10
0.0
 20
0.0
 30
0.0
  9
$PLIMCHECK
 70
     0
  9
$PEXTMIN
 10
1.000000E+020
 20
1.000000E+020
 30
1.000000E+020
  9
$PEXTMAX
 10
-1.000000E+020
 20
-1.000000E+020
 30
-1.000000E+020
  9
$PLIMMIN
 10
0.0
 20
0.0
  9
$PLIMMAX
 10
12.0
 20
9.0
  9
$UNITMODE
 70
     0
  9
$VISRETAIN
 70
     0
  9
$PLINEGEN
 70
     0
  9
$PSLTSCALE
 70
     1
  9
$TREEDEPTH
 70
  3020
  0
ENDSEC
  0
SECTION
  2
TABLES
  0
TABLE
  2
VPORT
 70
     2
  0
VPORT
  2
*ACTIVE
 70
     0
 10
0.0
 20
0.0
 11
1.0
 21
1.0
 12
1075.011466
 22
-62.995426
 13
0.0
 23
0.0
 14
1.0
 24
1.0
 15
0.0
 25
0.0
 16
0.0
 26
0.0
 36
1.0
 17
0.0
 27
0.0
 37
0.0
 40
4909.884963
 41
1.938119
 42
50.0
 43
0.0
 44
0.0
 50
0.0
 51
0.0
 71
     0
 72
   100
 73
     1
 74
     1
 75
     0
 76
     0
 77
     0
 78
     0
  0
ENDTAB
  0
TABLE
  2
LTYPE
 70
     5
  0
LTYPE
  2
CONTINUOUS
 70
    64
  3
Solid line
 72
    65
 73
     0
 40
0.0
  0
LTYPE
  2
DASHDOT
 70
    64
  3
__ . __ . __ . __ . __ . __ . __ . __ . __ . __
 72
    65
 73
     4
 40
1.0
 49
0.5
 49
-0.25
 49
0.0
 49
-0.25
  0
LTYPE
  2
DASHED
 70
    64
  3
__ __ __ __ __ __ __ __ __ __ __ __ __ __ __
 72
    65
 73
     2
 40
0.75
 49
0.5
 49
-0.25
  0
LTYPE
  2
DIVIDE
 70
    64
  3
__ . . __ . . __ . . __ . . __ . . __ . . __
 72
    65
 73
     6
 40
1.25
 49
0.5
 49
-0.25
 49
0.0
 49
-0.25
 49
0.0
 49
-0.25
  0
LTYPE
  2
DOT
 70
    64
  3
...............................................
 72
    65
 73
     2
 40
0.25
 49
0.0
 49
-0.25
  0
ENDTAB
  0
TABLE
  2
LAYER
 70
     5
  0
LAYER
  2
0
 70
     0
 62
     7
  6
CONTINUOUS
  0
LAYER
  2
DEFPOINTS
 70
     0
 62
    -7
  6
CONTINUOUS
  0
LAYER
  2
1
 70
     0
 62
     7
  6
CONTINUOUS
  0
LAYER
  2
2
 70
     0
 62
     7
  6
CONTINUOUS
  0
LAYER
  2
3
 70
     0
 62
     7
  6
CONTINUOUS
  0
ENDTAB
  0
TABLE
  2
STYLE
 70
     3
  0
STYLE
  2
STANDARD
 70
    64
 40
100.0
 41
0.8
 50
0.0
 71
     0
 42
0.2
  3
txt
  4

  0
STYLE
  2
MONOTXT
 70
    64
 40
0.0
 41
0.5
 50
0.0
 71
     0
 42
4.191412
  3
monotxt
  4
BIGFONT
  0
STYLE
  2
VERTICAL
 70
    68
 40
0.0
 41
0.5
 50
0.0
 71
     0
 42
4.191412
  3
monotxt
  4
BIGFONT
  0
ENDTAB
  0
TABLE
  2
VIEW
 70
     0
  0
ENDTAB
  0
TABLE
  2
UCS
 70
     0
  0
ENDTAB
  0
TABLE
  2
APPID
 70
     1
  0
APPID
  2
ACAD
 70
     0
  0
ENDTAB
  0
TABLE
  2
DIMSTYLE
 70
     1
  0
DIMSTYLE
  2
STANDARD
 70
     0
  3

  4

  5

  6

  7

 40
1.0
 41
0.18
 42
0.0625
 43
0.38
 44
0.18
 45
0.0
 46
0.0
 47
0.0
 48
0.0
140
0.18
141
0.09
142
0.0
143
25.4
144
1.0
145
0.0
146
1.0
147
0.09
 71
     0
 72
     0
 73
     1
 74
     1
 75
     0
 76
     0
 77
     0
 78
     0
170
     0
171
     2
172
     0
173
     0
174
     0
175
     0
176
     0
177
     0
178
     0
  0
ENDTAB
  0
ENDSEC
  0
SECTION
  2
BLOCKS
  0
BLOCK
  5
37C
  8
0
  2
$MODEL_SPACE
 70
     0
 10
0.0
 20
0.0
 30
0.0
  3
$MODEL_SPACE
  1

  0
ENDBLK
  5
37D
  8
0
  0
BLOCK
  5
379
 67
     1
  8
0
  2
$PAPER_SPACE
 70
     0
 10
0.0
 20
0.0
 30
0.0
  3
$PAPER_SPACE
  1

  0
ENDBLK
  5
37A
 67
     1
  8
0
  0
BLOCK
  5
2B
  8
1
  2
*U2
 70
    65
 10
0.0
 20
0.0
 30
0.0
  3
*U2
  1

  0
LINE
  5
2C
  8
1
  6
DASHDOT
 10
-233.473674
 20
979.960816
 30
0.0
 11
-152.882074
 21
979.960816
 31
0.0
  0
LINE
  5
2D
  8
1
  6
DASHDOT
 10
-174.382074
 20
979.960816
 30
0.0
 11
-184.836574
 21
979.960816
 31
0.0
  0
LINE
  5
2E
  8
1
 10
-183.810974
 20
986.467116
 30
0.0
 11
-188.582374
 21
986.467116
 31
0.0
  0
LINE
  5
2F
  8
1
 10
-183.810974
 20
973.454516
 30
0.0
 11
-187.291174
 21
973.454516
 31
0.0
  0
LINE
  5
30
  8
1
 10
-188.779174
 20
985.645416
 30
0.0
 11
-188.779174
 21
979.960816
 31
0.0
  0
LINE
  5
31
  8
1
 10
-183.614074
 20
985.645416
 30
0.0
 11
-183.614074
 21
979.960816
 31
0.0
  0
LINE
  5
32
  8
1
 10
-184.073874
 20
983.214016
 30
0.0
 11
-188.374074
 21
983.214016
 31
0.0
  0
LINE
  5
33
  8
1
 10
-184.019174
 20
976.707716
 30
0.0
 11
-188.374074
 21
976.707716
 31
0.0
  0
LINE
  5
34
  8
1
 10
-182.205274
 20
987.473716
 30
0.0
 11
-182.205574
 21
972.447916
 31
0.0
  0
ARC
  5
35
  8
1
 10
-188.309674
 20
985.121916
 30
0.0
 40
4.6956
 50
336.0274
 51
16.6484
  0
ARC
  5
36
  8
1
 10
-195.352974
 20
979.960716
 30
0.0
 40
11.7389
 50
343.9118
 51
16.0895
  0
ARC
  5
37
  8
1
 10
-177.040274
 20
979.960716
 30
0.0
 40
11.7389
 50
163.9107
 51
196.0884
  0
ARC
  5
38
  8
1
 10
-184.083574
 20
974.799716
 30
0.0
 40
4.6956
 50
156.0275
 51
196.6485
  0
ARC
  5
39
  8
1
 10
-188.309674
 20
974.799716
 30
0.0
 40
4.6956
 50
343.3522
 51
23.9732
  0
LINE
  5
3A
  8
1
 10
-183.614074
 20
974.276116
 30
0.0
 11
-183.614074
 21
979.960716
 31
0.0
  0
LINE
  5
3B
  8
1
 10
-188.779174
 20
974.276116
 30
0.0
 11
-188.779174
 21
979.960716
 31
0.0
  0
ARC
  5
3C
  8
1
 10
-184.083574
 20
985.121916
 30
0.0
 40
4.6956
 50
163.3518
 51
203.9728
  0
LINE
  5
3D
  8
1
 10
-186.393474
 20
973.454516
 30
0.0
 11
-188.582274
 21
973.454516
 31
0.0
  0
LINE
  5
3E
  8
1
 10
-190.187874
 20
983.717216
 30
0.0
 11
-225.473674
 21
983.717316
 31
0.0
  0
LINE
  5
3F
  8
1
 10
-190.187874
 20
976.204316
 30
0.0
 11
-225.473674
 21
976.204316
 31
0.0
  0
LINE
  5
40
  8
1
 10
-188.779174
 20
984.153116
 30
0.0
 11
-190.187874
 21
984.153116
 31
0.0
  0
LINE
  5
41
  8
1
 10
-190.187874
 20
984.153116
 30
0.0
 11
-190.187874
 21
975.768516
 31
0.0
  0
LINE
  5
42
  8
1
 10
-188.779174
 20
975.768516
 30
0.0
 11
-190.187874
 21
975.768516
 31
0.0
  0
LINE
  5
43
  8
1
 10
-182.205474
 20
985.172916
 30
0.0
 11
-183.614074
 21
985.172816
 31
0.0
  0
LINE
  5
44
  8
1
 10
-182.205474
 20
974.748816
 30
0.0
 11
-183.614074
 21
974.748716
 31
0.0
  0
ARC
  5
45
  8
1
 10
-178.448874
 20
974.795716
 30
0.0
 40
5.2825
 50
333.6121
 51
16.5563
  0
LINE
  5
46
  8
1
 10
-173.753274
 20
987.473716
 30
0.0
 11
-182.205274
 21
987.473716
 31
0.0
  0
LINE
  5
47
  8
1
 10
-173.753274
 20
972.447916
 30
0.0
 11
-182.205574
 21
972.447916
 31
0.0
  0
LINE
  5
48
  8
1
 10
-169.996874
 20
985.595516
 30
0.0
 11
-169.997074
 21
974.326116
 31
0.0
  0
ARC
  5
49
  8
1
 10
-183.308974
 20
979.960816
 30
0.0
 40
10.565
 50
339.7324
 51
20.2683
  0
LINE
  5
4A
  8
1
 10
-173.398074
 20
983.620716
 30
0.0
 11
-181.148974
 21
983.620616
 31
0.0
  0
LINE
  5
4B
  8
1
 10
-173.398074
 20
976.301016
 30
0.0
 11
-181.148874
 21
976.300916
 31
0.0
  0
ARC
  5
4C
  8
1
 10
-169.996874
 20
990.291116
 30
0.0
 40
4.6956
 50
216.8698
 51
270.0002
  0
ARC
  5
4D
  8
1
 10
-169.996874
 20
969.630516
 30
0.0
 40
4.6956
 50
90.0
 51
143.1304
  0
ARC
  5
4E
  8
1
 10
-178.448874
 20
985.125916
 30
0.0
 40
5.2825
 50
343.4442
 51
26.3884
  0
ENDBLK
  5
4F
  8
0
  0
BLOCK
  5
51
  8
1
  2
*U3
 70
    65
 10
0.0
 20
0.0
 30
0.0
  3
*U3
  1

  0
LINE
  5
52
  8
1
  6
DASHDOT
 10
-233.473674
 20
896.960816
 30
0.0
 11
-152.882074
 21
896.960916
 31
0.0
  0
ARC
  5
53
  8
1
 10
-183.333674
 20
905.368816
 30
0.0
 40
8.8425
 50
343.4442
 51
26.3884
  0
ARC
  5
54
  8
1
 10
-169.185674
 20
879.430816
 30
0.0
 40
7.86
 50
90.0
 51
143.1304
  0
ARC
  5
55
  8
1
 10
-169.185674
 20
914.014916
 30
0.0
 40
7.86
 50
216.8698
 51
270.0002
  0
LINE
  5
56
  8
1
 10
-174.878974
 20
890.596616
 30
0.0
 11
-189.621974
 21
890.596516
 31
0.0
  0
LINE
  5
57
  8
1
 10
-174.878974
 20
902.849216
 30
0.0
 11
-189.621774
 21
902.849116
 31
0.0
  0
ARC
  5
58
  8
1
 10
-191.469074
 20
896.722816
 30
0.0
 40
17.685
 50
339.7324
 51
20.2683
  0
LINE
  5
59
  8
1
 10
-169.185674
 20
906.154916
 30
0.0
 11
-169.186074
 21
887.290916
 31
0.0
  0
LINE
  5
5A
  8
1
 10
-175.473674
 20
884.146816
 30
0.0
 11
-189.622074
 21
884.146816
 31
0.0
  0
LINE
  5
5B
  8
1
 10
-175.473674
 20
909.298916
 30
0.0
 11
-189.621674
 21
909.298916
 31
0.0
  0
ARC
  5
5C
  8
1
 10
-183.333674
 20
888.076816
 30
0.0
 40
8.8425
 50
333.6121
 51
16.5563
  0
LINE
  5
5D
  8
1
 10
-189.621974
 20
887.998316
 30
0.0
 11
-191.979874
 21
887.998316
 31
0.0
  0
LINE
  5
5E
  8
1
 10
-189.621874
 20
905.447516
 30
0.0
 11
-191.979874
 21
905.447516
 31
0.0
  0
LINE
  5
5F
  8
1
 10
-200.625874
 20
889.705416
 30
0.0
 11
-202.983874
 21
889.705416
 31
0.0
  0
LINE
  5
60
  8
1
 10
-202.983874
 20
903.740516
 30
0.0
 11
-202.983874
 21
889.705416
 31
0.0
  0
LINE
  5
61
  8
1
 10
-200.625874
 20
903.740516
 30
0.0
 11
-202.983874
 21
903.740516
 31
0.0
  0
LINE
  5
62
  8
1
 10
-202.983874
 20
890.434916
 30
0.0
 11
-225.473674
 21
890.434816
 31
0.0
  0
LINE
  5
63
  8
1
 10
-202.983874
 20
903.010916
 30
0.0
 11
-225.473674
 21
903.010816
 31
0.0
  0
LINE
  5
64
  8
1
 10
-196.632374
 20
885.831716
 30
0.0
 11
-200.296374
 21
885.831716
 31
0.0
  0
ARC
  5
65
  8
1
 10
-192.765874
 20
905.362116
 30
0.0
 40
7.86
 50
163.3518
 51
203.9728
  0
LINE
  5
66
  8
1
 10
-200.625874
 20
887.207316
 30
0.0
 11
-200.625874
 21
896.722816
 31
0.0
  0
LINE
  5
67
  8
1
 10
-191.979874
 20
887.207316
 30
0.0
 11
-191.979874
 21
896.722816
 31
0.0
  0
ARC
  5
68
  8
1
 10
-199.839874
 20
888.083516
 30
0.0
 40
7.86
 50
343.3522
 51
23.9732
  0
ARC
  5
69
  8
1
 10
-192.765874
 20
888.083516
 30
0.0
 40
7.86
 50
156.0275
 51
196.6485
  0
ARC
  5
6A
  8
1
 10
-211.629974
 20
896.722816
 30
0.0
 40
19.65
 50
343.9118
 51
16.0895
  0
ARC
  5
6B
  8
1
 10
-199.839874
 20
905.362216
 30
0.0
 40
7.86
 50
336.0274
 51
16.6484
  0
LINE
  5
6C
  8
1
 10
-189.621674
 20
909.298916
 30
0.0
 11
-189.622074
 21
884.146816
 31
0.0
  0
LINE
  5
6D
  8
1
 10
-192.657974
 20
891.277416
 30
0.0
 11
-199.947874
 21
891.277416
 31
0.0
  0
LINE
  5
6E
  8
1
 10
-192.749574
 20
902.168516
 30
0.0
 11
-199.947874
 21
902.168516
 31
0.0
  0
LINE
  5
6F
  8
1
 10
-191.979874
 20
906.238516
 30
0.0
 11
-191.979874
 21
896.722916
 31
0.0
  0
LINE
  5
70
  8
1
 10
-200.625874
 20
906.238516
 30
0.0
 11
-200.625874
 21
896.722916
 31
0.0
  0
LINE
  5
71
  8
1
 10
-192.309374
 20
885.831816
 30
0.0
 11
-198.134874
 21
885.831816
 31
0.0
  0
LINE
  5
72
  8
1
 10
-192.309374
 20
907.614016
 30
0.0
 11
-200.296374
 21
907.613916
 31
0.0
  0
ARC
  5
73
  8
1
 10
-180.975774
 20
896.722816
 30
0.0
 40
19.65
 50
163.9109
 51
196.0887
  0
ENDBLK
  5
74
  8
0
  0
BLOCK
  5
76
  8
2
  2
*D4
 70
    65
 10
0.0
 20
0.0
 30
0.0
  3
*D4
  1

  0
POINT
  5
77
  8
DEFPOINTS
 10
666.623741
 20
-549.862246
 30
0.0
  0
POINT
  5
78
  8
DEFPOINTS
 10
698.523741
 20
-336.862246
 30
0.0
  0
POINT
  5
79
  8
DEFPOINTS
 10
566.623741
 20
-416.247791
 30
0.0
  0
LINE
  5
7A
  8
2
 10
658.623741
 20
-549.862246
 30
0.0
 11
561.623741
 21
-549.862246
 31
0.0
  0
LINE
  5
7B
  8
2
 10
690.523741
 20
-336.862246
 30
0.0
 11
561.623741
 21
-336.862246
 31
0.0
  0
LINE
  5
7C
  8
2
 10
566.623741
 20
-549.862246
 30
0.0
 11
566.623741
 21
-336.862246
 31
0.0
  0
LINE
  5
7D
  8
2
 10
562.282536
 20
-525.242052
 30
0.0
 11
566.623741
 21
-549.862246
 31
0.0
  0
LINE
  5
7E
  8
2
 10
570.964945
 20
-525.242052
 30
0.0
 11
566.623741
 21
-549.862246
 31
0.0
  0
LINE
  5
7F
  8
2
 10
570.964947
 20
-361.48244
 30
0.0
 11
566.623741
 21
-336.862246
 31
0.0
  0
LINE
  5
80
  8
2
 10
562.282538
 20
-361.48244
 30
0.0
 11
566.623741
 21
-336.862246
 31
0.0
  0
TEXT
  5
81
  8
2
 10
556.623718
 20
-492.642242
 30
0.0
 40
38.5
  1
213
 50
90.000003
 41
0.9
  7
MONOTXT
  0
ENDBLK
  5
82
  8
0
  0
BLOCK
  5
84
  8
2
  2
*D5
 70
    65
 10
0.0
 20
0.0
 30
0.0
  3
*D5
  1

  0
POINT
  5
85
  8
DEFPOINTS
 10
658.623741
 20
-539.862346
 30
0.0
  0
POINT
  5
86
  8
DEFPOINTS
 10
856.623741
 20
-470.862246
 30
0.0
  0
POINT
  5
87
  8
DEFPOINTS
 10
734.21357
 20
-764.862246
 30
0.0
  0
LINE
  5
88
  8
2
 10
658.623741
 20
-547.862346
 30
0.0
 11
658.623741
 21
-769.862246
 31
0.0
  0
LINE
  5
89
  8
2
 10
856.623741
 20
-478.862246
 30
0.0
 11
856.623741
 21
-769.862246
 31
0.0
  0
LINE
  5
8A
  8
2
 10
658.623741
 20
-764.862246
 30
0.0
 11
856.623741
 21
-764.862246
 31
0.0
  0
LINE
  5
8B
  8
2
 10
683.243935
 20
-760.521041
 30
0.0
 11
658.623741
 21
-764.862246
 31
0.0
  0
LINE
  5
8C
  8
2
 10
683.243935
 20
-769.20345
 30
0.0
 11
658.623741
 21
-764.862246
 31
0.0
  0
LINE
  5
8D
  8
2
 10
832.003547
 20
-769.20345
 30
0.0
 11
856.623741
 21
-764.862246
 31
0.0
  0
LINE
  5
8E
  8
2
 10
832.003547
 20
-760.521041
 30
0.0
 11
856.623741
 21
-764.862246
 31
0.0
  0
TEXT
  5
8F
  8
2
 10
708.34375
 20
-754.862244
 30
0.0
 40
38.5
  1
198
 41
0.9
  7
MONOTXT
  0
ENDBLK
  5
90
  8
0
  0
BLOCK
  5
92
  8
2
  2
*D6
 70
    65
 10
0.0
 20
0.0
 30
0.0
  3
*D6
  1

  0
POINT
  5
93
  8
DEFPOINTS
 10
856.623741
 20
-470.862246
 30
0.0
  0
POINT
  5
94
  8
DEFPOINTS
 10
860.623741
 20
-424.862246
 30
0.0
  0
POINT
  5
95
  8
DEFPOINTS
 10
898.567546
 20
-764.862246
 30
0.0
  0
LINE
  5
96
  8
2
 10
856.623741
 20
-478.862246
 30
0.0
 11
856.623741
 21
-769.862246
 31
0.0
  0
LINE
  5
97
  8
2
 10
860.623741
 20
-432.862246
 30
0.0
 11
860.623741
 21
-769.862246
 31
0.0
  0
LINE
  5
98
  8
2
 10
819.693451
 20
-764.862246
 30
0.0
 11
959.183739
 21
-764.862246
 31
0.0
  0
LINE
  5
99
  8
2
 10
832.003547
 20
-769.20345
 30
0.0
 11
856.623741
 21
-764.862246
 31
0.0
  0
LINE
  5
9A
  8
2
 10
832.003547
 20
-760.521041
 30
0.0
 11
856.623741
 21
-764.862246
 31
0.0
  0
LINE
  5
9B
  8
2
 10
885.243935
 20
-760.521041
 30
0.0
 11
860.623741
 21
-764.862246
 31
0.0
  0
LINE
  5
9C
  8
2
 10
885.243935
 20
-769.20345
 30
0.0
 11
860.623741
 21
-764.862246
 31
0.0
  0
TEXT
  5
9D
  8
2
 10
892.578735
 20
-754.862244
 30
0.0
 40
38.5
  1
4
 41
0.9
  7
MONOTXT
  0
ENDBLK
  5
9E
  8
0
  0
BLOCK
  5
A0
  8
2
  2
*D7
 70
    65
 10
0.0
 20
0.0
 30
0.0
  3
*D7
  1

  0
POINT
  5
A1
  8
DEFPOINTS
 10
756.623741
 20
-560.862246
 30
0.0
  0
POINT
  5
A2
  8
DEFPOINTS
 10
856.623741
 20
-470.862246
 30
0.0
  0
POINT
  5
A3
  8
DEFPOINTS
 10
797.104122
 20
-604.862246
 30
0.0
  0
LINE
  5
A4
  8
2
 10
756.623741
 20
-568.862246
 30
0.0
 11
756.623741
 21
-609.862246
 31
0.0
  0
LINE
  5
A5
  8
2
 10
856.623741
 20
-478.862246
 30
0.0
 11
856.623741
 21
-609.862246
 31
0.0
  0
LINE
  5
A6
  8
2
 10
756.623741
 20
-604.862246
 30
0.0
 11
856.623741
 21
-604.862246
 31
0.0
  0
LINE
  5
A7
  8
2
 10
781.243935
 20
-600.521041
 30
0.0
 11
756.623741
 21
-604.862246
 31
0.0
  0
LINE
  5
A8
  8
2
 10
781.243935
 20
-609.20345
 30
0.0
 11
756.623741
 21
-604.862246
 31
0.0
  0
LINE
  5
A9
  8
2
 10
832.003547
 20
-609.20345
 30
0.0
 11
856.623741
 21
-604.862246
 31
0.0
  0
LINE
  5
AA
  8
2
 10
832.003547
 20
-600.521041
 30
0.0
 11
856.623741
 21
-604.862246
 31
0.0
  0
TEXT
  5
AB
  8
2
 10
755.250793
 20
-594.862244
 30
0.0
 40
38.5
  1
100
 41
0.9
  7
MONOTXT
  0
ENDBLK
  5
AC
  8
0
  0
BLOCK
  5
AE
  8
2
  2
*D8
 70
    65
 10
0.0
 20
0.0
 30
0.0
  3
*D8
  1

  0
POINT
  5
AF
  8
DEFPOINTS
 10
708.623741
 20
-344.862246
 30
0.0
  0
POINT
  5
B0
  8
DEFPOINTS
 10
856.623741
 20
-470.862246
 30
0.0
  0
POINT
  5
B1
  8
DEFPOINTS
 10
778.656227
 20
-684.862246
 30
0.0
  0
LINE
  5
B2
  8
2
 10
708.623741
 20
-352.862246
 30
0.0
 11
708.623741
 21
-689.862246
 31
0.0
  0
LINE
  5
B3
  8
2
 10
856.623741
 20
-478.862246
 30
0.0
 11
856.623741
 21
-689.862246
 31
0.0
  0
LINE
  5
B4
  8
2
 10
708.623741
 20
-684.862246
 30
0.0
 11
856.623741
 21
-684.862246
 31
0.0
  0
LINE
  5
B5
  8
2
 10
733.243935
 20
-680.521041
 30
0.0
 11
708.623741
 21
-684.862246
 31
0.0
  0
LINE
  5
B6
  8
2
 10
733.243935
 20
-689.20345
 30
0.0
 11
708.623741
 21
-684.862246
 31
0.0
  0
LINE
  5
B7
  8
2
 10
832.003547
 20
-689.20345
 30
0.0
 11
856.623741
 21
-684.862246
 31
0.0
  0
LINE
  5
B8
  8
2
 10
832.003547
 20
-680.521041
 30
0.0
 11
856.623741
 21
-684.862246
 31
0.0
  0
TEXT
  5
B9
  8
2
 10
733.34375
 20
-674.862244
 30
0.0
 40
38.5
  1
148
 41
0.9
  7
MONOTXT
  0
ENDBLK
  5
BA
  8
0
  0
BLOCK
  5
BC
  8
2
  2
*D9
 70
    65
 10
0.0
 20
0.0
 30
0.0
  3
*D9
  1

  0
POINT
  5
BD
  8
DEFPOINTS
 10
666.623741
 20
-549.862246
 30
0.0
  0
POINT
  5
BE
  8
DEFPOINTS
 10
710.623741
 20
-134.862246
 30
0.0
  0
POINT
  5
BF
  8
DEFPOINTS
 10
486.623741
 20
-305.348417
 30
0.0
  0
LINE
  5
C0
  8
2
 10
658.623741
 20
-549.862246
 30
0.0
 11
481.623741
 21
-549.862246
 31
0.0
  0
LINE
  5
C1
  8
2
 10
702.623741
 20
-134.862246
 30
0.0
 11
481.623741
 21
-134.862246
 31
0.0
  0
LINE
  5
C2
  8
2
 10
486.623741
 20
-549.862246
 30
0.0
 11
486.623741
 21
-134.862246
 31
0.0
  0
LINE
  5
C3
  8
2
 10
482.282536
 20
-525.242052
 30
0.0
 11
486.623741
 21
-549.862246
 31
0.0
  0
LINE
  5
C4
  8
2
 10
490.964945
 20
-525.242052
 30
0.0
 11
486.623741
 21
-549.862246
 31
0.0
  0
LINE
  5
C5
  8
2
 10
490.964947
 20
-159.48244
 30
0.0
 11
486.623741
 21
-134.862246
 31
0.0
  0
LINE
  5
C6
  8
2
 10
482.282538
 20
-159.48244
 30
0.0
 11
486.623741
 21
-134.862246
 31
0.0
  0
TEXT
  5
C7
  8
2
 10
476.623749
 20
-391.642242
 30
0.0
 40
38.5
  1
415
 50
90.000003
 41
0.9
  7
MONOTXT
  0
ENDBLK
  5
C8
  8
0
  0
BLOCK
  5
CA
  8
2
  2
*D10
 70
    65
 10
0.0
 20
0.0
 30
0.0
  3
*D10
  1

  0
POINT
  5
CB
  8
DEFPOINTS
 10
666.623741
 20
-549.862246
 30
0.0
  0
POINT
  5
CC
  8
DEFPOINTS
 10
787.623741
 20
-14.862246
 30
0.0
  0
POINT
  5
CD
  8
DEFPOINTS
 10
406.623741
 20
-235.634949
 30
0.0
  0
LINE
  5
CE
  8
2
 10
658.623741
 20
-549.862246
 30
0.0
 11
401.623741
 21
-549.862246
 31
0.0
  0
LINE
  5
CF
  8
2
 10
779.623741
 20
-14.862246
 30
0.0
 11
401.623741
 21
-14.862246
 31
0.0
  0
LINE
  5
D0
  8
2
 10
406.623741
 20
-549.862246
 30
0.0
 11
406.623741
 21
-14.862246
 31
0.0
  0
LINE
  5
D1
  8
2
 10
402.282536
 20
-525.242052
 30
0.0
 11
406.623741
 21
-549.862246
 31
0.0
  0
LINE
  5
D2
  8
2
 10
410.964945
 20
-525.242052
 30
0.0
 11
406.623741
 21
-549.862246
 31
0.0
  0
LINE
  5
D3
  8
2
 10
410.964947
 20
-39.48244
 30
0.0
 11
406.623741
 21
-14.862246
 31
0.0
  0
LINE
  5
D4
  8
2
 10
402.282538
 20
-39.48244
 30
0.0
 11
406.623741
 21
-14.862246
 31
0.0
  0
TEXT
  5
D5
  8
2
 10
396.623749
 20
-331.642242
 30
0.0
 40
38.5
  1
525
 50
90.000003
 41
0.9
  7
MONOTXT
  0
ENDBLK
  5
D6
  8
0
  0
BLOCK
  5
D8
  8
2
  2
*D11
 70
    65
 10
0.0
 20
0.0
 30
0.0
  3
*D11
  1

  0
POINT
  5
D9
  8
DEFPOINTS
 10
636.623741
 20
-292.042246
 30
0.0
  0
POINT
  5
DA
  8
DEFPOINTS
 10
856.623741
 20
25.137754
 30
0.0
  0
POINT
  5
DB
  8
DEFPOINTS
 10
708.056155
 20
375.137754
 30
0.0
  0
LINE
  5
DC
  8
2
 10
636.623741
 20
-284.042246
 30
0.0
 11
636.623741
 21
380.137754
 31
0.0
  0
LINE
  5
DD
  8
2
 10
856.623741
 20
33.137754
 30
0.0
 11
856.623741
 21
380.137754
 31
0.0
  0
LINE
  5
DE
  8
2
 10
636.623741
 20
375.137754
 30
0.0
 11
856.623741
 21
375.137754
 31
0.0
  0
LINE
  5
DF
  8
2
 10
661.243935
 20
379.478959
 30
0.0
 11
636.623741
 21
375.137754
 31
0.0
  0
LINE
  5
E0
  8
2
 10
661.243935
 20
370.79655
 30
0.0
 11
636.623741
 21
375.137754
 31
0.0
  0
LINE
  5
E1
  8
2
 10
832.003547
 20
370.79655
 30
0.0
 11
856.623741
 21
375.137754
 31
0.0
  0
LINE
  5
E2
  8
2
 10
832.003547
 20
379.478959
 30
0.0
 11
856.623741
 21
375.137754
 31
0.0
  0
TEXT
  5
E3
  8
2
 10
697.34375
 20
385.137756
 30
0.0
 40
38.5
  1
220
 41
0.9
  7
MONOTXT
  0
ENDBLK
  5
E4
  8
0
  0
BLOCK
  5
E6
  8
2
  2
*D12
 70
    65
 10
0.0
 20
0.0
 30
0.0
  3
*D12
  1

  0
POINT
  5
E7
  8
DEFPOINTS
 10
705.123741
 20
39.137754
 30
0.0
  0
POINT
  5
E8
  8
DEFPOINTS
 10
676.623741
 20
50.137754
 30
0.0
  0
POINT
  5
E9
  8
DEFPOINTS
 10
566.623741
 20
86.992494
 30
0.0
  0
LINE
  5
EA
  8
2
 10
697.123741
 20
39.137754
 30
0.0
 11
561.623741
 21
39.137754
 31
0.0
  0
LINE
  5
EB
  8
2
 10
668.623741
 20
50.137754
 30
0.0
 11
561.623741
 21
50.137754
 31
0.0
  0
LINE
  5
EC
  8
2
 10
566.623741
 20
2.207464
 30
0.0
 11
566.623741
 21
180.652754
 31
0.0
  0
LINE
  5
ED
  8
2
 10
570.964947
 20
14.51756
 30
0.0
 11
566.623741
 21
39.137754
 31
0.0
  0
LINE
  5
EE
  8
2
 10
562.282538
 20
14.51756
 30
0.0
 11
566.623741
 21
39.137754
 31
0.0
  0
LINE
  5
EF
  8
2
 10
562.282536
 20
74.757948
 30
0.0
 11
566.623741
 21
50.137754
 31
0.0
  0
LINE
  5
F0
  8
2
 10
570.964945
 20
74.757948
 30
0.0
 11
566.623741
 21
50.137754
 31
0.0
  0
TEXT
  5
F1
  8
2
 10
556.623718
 20
82.092751
 30
0.0
 40
38.5
  1
11
 50
90.000003
 41
0.9
  7
MONOTXT
  0
ENDBLK
  5
F2
  8
0
  0
BLOCK
  5
F4
  8
2
  2
*D13
 70
    65
 10
0.0
 20
0.0
 30
0.0
  3
*D13
  1

  0
POINT
  5
F5
  8
DEFPOINTS
 10
807.623741
 20
5.137754
 30
0.0
  0
POINT
  5
F6
  8
DEFPOINTS
 10
856.623741
 20
25.137754
 30
0.0
  0
POINT
  5
F7
  8
DEFPOINTS
 10
833.458268
 20
139.014303
 30
0.0
  0
LINE
  5
F8
  8
2
 10
807.623741
 20
13.137754
 30
0.0
 11
807.623741
 21
144.014303
 31
0.0
  0
LINE
  5
F9
  8
2
 10
856.623741
 20
33.137754
 30
0.0
 11
856.623741
 21
144.014303
 31
0.0
  0
LINE
  5
FA
  8
2
 10
807.623741
 20
139.014303
 30
0.0
 11
856.623741
 21
139.014303
 31
0.0
  0
LINE
  5
FB
  8
2
 10
832.243935
 20
143.355507
 30
0.0
 11
807.623741
 21
139.014303
 31
0.0
  0
LINE
  5
FC
  8
2
 10
832.243935
 20
134.673099
 30
0.0
 11
807.623741
 21
139.014303
 31
0.0
  0
LINE
  5
FD
  8
2
 10
832.003547
 20
134.673099
 30
0.0
 11
856.623741
 21
139.014303
 31
0.0
  0
LINE
  5
FE
  8
2
 10
832.003547
 20
143.355507
 30
0.0
 11
856.623741
 21
139.014303
 31
0.0
  0
TEXT
  5
FF
  8
2
 10
792.925354
 20
149.014297
 30
0.0
 40
38.5
  1
52
 41
0.9
  7
MONOTXT
  0
ENDBLK
  5
100
  8
0
  0
BLOCK
  5
102
  8
2
  2
*D14
 70
    65
 10
0.0
 20
0.0
 30
0.0
  3
*D14
  1

  0
POINT
  5
103
  8
DEFPOINTS
 10
715.123741
 20
55.137754
 30
0.0
  0
POINT
  5
104
  8
DEFPOINTS
 10
780.123841
 20
55.137754
 30
0.0
  0
POINT
  5
105
  8
DEFPOINTS
 10
753.450971
 20
135.137754
 30
0.0
  0
LINE
  5
106
  8
2
 10
715.123741
 20
63.137754
 30
0.0
 11
715.123741
 21
140.137754
 31
0.0
  0
LINE
  5
107
  8
2
 10
780.123841
 20
63.137754
 30
0.0
 11
780.123841
 21
140.137754
 31
0.0
  0
LINE
  5
108
  8
2
 10
715.123741
 20
135.137754
 30
0.0
 11
780.123841
 21
135.137754
 31
0.0
  0
LINE
  5
109
  8
2
 10
739.743935
 20
139.478959
 30
0.0
 11
715.123741
 21
135.137754
 31
0.0
  0
LINE
  5
10A
  8
2
 10
739.743935
 20
130.79655
 30
0.0
 11
715.123741
 21
135.137754
 31
0.0
  0
LINE
  5
10B
  8
2
 10
755.503647
 20
130.79655
 30
0.0
 11
780.123841
 21
135.137754
 31
0.0
  0
LINE
  5
10C
  8
2
 10
755.503647
 20
139.478959
 30
0.0
 11
780.123841
 21
135.137754
 31
0.0
  0
TEXT
  5
10D
  8
2
 10
702.489624
 20
145.137756
 30
0.0
 40
38.5
  1
65
 41
0.9
  7
MONOTXT
  0
ENDBLK
  5
10E
  8
0
  0
BLOCK
  5
110
  8
2
  2
*D15
 70
    65
 10
0.0
 20
0.0
 30
0.0
  3
*D15
  1

  0
POINT
  5
111
  8
DEFPOINTS
 10
741.623741
 20
50.137754
 30
0.0
  0
POINT
  5
112
  8
DEFPOINTS
 10
856.623741
 20
25.137754
 30
0.0
  0
POINT
  5
113
  8
DEFPOINTS
 10
793.982057
 20
215.137754
 30
0.0
  0
LINE
  5
114
  8
2
 10
741.623741
 20
58.137754
 30
0.0
 11
741.623741
 21
220.137754
 31
0.0
  0
LINE
  5
115
  8
2
 10
856.623741
 20
33.137754
 30
0.0
 11
856.623741
 21
220.137754
 31
0.0
  0
LINE
  5
116
  8
2
 10
741.623741
 20
215.137754
 30
0.0
 11
856.623741
 21
215.137754
 31
0.0
  0
LINE
  5
117
  8
2
 10
766.243935
 20
219.478959
 30
0.0
 11
741.623741
 21
215.137754
 31
0.0
  0
LINE
  5
118
  8
2
 10
766.243935
 20
210.79655
 30
0.0
 11
741.623741
 21
215.137754
 31
0.0
  0
LINE
  5
119
  8
2
 10
832.003547
 20
210.79655
 30
0.0
 11
856.623741
 21
215.137754
 31
0.0
  0
LINE
  5
11A
  8
2
 10
832.003547
 20
219.478959
 30
0.0
 11
856.623741
 21
215.137754
 31
0.0
  0
TEXT
  5
11B
  8
2
 10
742.666809
 20
225.137756
 30
0.0
 40
38.5
  1
109
 41
0.9
  7
MONOTXT
  0
ENDBLK
  5
11C
  8
0
  0
BLOCK
  5
11E
  8
2
  2
*D16
 70
    65
 10
0.0
 20
0.0
 30
0.0
  3
*D16
  1

  0
POINT
  5
11F
  8
DEFPOINTS
 10
729.623741
 20
-112.862246
 30
0.0
  0
POINT
  5
120
  8
DEFPOINTS
 10
856.623741
 20
25.137754
 30
0.0
  0
POINT
  5
121
  8
DEFPOINTS
 10
784.254596
 20
295.137754
 30
0.0
  0
LINE
  5
122
  8
2
 10
729.623741
 20
-104.862246
 30
0.0
 11
729.623741
 21
300.137754
 31
0.0
  0
LINE
  5
123
  8
2
 10
856.623741
 20
33.137754
 30
0.0
 11
856.623741
 21
300.137754
 31
0.0
  0
LINE
  5
124
  8
2
 10
729.623741
 20
295.137754
 30
0.0
 11
856.623741
 21
295.137754
 31
0.0
  0
LINE
  5
125
  8
2
 10
754.243935
 20
299.478959
 30
0.0
 11
729.623741
 21
295.137754
 31
0.0
  0
LINE
  5
126
  8
2
 10
754.243935
 20
290.79655
 30
0.0
 11
729.623741
 21
295.137754
 31
0.0
  0
LINE
  5
127
  8
2
 10
832.003547
 20
290.79655
 30
0.0
 11
856.623741
 21
295.137754
 31
0.0
  0
LINE
  5
128
  8
2
 10
832.003547
 20
299.478959
 30
0.0
 11
856.623741
 21
295.137754
 31
0.0
  0
TEXT
  5
129
  8
2
 10
743.84375
 20
305.137756
 30
0.0
 40
38.5
  1
127
 41
0.9
  7
MONOTXT
  0
ENDBLK
  5
12A
  8
0
  0
BLOCK
  5
12C
  8
2
  2
*D17
 70
    65
 10
0.0
 20
0.0
 30
0.0
  3
*D17
  1

  0
POINT
  5
12D
  8
DEFPOINTS
 10
-945.473574
 20
859.960816
 30
0.0
  0
POINT
  5
12E
  8
DEFPOINTS
 10
-265.473674
 20
859.960916
 30
0.0
  0
POINT
  5
12F
  8
DEFPOINTS
 10
-679.78623
 20
757.960816
 30
0.0
  0
LINE
  5
130
  8
2
 10
-945.473574
 20
851.960816
 30
0.0
 11
-945.473574
 21
752.960816
 31
0.0
  0
LINE
  5
131
  8
2
 10
-265.473674
 20
851.960916
 30
0.0
 11
-265.473674
 21
752.960816
 31
0.0
  0
LINE
  5
132
  8
2
 10
-945.473574
 20
757.960816
 30
0.0
 11
-265.473674
 21
757.960816
 31
0.0
  0
LINE
  5
133
  8
2
 10
-920.85338
 20
762.30202
 30
0.0
 11
-945.473574
 21
757.960816
 31
0.0
  0
LINE
  5
134
  8
2
 10
-920.85338
 20
753.619611
 30
0.0
 11
-945.473574
 21
757.960816
 31
0.0
  0
LINE
  5
135
  8
2
 10
-290.093868
 20
753.619611
 30
0.0
 11
-265.473674
 21
757.960816
 31
0.0
  0
LINE
  5
136
  8
2
 10
-290.093868
 20
762.30202
 30
0.0
 11
-265.473674
 21
757.960816
 31
0.0
  0
TEXT
  5
137
  8
2
 10
-654.753601
 20
767.960815
 30
0.0
 40
38.5
  1
680
 41
0.9
  7
MONOTXT
  0
ENDBLK
  5
138
  8
0
  0
BLOCK
  5
13A
  8
2
  2
*D18
 70
    65
 10
0.0
 20
0.0
 30
0.0
  3
*D18
  1

  0
POINT
  5
13B
  8
DEFPOINTS
 10
-265.473674
 20
859.960916
 30
0.0
  0
POINT
  5
13C
  8
DEFPOINTS
 10
-175.473674
 20
884.146816
 30
0.0
  0
POINT
  5
13D
  8
DEFPOINTS
 10
-224.492369
 20
757.960816
 30
0.0
  0
LINE
  5
13E
  8
2
 10
-265.473674
 20
851.960916
 30
0.0
 11
-265.473674
 21
752.960816
 31
0.0
  0
LINE
  5
13F
  8
2
 10
-175.473674
 20
876.146816
 30
0.0
 11
-175.473674
 21
752.960816
 31
0.0
  0
LINE
  5
140
  8
2
 10
-265.473674
 20
757.960816
 30
0.0
 11
-175.473674
 21
757.960816
 31
0.0
  0
LINE
  5
141
  8
2
 10
-240.85348
 20
762.30202
 30
0.0
 11
-265.473674
 21
757.960816
 31
0.0
  0
LINE
  5
142
  8
2
 10
-240.85348
 20
753.619611
 30
0.0
 11
-265.473674
 21
757.960816
 31
0.0
  0
LINE
  5
143
  8
2
 10
-200.093868
 20
753.619611
 30
0.0
 11
-175.473674
 21
757.960816
 31
0.0
  0
LINE
  5
144
  8
2
 10
-200.093868
 20
762.30202
 30
0.0
 11
-175.473674
 21
757.960816
 31
0.0
  0
TEXT
  5
145
  8
2
 10
-253.776169
 20
767.960815
 30
0.0
 40
38.5
  1
90
 41
0.9
  7
MONOTXT
  0
ENDBLK
  5
146
  8
0
  0
BLOCK
  5
148
  8
2
  2
*D19
 70
    65
 10
0.0
 20
0.0
 30
0.0
  3
*D19
  1

  0
POINT
  5
149
  8
DEFPOINTS
 10
-960.473574
 20
938.960816
 30
0.0
  0
POINT
  5
14A
  8
DEFPOINTS
 10
-250.473574
 20
938.960816
 30
0.0
  0
POINT
  5
14B
  8
DEFPOINTS
 10
-762.443746
 20
1107.960816
 30
0.0
  0
LINE
  5
14C
  8
2
 10
-960.473574
 20
946.960816
 30
0.0
 11
-960.473574
 21
1112.960816
 31
0.0
  0
LINE
  5
14D
  8
2
 10
-250.473574
 20
946.960816
 30
0.0
 11
-250.473574
 21
1112.960816
 31
0.0
  0
LINE
  5
14E
  8
2
 10
-960.473574
 20
1107.960816
 30
0.0
 11
-250.473574
 21
1107.960816
 31
0.0
  0
LINE
  5
14F
  8
2
 10
-935.85338
 20
1112.30202
 30
0.0
 11
-960.473574
 21
1107.960816
 31
0.0
  0
LINE
  5
150
  8
2
 10
-935.85338
 20
1103.619611
 30
0.0
 11
-960.473574
 21
1107.960816
 31
0.0
  0
LINE
  5
151
  8
2
 10
-275.093768
 20
1103.619611
 30
0.0
 11
-250.473574
 21
1107.960816
 31
0.0
  0
LINE
  5
152
  8
2
 10
-275.093768
 20
1112.30202
 30
0.0
 11
-250.473574
 21
1107.960816
 31
0.0
  0
TEXT
  5
153
  8
2
 10
-654.753601
 20
1117.960815
 30
0.0
 40
38.5
  1
710
 41
0.9
  7
MONOTXT
  0
ENDBLK
  5
154
  8
0
  0
BLOCK
  5
156
  8
2
  2
*D20
 70
    65
 10
0.0
 20
0.0
 30
0.0
  3
*D20
  1

  0
POINT
  5
157
  8
DEFPOINTS
 10
-1145.473674
 20
977.960816
 30
0.0
  0
POINT
  5
158
  8
DEFPOINTS
 10
-945.473574
 20
859.960816
 30
0.0
  0
POINT
  5
159
  8
DEFPOINTS
 10
-1047.00241
 20
757.960816
 30
0.0
  0
LINE
  5
15A
  8
2
 10
-1145.473674
 20
969.960816
 30
0.0
 11
-1145.473674
 21
752.960816
 31
0.0
  0
LINE
  5
15B
  8
2
 10
-945.473574
 20
851.960816
 30
0.0
 11
-945.473574
 21
752.960816
 31
0.0
  0
LINE
  5
15C
  8
2
 10
-1145.473674
 20
757.960816
 30
0.0
 11
-945.473574
 21
757.960816
 31
0.0
  0
LINE
  5
15D
  8
2
 10
-1120.85348
 20
762.30202
 30
0.0
 11
-1145.473674
 21
757.960816
 31
0.0
  0
LINE
  5
15E
  8
2
 10
-1120.85348
 20
753.619611
 30
0.0
 11
-1145.473674
 21
757.960816
 31
0.0
  0
LINE
  5
15F
  8
2
 10
-970.093768
 20
753.619611
 30
0.0
 11
-945.473574
 21
757.960816
 31
0.0
  0
LINE
  5
160
  8
2
 10
-970.093768
 20
762.30202
 30
0.0
 11
-945.473574
 21
757.960816
 31
0.0
  0
TEXT
  5
161
  8
2
 10
-1094.753662
 20
767.960815
 30
0.0
 40
38.5
  1
200
 41
0.9
  7
MONOTXT
  0
ENDBLK
  5
162
  8
0
  0
BLOCK
  5
164
  8
2
  2
*D21
 70
    65
 10
0.0
 20
0.0
 30
0.0
  3
*D21
  1

  0
POINT
  5
165
  8
DEFPOINTS
 10
-975.473574
 20
835.960816
 30
0.0
  0
POINT
  5
166
  8
DEFPOINTS
 10
-949.473574
 20
859.960816
 30
0.0
  0
POINT
  5
167
  8
DEFPOINTS
 10
-1215.473674
 20
793.328717
 30
0.0
  0
LINE
  5
168
  8
2
 10
-983.473574
 20
835.960816
 30
0.0
 11
-1220.473674
 21
835.960816
 31
0.0
  0
LINE
  5
169
  8
2
 10
-957.473574
 20
859.960816
 30
0.0
 11
-1220.473674
 21
859.960816
 31
0.0
  0
LINE
  5
16A
  8
2
 10
-1215.473674
 20
705.445816
 30
0.0
 11
-1215.473674
 21
896.891106
 31
0.0
  0
LINE
  5
16B
  8
2
 10
-1211.132469
 20
811.340622
 30
0.0
 11
-1215.473674
 21
835.960816
 31
0.0
  0
LINE
  5
16C
  8
2
 10
-1219.814878
 20
811.340622
 30
0.0
 11
-1215.473674
 21
835.960816
 31
0.0
  0
LINE
  5
16D
  8
2
 10
-1219.81488
 20
884.581009
 30
0.0
 11
-1215.473674
 21
859.960816
 31
0.0
  0
LINE
  5
16E
  8
2
 10
-1211.132471
 20
884.58101
 30
0.0
 11
-1215.473674
 21
859.960816
 31
0.0
  0
TEXT
  5
16F
  8
2
 10
-1225.473633
 20
737.400818
 30
0.0
 40
38.5
  1
24
 50
90.000003
 41
0.9
  7
MONOTXT
  0
ENDBLK
  5
170
  8
0
  0
BLOCK
  5
172
  8
2
  2
*D22
 70
    65
 10
0.0
 20
0.0
 30
0.0
  3
*D22
  1

  0
POINT
  5
173
  8
DEFPOINTS
 10
-949.473574
 20
989.960816
 30
0.0
  0
POINT
  5
174
  8
DEFPOINTS
 10
-975.473674
 20
1033.960816
 30
0.0
  0
POINT
  5
175
  8
DEFPOINTS
 10
-1215.473674
 20
1064.336968
 30
0.0
  0
LINE
  5
176
  8
2
 10
-957.473574
 20
989.960816
 30
0.0
 11
-1220.473674
 21
989.960816
 31
0.0
  0
LINE
  5
177
  8
2
 10
-983.473674
 20
1033.960816
 30
0.0
 11
-1220.473674
 21
1033.960816
 31
0.0
  0
LINE
  5
178
  8
2
 10
-1215.473674
 20
953.030526
 30
0.0
 11
-1215.473674
 21
1164.475815
 31
0.0
  0
LINE
  5
179
  8
2
 10
-1211.132469
 20
965.340622
 30
0.0
 11
-1215.473674
 21
989.960816
 31
0.0
  0
LINE
  5
17A
  8
2
 10
-1219.814878
 20
965.340622
 30
0.0
 11
-1215.473674
 21
989.960816
 31
0.0
  0
LINE
  5
17B
  8
2
 10
-1219.81488
 20
1058.581009
 30
0.0
 11
-1215.473674
 21
1033.960816
 31
0.0
  0
LINE
  5
17C
  8
2
 10
-1211.132471
 20
1058.58101
 30
0.0
 11
-1215.473674
 21
1033.960816
 31
0.0
  0
TEXT
  5
17D
  8
2
 10
-1225.473633
 20
1065.915771
 30
0.0
 40
38.5
  1
44
 50
90.000003
 41
0.9
  7
MONOTXT
  0
ENDBLK
  5
17E
  8
0
  0
BLOCK
  5
180
  8
2
  2
*D23
 70
    65
 10
0.0
 20
0.0
 30
0.0
  3
*D23
  1

  0
POINT
  5
181
  8
DEFPOINTS
 10
-949.473574
 20
859.960816
 30
0.0
  0
POINT
  5
182
  8
DEFPOINTS
 10
-949.473574
 20
989.960816
 30
0.0
  0
POINT
  5
183
  8
DEFPOINTS
 10
-1215.473674
 20
908.507224
 30
0.0
  0
LINE
  5
184
  8
2
 10
-957.473574
 20
859.960816
 30
0.0
 11
-1220.473674
 21
859.960816
 31
0.0
  0
LINE
  5
185
  8
2
 10
-957.473574
 20
989.960816
 30
0.0
 11
-1220.473674
 21
989.960816
 31
0.0
  0
LINE
  5
186
  8
2
 10
-1215.473674
 20
859.960816
 30
0.0
 11
-1215.473674
 21
989.960816
 31
0.0
  0
LINE
  5
187
  8
2
 10
-1219.81488
 20
884.581009
 30
0.0
 11
-1215.473674
 21
859.960816
 31
0.0
  0
LINE
  5
188
  8
2
 10
-1211.132471
 20
884.58101
 30
0.0
 11
-1215.473674
 21
859.960816
 31
0.0
  0
LINE
  5
189
  8
2
 10
-1211.132469
 20
965.340622
 30
0.0
 11
-1215.473674
 21
989.960816
 31
0.0
  0
LINE
  5
18A
  8
2
 10
-1219.814878
 20
965.340622
 30
0.0
 11
-1215.473674
 21
989.960816
 31
0.0
  0
TEXT
  5
18B
  8
2
 10
-1225.473633
 20
875.680786
 30
0.0
 40
38.5
  1
130
 50
90.000003
 41
0.9
  7
MONOTXT
  0
ENDBLK
  5
18C
  8
0
  0
BLOCK
  5
18E
  8
2
  2
*D24
 70
    65
 10
0.0
 20
0.0
 30
0.0
  3
*D24
  1

  0
POINT
  5
18F
  8
DEFPOINTS
 10
-960.473674
 20
-549.862246
 30
0.0
  0
POINT
  5
190
  8
DEFPOINTS
 10
-250.473674
 20
-549.862346
 30
0.0
  0
POINT
  5
191
  8
DEFPOINTS
 10
-762.333384
 20
-684.862246
 30
0.0
  0
LINE
  5
192
  8
2
 10
-960.473674
 20
-557.862246
 30
0.0
 11
-960.473674
 21
-689.862246
 31
0.0
  0
LINE
  5
193
  8
2
 10
-250.473674
 20
-557.862346
 30
0.0
 11
-250.473674
 21
-689.862246
 31
0.0
  0
LINE
  5
194
  8
2
 10
-960.473674
 20
-684.862246
 30
0.0
 11
-250.473674
 21
-684.862246
 31
0.0
  0
LINE
  5
195
  8
2
 10
-935.85348
 20
-680.521041
 30
0.0
 11
-960.473674
 21
-684.862246
 31
0.0
  0
LINE
  5
196
  8
2
 10
-935.85348
 20
-689.20345
 30
0.0
 11
-960.473674
 21
-684.862246
 31
0.0
  0
LINE
  5
197
  8
2
 10
-275.093868
 20
-689.20345
 30
0.0
 11
-250.473674
 21
-684.862246
 31
0.0
  0
LINE
  5
198
  8
2
 10
-275.093868
 20
-680.521041
 30
0.0
 11
-250.473674
 21
-684.862246
 31
0.0
  0
TEXT
  5
199
  8
2
 10
-654.753662
 20
-674.862244
 30
0.0
 40
38.5
  1
710
 41
0.9
  7
MONOTXT
  0
ENDBLK
  5
19A
  8
0
  0
BLOCK
  5
19C
  8
2
  2
*D25
 70
    65
 10
0.0
 20
0.0
 30
0.0
  3
*D25
  1

  0
POINT
  5
19D
  8
DEFPOINTS
 10
-250.473674
 20
-549.862346
 30
0.0
  0
POINT
  5
19E
  8
DEFPOINTS
 10
-185.473674
 20
-314.778246
 30
0.0
  0
POINT
  5
19F
  8
DEFPOINTS
 10
-154.986377
 20
-684.862246
 30
0.0
  0
LINE
  5
1A0
  8
2
 10
-250.473674
 20
-557.862346
 30
0.0
 11
-250.473674
 21
-689.862246
 31
0.0
  0
LINE
  5
1A1
  8
2
 10
-185.473674
 20
-322.778246
 30
0.0
 11
-185.473674
 21
-689.862246
 31
0.0
  0
LINE
  5
1A2
  8
2
 10
-287.403965
 20
-684.862246
 30
0.0
 11
-54.958675
 21
-684.862246
 31
0.0
  0
LINE
  5
1A3
  8
2
 10
-275.093868
 20
-689.20345
 30
0.0
 11
-250.473674
 21
-684.862246
 31
0.0
  0
LINE
  5
1A4
  8
2
 10
-275.093868
 20
-680.521041
 30
0.0
 11
-250.473674
 21
-684.862246
 31
0.0
  0
LINE
  5
1A5
  8
2
 10
-160.85348
 20
-680.521041
 30
0.0
 11
-185.473674
 21
-684.862246
 31
0.0
  0
LINE
  5
1A6
  8
2
 10
-160.85348
 20
-689.20345
 30
0.0
 11
-185.473674
 21
-684.862246
 31
0.0
  0
TEXT
  5
1A7
  8
2
 10
-153.518677
 20
-674.862244
 30
0.0
 40
38.5
  1
65
 41
0.9
  7
MONOTXT
  0
ENDBLK
  5
1A8
  8
0
  0
BLOCK
  5
1AA
  8
2
  2
*D26
 70
    65
 10
0.0
 20
0.0
 30
0.0
  3
*D26
  1

  0
POINT
  5
1AB
  8
DEFPOINTS
 10
-250.473674
 20
-549.862346
 30
0.0
  0
POINT
  5
1AC
  8
DEFPOINTS
 10
-210.473674
 20
-344.862246
 30
0.0
  0
POINT
  5
1AD
  8
DEFPOINTS
 10
-283.620193
 20
-604.862246
 30
0.0
  0
LINE
  5
1AE
  8
2
 10
-250.473674
 20
-557.862346
 30
0.0
 11
-250.473674
 21
-609.862246
 31
0.0
  0
LINE
  5
1AF
  8
2
 10
-210.473674
 20
-352.862246
 30
0.0
 11
-210.473674
 21
-609.862246
 31
0.0
  0
LINE
  5
1B0
  8
2
 10
-380.988674
 20
-604.862246
 30
0.0
 11
-173.543384
 21
-604.862246
 31
0.0
  0
LINE
  5
1B1
  8
2
 10
-275.093868
 20
-609.20345
 30
0.0
 11
-250.473674
 21
-604.862246
 31
0.0
  0
LINE
  5
1B2
  8
2
 10
-275.093868
 20
-600.521041
 30
0.0
 11
-250.473674
 21
-604.862246
 31
0.0
  0
LINE
  5
1B3
  8
2
 10
-185.85348
 20
-600.521041
 30
0.0
 11
-210.473674
 21
-604.862246
 31
0.0
  0
LINE
  5
1B4
  8
2
 10
-185.85348
 20
-609.20345
 30
0.0
 11
-210.473674
 21
-604.862246
 31
0.0
  0
TEXT
  5
1B5
  8
2
 10
-349.033661
 20
-594.862244
 30
0.0
 40
38.5
  1
40
 41
0.9
  7
MONOTXT
  0
ENDBLK
  5
1B6
  8
0
  0
BLOCK
  5
1B8
  8
2
  2
*D27
 70
    65
 10
0.0
 20
0.0
 30
0.0
  3
*D27
  1

  0
POINT
  5
1B9
  8
DEFPOINTS
 10
-235.473674
 20
-549.862246
 30
0.0
  0
POINT
  5
1BA
  8
DEFPOINTS
 10
-235.473674
 20
-429.862246
 30
0.0
  0
POINT
  5
1BB
  8
DEFPOINTS
 10
-35.473674
 20
-486.622392
 30
0.0
  0
LINE
  5
1BC
  8
2
 10
-227.473674
 20
-549.862246
 30
0.0
 11
-30.473674
 21
-549.862246
 31
0.0
  0
LINE
  5
1BD
  8
2
 10
-227.473674
 20
-429.862246
 30
0.0
 11
-30.473674
 21
-429.862246
 31
0.0
  0
LINE
  5
1BE
  8
2
 10
-35.473674
 20
-586.792536
 30
0.0
 11
-35.473674
 21
-392.931956
 31
0.0
  0
LINE
  5
1BF
  8
2
 10
-31.132469
 20
-574.48244
 30
0.0
 11
-35.473674
 21
-549.862246
 31
0.0
  0
LINE
  5
1C0
  8
2
 10
-39.814878
 20
-574.48244
 30
0.0
 11
-35.473674
 21
-549.862246
 31
0.0
  0
LINE
  5
1C1
  8
2
 10
-39.81488
 20
-405.242052
 30
0.0
 11
-35.473674
 21
-429.862246
 31
0.0
  0
LINE
  5
1C2
  8
2
 10
-31.132471
 20
-405.242052
 30
0.0
 11
-35.473674
 21
-429.862246
 31
0.0
  0
TEXT
  5
1C3
  8
2
 10
-45.473671
 20
-539.142273
 30
0.0
 40
38.5
  1
120
 50
90.000003
 41
0.9
  7
MONOTXT
  0
ENDBLK
  5
1C4
  8
0
  0
BLOCK
  5
1C6
  8
2
  2
*D28
 70
    65
 10
0.0
 20
0.0
 30
0.0
  3
*D28
  1

  0
POINT
  5
1C7
  8
DEFPOINTS
 10
-235.473674
 20
-429.862246
 30
0.0
  0
POINT
  5
1C8
  8
DEFPOINTS
 10
-235.473674
 20
-151.862246
 30
0.0
  0
POINT
  5
1C9
  8
DEFPOINTS
 10
-35.473674
 20
-317.281672
 30
0.0
  0
LINE
  5
1CA
  8
2
 10
-227.473674
 20
-429.862246
 30
0.0
 11
-30.473674
 21
-429.862246
 31
0.0
  0
LINE
  5
1CB
  8
2
 10
-227.473674
 20
-151.862246
 30
0.0
 11
-30.473674
 21
-151.862246
 31
0.0
  0
LINE
  5
1CC
  8
2
 10
-35.473674
 20
-429.862246
 30
0.0
 11
-35.473674
 21
-151.862246
 31
0.0
  0
LINE
  5
1CD
  8
2
 10
-39.81488
 20
-405.242052
 30
0.0
 11
-35.473674
 21
-429.862246
 31
0.0
  0
LINE
  5
1CE
  8
2
 10
-31.132471
 20
-405.242052
 30
0.0
 11
-35.473674
 21
-429.862246
 31
0.0
  0
LINE
  5
1CF
  8
2
 10
-31.132469
 20
-176.48244
 30
0.0
 11
-35.473674
 21
-151.862246
 31
0.0
  0
LINE
  5
1D0
  8
2
 10
-39.814878
 20
-176.48244
 30
0.0
 11
-35.473674
 21
-151.862246
 31
0.0
  0
TEXT
  5
1D1
  8
2
 10
-45.473671
 20
-340.142242
 30
0.0
 40
38.5
  1
280
 50
90.000003
 41
0.9
  7
MONOTXT
  0
ENDBLK
  5
1D2
  8
0
  0
BLOCK
  5
1D4
  8
2
  2
*D29
 70
    65
 10
0.0
 20
0.0
 30
0.0
  3
*D29
  1

  0
POINT
  5
1D5
  8
DEFPOINTS
 10
-1135.473674
 20
-464.862346
 30
0.0
  0
POINT
  5
1D6
  8
DEFPOINTS
 10
-1135.473674
 20
-44.862346
 30
0.0
  0
POINT
  5
1D7
  8
DEFPOINTS
 10
-1185.473674
 20
-260.292006
 30
0.0
  0
LINE
  5
1D8
  8
2
 10
-1143.473674
 20
-464.862346
 30
0.0
 11
-1190.473674
 21
-464.862346
 31
0.0
  0
LINE
  5
1D9
  8
2
 10
-1143.473674
 20
-44.862346
 30
0.0
 11
-1190.473674
 21
-44.862346
 31
0.0
  0
LINE
  5
1DA
  8
2
 10
-1185.473674
 20
-464.862346
 30
0.0
 11
-1185.473674
 21
-44.862346
 31
0.0
  0
LINE
  5
1DB
  8
2
 10
-1189.81488
 20
-440.242152
 30
0.0
 11
-1185.473674
 21
-464.862346
 31
0.0
  0
LINE
  5
1DC
  8
2
 10
-1181.132471
 20
-440.242152
 30
0.0
 11
-1185.473674
 21
-464.862346
 31
0.0
  0
LINE
  5
1DD
  8
2
 10
-1181.132469
 20
-69.48254
 30
0.0
 11
-1185.473674
 21
-44.862346
 31
0.0
  0
LINE
  5
1DE
  8
2
 10
-1189.814878
 20
-69.48254
 30
0.0
 11
-1185.473674
 21
-44.862346
 31
0.0
  0
TEXT
  5
1DF
  8
2
 10
-1195.473633
 20
-304.142334
 30
0.0
 40
38.5
  1
420
 50
90.000003
 41
0.9
  7
MONOTXT
  0
ENDBLK
  5
1E0
  8
0
  0
BLOCK
  5
1E2
  8
2
  2
*D30
 70
    65
 10
0.0
 20
0.0
 30
0.0
  3
*D30
  1

  0
POINT
  5
1E3
  8
DEFPOINTS
 10
-975.473674
 20
-549.862246
 30
0.0
  0
POINT
  5
1E4
  8
DEFPOINTS
 10
-1135.473674
 20
-464.862346
 30
0.0
  0
POINT
  5
1E5
  8
DEFPOINTS
 10
-1185.473674
 20
-515.931363
 30
0.0
  0
LINE
  5
1E6
  8
2
 10
-983.473674
 20
-549.862246
 30
0.0
 11
-1190.473674
 21
-549.862246
 31
0.0
  0
LINE
  5
1E7
  8
2
 10
-1143.473674
 20
-464.862346
 30
0.0
 11
-1190.473674
 21
-464.862346
 31
0.0
  0
LINE
  5
1E8
  8
2
 10
-1185.473674
 20
-549.862246
 30
0.0
 11
-1185.473674
 21
-464.862346
 31
0.0
  0
LINE
  5
1E9
  8
2
 10
-1189.81488
 20
-525.242052
 30
0.0
 11
-1185.473674
 21
-549.862246
 31
0.0
  0
LINE
  5
1EA
  8
2
 10
-1181.132471
 20
-525.242052
 30
0.0
 11
-1185.473674
 21
-549.862246
 31
0.0
  0
LINE
  5
1EB
  8
2
 10
-1181.132469
 20
-489.48254
 30
0.0
 11
-1185.473674
 21
-464.862346
 31
0.0
  0
LINE
  5
1EC
  8
2
 10
-1189.814878
 20
-489.48254
 30
0.0
 11
-1185.473674
 21
-464.862346
 31
0.0
  0
TEXT
  5
1ED
  8
2
 10
-1195.473633
 20
-540.955994
 30
0.0
 40
38.5
  1
85
 50
90.000003
 41
0.9
  7
MONOTXT
  0
ENDBLK
  5
1EE
  8
0
  0
BLOCK
  5
1F0
  8
2
  2
*D31
 70
    65
 10
0.0
 20
0.0
 30
0.0
  3
*D31
  1

  0
POINT
  5
1F1
  8
DEFPOINTS
 10
-975.473674
 20
-549.862246
 30
0.0
  0
POINT
  5
1F2
  8
DEFPOINTS
 10
-945.473674
 20
50.137754
 30
0.0
  0
POINT
  5
1F3
  8
DEFPOINTS
 10
-1255.473674
 20
-227.726483
 30
0.0
  0
LINE
  5
1F4
  8
2
 10
-983.473674
 20
-549.862246
 30
0.0
 11
-1260.473674
 21
-549.862246
 31
0.0
  0
LINE
  5
1F5
  8
2
 10
-953.473674
 20
50.137754
 30
0.0
 11
-1260.473674
 21
50.137754
 31
0.0
  0
LINE
  5
1F6
  8
2
 10
-1255.473674
 20
-549.862246
 30
0.0
 11
-1255.473674
 21
50.137754
 31
0.0
  0
LINE
  5
1F7
  8
2
 10
-1259.81488
 20
-525.242052
 30
0.0
 11
-1255.473674
 21
-549.862246
 31
0.0
  0
LINE
  5
1F8
  8
2
 10
-1251.132471
 20
-525.242052
 30
0.0
 11
-1255.473674
 21
-549.862246
 31
0.0
  0
LINE
  5
1F9
  8
2
 10
-1251.132469
 20
25.51756
 30
0.0
 11
-1255.473674
 21
50.137754
 31
0.0
  0
LINE
  5
1FA
  8
2
 10
-1259.814878
 20
25.51756
 30
0.0
 11
-1255.473674
 21
50.137754
 31
0.0
  0
TEXT
  5
1FB
  8
2
 10
-1265.473633
 20
-299.142242
 30
0.0
 40
38.5
  1
600
 50
90.000003
 41
0.9
  7
MONOTXT
  0
ENDBLK
  5
1FC
  8
0
  0
BLOCK
  5
1FE
  8
2
  2
*D32
 70
    65
 10
0.0
 20
0.0
 30
0.0
  3
*D32
  1

  0
POINT
  5
1FF
  8
DEFPOINTS
 10
-975.473674
 20
25.137754
 30
0.0
  0
POINT
  5
200
  8
DEFPOINTS
 10
-945.473674
 20
50.137754
 30
0.0
  0
POINT
  5
201
  8
DEFPOINTS
 10
-1145.473674
 20
93.04392
 30
0.0
  0
LINE
  5
202
  8
2
 10
-983.473674
 20
25.137754
 30
0.0
 11
-1150.473674
 21
25.137754
 31
0.0
  0
LINE
  5
203
  8
2
 10
-953.473674
 20
50.137754
 30
0.0
 11
-1150.473674
 21
50.137754
 31
0.0
  0
LINE
  5
204
  8
2
 10
-1145.473674
 20
-11.792536
 30
0.0
 11
-1145.473674
 21
180.652754
 31
0.0
  0
LINE
  5
205
  8
2
 10
-1141.132469
 20
0.51756
 30
0.0
 11
-1145.473674
 21
25.137754
 31
0.0
  0
LINE
  5
206
  8
2
 10
-1149.814878
 20
0.51756
 30
0.0
 11
-1145.473674
 21
25.137754
 31
0.0
  0
LINE
  5
207
  8
2
 10
-1149.81488
 20
74.757948
 30
0.0
 11
-1145.473674
 21
50.137754
 31
0.0
  0
LINE
  5
208
  8
2
 10
-1141.132471
 20
74.757948
 30
0.0
 11
-1145.473674
 21
50.137754
 31
0.0
  0
TEXT
  5
209
  8
2
 10
-1155.473633
 20
82.092751
 30
0.0
 40
38.5
  1
25
 50
90.000003
 41
0.9
  7
MONOTXT
  0
ENDBLK
  5
20A
  8
0
  0
BLOCK
  5
20C
  8
2
  2
*D33
 70
    65
 10
0.0
 20
0.0
 30
0.0
  3
*D33
  1

  0
POINT
  5
20D
  8
DEFPOINTS
 10
-975.473674
 20
25.137754
 30
0.0
  0
POINT
  5
20E
  8
DEFPOINTS
 10
-235.473674
 20
25.137754
 30
0.0
  0
POINT
  5
20F
  8
DEFPOINTS
 10
-759.076831
 20
215.137754
 30
0.0
  0
LINE
  5
210
  8
2
 10
-975.473674
 20
33.137754
 30
0.0
 11
-975.473674
 21
220.137754
 31
0.0
  0
LINE
  5
211
  8
2
 10
-235.473674
 20
33.137754
 30
0.0
 11
-235.473674
 21
220.137754
 31
0.0
  0
LINE
  5
212
  8
2
 10
-975.473674
 20
215.137754
 30
0.0
 11
-235.473674
 21
215.137754
 31
0.0
  0
LINE
  5
213
  8
2
 10
-950.85348
 20
219.478959
 30
0.0
 11
-975.473674
 21
215.137754
 31
0.0
  0
LINE
  5
214
  8
2
 10
-950.85348
 20
210.79655
 30
0.0
 11
-975.473674
 21
215.137754
 31
0.0
  0
LINE
  5
215
  8
2
 10
-260.093868
 20
210.79655
 30
0.0
 11
-235.473674
 21
215.137754
 31
0.0
  0
LINE
  5
216
  8
2
 10
-260.093868
 20
219.478959
 30
0.0
 11
-235.473674
 21
215.137754
 31
0.0
  0
TEXT
  5
217
  8
2
 10
-654.753662
 20
225.137756
 30
0.0
 40
38.5
  1
740
 41
0.9
  7
MONOTXT
  0
ENDBLK
  5
218
  8
0
  0
BLOCK
  5
21A
  8
2
  2
*D34
 70
    65
 10
0.0
 20
0.0
 30
0.0
  3
*D34
  1

  0
POINT
  5
21B
  8
DEFPOINTS
 10
-920.473674
 20
57.137754
 30
0.0
  0
POINT
  5
21C
  8
DEFPOINTS
 10
-290.473674
 20
60.137754
 30
0.0
  0
POINT
  5
21D
  8
DEFPOINTS
 10
-754.192003
 20
135.137754
 30
0.0
  0
LINE
  5
21E
  8
2
 10
-920.473674
 20
65.137754
 30
0.0
 11
-920.473674
 21
140.137754
 31
0.0
  0
LINE
  5
21F
  8
2
 10
-290.473674
 20
68.137754
 30
0.0
 11
-290.473674
 21
140.137754
 31
0.0
  0
LINE
  5
220
  8
2
 10
-920.473674
 20
135.137754
 30
0.0
 11
-290.473674
 21
135.137754
 31
0.0
  0
LINE
  5
221
  8
2
 10
-895.85348
 20
139.478959
 30
0.0
 11
-920.473674
 21
135.137754
 31
0.0
  0
LINE
  5
222
  8
2
 10
-895.85348
 20
130.79655
 30
0.0
 11
-920.473674
 21
135.137754
 31
0.0
  0
LINE
  5
223
  8
2
 10
-315.093868
 20
130.79655
 30
0.0
 11
-290.473674
 21
135.137754
 31
0.0
  0
LINE
  5
224
  8
2
 10
-315.093868
 20
139.478959
 30
0.0
 11
-290.473674
 21
135.137754
 31
0.0
  0
TEXT
  5
225
  8
2
 10
-760.436157
 20
145.137756
 30
0.0
 40
38.5
  1
６×１００＝６００
 41
0.9
  7
MONOTXT
  0
ENDBLK
  5
226
  8
0
  0
BLOCK
  5
228
  8
2
  2
*D35
 70
    65
 10
0.0
 20
0.0
 30
0.0
  3
*D35
  1

  0
POINT
  5
229
  8
DEFPOINTS
 10
-933.716733
 20
39.137754
 30
0.0
  0
POINT
  5
22A
  8
DEFPOINTS
 10
-945.473674
 20
50.137754
 30
0.0
  0
POINT
  5
22B
  8
DEFPOINTS
 10
-1065.473674
 20
81.645987
 30
0.0
  0
LINE
  5
22C
  8
2
 10
-941.716733
 20
39.137754
 30
0.0
 11
-1070.473674
 21
39.137754
 31
0.0
  0
LINE
  5
22D
  8
2
 10
-953.473674
 20
50.137754
 30
0.0
 11
-1070.473674
 21
50.137754
 31
0.0
  0
LINE
  5
22E
  8
2
 10
-1065.473674
 20
2.207464
 30
0.0
 11
-1065.473674
 21
180.652754
 31
0.0
  0
LINE
  5
22F
  8
2
 10
-1061.132469
 20
14.51756
 30
0.0
 11
-1065.473674
 21
39.137754
 31
0.0
  0
LINE
  5
230
  8
2
 10
-1069.814878
 20
14.51756
 30
0.0
 11
-1065.473674
 21
39.137754
 31
0.0
  0
LINE
  5
231
  8
2
 10
-1069.81488
 20
74.757948
 30
0.0
 11
-1065.473674
 21
50.137754
 31
0.0
  0
LINE
  5
232
  8
2
 10
-1061.132471
 20
74.757948
 30
0.0
 11
-1065.473674
 21
50.137754
 31
0.0
  0
TEXT
  5
233
  8
2
 10
-1075.473633
 20
82.092751
 30
0.0
 40
38.5
  1
11
 50
90.000003
 41
0.9
  7
MONOTXT
  0
ENDBLK
  5
234
  8
0
  0
ENDSEC
  0
SECTION
  2
ENTITIES
  0
INSERT
  5
235
  8
1
  2
*U2
 10
0.0
 20
0.0
 30
0.0
  0
INSERT
  5
236
  8
1
  2
*U3
 10
0.0
 20
0.0
 30
0.0
  0
DIMENSION
  5
237
  8
2
 62
     7
  2
*D4
 10
566.623741
 20
-416.247791
 30
0.0
 11
537.373716
 21
-443.362243
 31
0.0
 13
666.623741
 23
-549.862246
 33
0.0
 14
698.523741
 24
-336.862246
 34
0.0
 50
90.000003
  0
DIMENSION
  5
238
  8
2
 62
     7
  2
*D5
 10
734.21357
 20
-764.862246
 30
0.0
 11
757.62375
 21
-735.612244
 31
0.0
 13
658.623741
 23
-539.862346
 33
0.0
 14
856.623741
 24
-470.862246
 34
0.0
  0
DIMENSION
  5
239
  8
2
 62
     7
  2
*D6
 10
898.567546
 20
-764.862246
 30
0.0
 11
909.903735
 21
-735.612244
 31
0.0
 13
856.623741
 23
-470.862246
 33
0.0
 14
860.623741
 24
-424.862246
 34
0.0
  0
DIMENSION
  5
23A
  8
2
 62
     7
  2
*D7
 10
797.104122
 20
-604.862246
 30
0.0
 11
804.530793
 21
-575.612244
 31
0.0
 13
756.623741
 23
-560.862246
 33
0.0
 14
856.623741
 24
-470.862246
 34
0.0
  0
DIMENSION
  5
23B
  8
2
 62
     7
  2
*D8
 10
778.656227
 20
-684.862246
 30
0.0
 11
782.62375
 21
-655.612244
 31
0.0
 13
708.623741
 23
-344.862246
 33
0.0
 14
856.623741
 24
-470.862246
 34
0.0
  0
DIMENSION
  5
23C
  8
2
 62
     7
  2
*D9
 10
486.623741
 20
-305.348417
 30
0.0
 11
457.373747
 21
-342.362243
 31
0.0
 13
666.623741
 23
-549.862246
 33
0.0
 14
710.623741
 24
-134.862246
 34
0.0
 50
90.000003
  0
DIMENSION
  5
23D
  8
2
 62
     7
  2
*D10
 10
406.623741
 20
-235.634949
 30
0.0
 11
377.373747
 21
-282.362243
 31
0.0
  1
525
 13
666.623741
 23
-549.862246
 33
0.0
 14
787.623741
 24
-14.862246
 34
0.0
 50
90.000003
  0
DIMENSION
  5
23E
  8
2
 62
     7
  2
*D11
 10
708.056155
 20
375.137754
 30
0.0
 11
746.62375
 21
404.387756
 31
0.0
 13
636.623741
 23
-292.042246
 33
0.0
 14
856.623741
 24
25.137754
 34
0.0
  0
DIMENSION
  5
23F
  8
2
 62
     7
  2
*D12
 10
566.623741
 20
86.992494
 30
0.0
 11
537.373717
 21
115.39525
 31
0.0
 13
705.123741
 23
39.137754
 33
0.0
 14
676.623741
 24
50.137754
 34
0.0
 50
90.000003
  0
DIMENSION
  5
240
  8
2
 62
     7
  2
*D13
 10
833.458268
 20
139.014303
 30
0.0
 11
826.227854
 21
168.264297
 31
0.0
  1
52
 13
807.623741
 23
5.137754
 33
0.0
 14
856.623741
 24
25.137754
 34
0.0
  0
DIMENSION
  5
241
  8
2
 62
     7
  2
*D14
 10
753.450971
 20
135.137754
 30
0.0
 11
735.792124
 21
164.387756
 31
0.0
 13
715.123741
 23
55.137754
 33
0.0
 14
780.123841
 24
55.137754
 34
0.0
  0
DIMENSION
  5
242
  8
2
 62
     7
  2
*D15
 10
793.982057
 20
215.137754
 30
0.0
 11
791.946809
 21
244.387756
 31
0.0
  1
109
 13
741.623741
 23
50.137754
 33
0.0
 14
856.623741
 24
25.137754
 34
0.0
  0
DIMENSION
  5
243
  8
2
 62
     7
  2
*D16
 10
784.254596
 20
295.137754
 30
0.0
 11
793.12375
 21
324.387756
 31
0.0
 13
729.623741
 23
-112.862246
 33
0.0
 14
856.623741
 24
25.137754
 34
0.0
  0
DIMENSION
  5
244
  8
2
 62
     7
  2
*D17
 10
-679.78623
 20
757.960816
 30
0.0
 11
-605.473601
 21
787.210815
 31
0.0
 13
-945.473574
 23
859.960816
 33
0.0
 14
-265.473674
 24
859.960916
 34
0.0
  0
DIMENSION
  5
245
  8
2
 62
     7
  2
*D18
 10
-224.492369
 20
757.960816
 30
0.0
 11
-220.473669
 21
787.210815
 31
0.0
 13
-265.473674
 23
859.960916
 33
0.0
 14
-175.473674
 24
884.146816
 34
0.0
  0
DIMENSION
  5
246
  8
2
 62
     7
  2
*D19
 10
-762.443746
 20
1107.960816
 30
0.0
 11
-605.473601
 21
1137.210815
 31
0.0
 13
-960.473574
 23
938.960816
 33
0.0
 14
-250.473574
 24
938.960816
 34
0.0
  0
DIMENSION
  5
247
  8
2
 62
     7
  2
*D20
 10
-1047.00241
 20
757.960816
 30
0.0
 11
-1045.473662
 21
787.210815
 31
0.0
 13
-1145.473674
 23
977.960816
 33
0.0
 14
-945.473574
 24
859.960816
 34
0.0
  0
DIMENSION
  5
248
  8
2
 62
     7
  2
*D21
 10
-1215.473674
 20
793.328717
 30
0.0
 11
-1244.723634
 21
770.703317
 31
0.0
 13
-975.473574
 23
835.960816
 33
0.0
 14
-949.473574
 24
859.960816
 34
0.0
 50
90.000003
  0
DIMENSION
  5
249
  8
2
 62
     7
  2
*D22
 10
-1215.473674
 20
1064.336968
 30
0.0
 11
-1244.723634
 21
1099.218271
 31
0.0
 13
-949.473574
 23
989.960816
 33
0.0
 14
-975.473674
 24
1033.960816
 34
0.0
 50
90.000003
  0
DIMENSION
  5
24A
  8
2
 62
     7
  2
*D23
 10
-1215.473674
 20
908.507224
 30
0.0
 11
-1244.723635
 21
924.960785
 31
0.0
 13
-949.473574
 23
859.960816
 33
0.0
 14
-949.473574
 24
989.960816
 34
0.0
 50
90.000003
  0
DIMENSION
  5
24B
  8
2
 62
     7
  2
*D24
 10
-762.333384
 20
-684.862246
 30
0.0
 11
-605.473662
 21
-655.612244
 31
0.0
 13
-960.473674
 23
-549.862246
 33
0.0
 14
-250.473674
 24
-549.862346
 34
0.0
  0
DIMENSION
  5
24C
  8
2
 62
     7
  2
*D25
 10
-154.986377
 20
-684.862246
 30
0.0
 11
-120.216177
 21
-655.612244
 31
0.0
 13
-250.473674
 23
-549.862346
 33
0.0
 14
-185.473674
 24
-314.778246
 34
0.0
  0
DIMENSION
  5
24D
  8
2
 62
     7
  2
*D26
 10
-283.620193
 20
-604.862246
 30
0.0
 11
-315.731161
 21
-575.612244
 31
0.0
 13
-250.473674
 23
-549.862346
 33
0.0
 14
-210.473674
 24
-344.862246
 34
0.0
  0
DIMENSION
  5
24E
  8
2
 62
     7
  2
*D27
 10
-35.473674
 20
-486.622392
 30
0.0
 11
-64.723673
 21
-489.862274
 31
0.0
 13
-235.473674
 23
-549.862246
 33
0.0
 14
-235.473674
 24
-429.862246
 34
0.0
 50
90.000003
  0
DIMENSION
  5
24F
  8
2
 62
     7
  2
*D28
 10
-35.473674
 20
-317.281672
 30
0.0
 11
-64.723673
 21
-290.862243
 31
0.0
  1
280
 13
-235.473674
 23
-429.862246
 33
0.0
 14
-235.473674
 24
-151.862246
 34
0.0
 50
90.000003
  0
DIMENSION
  5
250
  8
2
 62
     7
  2
*D29
 10
-1185.473674
 20
-260.292006
 30
0.0
 11
-1214.723635
 21
-254.862335
 31
0.0
 13
-1135.473674
 23
-464.862346
 33
0.0
 14
-1135.473674
 24
-44.862346
 34
0.0
 50
90.000003
  0
DIMENSION
  5
251
  8
2
 62
     7
  2
*D30
 10
-1185.473674
 20
-515.931363
 30
0.0
 11
-1214.723634
 21
-507.653494
 31
0.0
 13
-975.473674
 23
-549.862246
 33
0.0
 14
-1135.473674
 24
-464.862346
 34
0.0
 50
90.000003
  0
DIMENSION
  5
252
  8
2
 62
     7
  2
*D31
 10
-1255.473674
 20
-227.726483
 30
0.0
 11
-1284.723635
 21
-249.862243
 31
0.0
 13
-975.473674
 23
-549.862246
 33
0.0
 14
-945.473674
 24
50.137754
 34
0.0
 50
90.000003
  0
DIMENSION
  5
253
  8
2
 62
     7
  2
*D32
 10
-1145.473674
 20
93.04392
 30
0.0
 11
-1174.723634
 21
115.39525
 31
0.0
 13
-975.473674
 23
25.137754
 33
0.0
 14
-945.473674
 24
50.137754
 34
0.0
 50
90.000003
  0
DIMENSION
  5
254
  8
2
 62
     7
  2
*D33
 10
-759.076831
 20
215.137754
 30
0.0
 11
-605.473662
 21
244.387756
 31
0.0
 13
-975.473674
 23
25.137754
 33
0.0
 14
-235.473674
 24
25.137754
 34
0.0
  0
DIMENSION
  5
255
  8
2
 62
     7
  2
*D34
 10
-754.192003
 20
135.137754
 30
0.0
 11
-605.473657
 21
164.387756
 31
0.0
  1
６×１００＝６００
 13
-920.473674
 23
57.137754
 33
0.0
 14
-290.473674
 24
60.137754
 34
0.0
  0
DIMENSION
  5
256
  8
2
 62
     7
  2
*D35
 10
-1065.473674
 20
81.645987
 30
0.0
 11
-1094.723634
 21
115.39525
 31
0.0
 13
-933.716733
 23
39.137754
 33
0.0
 14
-945.473674
 24
50.137754
 34
0.0
 50
90.000003
  0
LINE
  5
257
  8
1
 10
-975.473674
 20
25.137754
 30
0.0
 11
-975.473674
 21
-549.862246
 31
0.0
  0
LINE
  5
258
  8
1
 10
-235.473674
 20
25.137754
 30
0.0
 11
-235.473674
 21
-549.862346
 31
0.0
  0
LINE
  5
259
  8
1
 10
-235.473674
 20
25.137754
 30
0.0
 11
-605.473674
 21
25.137754
 31
0.0
  0
LINE
  5
25A
  8
1
 10
-265.473674
 20
50.137754
 30
0.0
 11
-945.473674
 21
50.137754
 31
0.0
  0
LINE
  5
25B
  8
1
 10
-235.473674
 20
-549.862246
 30
0.0
 11
-265.473674
 21
-549.862246
 31
0.0
  0
LINE
  5
25C
  8
1
 10
-235.473674
 20
-464.862246
 30
0.0
 11
-975.473674
 21
-464.862346
 31
0.0
  0
LINE
  5
25D
  8
1
  6
DASHDOT
 10
-605.473674
 20
62.137754
 30
0.0
 11
-605.473674
 21
-499.862246
 31
0.0
  0
LINE
  5
25E
  8
1
  6
DASHDOT
 10
-960.473674
 20
-134.862246
 30
0.0
 11
-960.473674
 21
-549.862246
 31
0.0
  0
LINE
  5
25F
  8
1
  6
DASHDOT
 10
-265.473674
 20
39.137754
 30
0.0
 11
-933.716733
 21
39.137754
 31
0.0
  0
LINE
  5
260
  8
1
  6
DASHDOT
 10
-250.473574
 20
-134.862246
 30
0.0
 11
-250.473674
 21
-549.862346
 31
0.0
  0
LINE
  5
261
  8
1
 10
-945.473574
 20
50.137754
 30
0.0
 11
-945.473574
 21
25.137754
 31
0.0
  0
LINE
  5
262
  8
1
 10
-945.473674
 20
-549.862246
 30
0.0
 11
-975.473674
 21
-549.862246
 31
0.0
  0
LINE
  5
263
  8
1
 10
-265.473674
 20
-464.862246
 30
0.0
 11
-265.473674
 21
-549.862246
 31
0.0
  0
LINE
  5
264
  8
1
 10
-945.473674
 20
-464.862346
 30
0.0
 11
-945.473674
 21
-549.862246
 31
0.0
  0
LINE
  5
265
  8
1
 10
-605.473674
 20
25.137754
 30
0.0
 11
-975.473674
 21
25.137754
 31
0.0
  0
LINE
  5
266
  8
1
 10
-265.473674
 20
50.137754
 30
0.0
 11
-265.473674
 21
25.137754
 31
0.0
  0
LINE
  5
267
  8
1
  6
DASHED
 10
-945.473574
 20
25.137754
 30
0.0
 11
-945.473674
 21
-464.862346
 31
0.0
  0
LINE
  5
268
  8
1
  6
DASHED
 10
-265.473674
 20
25.137754
 30
0.0
 11
-265.473674
 21
-464.862246
 31
0.0
  0
LINE
  5
269
  8
1
  6
DASHDOT
 10
-945.473674
 20
-429.862246
 30
0.0
 11
-975.473674
 21
-429.862246
 31
0.0
  0
LINE
  5
26A
  8
1
  6
DASHDOT
 10
-235.473674
 20
-429.862246
 30
0.0
 11
-265.473674
 21
-429.862246
 31
0.0
  0
LINE
  5
26B
  8
1
  6
DASHDOT
 10
-945.473674
 20
-149.862246
 30
0.0
 11
-975.473674
 21
-149.862246
 31
0.0
  0
LINE
  5
26C
  8
1
 10
-235.473674
 20
1033.960816
 30
0.0
 11
-670.473674
 21
1033.960816
 31
0.0
  0
LINE
  5
26D
  8
1
 10
-225.473674
 20
-14.862246
 30
0.0
 11
-235.473674
 21
-14.862246
 31
0.0
  0
CIRCLE
  5
26E
  8
1
  6
DASHED
 10
-250.473674
 20
-151.862246
 30
0.0
 40
7.5
  0
CIRCLE
  5
26F
  8
1
  6
DASHED
 10
-250.473674
 20
-429.862246
 30
0.0
 40
7.5
  0
LINE
  5
270
  8
1
 10
-540.473674
 20
1033.960816
 30
0.0
 11
-975.473674
 21
1033.960816
 31
0.0
  0
CIRCLE
  5
271
  8
1
  6
DASHED
 10
-960.473674
 20
-149.862246
 30
0.0
 40
7.5
  0
CIRCLE
  5
272
  8
1
  6
DASHED
 10
-960.473674
 20
-429.862246
 30
0.0
 40
7.5
  0
LINE
  5
273
  8
1
 10
-235.473674
 20
-265.098746
 30
0.0
 11
-215.473674
 21
-265.098746
 31
0.0
  0
LINE
  5
274
  8
1
 10
-235.473674
 20
-259.888746
 30
0.0
 11
-215.473674
 21
-259.888746
 31
0.0
  0
LINE
  5
275
  8
1
 10
-235.473774
 20
-207.718646
 30
0.0
 11
-215.473674
 21
-207.718646
 31
0.0
  0
LINE
  5
276
  8
1
 10
-215.473674
 20
-207.718646
 30
0.0
 11
-215.473674
 21
-265.098746
 31
0.0
  0
LINE
  5
277
  8
1
 10
-985.473674
 20
-124.862246
 30
0.0
 11
-975.473674
 21
-124.862246
 31
0.0
  0
LINE
  5
278
  8
1
 10
-985.473674
 20
-104.862246
 30
0.0
 11
-975.473674
 21
-104.862246
 31
0.0
  0
LINE
  5
279
  8
1
 10
-985.473674
 20
-104.862246
 30
0.0
 11
-985.473674
 21
-124.862246
 31
0.0
  0
LINE
  5
27A
  8
1
 10
-225.473674
 20
918.961316
 30
0.0
 11
-185.473474
 21
918.961316
 31
0.0
  0
LINE
  5
27B
  8
1
 10
-225.473674
 20
878.961316
 30
0.0
 11
-185.473474
 21
878.961316
 31
0.0
  0
LINE
  5
27C
  8
1
 10
-235.473674
 20
-187.692246
 30
0.0
 11
-975.473674
 21
-187.692246
 31
0.0
  0
LINE
  5
27D
  8
1
 10
-235.473674
 20
-292.042246
 30
0.0
 11
-975.473674
 21
-292.042246
 31
0.0
  0
LINE
  5
27E
  8
1
 10
-185.473474
 20
918.961316
 30
0.0
 11
-185.473474
 21
909.298916
 31
0.0
  0
LINE
  5
27F
  8
1
 10
-995.473674
 20
862.960416
 30
0.0
 11
-975.473474
 21
862.960316
 31
0.0
  0
LINE
  5
280
  8
1
 10
-200.373674
 20
-314.778246
 30
0.0
 11
-200.373674
 21
-336.862246
 31
0.0
  0
LINE
  5
281
  8
1
 10
-220.573674
 20
-314.778246
 30
0.0
 11
-220.573674
 21
-336.862246
 31
0.0
  0
LINE
  5
282
  8
1
 10
-235.473674
 20
-295.908646
 30
0.0
 11
-185.473674
 21
-295.908646
 31
0.0
  0
LINE
  5
283
  8
1
 10
-235.473774
 20
-314.778246
 30
0.0
 11
-185.473674
 21
-314.778246
 31
0.0
  0
LINE
  5
284
  8
1
 10
-185.473674
 20
-295.908646
 30
0.0
 11
-185.473674
 21
-314.778246
 31
0.0
  0
LINE
  5
285
  8
1
  6
DASHED
 10
-275.473674
 20
-459.542246
 30
0.0
 11
-935.473674
 21
-459.542246
 31
0.0
  0
LINE
  5
286
  8
1
  6
DASHDOT
 10
-210.473674
 20
-292.042246
 30
0.0
 11
-210.473674
 21
-344.862246
 31
0.0
  0
LINE
  5
287
  8
1
 10
-220.573674
 20
-336.862246
 30
0.0
 11
-200.373674
 21
-336.862346
 31
0.0
  0
LINE
  5
288
  8
1
  6
DASHDOT
 10
-178.273674
 20
-156.862246
 30
0.0
 11
-208.873674
 21
-156.862146
 31
0.0
  0
LINE
  5
289
  8
1
 10
-1145.473674
 20
1027.960816
 30
0.0
 11
-1145.473674
 21
977.960816
 31
0.0
  0
LINE
  5
28A
  8
1
 10
-975.473674
 20
1027.960816
 30
0.0
 11
-1145.473674
 21
1027.960816
 31
0.0
  0
LINE
  5
28B
  8
1
 10
-1135.473674
 20
977.960816
 30
0.0
 11
-1145.473674
 21
977.960816
 31
0.0
  0
LINE
  5
28C
  8
1
 10
-985.473674
 20
-464.862346
 30
0.0
 11
-1135.473674
 21
-464.862346
 31
0.0
  0
LINE
  5
28D
  8
1
 10
-185.473474
 20
884.146816
 30
0.0
 11
-185.473474
 21
878.961316
 31
0.0
  0
LINE
  5
28E
  8
1
  6
DASHED
 10
-935.473674
 20
-459.542246
 30
0.0
 11
-935.473674
 21
-464.862346
 31
0.0
  0
LINE
  5
28F
  8
1
  6
DASHED
 10
-275.473674
 20
-459.542246
 30
0.0
 11
-275.473674
 21
-464.862246
 31
0.0
  0
LINE
  5
290
  8
1
 10
-1135.473674
 20
-44.862346
 30
0.0
 11
-1135.473674
 21
-464.862346
 31
0.0
  0
LINE
  5
291
  8
1
 10
-985.473674
 20
-44.862346
 30
0.0
 11
-1135.473674
 21
-44.862346
 31
0.0
  0
LINE
  5
292
  8
1
 10
-1125.473674
 20
-44.862346
 30
0.0
 11
-1125.473674
 21
-464.862346
 31
0.0
  0
LINE
  5
293
  8
1
  6
DASHDOT
 10
-920.473674
 20
57.137754
 30
0.0
 11
-920.473674
 21
20.137754
 31
0.0
  0
LINE
  5
294
  8
1
  6
DASHDOT
 10
-290.473674
 20
60.137754
 30
0.0
 11
-290.473674
 21
23.137754
 31
0.0
  0
LINE
  5
295
  8
1
 10
-540.473674
 20
989.960816
 30
0.0
 11
-949.473574
 21
989.960816
 31
0.0
  0
LINE
  5
296
  8
1
 10
-261.473674
 20
989.960916
 30
0.0
 11
-670.473674
 21
989.960816
 31
0.0
  0
CIRCLE
  5
297
  8
1
  6
DIVIDE
 10
-920.473674
 20
39.137754
 30
0.0
 40
5.0
  0
LINE
  5
298
  8
1
 10
-235.473674
 20
993.960816
 30
0.0
 11
-670.473674
 21
993.960816
 31
0.0
  0
LINE
  5
299
  8
1
 10
-540.473674
 20
993.960816
 30
0.0
 11
-975.473674
 21
993.960816
 31
0.0
  0
LINE
  5
29A
  8
1
 10
-540.473674
 20
855.960816
 30
0.0
 11
-975.473574
 21
855.960816
 31
0.0
  0
LINE
  5
29B
  8
1
 10
-235.473674
 20
855.960816
 30
0.0
 11
-670.473674
 21
855.960816
 31
0.0
  0
LINE
  5
29C
  8
1
  6
DASHDOT
 10
-960.473574
 20
938.960816
 30
0.0
 11
-960.473474
 21
910.960816
 31
0.0
  0
LINE
  5
29D
  8
1
 10
-261.473674
 20
859.960916
 30
0.0
 11
-670.473674
 21
859.960816
 31
0.0
  0
LINE
  5
29E
  8
1
 10
-540.473674
 20
859.960816
 30
0.0
 11
-949.473574
 21
859.960816
 31
0.0
  0
LINE
  5
29F
  8
1
 10
-540.473674
 20
835.960816
 30
0.0
 11
-975.473574
 21
835.960816
 31
0.0
  0
LINE
  5
2A0
  8
1
 10
-261.473674
 20
993.960816
 30
0.0
 11
-261.473674
 21
855.960816
 31
0.0
  0
LINE
  5
2A1
  8
1
 10
-949.473574
 20
993.960816
 30
0.0
 11
-949.473674
 21
855.960816
 31
0.0
  0
LINE
  5
2A2
  8
1
  6
DASHDOT
 10
-239.473474
 20
924.960816
 30
0.0
 11
-261.473674
 21
924.960816
 31
0.0
  0
LINE
  5
2A3
  8
1
 10
-244.473474
 20
927.960816
 30
0.0
 11
-244.473274
 21
921.960816
 31
0.0
  0
LINE
  5
2A4
  8
1
 10
-256.473474
 20
927.960816
 30
0.0
 11
-256.473274
 21
921.960816
 31
0.0
  0
ARC
  5
2A5
  8
1
 10
-960.473474
 20
921.960816
 30
0.0
 40
6.0
 50
180.0002
 51
0.0
  0
ARC
  5
2A6
  8
1
 10
-960.473574
 20
927.960816
 30
0.0
 40
6.0
 50
0.0
 51
180.0002
  0
LINE
  5
2A7
  8
1
 10
-966.473474
 20
927.960816
 30
0.0
 11
-966.473274
 21
921.960816
 31
0.0
  0
LINE
  5
2A8
  8
1
 10
-954.473474
 20
927.960816
 30
0.0
 11
-954.473274
 21
921.960816
 31
0.0
  0
ARC
  5
2A9
  8
1
 10
-250.473574
 20
927.960816
 30
0.0
 40
6.0
 50
0.0
 51
180.0002
  0
ARC
  5
2AA
  8
1
 10
-250.473474
 20
921.960816
 30
0.0
 40
6.0
 50
180.0002
 51
0.0
  0
LINE
  5
2AB
  8
1
  6
DASHDOT
 10
-949.473474
 20
924.960816
 30
0.0
 11
-971.473674
 21
924.960816
 31
0.0
  0
LINE
  5
2AC
  8
1
 10
-235.473674
 20
835.960816
 30
0.0
 11
-670.473674
 21
835.960816
 31
0.0
  0
LINE
  5
2AD
  8
1
 10
-235.473674
 20
817.960816
 30
0.0
 11
-975.473574
 21
817.960816
 31
0.0
  0
LINE
  5
2AE
  8
1
 10
-265.473674
 20
989.960916
 30
0.0
 11
-265.473674
 21
859.960916
 31
0.0
  0
LINE
  5
2AF
  8
1
 10
-945.473574
 20
989.960916
 30
0.0
 11
-945.473574
 21
859.960816
 31
0.0
  0
LINE
  5
2B0
  8
1
 10
-540.473674
 20
1037.960816
 30
0.0
 11
-975.473674
 21
1037.960816
 31
0.0
  0
LINE
  5
2B1
  8
1
  6
DASHDOT
 10
-250.473574
 20
938.960816
 30
0.0
 11
-250.473474
 21
910.960816
 31
0.0
  0
LINE
  5
2B2
  8
1
  6
DASHDOT
 10
-605.473674
 20
1052.960816
 30
0.0
 11
-605.473574
 21
809.960916
 31
0.0
  0
LINE
  5
2B3
  8
1
 10
-235.473674
 20
1037.960816
 30
0.0
 11
-670.473674
 21
1037.960816
 31
0.0
  0
LINE
  5
2B4
  8
1
 10
-235.473674
 20
1037.960816
 30
0.0
 11
-235.473674
 21
817.960816
 31
0.0
  0
LINE
  5
2B5
  8
1
 10
-975.473674
 20
1037.960816
 30
0.0
 11
-975.473674
 21
817.960916
 31
0.0
  0
LINE
  5
2B6
  8
1
 10
-225.473674
 20
1007.960816
 30
0.0
 11
-235.473674
 21
1007.960816
 31
0.0
  0
LINE
  5
2B7
  8
1
 10
-225.473674
 20
1007.960816
 30
0.0
 11
-225.473674
 21
867.960816
 31
0.0
  0
LINE
  5
2B8
  8
1
 10
-225.473674
 20
867.960816
 30
0.0
 11
-235.473674
 21
867.960816
 31
0.0
  0
LINE
  5
2B9
  8
1
 10
-985.473674
 20
-364.862246
 30
0.0
 11
-985.473674
 21
-384.862246
 31
0.0
  0
LINE
  5
2BA
  8
1
 10
-225.473674
 20
-14.862246
 30
0.0
 11
-225.473674
 21
-174.862246
 31
0.0
  0
LINE
  5
2BB
  8
1
 10
-225.473674
 20
-174.862246
 30
0.0
 11
-235.473674
 21
-174.862246
 31
0.0
  0
LINE
  5
2BC
  8
1
 10
-985.473674
 20
-364.862246
 30
0.0
 11
-975.473674
 21
-364.862246
 31
0.0
  0
LINE
  5
2BD
  8
1
 10
-985.473674
 20
-384.862246
 30
0.0
 11
-975.473674
 21
-384.862246
 31
0.0
  0
LINE
  5
2BE
  8
1
 10
-985.473674
 20
-44.862346
 30
0.0
 11
-985.473674
 21
-464.862346
 31
0.0
  0
LINE
  5
2BF
  8
1
 10
-995.473674
 20
-44.862346
 30
0.0
 11
-995.473674
 21
-464.862346
 31
0.0
  0
LINE
  5
2C0
  8
1
 10
-1135.473674
 20
977.960816
 30
0.0
 11
-995.473674
 21
862.960416
 31
0.0
  0
LINE
  5
2C1
  8
1
 10
-985.473674
 20
1027.960716
 30
0.0
 11
-985.473674
 21
862.960316
 31
0.0
  0
CIRCLE
  5
2C2
  8
1
  6
DIVIDE
 10
-290.473674
 20
39.137754
 30
0.0
 40
5.0
  0
TEXT
  5
2C3
  8
2
 10
-780.47345
 20
717.960754
 30
0.0
 40
25.0
  1
（吹出口フランジ内寸法）
 41
0.825
  7
MONOTXT
  0
LINE
  5
2C4
  8
1
 10
799.993741
 20
10.097254
 30
0.0
 11
703.716041
 21
-138.022246
 31
0.0
  0
LINE
  5
2C5
  8
1
 10
679.803841
 20
-207.718646
 30
0.0
 11
731.993741
 21
-223.378646
 31
0.0
  0
LINE
  5
2C6
  8
1
 10
679.803841
 20
-259.888746
 30
0.0
 11
679.803841
 21
-207.718646
 31
0.0
  0
LINE
  5
2C7
  8
1
 10
711.103741
 20
-265.098746
 30
0.0
 11
679.803841
 21
-259.888746
 31
0.0
  0
LINE
  5
2C8
  8
1
 10
731.993741
 20
-223.378646
 30
0.0
 11
711.103741
 21
-265.098746
 31
0.0
  0
LINE
  5
2C9
  8
1
 10
658.623741
 20
-474.642246
 30
0.0
 11
658.623741
 21
-539.862346
 31
0.0
  0
LINE
  5
2CA
  8
1
 10
681.623741
 20
-529.862246
 30
0.0
 11
691.623741
 21
-529.862246
 31
0.0
  0
LINE
  5
2CB
  8
1
 10
681.623741
 20
-534.862246
 30
0.0
 11
691.623741
 21
-534.862246
 31
0.0
  0
LINE
  5
2CC
  8
1
 10
691.623741
 20
-529.862246
 30
0.0
 11
691.623741
 21
-534.862246
 31
0.0
  0
LINE
  5
2CD
  8
1
 10
681.623741
 20
-529.862246
 30
0.0
 11
681.623741
 21
-534.862246
 31
0.0
  0
LINE
  5
2CE
  8
1
 10
829.123741
 20
-534.862346
 30
0.0
 11
829.123741
 21
-539.862246
 31
0.0
  0
LINE
  5
2CF
  8
1
 10
684.123741
 20
-534.862246
 30
0.0
 11
684.123741
 21
-539.862246
 31
0.0
  0
LINE
  5
2D0
  8
1
 10
824.123741
 20
-534.862246
 30
0.0
 11
824.123741
 21
-539.862246
 31
0.0
  0
LINE
  5
2D1
  8
1
 10
821.623741
 20
-529.862246
 30
0.0
 11
821.623741
 21
-534.862246
 31
0.0
  0
LINE
  5
2D2
  8
1
 10
831.623741
 20
-529.862246
 30
0.0
 11
831.623741
 21
-534.862246
 31
0.0
  0
LINE
  5
2D3
  8
1
 10
821.623741
 20
-534.862246
 30
0.0
 11
831.623741
 21
-534.862246
 31
0.0
  0
LINE
  5
2D4
  8
1
 10
821.623741
 20
-529.862246
 30
0.0
 11
831.623741
 21
-529.862246
 31
0.0
  0
LINE
  5
2D5
  8
1
 10
689.123741
 20
-534.862346
 30
0.0
 11
689.123741
 21
-539.862246
 31
0.0
  0
LINE
  5
2D6
  8
1
 10
852.623741
 20
-474.862346
 30
0.0
 11
852.623741
 21
-535.862246
 31
0.0
  0
LINE
  5
2D7
  8
1
 10
856.623741
 20
-424.862246
 30
0.0
 11
856.623741
 21
-470.862246
 31
0.0
  0
LINE
  5
2D8
  8
1
  6
DASHDOT
 10
756.623741
 20
-514.862246
 30
0.0
 11
756.623741
 21
-560.862246
 31
0.0
  0
LINE
  5
2D9
  8
1
 10
833.531541
 20
-11.702346
 30
0.0
 11
737.253741
 21
-159.821746
 31
0.0
  0
LINE
  5
2DA
  8
1
 10
856.623741
 20
-424.862246
 30
0.0
 11
860.623741
 21
-424.862246
 31
0.0
  0
LINE
  5
2DB
  8
1
 10
837.723841
 20
-14.427246
 30
0.0
 11
741.446041
 21
-162.546746
 31
0.0
  0
LINE
  5
2DC
  8
1
 10
856.623741
 20
-314.862246
 30
0.0
 11
860.623741
 21
-314.862246
 31
0.0
  0
LINE
  5
2DD
  8
1
 10
676.623741
 20
50.137754
 30
0.0
 11
676.623741
 21
25.137754
 31
0.0
  0
LINE
  5
2DE
  8
1
 10
703.716041
 20
-138.022246
 30
0.0
 11
741.446041
 21
-162.546746
 31
0.0
  0
ARC
  5
2DF
  8
1
 10
666.623741
 20
-545.862246
 30
0.0
 40
4.0
 50
180.0001
 51
270.0002
  0
ARC
  5
2E0
  8
1
 10
844.623741
 20
-545.862246
 30
0.0
 40
4.0
 50
270.0011
 51
0.0
  0
ARC
  5
2E1
  8
1
 10
848.623741
 20
-535.862246
 30
0.0
 40
4.0
 50
270.0002
 51
0.0
  0
ARC
  5
2E2
  8
1
 10
852.623741
 20
-470.862246
 30
0.0
 40
4.0
 50
270.0011
 51
0.0
  0
LINE
  5
2E3
  8
1
 10
658.623741
 20
-539.862246
 30
0.0
 11
848.623741
 21
-539.862246
 31
0.0
  0
CIRCLE
  5
2E4
  8
1
 10
715.123741
 20
39.137754
 30
0.0
 40
5.0
  0
CIRCLE
  5
2E5
  8
1
 10
780.123841
 20
39.137754
 30
0.0
 40
5.0
  0
LINE
  5
2E6
  8
1
 10
799.993741
 20
10.097254
 30
0.0
 11
837.723841
 21
-14.427246
 31
0.0
  0
LINE
  5
2E7
  8
1
  6
DASHDOT
 10
705.123741
 20
39.137754
 30
0.0
 11
790.123741
 21
39.137754
 31
0.0
  0
LINE
  5
2E8
  8
1
 10
715.123741
 20
55.137754
 30
0.0
 11
715.123741
 21
29.137754
 31
0.0
  0
LINE
  5
2E9
  8
1
 10
780.123841
 20
55.137754
 30
0.0
 11
780.123841
 21
29.137754
 31
0.0
  0
LINE
  5
2EA
  8
1
 10
698.523741
 20
-336.862246
 30
0.0
 11
718.723741
 21
-336.862246
 31
0.0
  0
LINE
  5
2EB
  8
1
  6
DASHDOT
 10
708.623741
 20
-292.042246
 30
0.0
 11
708.623741
 21
-344.862246
 31
0.0
  0
LINE
  5
2EC
  8
1
 10
733.623741
 20
-295.908646
 30
0.0
 11
733.623741
 21
-314.778246
 31
0.0
  0
LINE
  5
2ED
  8
1
 10
683.623741
 20
-314.778246
 30
0.0
 11
733.623741
 21
-314.778246
 31
0.0
  0
LINE
  5
2EE
  8
1
 10
683.623741
 20
-295.908646
 30
0.0
 11
733.623741
 21
-295.908646
 31
0.0
  0
LINE
  5
2EF
  8
1
 10
698.523641
 20
-314.778246
 30
0.0
 11
698.523741
 21
-336.862246
 31
0.0
  0
LINE
  5
2F0
  8
1
 10
718.723641
 20
-314.778246
 30
0.0
 11
718.723741
 21
-336.862246
 31
0.0
  0
LINE
  5
2F1
  8
1
 10
856.623741
 20
-314.862246
 30
0.0
 11
856.623741
 21
-424.862246
 31
0.0
  0
CIRCLE
  5
2F2
  8
1
 10
729.623741
 20
-134.862246
 30
0.0
 40
10.0
  0
CIRCLE
  5
2F3
  8
1
 10
807.623841
 20
-14.862246
 30
0.0
 40
10.0
  0
LINE
  5
2F4
  8
1
 10
806.623741
 20
50.137754
 30
0.0
 11
806.623741
 21
25.137754
 31
0.0
  0
LINE
  5
2F5
  8
1
  6
DASHDOT
 10
729.623741
 20
-112.862246
 30
0.0
 11
729.623741
 21
-152.862246
 31
0.0
  0
LINE
  5
2F6
  8
1
  6
DASHDOT
 10
807.623741
 20
5.137754
 30
0.0
 11
807.623741
 21
-34.862246
 31
0.0
  0
LINE
  5
2F7
  8
1
 10
848.623741
 20
17.137754
 30
0.0
 11
848.623741
 21
-545.862146
 31
0.0
  0
LINE
  5
2F8
  8
1
 10
662.623741
 20
17.137754
 30
0.0
 11
662.623741
 21
-545.862246
 31
0.0
  0
LINE
  5
2F9
  8
1
 10
662.623741
 20
17.137754
 30
0.0
 11
848.623741
 21
17.137754
 31
0.0
  0
LINE
  5
2FA
  8
1
 10
860.623741
 20
-314.862246
 30
0.0
 11
860.623741
 21
-424.862246
 31
0.0
  0
LINE
  5
2FB
  8
1
 10
640.623741
 20
-470.642246
 30
0.0
 11
658.623841
 21
-470.642246
 31
0.0
  0
LINE
  5
2FC
  8
1
 10
640.623741
 20
-296.042246
 30
0.0
 11
658.623741
 21
-296.042246
 31
0.0
  0
LINE
  5
2FD
  8
1
 10
640.623741
 20
-296.042246
 30
0.0
 11
640.623741
 21
-470.642246
 31
0.0
  0
LINE
  5
2FE
  8
1
 10
654.623741
 20
25.137754
 30
0.0
 11
654.623741
 21
-292.042246
 31
0.0
  0
LINE
  5
2FF
  8
1
 10
636.623741
 20
-474.642246
 30
0.0
 11
658.623741
 21
-474.642246
 31
0.0
  0
LINE
  5
300
  8
1
 10
636.623741
 20
-292.042246
 30
0.0
 11
654.623741
 21
-292.042246
 31
0.0
  0
LINE
  5
301
  8
1
 10
636.623741
 20
-292.042246
 30
0.0
 11
636.623741
 21
-474.642346
 31
0.0
  0
LINE
  5
302
  8
1
 10
856.623741
 20
25.137754
 30
0.0
 11
856.623741
 21
-314.862246
 31
0.0
  0
LINE
  5
303
  8
1
  6
DASHDOT
 10
787.623741
 20
-14.862246
 30
0.0
 11
827.623741
 21
-14.862246
 31
0.0
  0
LINE
  5
304
  8
1
  6
DASHDOT
 10
710.623741
 20
-134.862246
 30
0.0
 11
750.623741
 21
-134.862246
 31
0.0
  0
LINE
  5
305
  8
1
 10
683.623741
 20
-295.908646
 30
0.0
 11
683.623741
 21
-314.778246
 31
0.0
  0
LINE
  5
306
  8
1
 10
666.623741
 20
-549.862246
 30
0.0
 11
844.623741
 21
-549.862246
 31
0.0
  0
LINE
  5
307
  8
1
 10
676.623741
 20
50.137754
 30
0.0
 11
806.623741
 21
50.137754
 31
0.0
  0
LINE
  5
308
  8
1
 10
654.623741
 20
25.137754
 30
0.0
 11
856.623741
 21
25.137754
 31
0.0
  0
LINE
  5
309
  8
1
  6
DASHDOT
 10
-235.473674
 20
-151.862246
 30
0.0
 11
-265.473674
 21
-151.862246
 31
0.0
  0
LINE
  5
30A
  8
1
  6
DASHDOT
 10
-235.473674
 20
-34.862246
 30
0.0
 11
-158.981674
 21
-34.862246
 31
0.0
  0
LINE
  5
30B
  8
1
  6
DASHDOT
 10
-235.473674
 20
-156.862346
 30
0.0
 11
-158.981674
 21
-156.862246
 31
0.0
  0
ARC
  5
30C
  8
1
 10
-183.465274
 20
-146.716246
 30
0.0
 40
8.8425
 50
343.4442
 51
26.3884
  0
ARC
  5
30D
  8
1
 10
-169.317274
 20
-172.654246
 30
0.0
 40
7.86
 50
90.0
 51
143.1304
  0
ARC
  5
30E
  8
1
 10
-169.317274
 20
-138.070146
 30
0.0
 40
7.86
 50
216.8698
 51
270.0002
  0
LINE
  5
30F
  8
1
 10
-175.010674
 20
-161.488446
 30
0.0
 11
-189.753574
 21
-161.488446
 31
0.0
  0
LINE
  5
310
  8
1
 10
-175.010674
 20
-149.235946
 30
0.0
 11
-189.753374
 21
-149.235946
 31
0.0
  0
ARC
  5
311
  8
1
 10
-191.600674
 20
-155.362246
 30
0.0
 40
17.685
 50
339.7324
 51
20.2683
  0
LINE
  5
312
  8
1
 10
-169.317274
 20
-145.930146
 30
0.0
 11
-169.317674
 21
-164.794246
 31
0.0
  0
LINE
  5
313
  8
1
 10
-175.605274
 20
-167.938246
 30
0.0
 11
-189.753674
 21
-167.938246
 31
0.0
  0
LINE
  5
314
  8
1
 10
-175.605274
 20
-142.786246
 30
0.0
 11
-189.753274
 21
-142.786246
 31
0.0
  0
ARC
  5
315
  8
1
 10
-183.465274
 20
-164.008246
 30
0.0
 40
8.8425
 50
333.6121
 51
16.5563
  0
LINE
  5
316
  8
1
 10
-189.753574
 20
-164.086746
 30
0.0
 11
-192.111474
 21
-164.086846
 31
0.0
  0
LINE
  5
317
  8
1
 10
-189.753474
 20
-146.637646
 30
0.0
 11
-192.111474
 21
-146.637646
 31
0.0
  0
LINE
  5
318
  8
1
 10
-200.757474
 20
-162.379746
 30
0.0
 11
-203.115474
 21
-162.379746
 31
0.0
  0
LINE
  5
319
  8
1
 10
-203.115474
 20
-148.344646
 30
0.0
 11
-203.115474
 21
-162.379746
 31
0.0
  0
LINE
  5
31A
  8
1
 10
-200.757474
 20
-148.344646
 30
0.0
 11
-203.115474
 21
-148.344646
 31
0.0
  0
LINE
  5
31B
  8
1
 10
-203.115474
 20
-161.650246
 30
0.0
 11
-225.473674
 21
-161.650246
 31
0.0
  0
LINE
  5
31C
  8
1
 10
-203.115474
 20
-149.074146
 30
0.0
 11
-225.473674
 21
-149.074246
 31
0.0
  0
LINE
  5
31D
  8
1
 10
-196.763974
 20
-166.253346
 30
0.0
 11
-200.427974
 21
-166.253346
 31
0.0
  0
ARC
  5
31E
  8
1
 10
-192.897474
 20
-146.722946
 30
0.0
 40
7.86
 50
163.3518
 51
203.9728
  0
LINE
  5
31F
  8
1
 10
-200.757474
 20
-164.877846
 30
0.0
 11
-200.757474
 21
-155.362246
 31
0.0
  0
LINE
  5
320
  8
1
 10
-192.111474
 20
-164.877846
 30
0.0
 11
-192.111474
 21
-155.362246
 31
0.0
  0
ARC
  5
321
  8
1
 10
-199.971474
 20
-164.001546
 30
0.0
 40
7.86
 50
343.3522
 51
23.9732
  0
ARC
  5
322
  8
1
 10
-192.897474
 20
-164.001546
 30
0.0
 40
7.86
 50
156.0275
 51
196.6485
  0
ARC
  5
323
  8
1
 10
-211.761574
 20
-155.362246
 30
0.0
 40
19.65
 50
343.9118
 51
16.0895
  0
ARC
  5
324
  8
1
 10
-199.971474
 20
-146.722946
 30
0.0
 40
7.86
 50
336.0274
 51
16.6484
  0
LINE
  5
325
  8
1
 10
-189.753274
 20
-142.786246
 30
0.0
 11
-189.753674
 21
-167.938246
 31
0.0
  0
LINE
  5
326
  8
1
 10
-192.789574
 20
-160.807746
 30
0.0
 11
-200.079374
 21
-160.807746
 31
0.0
  0
LINE
  5
327
  8
1
 10
-192.881174
 20
-151.416646
 30
0.0
 11
-200.079374
 21
-151.416546
 31
0.0
  0
LINE
  5
328
  8
1
 10
-192.111474
 20
-145.846546
 30
0.0
 11
-192.111474
 21
-155.362146
 31
0.0
  0
LINE
  5
329
  8
1
 10
-200.757474
 20
-145.846546
 30
0.0
 11
-200.757474
 21
-155.362146
 31
0.0
  0
LINE
  5
32A
  8
1
 10
-192.440974
 20
-166.253246
 30
0.0
 11
-198.266474
 21
-166.253346
 31
0.0
  0
LINE
  5
32B
  8
1
 10
-192.440974
 20
-144.471046
 30
0.0
 11
-200.427974
 21
-144.471146
 31
0.0
  0
ARC
  5
32C
  8
1
 10
-181.107374
 20
-155.362246
 30
0.0
 40
19.65
 50
163.9109
 51
196.0887
  0
LINE
  5
32D
  8
1
  6
DASHDOT
 10
-175.880674
 20
-34.862246
 30
0.0
 11
-184.097874
 21
-34.862246
 31
0.0
  0
LINE
  5
32E
  8
1
 10
-183.942474
 20
-28.355846
 30
0.0
 11
-188.713974
 21
-28.355946
 31
0.0
  0
LINE
  5
32F
  8
1
 10
-183.942474
 20
-41.368546
 30
0.0
 11
-187.422774
 21
-41.368646
 31
0.0
  0
LINE
  5
330
  8
1
 10
-188.910774
 20
-29.177646
 30
0.0
 11
-188.910774
 21
-34.862246
 31
0.0
  0
LINE
  5
331
  8
1
 10
-183.745674
 20
-29.177646
 30
0.0
 11
-183.745674
 21
-34.862246
 31
0.0
  0
LINE
  5
332
  8
1
 10
-184.205474
 20
-31.609046
 30
0.0
 11
-188.505674
 21
-31.609046
 31
0.0
  0
LINE
  5
333
  8
1
 10
-184.150774
 20
-38.115346
 30
0.0
 11
-188.505674
 21
-38.115346
 31
0.0
  0
LINE
  5
334
  8
1
 10
-182.336874
 20
-27.349346
 30
0.0
 11
-182.337174
 21
-42.375146
 31
0.0
  0
ARC
  5
335
  8
1
 10
-188.441274
 20
-29.701146
 30
0.0
 40
4.6956
 50
336.0274
 51
16.6484
  0
ARC
  5
336
  8
1
 10
-195.484674
 20
-34.862346
 30
0.0
 40
11.7389
 50
343.9118
 51
16.0895
  0
ARC
  5
337
  8
1
 10
-177.171874
 20
-34.862346
 30
0.0
 40
11.7389
 50
163.9107
 51
196.0884
  0
ARC
  5
338
  8
1
 10
-184.215274
 20
-40.023446
 30
0.0
 40
4.6956
 50
156.0275
 51
196.6485
  0
ARC
  5
339
  8
1
 10
-188.441274
 20
-40.023446
 30
0.0
 40
4.6956
 50
343.3522
 51
23.9732
  0
LINE
  5
33A
  8
1
 10
-183.745674
 20
-40.546946
 30
0.0
 11
-183.745674
 21
-34.862346
 31
0.0
  0
LINE
  5
33B
  8
1
 10
-188.910774
 20
-40.546946
 30
0.0
 11
-188.910774
 21
-34.862346
 31
0.0
  0
ARC
  5
33C
  8
1
 10
-184.215274
 20
-29.701146
 30
0.0
 40
4.6956
 50
163.3518
 51
203.9728
  0
LINE
  5
33D
  8
1
 10
-186.525074
 20
-41.368646
 30
0.0
 11
-188.713874
 21
-41.368646
 31
0.0
  0
LINE
  5
33E
  8
1
 10
-190.319474
 20
-31.105846
 30
0.0
 11
-225.473674
 21
-31.105846
 31
0.0
  0
LINE
  5
33F
  8
1
 10
-190.319474
 20
-38.618746
 30
0.0
 11
-225.473674
 21
-38.618746
 31
0.0
  0
LINE
  5
340
  8
1
 10
-188.910774
 20
-30.669946
 30
0.0
 11
-190.319474
 21
-30.669946
 31
0.0
  0
LINE
  5
341
  8
1
 10
-190.319474
 20
-30.669946
 30
0.0
 11
-190.319474
 21
-39.054546
 31
0.0
  0
LINE
  5
342
  8
1
 10
-188.910774
 20
-39.054546
 30
0.0
 11
-190.319474
 21
-39.054546
 31
0.0
  0
LINE
  5
343
  8
1
 10
-182.337074
 20
-29.650146
 30
0.0
 11
-183.745674
 21
-29.650246
 31
0.0
  0
LINE
  5
344
  8
1
 10
-182.337074
 20
-40.074346
 30
0.0
 11
-183.745674
 21
-40.074346
 31
0.0
  0
ARC
  5
345
  8
1
 10
-178.580474
 20
-40.027346
 30
0.0
 40
5.2825
 50
333.6121
 51
16.5563
  0
LINE
  5
346
  8
1
 10
-173.884874
 20
-27.349346
 30
0.0
 11
-182.336874
 21
-27.349346
 31
0.0
  0
LINE
  5
347
  8
1
 10
-173.884874
 20
-42.375146
 30
0.0
 11
-182.337174
 21
-42.375146
 31
0.0
  0
LINE
  5
348
  8
1
 10
-170.128474
 20
-29.227546
 30
0.0
 11
-170.128574
 21
-40.496946
 31
0.0
  0
ARC
  5
349
  8
1
 10
-183.440574
 20
-34.862246
 30
0.0
 40
10.565
 50
339.7324
 51
20.2683
  0
LINE
  5
34A
  8
1
 10
-173.529674
 20
-31.202346
 30
0.0
 11
-181.280574
 21
-31.202446
 31
0.0
  0
LINE
  5
34B
  8
1
 10
-173.529674
 20
-38.522046
 30
0.0
 11
-181.280474
 21
-38.522146
 31
0.0
  0
ARC
  5
34C
  8
1
 10
-170.128474
 20
-24.531946
 30
0.0
 40
4.6956
 50
216.8698
 51
270.0002
  0
ARC
  5
34D
  8
1
 10
-170.128474
 20
-45.192546
 30
0.0
 40
4.6956
 50
90.0
 51
143.1304
  0
ARC
  5
34E
  8
1
 10
-178.580474
 20
-29.697146
 30
0.0
 40
5.2825
 50
343.4442
 51
26.3884
  0
LINE
  5
34F
  8
1
 10
817.623741
 20
-20.635746
 30
0.0
 11
807.623841
 21
-26.409246
 31
0.0
  0
LINE
  5
350
  8
1
 10
739.623741
 20
-129.088746
 30
0.0
 11
739.623741
 21
-140.635746
 31
0.0
  0
LINE
  5
351
  8
1
 10
729.623741
 20
-123.315346
 30
0.0
 11
739.623741
 21
-129.088746
 31
0.0
  0
LINE
  5
352
  8
1
 10
807.623741
 20
-26.409146
 30
0.0
 11
797.623841
 21
-20.635746
 31
0.0
  0
LINE
  5
353
  8
1
 10
719.623841
 20
-129.088846
 30
0.0
 11
729.623741
 21
-123.315346
 31
0.0
  0
LINE
  5
354
  8
1
 10
719.623841
 20
-140.635746
 30
0.0
 11
719.623841
 21
-129.088846
 31
0.0
  0
LINE
  5
355
  8
1
 10
729.623741
 20
-146.409246
 30
0.0
 11
719.623841
 21
-140.635746
 31
0.0
  0
LINE
  5
356
  8
1
 10
739.623741
 20
-140.635746
 30
0.0
 11
729.623841
 21
-146.409246
 31
0.0
  0
LINE
  5
357
  8
1
 10
797.623841
 20
-20.635746
 30
0.0
 11
797.623841
 21
-9.088846
 31
0.0
  0
LINE
  5
358
  8
1
 10
797.623841
 20
-9.088846
 30
0.0
 11
807.623741
 21
-3.315346
 31
0.0
  0
LINE
  5
359
  8
1
 10
807.623741
 20
-3.315246
 30
0.0
 11
817.623741
 21
-9.088746
 31
0.0
  0
LINE
  5
35A
  8
1
 10
817.623741
 20
-9.088746
 30
0.0
 11
817.623741
 21
-20.635746
 31
0.0
  0
LINE
  5
35B
  8
1
 10
658.623741
 20
-296.042246
 30
0.0
 11
658.623841
 21
-470.642246
 31
0.0
  0
TEXT
  8
3
  40
100
  5
3B3
  72
0
  71
0
 10
-65.9304
 20
-938.571
 30
0.000000
  1

  0
TEXT
  8
3
  40
100
  5
3B4
  72
0
  71
0
 10
-65.9304
 20
-1068.57
 30
0.000000
  1

  0
TEXT
  8
3
  40
100
  5
3B5
  72
0
  71
0
 10
-65.9304
 20
-1198.57
 30
0.000000
  1
GBLM6_2
  0
TEXT
  8
3
  40
100
  5
3B6
  72
0
  71
0
 10
-65.9304
 20
-1328.57
 30
0.000000
  1
FXYLM40KV1
  0
TEXT
  8
3
  40
100
  5
3B7
  72
0
  71
0
 10
-65.9304
 20
-1458.57
 30
0.000000
  1
FXYLM40KVAL
  0
ENDSEC
  0
EOF
