  0
SECTION
  2
HEADER
  9
$ACADVER
  1
AC1009
  9
$DWGCODEPAGE
  3
dos932
  9
$INSBASE
 10
0.0
 20
0.0
 30
0.0
  9
$EXTMIN
 10
15453.90897
 20
7176.59
 30
0.0
  9
$EXTMAX
 10
20509.489255
 20
9996.402344
 30
0.0
  9
$LIMMIN
 10
15413.494082
 20
7008.344883
  9
$LIMMAX
 10
20039.811379
 20
10278.03832
  9
$ORTHOMODE
 70
     0
  9
$REGENMODE
 70
     1
  9
$FILLMODE
 70
     1
  9
$QTEXTMODE
 70
     0
  9
$MIRRTEXT
 70
     0
  9
$DRAGMODE
 70
     2
  9
$LTSCALE
 40
1.0
  9
$OSMODE
 70
     0
  9
$ATTMODE
 70
     1
  9
$TEXTSIZE
 40
0.2
  9
$TRACEWID
 40
0.05
  9
$TEXTSTYLE
  7
STANDARD
  9
$CLAYER
  8
0
  9
$CELTYPE
  6
BYLAYER
  9
$CECOLOR
 62
   256
  9
$DIMSCALE
 40
1.0
  9
$DIMASZ
 40
0.18
  9
$DIMEXO
 40
3.0
  9
$DIMDLI
 40
0.38
  9
$DIMRND
 40
0.0
  9
$DIMDLE
 40
0.0
  9
$DIMEXE
 40
5.0
  9
$DIMTP
 40
0.0
  9
$DIMTM
 40
0.0
  9
$DIMTXT
 40
0.18
  9
$DIMCEN
 40
0.09
  9
$DIMTSZ
 40
0.0
  9
$DIMTOL
 70
     0
  9
$DIMLIM
 70
     0
  9
$DIMTIH
 70
     1
  9
$DIMTOH
 70
     1
  9
$DIMSE1
 70
     0
  9
$DIMSE2
 70
     0
  9
$DIMTAD
 70
     1
  9
$DIMZIN
 70
     0
  9
$DIMBLK
  1

  9
$DIMASO
 70
     1
  9
$DIMSHO
 70
     0
  9
$DIMPOST
  1

  9
$DIMAPOST
  1

  9
$DIMALT
 70
     0
  9
$DIMALTD
 70
     2
  9
$DIMALTF
 40
25.4
  9
$DIMLFAC
 40
1.0
  9
$DIMTOFL
 70
     0
  9
$DIMTVP
 40
1.0
  9
$DIMTIX
 70
     0
  9
$DIMSOXD
 70
     0
  9
$DIMSAH
 70
     0
  9
$DIMBLK1
  1

  9
$DIMBLK2
  1

  9
$DIMSTYLE
  2
STANDARD
  9
$DIMCLRD
 70
     0
  9
$DIMCLRE
 70
     0
  9
$DIMCLRT
 70
     0
  9
$DIMTFAC
 40
1.0
  9
$DIMGAP
 40
0.09
  9
$LUNITS
 70
     2
  9
$LUPREC
 70
     4
  9
$SKETCHINC
 40
0.1
  9
$FILLETRAD
 40
0.05
  9
$AUNITS
 70
     0
  9
$AUPREC
 70
     0
  9
$MENU
  1
acad
  9
$ELEVATION
 40
0.0
  9
$PELEVATION
 40
0.0
  9
$THICKNESS
 40
0.0
  9
$LIMCHECK
 70
     0
  9
$BLIPMODE
 70
     1
  9
$CHAMFERA
 40
0.0
  9
$CHAMFERB
 40
0.0
  9
$SKPOLY
 70
     0
  9
$TDCREATE
 40
0.0
  9
$TDUPDATE
 40
0.0
  9
$TDINDWG
 40
0.0
  9
$TDUSRTIMER
 40
0.0
  9
$USRTIMER
 70
     1
  9
$ANGBASE
 50
0.0
  9
$ANGDIR
 70
     0
  9
$PDMODE
 70
     0
  9
$PDSIZE
 40
0.0
  9
$PLINEWID
 40
0.0
  9
$COORDS
 70
     0
  9
$SPLFRAME
 70
     0
  9
$SPLINETYPE
 70
     6
  9
$SPLINESEGS
 70
     8
  9
$ATTDIA
 70
     1
  9
$ATTREQ
 70
     1
  9
$HANDLING
 70
     1
  9
$HANDSEED
  5
4FE
  9
$SURFTAB1
 70
     6
  9
$SURFTAB2
 70
     6
  9
$SURFTYPE
 70
     6
  9
$SURFU
 70
     6
  9
$SURFV
 70
     6
  9
$UCSNAME
  2

  9
$UCSORG
 10
0.0
 20
0.0
 30
0.0
  9
$UCSXDIR
 10
1.0
 20
0.0
 30
0.0
  9
$UCSYDIR
 10
0.0
 20
1.0
 30
0.0
  9
$PUCSNAME
  2

  9
$PUCSORG
 10
0.0
 20
0.0
 30
0.0
  9
$PUCSXDIR
 10
1.0
 20
0.0
 30
0.0
  9
$PUCSYDIR
 10
0.0
 20
1.0
 30
0.0
  9
$USERI1
 70
     0
  9
$USERI2
 70
     0
  9
$USERI3
 70
     0
  9
$USERI4
 70
     0
  9
$USERI5
 70
     0
  9
$USERR1
 40
0.0
  9
$USERR2
 40
0.0
  9
$USERR3
 40
0.0
  9
$USERR4
 40
0.0
  9
$USERR5
 40
0.0
  9
$WORLDVIEW
 70
     1
  9
$SHADEDGE
 70
     3
  9
$SHADEDIF
 70
    70
  9
$TILEMODE
 70
     1
  9
$MAXACTVP
 70
    16
  9
$PINSBASE
 10
0.0
 20
0.0
 30
0.0
  9
$PLIMCHECK
 70
     0
  9
$PEXTMIN
 10
1.000000E+020
 20
1.000000E+020
 30
1.000000E+020
  9
$PEXTMAX
 10
-1.000000E+020
 20
-1.000000E+020
 30
-1.000000E+020
  9
$PLIMMIN
 10
0.0
 20
0.0
  9
$PLIMMAX
 10
12.0
 20
9.0
  9
$UNITMODE
 70
     0
  9
$VISRETAIN
 70
     0
  9
$PLINEGEN
 70
     0
  9
$PSLTSCALE
 70
     1
  9
$TREEDEPTH
 70
  3020
  0
ENDSEC
  0
SECTION
  2
TABLES
  0
TABLE
  2
VPORT
 70
     2
  0
VPORT
  2
*ACTIVE
 70
     0
 10
0.0
 20
0.0
 11
1.0
 21
1.0
 12
18582.021262
 22
8643.191601
 13
0.0
 23
0.0
 14
1.0
 24
1.0
 15
0.0
 25
0.0
 16
0.0
 26
0.0
 36
1.0
 17
0.0
 27
0.0
 37
0.0
 40
3269.693437
 41
1.938119
 42
50.0
 43
0.0
 44
0.0
 50
0.0
 51
0.0
 71
     0
 72
   100
 73
     1
 74
     1
 75
     0
 76
     0
 77
     0
 78
     0
  0
ENDTAB
  0
TABLE
  2
LTYPE
 70
     5
  0
LTYPE
  2
CONTINUOUS
 70
    64
  3
Solid line
 72
    65
 73
     0
 40
0.0
  0
LTYPE
  2
DASHDOT
 70
    64
  3
__ . __ . __ . __ . __ . __ . __ . __ . __ . __
 72
    65
 73
     4
 40
1.0
 49
0.5
 49
-0.25
 49
0.0
 49
-0.25
  0
LTYPE
  2
DIVIDE
 70
    64
  3
__ . . __ . . __ . . __ . . __ . . __ . . __
 72
    65
 73
     6
 40
1.25
 49
0.5
 49
-0.25
 49
0.0
 49
-0.25
 49
0.0
 49
-0.25
  0
LTYPE
  2
DASHED
 70
    64
  3
__ __ __ __ __ __ __ __ __ __ __ __ __ __ __
 72
    65
 73
     2
 40
0.75
 49
0.5
 49
-0.25
  0
LTYPE
  2
DOT
 70
    64
  3
...............................................
 72
    65
 73
     2
 40
0.25
 49
0.0
 49
-0.25
  0
ENDTAB
  0
TABLE
  2
LAYER
 70
     5
  0
LAYER
  2
0
 70
     0
 62
     7
  6
CONTINUOUS
  0
LAYER
  2
DEFPOINTS
 70
     0
 62
    -7
  6
CONTINUOUS
  0
LAYER
  2
1
 70
     0
 62
     7
  6
CONTINUOUS
  0
LAYER
  2
2
 70
     0
 62
     7
  6
CONTINUOUS
  0
LAYER
  2
3
 70
     0
 62
     7
  6
CONTINUOUS
  0
ENDTAB
  0
TABLE
  2
STYLE
 70
     3
  0
STYLE
  2
STANDARD
 70
    64
 40
150.0
 41
0.8
 50
0.0
 71
     0
 42
0.2
  3
txt
  4

  0
STYLE
  2
MONOTXT
 70
    64
 40
0.0
 41
0.5
 50
0.0
 71
     0
 42
4.191412
  3
monotxt
  4
BIGFONT
  0
STYLE
  2
VERTICAL
 70
    68
 40
0.0
 41
0.5
 50
0.0
 71
     0
 42
4.191412
  3
monotxt
  4
BIGFONT
  0
ENDTAB
  0
TABLE
  2
VIEW
 70
     0
  0
ENDTAB
  0
TABLE
  2
UCS
 70
     0
  0
ENDTAB
  0
TABLE
  2
APPID
 70
     1
  0
APPID
  2
ACAD
 70
     0
  0
ENDTAB
  0
TABLE
  2
DIMSTYLE
 70
     1
  0
DIMSTYLE
  2
STANDARD
 70
     0
  3

  4

  5

  6

  7

 40
1.0
 41
0.18
 42
0.0625
 43
0.38
 44
0.18
 45
0.0
 46
0.0
 47
0.0
 48
0.0
140
0.18
141
0.09
142
0.0
143
25.4
144
1.0
145
0.0
146
1.0
147
0.09
 71
     0
 72
     0
 73
     1
 74
     1
 75
     0
 76
     0
 77
     0
 78
     0
170
     0
171
     2
172
     0
173
     0
174
     0
175
     0
176
     0
177
     0
178
     0
  0
ENDTAB
  0
ENDSEC
  0
SECTION
  2
BLOCKS
  0
BLOCK
  5
4BF
  8
0
  2
$MODEL_SPACE
 70
     0
 10
0.0
 20
0.0
 30
0.0
  3
$MODEL_SPACE
  1

  0
ENDBLK
  5
4C0
  8
0
  0
BLOCK
  5
4BC
 67
     1
  8
0
  2
$PAPER_SPACE
 70
     0
 10
0.0
 20
0.0
 30
0.0
  3
$PAPER_SPACE
  1

  0
ENDBLK
  5
4BD
 67
     1
  8
0
  0
BLOCK
  5
2B
  8
2
  2
*D2
 70
    65
 10
0.0
 20
0.0
 30
0.0
  3
*D2
  1

  0
POINT
  5
2C
  8
DEFPOINTS
 10
18350.318975
 20
8121.329077
 30
0.0
  0
POINT
  5
2D
  8
DEFPOINTS
 10
19150.318975
 20
8121.329077
 30
0.0
  0
POINT
  5
2E
  8
DEFPOINTS
 10
18529.341325
 20
8607.578577
 30
0.0
  0
LINE
  5
2F
  8
2
 10
18350.318975
 20
8124.329077
 30
0.0
 11
18350.318975
 21
8612.578577
 31
0.0
  0
LINE
  5
30
  8
2
 10
19150.318975
 20
8124.329077
 30
0.0
 11
19150.318975
 21
8612.578577
 31
0.0
  0
LINE
  5
31
  8
2
 10
18350.318975
 20
8607.578577
 30
0.0
 11
19150.318975
 21
8607.578577
 31
0.0
  0
LINE
  5
32
  8
2
 10
18384.787246
 20
8613.656263
 30
0.0
 11
18350.318975
 21
8607.578577
 31
0.0
  0
LINE
  5
33
  8
2
 10
18384.787246
 20
8601.500891
 30
0.0
 11
18350.318975
 21
8607.578577
 31
0.0
  0
LINE
  5
34
  8
2
 10
19115.850704
 20
8601.500888
 30
0.0
 11
19150.318975
 21
8607.578577
 31
0.0
  0
LINE
  5
35
  8
2
 10
19115.850703
 20
8613.65626
 30
0.0
 11
19150.318975
 21
8607.578577
 31
0.0
  0
TEXT
  5
36
  8
2
 10
18682.638672
 20
8609.578125
 30
0.0
 40
48.0
  1
800
 41
0.9
  7
MONOTXT
  0
ENDBLK
  5
37
  8
0
  0
BLOCK
  5
39
  8
2
  2
*D3
 70
    65
 10
0.0
 20
0.0
 30
0.0
  3
*D3
  1

  0
POINT
  5
3A
  8
DEFPOINTS
 10
18350.318975
 20
8121.329077
 30
0.0
  0
POINT
  5
3B
  8
DEFPOINTS
 10
18790.318975
 20
8023.329077
 30
0.0
  0
POINT
  5
3C
  8
DEFPOINTS
 10
18659.125322
 20
8442.578577
 30
0.0
  0
LINE
  5
3D
  8
2
 10
18350.318975
 20
8124.329077
 30
0.0
 11
18350.318975
 21
8447.578577
 31
0.0
  0
LINE
  5
3E
  8
2
 10
18790.318975
 20
8026.329077
 30
0.0
 11
18790.318975
 21
8447.578577
 31
0.0
  0
LINE
  5
3F
  8
2
 10
18350.318975
 20
8442.578577
 30
0.0
 11
18790.318975
 21
8442.578577
 31
0.0
  0
LINE
  5
40
  8
2
 10
18384.787246
 20
8448.656263
 30
0.0
 11
18350.318975
 21
8442.578577
 31
0.0
  0
LINE
  5
41
  8
2
 10
18384.787246
 20
8436.500891
 30
0.0
 11
18350.318975
 21
8442.578577
 31
0.0
  0
LINE
  5
42
  8
2
 10
18755.850704
 20
8436.500888
 30
0.0
 11
18790.318975
 21
8442.578577
 31
0.0
  0
LINE
  5
43
  8
2
 10
18755.850703
 20
8448.65626
 30
0.0
 11
18790.318975
 21
8442.578577
 31
0.0
  0
TEXT
  5
44
  8
2
 10
18502.638672
 20
8444.578125
 30
0.0
 40
48.0
  1
440
 41
0.9
  7
MONOTXT
  0
ENDBLK
  5
45
  8
0
  0
BLOCK
  5
47
  8
2
  2
*D4
 70
    65
 10
0.0
 20
0.0
 30
0.0
  3
*D4
  1

  0
POINT
  5
48
  8
DEFPOINTS
 10
18350.318975
 20
8121.329077
 30
0.0
  0
POINT
  5
49
  8
DEFPOINTS
 10
18665.319275
 20
8081.329277
 30
0.0
  0
POINT
  5
4A
  8
DEFPOINTS
 10
18529.341325
 20
8352.578577
 30
0.0
  0
LINE
  5
4B
  8
2
 10
18350.318975
 20
8124.329077
 30
0.0
 11
18350.318975
 21
8357.578577
 31
0.0
  0
LINE
  5
4C
  8
2
 10
18665.319275
 20
8084.329277
 30
0.0
 11
18665.319275
 21
8357.578577
 31
0.0
  0
LINE
  5
4D
  8
2
 10
18350.318975
 20
8352.578577
 30
0.0
 11
18665.319275
 21
8352.578577
 31
0.0
  0
LINE
  5
4E
  8
2
 10
18384.787246
 20
8358.656263
 30
0.0
 11
18350.318975
 21
8352.578577
 31
0.0
  0
LINE
  5
4F
  8
2
 10
18384.787246
 20
8346.500891
 30
0.0
 11
18350.318975
 21
8352.578577
 31
0.0
  0
LINE
  5
50
  8
2
 10
18630.851004
 20
8346.500888
 30
0.0
 11
18665.319275
 21
8352.578577
 31
0.0
  0
LINE
  5
51
  8
2
 10
18630.851003
 20
8358.65626
 30
0.0
 11
18665.319275
 21
8352.578577
 31
0.0
  0
TEXT
  5
52
  8
2
 10
18440.138672
 20
8354.578125
 30
0.0
 40
48.0
  1
315
 41
0.9
  7
MONOTXT
  0
ENDBLK
  5
53
  8
0
  0
BLOCK
  5
55
  8
2
  2
*D5
 70
    65
 10
0.0
 20
0.0
 30
0.0
  3
*D5
  1

  0
POINT
  5
56
  8
DEFPOINTS
 10
18325.318975
 20
8098.828777
 30
0.0
  0
POINT
  5
57
  8
DEFPOINTS
 10
18350.318975
 20
8121.329077
 30
0.0
  0
POINT
  5
58
  8
DEFPOINTS
 10
18350.154675
 20
8607.994867
 30
0.0
  0
LINE
  5
59
  8
2
 10
18325.318975
 20
8101.828777
 30
0.0
 11
18325.318975
 21
8612.994867
 31
0.0
  0
LINE
  5
5A
  8
2
 10
18350.318975
 20
8124.329077
 30
0.0
 11
18350.318975
 21
8612.994867
 31
0.0
  0
LINE
  5
5B
  8
2
 10
18146.278966
 20
8607.994867
 30
0.0
 11
18402.021383
 21
8607.994867
 31
0.0
  0
LINE
  5
5C
  8
2
 10
18290.850704
 20
8601.917178
 30
0.0
 11
18325.318975
 21
8607.994867
 31
0.0
  0
LINE
  5
5D
  8
2
 10
18290.850703
 20
8614.07255
 30
0.0
 11
18325.318975
 21
8607.994867
 31
0.0
  0
LINE
  5
5E
  8
2
 10
18384.787245
 20
8614.072559
 30
0.0
 11
18350.318975
 21
8607.994867
 31
0.0
  0
LINE
  5
5F
  8
2
 10
18384.787247
 20
8601.917187
 30
0.0
 11
18350.318975
 21
8607.994867
 31
0.0
  0
TEXT
  5
60
  8
2
 10
18189.958984
 20
8609.995117
 30
0.0
 40
48.0
  1
25
 41
0.9
  7
MONOTXT
  0
ENDBLK
  5
61
  8
0
  0
BLOCK
  5
63
  8
2
  2
*D6
 70
    65
 10
0.0
 20
0.0
 30
0.0
  3
*D6
  1

  0
POINT
  5
64
  8
DEFPOINTS
 10
18812.318975
 20
7866.329077
 30
0.0
  0
POINT
  5
65
  8
DEFPOINTS
 10
18812.318975
 20
8001.329077
 30
0.0
  0
POINT
  5
66
  8
DEFPOINTS
 10
19067.958375
 20
7942.146534
 30
0.0
  0
LINE
  5
67
  8
2
 10
18815.318975
 20
7866.329077
 30
0.0
 11
19072.958375
 21
7866.329077
 31
0.0
  0
LINE
  5
68
  8
2
 10
18815.318975
 20
8001.329077
 30
0.0
 11
19072.958375
 21
8001.329077
 31
0.0
  0
LINE
  5
69
  8
2
 10
19067.958375
 20
7866.329077
 30
0.0
 11
19067.958375
 21
8001.329077
 31
0.0
  0
LINE
  5
6A
  8
2
 10
19061.880687
 20
7900.797348
 30
0.0
 11
19067.958375
 21
7866.329077
 31
0.0
  0
LINE
  5
6B
  8
2
 10
19074.03606
 20
7900.797349
 30
0.0
 11
19067.958375
 21
7866.329077
 31
0.0
  0
LINE
  5
6C
  8
2
 10
19074.036061
 20
7966.860806
 30
0.0
 11
19067.958375
 21
8001.329077
 31
0.0
  0
LINE
  5
6D
  8
2
 10
19061.880689
 20
7966.860805
 30
0.0
 11
19067.958375
 21
8001.329077
 31
0.0
  0
TEXT
  5
6E
  8
2
 10
19065.958984
 20
7860.334473
 30
0.0
 40
48.0
  1
135
 50
90.000003
 41
0.9
  7
MONOTXT
  0
ENDBLK
  5
6F
  8
0
  0
BLOCK
  5
71
  8
2
  2
*D7
 70
    65
 10
0.0
 20
0.0
 30
0.0
  3
*D7
  1

  0
POINT
  5
72
  8
DEFPOINTS
 10
18812.318975
 20
8001.329077
 30
0.0
  0
POINT
  5
73
  8
DEFPOINTS
 10
19150.318975
 20
8121.329077
 30
0.0
  0
POINT
  5
74
  8
DEFPOINTS
 10
19067.958375
 20
8075.692386
 30
0.0
  0
LINE
  5
75
  8
2
 10
18815.318975
 20
8001.329077
 30
0.0
 11
19072.958375
 21
8001.329077
 31
0.0
  0
LINE
  5
76
  8
2
 10
19147.318975
 20
8121.329077
 30
0.0
 11
19062.958375
 21
8121.329077
 31
0.0
  0
LINE
  5
77
  8
2
 10
19067.958375
 20
8001.329077
 30
0.0
 11
19067.958375
 21
8121.329077
 31
0.0
  0
LINE
  5
78
  8
2
 10
19061.880687
 20
8035.797348
 30
0.0
 11
19067.958375
 21
8001.329077
 31
0.0
  0
LINE
  5
79
  8
2
 10
19074.03606
 20
8035.797349
 30
0.0
 11
19067.958375
 21
8001.329077
 31
0.0
  0
LINE
  5
7A
  8
2
 10
19074.036061
 20
8086.860806
 30
0.0
 11
19067.958375
 21
8121.329077
 31
0.0
  0
LINE
  5
7B
  8
2
 10
19061.880689
 20
8086.860805
 30
0.0
 11
19067.958375
 21
8121.329077
 31
0.0
  0
TEXT
  5
7C
  8
2
 10
19065.958984
 20
7988.20166
 30
0.0
 40
48.0
  1
120
 50
90.000003
 41
0.9
  7
MONOTXT
  0
ENDBLK
  5
7D
  8
0
  0
BLOCK
  5
7F
  8
2
  2
*D8
 70
    65
 10
0.0
 20
0.0
 30
0.0
  3
*D8
  1

  0
POINT
  5
80
  8
DEFPOINTS
 10
18329.318975
 20
7921.329277
 30
0.0
  0
POINT
  5
81
  8
DEFPOINTS
 10
18329.323875
 20
8051.330277
 30
0.0
  0
POINT
  5
82
  8
DEFPOINTS
 10
18205.695475
 20
7977.884157
 30
0.0
  0
LINE
  5
83
  8
2
 10
18326.318975
 20
7921.329277
 30
0.0
 11
18200.695475
 21
7921.329277
 31
0.0
  0
LINE
  5
84
  8
2
 10
18326.323875
 20
8051.330277
 30
0.0
 11
18200.695475
 21
8051.330277
 31
0.0
  0
LINE
  5
85
  8
2
 10
18205.695475
 20
7921.329277
 30
0.0
 11
18205.695475
 21
8051.330277
 31
0.0
  0
LINE
  5
86
  8
2
 10
18199.617787
 20
7955.797548
 30
0.0
 11
18205.695475
 21
7921.329277
 31
0.0
  0
LINE
  5
87
  8
2
 10
18211.77316
 20
7955.797549
 30
0.0
 11
18205.695475
 21
7921.329277
 31
0.0
  0
LINE
  5
88
  8
2
 10
18211.773161
 20
8016.862006
 30
0.0
 11
18205.695475
 21
8051.330277
 31
0.0
  0
LINE
  5
89
  8
2
 10
18199.617789
 20
8016.862005
 30
0.0
 11
18205.695475
 21
8051.330277
 31
0.0
  0
TEXT
  5
8A
  8
2
 10
18203.695313
 20
7869.145508
 30
0.0
 40
43.75
  1
２×６５＝１３０
 50
90.000003
 41
0.9
  7
MONOTXT
  0
ENDBLK
  5
8B
  8
0
  0
BLOCK
  5
8D
  8
2
  2
*D9
 70
    65
 10
0.0
 20
0.0
 30
0.0
  3
*D9
  1

  0
POINT
  5
8E
  8
DEFPOINTS
 10
19149.319275
 20
7926.329077
 30
0.0
  0
POINT
  5
8F
  8
DEFPOINTS
 10
19150.318975
 20
8121.329077
 30
0.0
  0
POINT
  5
90
  8
DEFPOINTS
 10
19345.400575
 20
8051.240329
 30
0.0
  0
LINE
  5
91
  8
2
 10
19152.319275
 20
7926.329077
 30
0.0
 11
19350.400575
 21
7926.329077
 31
0.0
  0
LINE
  5
92
  8
2
 10
19153.318975
 20
8121.329077
 30
0.0
 11
19350.400575
 21
8121.329077
 31
0.0
  0
LINE
  5
93
  8
2
 10
19345.400575
 20
7926.329077
 30
0.0
 11
19345.400575
 21
8121.329077
 31
0.0
  0
LINE
  5
94
  8
2
 10
19339.322887
 20
7960.797348
 30
0.0
 11
19345.400575
 21
7926.329077
 31
0.0
  0
LINE
  5
95
  8
2
 10
19351.47826
 20
7960.797349
 30
0.0
 11
19345.400575
 21
7926.329077
 31
0.0
  0
LINE
  5
96
  8
2
 10
19351.478261
 20
8086.860806
 30
0.0
 11
19345.400575
 21
8121.329077
 31
0.0
  0
LINE
  5
97
  8
2
 10
19339.322889
 20
8086.860805
 30
0.0
 11
19345.400575
 21
8121.329077
 31
0.0
  0
TEXT
  5
98
  8
2
 10
19343.400391
 20
7956.148926
 30
0.0
 40
48.0
  1
195
 50
90.000003
 41
0.9
  7
MONOTXT
  0
ENDBLK
  5
99
  8
0
  0
BLOCK
  5
9B
  8
2
  2
*D10
 70
    65
 10
0.0
 20
0.0
 30
0.0
  3
*D10
  1

  0
POINT
  5
9C
  8
DEFPOINTS
 10
18350.318975
 20
8121.329077
 30
0.0
  0
POINT
  5
9D
  8
DEFPOINTS
 10
18945.320475
 20
8081.328577
 30
0.0
  0
POINT
  5
9E
  8
DEFPOINTS
 10
18536.865035
 20
8532.578577
 30
0.0
  0
LINE
  5
9F
  8
2
 10
18350.318975
 20
8124.329077
 30
0.0
 11
18350.318975
 21
8537.578577
 31
0.0
  0
LINE
  5
A0
  8
2
 10
18945.320475
 20
8084.328577
 30
0.0
 11
18945.320475
 21
8537.578577
 31
0.0
  0
LINE
  5
A1
  8
2
 10
18350.318975
 20
8532.578577
 30
0.0
 11
18945.320475
 21
8532.578577
 31
0.0
  0
LINE
  5
A2
  8
2
 10
18384.787246
 20
8538.656263
 30
0.0
 11
18350.318975
 21
8532.578577
 31
0.0
  0
LINE
  5
A3
  8
2
 10
18384.787246
 20
8526.500891
 30
0.0
 11
18350.318975
 21
8532.578577
 31
0.0
  0
LINE
  5
A4
  8
2
 10
18910.852204
 20
8526.500888
 30
0.0
 11
18945.320475
 21
8532.578577
 31
0.0
  0
LINE
  5
A5
  8
2
 10
18910.852203
 20
8538.65626
 30
0.0
 11
18945.320475
 21
8532.578577
 31
0.0
  0
TEXT
  5
A6
  8
2
 10
18371.357422
 20
8534.578125
 30
0.0
 40
48.0
  1
595
 41
0.9
  7
MONOTXT
  0
ENDBLK
  5
A7
  8
0
  0
BLOCK
  5
A9
  8
2
  2
*D11
 70
    65
 10
0.0
 20
0.0
 30
0.0
  3
*D11
  1

  0
POINT
  5
AA
  8
DEFPOINTS
 10
17351.195275
 20
8054.329077
 30
0.0
  0
POINT
  5
AB
  8
DEFPOINTS
 10
17301.195275
 20
8121.329077
 30
0.0
  0
POINT
  5
AC
  8
DEFPOINTS
 10
17435.695475
 20
8080.640327
 30
0.0
  0
LINE
  5
AD
  8
2
 10
17354.195275
 20
8054.329077
 30
0.0
 11
17440.695475
 21
8054.329077
 31
0.0
  0
LINE
  5
AE
  8
2
 10
17304.195275
 20
8121.329077
 30
0.0
 11
17440.695475
 21
8121.329077
 31
0.0
  0
LINE
  5
AF
  8
2
 10
17435.695475
 20
8054.329077
 30
0.0
 11
17435.695475
 21
8121.329077
 31
0.0
  0
LINE
  5
B0
  8
2
 10
17429.617787
 20
8088.797348
 30
0.0
 11
17435.695475
 21
8054.329077
 31
0.0
  0
LINE
  5
B1
  8
2
 10
17441.77316
 20
8088.797349
 30
0.0
 11
17435.695475
 21
8054.329077
 31
0.0
  0
LINE
  5
B2
  8
2
 10
17441.773161
 20
8086.860806
 30
0.0
 11
17435.695475
 21
8121.329077
 31
0.0
  0
LINE
  5
B3
  8
2
 10
17429.617789
 20
8086.860805
 30
0.0
 11
17435.695475
 21
8121.329077
 31
0.0
  0
TEXT
  5
B4
  8
2
 10
17433.695313
 20
8043.337402
 30
0.0
 40
48.0
  1
67
 50
90.000003
 41
0.9
  7
MONOTXT
  0
ENDBLK
  5
B5
  8
0
  0
BLOCK
  5
B7
  8
2
  2
*D12
 70
    65
 10
0.0
 20
0.0
 30
0.0
  3
*D12
  1

  0
POINT
  5
B8
  8
DEFPOINTS
 10
17391.195275
 20
7971.329077
 30
0.0
  0
POINT
  5
B9
  8
DEFPOINTS
 10
17301.195275
 20
8121.329077
 30
0.0
  0
POINT
  5
BA
  8
DEFPOINTS
 10
17523.361975
 20
8032.769429
 30
0.0
  0
LINE
  5
BB
  8
2
 10
17394.195275
 20
7971.329077
 30
0.0
 11
17528.361975
 21
7971.329077
 31
0.0
  0
LINE
  5
BC
  8
2
 10
17304.195275
 20
8121.329077
 30
0.0
 11
17528.361975
 21
8121.329077
 31
0.0
  0
LINE
  5
BD
  8
2
 10
17523.361975
 20
7971.329077
 30
0.0
 11
17523.361975
 21
8121.329077
 31
0.0
  0
LINE
  5
BE
  8
2
 10
17517.284287
 20
8005.797348
 30
0.0
 11
17523.361975
 21
7971.329077
 31
0.0
  0
LINE
  5
BF
  8
2
 10
17529.43966
 20
8005.797349
 30
0.0
 11
17523.361975
 21
7971.329077
 31
0.0
  0
LINE
  5
C0
  8
2
 10
17529.439661
 20
8086.860806
 30
0.0
 11
17523.361975
 21
8121.329077
 31
0.0
  0
LINE
  5
C1
  8
2
 10
17517.284289
 20
8086.860805
 30
0.0
 11
17523.361975
 21
8121.329077
 31
0.0
  0
TEXT
  5
C2
  8
2
 10
17521.361328
 20
7978.648926
 30
0.0
 40
48.0
  1
150
 50
90.000003
 41
0.9
  7
MONOTXT
  0
ENDBLK
  5
C3
  8
0
  0
BLOCK
  5
C5
  8
2
  2
*D13
 70
    65
 10
0.0
 20
0.0
 30
0.0
  3
*D13
  1

  0
POINT
  5
C6
  8
DEFPOINTS
 10
17390.446475
 20
7921.329077
 30
0.0
  0
POINT
  5
C7
  8
DEFPOINTS
 10
17301.195275
 20
8121.328777
 30
0.0
  0
POINT
  5
C8
  8
DEFPOINTS
 10
17601.292875
 20
8018.807083
 30
0.0
  0
LINE
  5
C9
  8
2
 10
17393.446475
 20
7921.329077
 30
0.0
 11
17606.292875
 21
7921.329077
 31
0.0
  0
LINE
  5
CA
  8
2
 10
17304.195275
 20
8121.328777
 30
0.0
 11
17606.292875
 21
8121.328777
 31
0.0
  0
LINE
  5
CB
  8
2
 10
17601.292875
 20
7921.329077
 30
0.0
 11
17601.292875
 21
8121.328777
 31
0.0
  0
LINE
  5
CC
  8
2
 10
17595.215187
 20
7955.797348
 30
0.0
 11
17601.292875
 21
7921.329077
 31
0.0
  0
LINE
  5
CD
  8
2
 10
17607.37056
 20
7955.797349
 30
0.0
 11
17601.292875
 21
7921.329077
 31
0.0
  0
LINE
  5
CE
  8
2
 10
17607.370561
 20
8086.860506
 30
0.0
 11
17601.292875
 21
8121.328777
 31
0.0
  0
LINE
  5
CF
  8
2
 10
17595.215189
 20
8086.860505
 30
0.0
 11
17601.292875
 21
8121.328777
 31
0.0
  0
TEXT
  5
D0
  8
2
 10
17599.292969
 20
7953.648926
 30
0.0
 40
48.0
  1
200
 50
90.000003
 41
0.9
  7
MONOTXT
  0
ENDBLK
  5
D1
  8
0
  0
BLOCK
  5
D3
  8
2
  2
*D14
 70
    65
 10
0.0
 20
0.0
 30
0.0
  3
*D14
  1

  0
POINT
  5
D4
  8
DEFPOINTS
 10
17301.195275
 20
7712.578577
 30
0.0
  0
POINT
  5
D5
  8
DEFPOINTS
 10
17358.195375
 20
7836.312177
 30
0.0
  0
POINT
  5
D6
  8
DEFPOINTS
 10
17370.26939
 20
7712.578577
 30
0.0
  0
LINE
  5
D7
  8
2
 10
17301.195275
 20
7709.578577
 30
0.0
 11
17301.195275
 21
7707.578577
 31
0.0
  0
LINE
  5
D8
  8
2
 10
17358.195375
 20
7833.312177
 30
0.0
 11
17358.195375
 21
7707.578577
 31
0.0
  0
LINE
  5
D9
  8
2
 10
17249.492867
 20
7712.578577
 30
0.0
 11
17537.235383
 21
7712.578577
 31
0.0
  0
LINE
  5
DA
  8
2
 10
17266.727004
 20
7706.500888
 30
0.0
 11
17301.195275
 21
7712.578577
 31
0.0
  0
LINE
  5
DB
  8
2
 10
17266.727003
 20
7718.65626
 30
0.0
 11
17301.195275
 21
7712.578577
 31
0.0
  0
LINE
  5
DC
  8
2
 10
17392.663645
 20
7718.656269
 30
0.0
 11
17358.195375
 21
7712.578577
 31
0.0
  0
LINE
  5
DD
  8
2
 10
17392.663647
 20
7706.500897
 30
0.0
 11
17358.195375
 21
7712.578577
 31
0.0
  0
TEXT
  5
DE
  8
2
 10
17401.875
 20
7714.578613
 30
0.0
 40
48.0
  1
57
 41
0.9
  7
MONOTXT
  0
ENDBLK
  5
DF
  8
0
  0
BLOCK
  5
E1
  8
2
  2
*D15
 70
    65
 10
0.0
 20
0.0
 30
0.0
  3
*D15
  1

  0
POINT
  5
E2
  8
DEFPOINTS
 10
16301.195075
 20
8121.329077
 30
0.0
  0
POINT
  5
E3
  8
DEFPOINTS
 10
17301.195275
 20
8121.329077
 30
0.0
  0
POINT
  5
E4
  8
DEFPOINTS
 10
16445.104838
 20
8607.578577
 30
0.0
  0
LINE
  5
E5
  8
2
 10
16301.195075
 20
8124.329077
 30
0.0
 11
16301.195075
 21
8612.578577
 31
0.0
  0
LINE
  5
E6
  8
2
 10
17301.195275
 20
8124.329077
 30
0.0
 11
17301.195275
 21
8612.578577
 31
0.0
  0
LINE
  5
E7
  8
2
 10
16301.195075
 20
8607.578577
 30
0.0
 11
17301.195275
 21
8607.578577
 31
0.0
  0
LINE
  5
E8
  8
2
 10
16335.663346
 20
8613.656263
 30
0.0
 11
16301.195075
 21
8607.578577
 31
0.0
  0
LINE
  5
E9
  8
2
 10
16335.663346
 20
8601.500891
 30
0.0
 11
16301.195075
 21
8607.578577
 31
0.0
  0
LINE
  5
EA
  8
2
 10
17266.727004
 20
8601.500888
 30
0.0
 11
17301.195275
 21
8607.578577
 31
0.0
  0
LINE
  5
EB
  8
2
 10
17266.727003
 20
8613.65626
 30
0.0
 11
17301.195275
 21
8607.578577
 31
0.0
  0
TEXT
  5
EC
  8
2
 10
16711.675781
 20
8609.578125
 30
0.0
 40
48.0
  1
1000
 41
0.9
  7
MONOTXT
  0
ENDBLK
  5
ED
  8
0
  0
BLOCK
  5
EF
  8
2
  2
*D16
 70
    65
 10
0.0
 20
0.0
 30
0.0
  3
*D16
  1

  0
POINT
  5
F0
  8
DEFPOINTS
 10
17301.195275
 20
8121.329077
 30
0.0
  0
POINT
  5
F1
  8
DEFPOINTS
 10
17351.195275
 20
8069.329077
 30
0.0
  0
POINT
  5
F2
  8
DEFPOINTS
 10
17396.53894
 20
8532.578577
 30
0.0
  0
LINE
  5
F3
  8
2
 10
17301.195275
 20
8124.329077
 30
0.0
 11
17301.195275
 21
8537.578577
 31
0.0
  0
LINE
  5
F4
  8
2
 10
17351.195275
 20
8072.329077
 30
0.0
 11
17351.195275
 21
8537.578577
 31
0.0
  0
LINE
  5
F5
  8
2
 10
17249.492867
 20
8532.578577
 30
0.0
 11
17530.235283
 21
8532.578577
 31
0.0
  0
LINE
  5
F6
  8
2
 10
17266.727004
 20
8526.500888
 30
0.0
 11
17301.195275
 21
8532.578577
 31
0.0
  0
LINE
  5
F7
  8
2
 10
17266.727003
 20
8538.65626
 30
0.0
 11
17301.195275
 21
8532.578577
 31
0.0
  0
LINE
  5
F8
  8
2
 10
17385.663545
 20
8538.656269
 30
0.0
 11
17351.195275
 21
8532.578577
 31
0.0
  0
LINE
  5
F9
  8
2
 10
17385.663547
 20
8526.500897
 30
0.0
 11
17351.195275
 21
8532.578577
 31
0.0
  0
TEXT
  5
FA
  8
2
 10
17394.875
 20
8534.578125
 30
0.0
 40
48.0
  1
50
 41
0.9
  7
MONOTXT
  0
ENDBLK
  5
FB
  8
0
  0
BLOCK
  5
FD
  8
2
  2
*D17
 70
    65
 10
0.0
 20
0.0
 30
0.0
  3
*D17
  1

  0
POINT
  5
FE
  8
DEFPOINTS
 10
17301.195275
 20
8121.329077
 30
0.0
  0
POINT
  5
FF
  8
DEFPOINTS
 10
17361.195275
 20
7978.329077
 30
0.0
  0
POINT
  5
100
  8
DEFPOINTS
 10
17382.576594
 20
8607.578577
 30
0.0
  0
LINE
  5
101
  8
2
 10
17301.195275
 20
8124.329077
 30
0.0
 11
17301.195275
 21
8612.578577
 31
0.0
  0
LINE
  5
102
  8
2
 10
17361.195275
 20
7981.329077
 30
0.0
 11
17361.195275
 21
8612.578577
 31
0.0
  0
LINE
  5
103
  8
2
 10
17249.492867
 20
8607.578577
 30
0.0
 11
17540.235283
 21
8607.578577
 31
0.0
  0
LINE
  5
104
  8
2
 10
17266.727004
 20
8601.500888
 30
0.0
 11
17301.195275
 21
8607.578577
 31
0.0
  0
LINE
  5
105
  8
2
 10
17266.727003
 20
8613.65626
 30
0.0
 11
17301.195275
 21
8607.578577
 31
0.0
  0
LINE
  5
106
  8
2
 10
17395.663545
 20
8613.656269
 30
0.0
 11
17361.195275
 21
8607.578577
 31
0.0
  0
LINE
  5
107
  8
2
 10
17395.663547
 20
8601.500897
 30
0.0
 11
17361.195275
 21
8607.578577
 31
0.0
  0
TEXT
  5
108
  8
2
 10
17404.875
 20
8609.578125
 30
0.0
 40
48.0
  1
60
 41
0.9
  7
MONOTXT
  0
ENDBLK
  5
109
  8
0
  0
BLOCK
  5
10B
  8
2
  2
*D18
 70
    65
 10
0.0
 20
0.0
 30
0.0
  3
*D18
  1

  0
POINT
  5
10C
  8
DEFPOINTS
 10
16343.695475
 20
8073.829777
 30
0.0
  0
POINT
  5
10D
  8
DEFPOINTS
 10
17128.695475
 20
8073.829277
 30
0.0
  0
POINT
  5
10E
  8
DEFPOINTS
 10
16479.013391
 20
8532.578577
 30
0.0
  0
LINE
  5
10F
  8
2
 10
16343.695475
 20
8076.829777
 30
0.0
 11
16343.695475
 21
8537.578577
 31
0.0
  0
LINE
  5
110
  8
2
 10
17128.695475
 20
8076.829277
 30
0.0
 11
17128.695475
 21
8537.578577
 31
0.0
  0
LINE
  5
111
  8
2
 10
16343.695475
 20
8532.578577
 30
0.0
 11
17128.695475
 21
8532.578577
 31
0.0
  0
LINE
  5
112
  8
2
 10
16378.163746
 20
8538.656263
 30
0.0
 11
16343.695475
 21
8532.578577
 31
0.0
  0
LINE
  5
113
  8
2
 10
16378.163746
 20
8526.500891
 30
0.0
 11
16343.695475
 21
8532.578577
 31
0.0
  0
LINE
  5
114
  8
2
 10
17094.227204
 20
8526.500888
 30
0.0
 11
17128.695475
 21
8532.578577
 31
0.0
  0
LINE
  5
115
  8
2
 10
17094.227203
 20
8538.65626
 30
0.0
 11
17128.695475
 21
8532.578577
 31
0.0
  0
TEXT
  5
116
  8
2
 10
16668.515625
 20
8534.578125
 30
0.0
 40
48.0
  1
785
 41
0.9
  7
MONOTXT
  0
ENDBLK
  5
117
  8
0
  0
BLOCK
  5
119
  8
2
  2
*D19
 70
    65
 10
0.0
 20
0.0
 30
0.0
  3
*D19
  1

  0
POINT
  5
11A
  8
DEFPOINTS
 10
16356.195475
 20
8093.829777
 30
0.0
  0
POINT
  5
11B
  8
DEFPOINTS
 10
17116.195475
 20
8093.829277
 30
0.0
  0
POINT
  5
11C
  8
DEFPOINTS
 10
16544.835876
 20
8442.578577
 30
0.0
  0
LINE
  5
11D
  8
2
 10
16356.195475
 20
8096.829777
 30
0.0
 11
16356.195475
 21
8447.578577
 31
0.0
  0
LINE
  5
11E
  8
2
 10
17116.195475
 20
8096.829277
 30
0.0
 11
17116.195475
 21
8447.578577
 31
0.0
  0
LINE
  5
11F
  8
2
 10
16356.195475
 20
8442.578577
 30
0.0
 11
17116.195475
 21
8442.578577
 31
0.0
  0
LINE
  5
120
  8
2
 10
16390.663746
 20
8448.656263
 30
0.0
 11
16356.195475
 21
8442.578577
 31
0.0
  0
LINE
  5
121
  8
2
 10
16390.663746
 20
8436.500891
 30
0.0
 11
16356.195475
 21
8442.578577
 31
0.0
  0
LINE
  5
122
  8
2
 10
17081.727204
 20
8436.500888
 30
0.0
 11
17116.195475
 21
8442.578577
 31
0.0
  0
LINE
  5
123
  8
2
 10
17081.727203
 20
8448.65626
 30
0.0
 11
17116.195475
 21
8442.578577
 31
0.0
  0
TEXT
  5
124
  8
2
 10
16668.515625
 20
8444.578125
 30
0.0
 40
48.0
  1
760
 41
0.9
  7
MONOTXT
  0
ENDBLK
  5
125
  8
0
  0
BLOCK
  5
127
  8
2
  2
*D20
 70
    65
 10
0.0
 20
0.0
 30
0.0
  3
*D20
  1

  0
POINT
  5
128
  8
DEFPOINTS
 10
16736.195475
 20
8172.578777
 30
0.0
  0
POINT
  5
129
  8
DEFPOINTS
 10
16801.195375
 20
8221.329577
 30
0.0
  0
POINT
  5
12A
  8
DEFPOINTS
 10
16850.012852
 20
8262.578577
 30
0.0
  0
LINE
  5
12B
  8
2
 10
16736.195475
 20
8175.578777
 30
0.0
 11
16736.195475
 21
8267.578577
 31
0.0
  0
LINE
  5
12C
  8
2
 10
16801.195375
 20
8224.329577
 30
0.0
 11
16801.195375
 21
8267.578577
 31
0.0
  0
LINE
  5
12D
  8
2
 10
16684.493067
 20
8262.578577
 30
0.0
 11
16980.235383
 21
8262.578577
 31
0.0
  0
LINE
  5
12E
  8
2
 10
16701.727204
 20
8256.500888
 30
0.0
 11
16736.195475
 21
8262.578577
 31
0.0
  0
LINE
  5
12F
  8
2
 10
16701.727203
 20
8268.65626
 30
0.0
 11
16736.195475
 21
8262.578577
 31
0.0
  0
LINE
  5
130
  8
2
 10
16835.663645
 20
8268.656269
 30
0.0
 11
16801.195375
 21
8262.578577
 31
0.0
  0
LINE
  5
131
  8
2
 10
16835.663647
 20
8256.500897
 30
0.0
 11
16801.195375
 21
8262.578577
 31
0.0
  0
TEXT
  5
132
  8
2
 10
16844.875
 20
8264.578125
 30
0.0
 40
48.0
  1
65
 41
0.9
  7
MONOTXT
  0
ENDBLK
  5
133
  8
0
  0
BLOCK
  5
135
  8
2
  2
*D21
 70
    65
 10
0.0
 20
0.0
 30
0.0
  3
*D21
  1

  0
POINT
  5
136
  8
DEFPOINTS
 10
16361.195875
 20
8116.829277
 30
0.0
  0
POINT
  5
137
  8
DEFPOINTS
 10
17111.195875
 20
8116.829277
 30
0.0
  0
POINT
  5
138
  8
DEFPOINTS
 10
16481.008012
 20
8352.578577
 30
0.0
  0
LINE
  5
139
  8
2
 10
16361.195875
 20
8119.829277
 30
0.0
 11
16361.195875
 21
8357.578577
 31
0.0
  0
LINE
  5
13A
  8
2
 10
17111.195875
 20
8119.829277
 30
0.0
 11
17111.195875
 21
8357.578577
 31
0.0
  0
LINE
  5
13B
  8
2
 10
16361.195875
 20
8352.578577
 30
0.0
 11
17111.195875
 21
8352.578577
 31
0.0
  0
LINE
  5
13C
  8
2
 10
16395.664146
 20
8358.656263
 30
0.0
 11
16361.195875
 21
8352.578577
 31
0.0
  0
LINE
  5
13D
  8
2
 10
16395.664146
 20
8346.500891
 30
0.0
 11
16361.195875
 21
8352.578577
 31
0.0
  0
LINE
  5
13E
  8
2
 10
17076.727604
 20
8346.500888
 30
0.0
 11
17111.195875
 21
8352.578577
 31
0.0
  0
LINE
  5
13F
  8
2
 10
17076.727603
 20
8358.65626
 30
0.0
 11
17111.195875
 21
8352.578577
 31
0.0
  0
TEXT
  5
140
  8
2
 10
16581.683594
 20
8354.578125
 30
0.0
 40
40.0
  1
５×１５０＝７５０
 41
0.9
  7
MONOTXT
  0
ENDBLK
  5
141
  8
0
  0
BLOCK
  5
143
  8
2
  2
*D22
 70
    65
 10
0.0
 20
0.0
 30
0.0
  3
*D22
  1

  0
POINT
  5
144
  8
DEFPOINTS
 10
16301.195075
 20
7581.329277
 30
0.0
  0
POINT
  5
145
  8
DEFPOINTS
 10
16301.195075
 20
7821.329577
 30
0.0
  0
POINT
  5
146
  8
DEFPOINTS
 10
15980.695475
 20
7707.646245
 30
0.0
  0
LINE
  5
147
  8
2
 10
16298.195075
 20
7581.329277
 30
0.0
 11
15975.695475
 21
7581.329277
 31
0.0
  0
LINE
  5
148
  8
2
 10
16298.195075
 20
7821.329577
 30
0.0
 11
15975.695475
 21
7821.329577
 31
0.0
  0
LINE
  5
149
  8
2
 10
15980.695475
 20
7581.329277
 30
0.0
 11
15980.695475
 21
7821.329577
 31
0.0
  0
LINE
  5
14A
  8
2
 10
15974.617787
 20
7615.797548
 30
0.0
 11
15980.695475
 21
7581.329277
 31
0.0
  0
LINE
  5
14B
  8
2
 10
15986.77316
 20
7615.797549
 30
0.0
 11
15980.695475
 21
7581.329277
 31
0.0
  0
LINE
  5
14C
  8
2
 10
15986.773161
 20
7786.861306
 30
0.0
 11
15980.695475
 21
7821.329577
 31
0.0
  0
LINE
  5
14D
  8
2
 10
15974.617789
 20
7786.861305
 30
0.0
 11
15980.695475
 21
7821.329577
 31
0.0
  0
TEXT
  5
14E
  8
2
 10
15978.695313
 20
7582.66748
 30
0.0
 40
40.0
  1
１１５～２５５
 50
90.000003
 41
0.9
  7
MONOTXT
  0
ENDBLK
  5
14F
  8
0
  0
BLOCK
  5
151
  8
2
  2
*D23
 70
    65
 10
0.0
 20
0.0
 30
0.0
  3
*D23
  1

  0
POINT
  5
152
  8
DEFPOINTS
 10
16301.195075
 20
7821.329577
 30
0.0
  0
POINT
  5
153
  8
DEFPOINTS
 10
16301.195075
 20
8121.329777
 30
0.0
  0
POINT
  5
154
  8
DEFPOINTS
 10
15980.695475
 20
8042.742533
 30
0.0
  0
LINE
  5
155
  8
2
 10
16298.195075
 20
7821.329577
 30
0.0
 11
15975.695475
 21
7821.329577
 31
0.0
  0
LINE
  5
156
  8
2
 10
16298.195075
 20
8121.329777
 30
0.0
 11
15975.695475
 21
8121.329777
 31
0.0
  0
LINE
  5
157
  8
2
 10
15980.695475
 20
7821.329577
 30
0.0
 11
15980.695475
 21
8121.329777
 31
0.0
  0
LINE
  5
158
  8
2
 10
15974.617787
 20
7855.797848
 30
0.0
 11
15980.695475
 21
7821.329577
 31
0.0
  0
LINE
  5
159
  8
2
 10
15986.77316
 20
7855.797849
 30
0.0
 11
15980.695475
 21
7821.329577
 31
0.0
  0
LINE
  5
15A
  8
2
 10
15986.773161
 20
8086.861506
 30
0.0
 11
15980.695475
 21
8121.329777
 31
0.0
  0
LINE
  5
15B
  8
2
 10
15974.617789
 20
8086.861505
 30
0.0
 11
15980.695475
 21
8121.329777
 31
0.0
  0
TEXT
  5
15C
  8
2
 10
15978.695313
 20
7903.649902
 30
0.0
 40
48.0
  1
300
 50
90.000003
 41
0.9
  7
MONOTXT
  0
ENDBLK
  5
15D
  8
0
  0
BLOCK
  5
15F
  8
2
  2
*D24
 70
    65
 10
0.0
 20
0.0
 30
0.0
  3
*D24
  1

  0
POINT
  5
160
  8
DEFPOINTS
 10
16357.695875
 20
7863.829577
 30
0.0
  0
POINT
  5
161
  8
DEFPOINTS
 10
16357.695875
 20
8108.829577
 30
0.0
  0
POINT
  5
162
  8
DEFPOINTS
 10
16040.695475
 20
8050.721016
 30
0.0
  0
LINE
  5
163
  8
2
 10
16354.695875
 20
7863.829577
 30
0.0
 11
16035.695475
 21
7863.829577
 31
0.0
  0
LINE
  5
164
  8
2
 10
16354.695875
 20
8108.829577
 30
0.0
 11
16035.695475
 21
8108.829577
 31
0.0
  0
LINE
  5
165
  8
2
 10
16040.695475
 20
7863.829577
 30
0.0
 11
16040.695475
 21
8108.829577
 31
0.0
  0
LINE
  5
166
  8
2
 10
16034.617787
 20
7898.297848
 30
0.0
 11
16040.695475
 21
7863.829577
 31
0.0
  0
LINE
  5
167
  8
2
 10
16046.77316
 20
7898.297849
 30
0.0
 11
16040.695475
 21
7863.829577
 31
0.0
  0
LINE
  5
168
  8
2
 10
16046.773161
 20
8074.361306
 30
0.0
 11
16040.695475
 21
8108.829577
 31
0.0
  0
LINE
  5
169
  8
2
 10
16034.617789
 20
8074.361305
 30
0.0
 11
16040.695475
 21
8108.829577
 31
0.0
  0
TEXT
  5
16A
  8
2
 10
16038.695313
 20
7918.649414
 30
0.0
 40
48.0
  1
245
 50
90.000003
 41
0.9
  7
MONOTXT
  0
ENDBLK
  5
16B
  8
0
  0
BLOCK
  5
16D
  8
2
  2
*D25
 70
    65
 10
0.0
 20
0.0
 30
0.0
  3
*D25
  1

  0
POINT
  5
16E
  8
DEFPOINTS
 10
16333.695475
 20
7878.829577
 30
0.0
  0
POINT
  5
16F
  8
DEFPOINTS
 10
16333.695475
 20
8093.829777
 30
0.0
  0
POINT
  5
170
  8
DEFPOINTS
 10
16100.695475
 20
8044.737153
 30
0.0
  0
LINE
  5
171
  8
2
 10
16330.695475
 20
7878.829577
 30
0.0
 11
16095.695475
 21
7878.829577
 31
0.0
  0
LINE
  5
172
  8
2
 10
16330.695475
 20
8093.829777
 30
0.0
 11
16095.695475
 21
8093.829777
 31
0.0
  0
LINE
  5
173
  8
2
 10
16100.695475
 20
7878.829577
 30
0.0
 11
16100.695475
 21
8093.829777
 31
0.0
  0
LINE
  5
174
  8
2
 10
16094.617787
 20
7913.297848
 30
0.0
 11
16100.695475
 21
7878.829577
 31
0.0
  0
LINE
  5
175
  8
2
 10
16106.77316
 20
7913.297849
 30
0.0
 11
16100.695475
 21
7878.829577
 31
0.0
  0
LINE
  5
176
  8
2
 10
16106.773161
 20
8059.361506
 30
0.0
 11
16100.695475
 21
8093.829777
 31
0.0
  0
LINE
  5
177
  8
2
 10
16094.617789
 20
8059.361505
 30
0.0
 11
16100.695475
 21
8093.829777
 31
0.0
  0
TEXT
  5
178
  8
2
 10
16098.695312
 20
7918.649902
 30
0.0
 40
48.0
  1
215
 50
90.000003
 41
0.9
  7
MONOTXT
  0
ENDBLK
  5
179
  8
0
  0
BLOCK
  5
17B
  8
2
  2
*D26
 70
    65
 10
0.0
 20
0.0
 30
0.0
  3
*D26
  1

  0
POINT
  5
17C
  8
DEFPOINTS
 10
16305.695575
 20
7986.329577
 30
0.0
  0
POINT
  5
17D
  8
DEFPOINTS
 10
16301.195075
 20
8121.329777
 30
0.0
  0
POINT
  5
17E
  8
DEFPOINTS
 10
16235.695475
 20
8077.788802
 30
0.0
  0
LINE
  5
17F
  8
2
 10
16302.695575
 20
7986.329577
 30
0.0
 11
16230.695475
 21
7986.329577
 31
0.0
  0
LINE
  5
180
  8
2
 10
16298.195075
 20
8121.329777
 30
0.0
 11
16230.695475
 21
8121.329777
 31
0.0
  0
LINE
  5
181
  8
2
 10
16235.695475
 20
7986.329577
 30
0.0
 11
16235.695475
 21
8121.329777
 31
0.0
  0
LINE
  5
182
  8
2
 10
16229.617787
 20
8020.797848
 30
0.0
 11
16235.695475
 21
7986.329577
 31
0.0
  0
LINE
  5
183
  8
2
 10
16241.77316
 20
8020.797849
 30
0.0
 11
16235.695475
 21
7986.329577
 31
0.0
  0
LINE
  5
184
  8
2
 10
16241.773161
 20
8086.861506
 30
0.0
 11
16235.695475
 21
8121.329777
 31
0.0
  0
LINE
  5
185
  8
2
 10
16229.617789
 20
8086.861505
 30
0.0
 11
16235.695475
 21
8121.329777
 31
0.0
  0
TEXT
  5
186
  8
2
 10
16233.695312
 20
7981.504883
 30
0.0
 40
48.0
  1
135
 50
90.000003
 41
0.9
  7
MONOTXT
  0
ENDBLK
  5
187
  8
0
  0
BLOCK
  5
189
  8
2
  2
*D27
 70
    65
 10
0.0
 20
0.0
 30
0.0
  3
*D27
  1

  0
POINT
  5
18A
  8
DEFPOINTS
 10
16338.195275
 20
7911.329277
 30
0.0
  0
POINT
  5
18B
  8
DEFPOINTS
 10
16338.195375
 20
8061.329277
 30
0.0
  0
POINT
  5
18C
  8
DEFPOINTS
 10
16160.695475
 20
8002.850117
 30
0.0
  0
LINE
  5
18D
  8
2
 10
16335.195275
 20
7911.329277
 30
0.0
 11
16155.695475
 21
7911.329277
 31
0.0
  0
LINE
  5
18E
  8
2
 10
16335.195375
 20
8061.329277
 30
0.0
 11
16155.695475
 21
8061.329277
 31
0.0
  0
LINE
  5
18F
  8
2
 10
16160.695475
 20
7911.329277
 30
0.0
 11
16160.695475
 21
8061.329277
 31
0.0
  0
LINE
  5
190
  8
2
 10
16154.617787
 20
7945.797548
 30
0.0
 11
16160.695475
 21
7911.329277
 31
0.0
  0
LINE
  5
191
  8
2
 10
16166.77316
 20
7945.797549
 30
0.0
 11
16160.695475
 21
7911.329277
 31
0.0
  0
LINE
  5
192
  8
2
 10
16166.773161
 20
8026.861006
 30
0.0
 11
16160.695475
 21
8061.329277
 31
0.0
  0
LINE
  5
193
  8
2
 10
16154.617789
 20
8026.861005
 30
0.0
 11
16160.695475
 21
8061.329277
 31
0.0
  0
TEXT
  5
194
  8
2
 10
16158.695313
 20
7918.649414
 30
0.0
 40
48.0
  1
150
 50
90.000003
 41
0.9
  7
MONOTXT
  0
ENDBLK
  5
195
  8
0
  0
BLOCK
  5
197
  8
2
  2
*D28
 70
    65
 10
0.0
 20
0.0
 30
0.0
  3
*D28
  1

  0
POINT
  5
198
  8
DEFPOINTS
 10
18350.318975
 20
7821.329077
 30
0.0
  0
POINT
  5
199
  8
DEFPOINTS
 10
18395.318975
 20
7900.329077
 30
0.0
  0
POINT
  5
19A
  8
DEFPOINTS
 10
18367.581561
 20
7750.197677
 30
0.0
  0
LINE
  5
19B
  8
2
 10
18350.318975
 20
7818.329077
 30
0.0
 11
18350.318975
 21
7745.197677
 31
0.0
  0
LINE
  5
19C
  8
2
 10
18395.318975
 20
7897.329077
 30
0.0
 11
18395.318975
 21
7745.197677
 31
0.0
  0
LINE
  5
19D
  8
2
 10
18171.278966
 20
7750.197677
 30
0.0
 11
18439.635324
 21
7750.197677
 31
0.0
  0
LINE
  5
19E
  8
2
 10
18315.850704
 20
7744.119988
 30
0.0
 11
18350.318975
 21
7750.197677
 31
0.0
  0
LINE
  5
19F
  8
2
 10
18315.850703
 20
7756.27536
 30
0.0
 11
18350.318975
 21
7750.197677
 31
0.0
  0
CIRCLE
  5
1A0
  8
2
 10
18395.318975
 20
7750.197677
 30
0.0
 40
7.5
  0
CIRCLE
  5
1A1
  8
2
 10
18395.318975
 20
7750.197677
 30
0.0
 40
4.5
  0
TEXT
  5
1A2
  8
2
 10
18214.958984
 20
7752.197754
 30
0.0
 40
48.0
  1
45
 41
0.9
  7
MONOTXT
  0
ENDBLK
  5
1A3
  8
0
  0
BLOCK
  5
1A5
  8
2
  2
*D29
 70
    65
 10
0.0
 20
0.0
 30
0.0
  3
*D29
  1

  0
POINT
  5
1A6
  8
DEFPOINTS
 10
18395.318975
 20
7900.329077
 30
0.0
  0
POINT
  5
1A7
  8
DEFPOINTS
 10
18441.318975
 20
7955.329077
 30
0.0
  0
POINT
  5
1A8
  8
DEFPOINTS
 10
18480.43721
 20
7750.197677
 30
0.0
  0
LINE
  5
1A9
  8
2
 10
18395.318975
 20
7897.329077
 30
0.0
 11
18395.318975
 21
7745.197677
 31
0.0
  0
LINE
  5
1AA
  8
2
 10
18441.318975
 20
7952.329077
 30
0.0
 11
18441.318975
 21
7745.197677
 31
0.0
  0
LINE
  5
1AB
  8
2
 10
18351.002626
 20
7750.197677
 30
0.0
 11
18620.358983
 21
7750.197677
 31
0.0
  0
CIRCLE
  5
1AC
  8
2
 10
18395.318975
 20
7750.197677
 30
0.0
 40
7.5
  0
CIRCLE
  5
1AD
  8
2
 10
18395.318975
 20
7750.197677
 30
0.0
 40
4.5
  0
LINE
  5
1AE
  8
2
 10
18475.787245
 20
7756.275369
 30
0.0
 11
18441.318975
 21
7750.197677
 31
0.0
  0
LINE
  5
1AF
  8
2
 10
18475.787247
 20
7744.119997
 30
0.0
 11
18441.318975
 21
7750.197677
 31
0.0
  0
TEXT
  5
1B0
  8
2
 10
18484.998047
 20
7752.197754
 30
0.0
 40
48.0
  1
46
 41
0.9
  7
MONOTXT
  0
ENDBLK
  5
1B1
  8
0
  0
BLOCK
  5
1B3
  8
2
  2
*D30
 70
    65
 10
0.0
 20
0.0
 30
0.0
  3
*D30
  1

  0
POINT
  5
1B4
  8
DEFPOINTS
 10
16261.195275
 20
7526.329077
 30
0.0
  0
POINT
  5
1B5
  8
DEFPOINTS
 10
16251.195075
 20
7536.329577
 30
0.0
  0
POINT
  5
1B6
  8
DEFPOINTS
 10
15926.095575
 20
7629.856036
 30
0.0
  0
LINE
  5
1B7
  8
2
 10
16258.195275
 20
7526.329077
 30
0.0
 11
15921.095575
 21
7526.329077
 31
0.0
  0
LINE
  5
1B8
  8
2
 10
16248.195075
 20
7536.329577
 30
0.0
 11
15921.095575
 21
7536.329577
 31
0.0
  0
LINE
  5
1B9
  8
2
 10
15926.095575
 20
7474.626669
 30
0.0
 11
15926.095575
 21
7773.662051
 31
0.0
  0
LINE
  5
1BA
  8
2
 10
15932.173261
 20
7491.860806
 30
0.0
 11
15926.095575
 21
7526.329077
 31
0.0
  0
LINE
  5
1BB
  8
2
 10
15920.017889
 20
7491.860805
 30
0.0
 11
15926.095575
 21
7526.329077
 31
0.0
  0
CIRCLE
  5
1BC
  8
2
 10
15926.095575
 20
7536.329577
 30
0.0
 40
5.0
  0
CIRCLE
  5
1BD
  8
2
 10
15926.095575
 20
7536.329577
 30
0.0
 40
3.0
  0
TEXT
  5
1BE
  8
2
 10
15924.095703
 20
7638.302246
 30
0.0
 40
48.0
  1
10
 50
90.000003
 41
0.9
  7
MONOTXT
  0
ENDBLK
  5
1BF
  8
0
  0
BLOCK
  5
1C1
  8
2
  2
*D31
 70
    65
 10
0.0
 20
0.0
 30
0.0
  3
*D31
  1

  0
POINT
  5
1C2
  8
DEFPOINTS
 10
16251.195075
 20
7536.329577
 30
0.0
  0
POINT
  5
1C3
  8
DEFPOINTS
 10
16301.195075
 20
7581.329277
 30
0.0
  0
POINT
  5
1C4
  8
DEFPOINTS
 10
15926.095575
 20
7621.877553
 30
0.0
  0
LINE
  5
1C5
  8
2
 10
16248.195075
 20
7536.329577
 30
0.0
 11
15921.095575
 21
7536.329577
 31
0.0
  0
LINE
  5
1C6
  8
2
 10
16298.195075
 20
7581.329277
 30
0.0
 11
15921.095575
 21
7581.329277
 31
0.0
  0
LINE
  5
1C7
  8
2
 10
15926.095575
 20
7506.785344
 30
0.0
 11
15926.095575
 21
7760.369285
 31
0.0
  0
CIRCLE
  5
1C8
  8
2
 10
15926.095575
 20
7536.329577
 30
0.0
 40
5.0
  0
CIRCLE
  5
1C9
  8
2
 10
15926.095575
 20
7536.329577
 30
0.0
 40
3.0
  0
LINE
  5
1CA
  8
2
 10
15920.017893
 20
7615.797549
 30
0.0
 11
15926.095575
 21
7581.329277
 31
0.0
  0
LINE
  5
1CB
  8
2
 10
15932.173266
 20
7615.797547
 30
0.0
 11
15926.095575
 21
7581.329277
 31
0.0
  0
TEXT
  5
1CC
  8
2
 10
15924.095703
 20
7625.009277
 30
0.0
 40
48.0
  1
45
 50
90.000003
 41
0.9
  7
MONOTXT
  0
ENDBLK
  5
1CD
  8
0
  0
BLOCK
  5
1CF
  8
2
  2
*D32
 70
    65
 10
0.0
 20
0.0
 30
0.0
  3
*D32
  1

  0
POINT
  5
1D0
  8
DEFPOINTS
 10
16276.200675
 20
9852.213769
 30
0.0
  0
POINT
  5
1D1
  8
DEFPOINTS
 10
17326.202575
 20
9852.213769
 30
0.0
  0
POINT
  5
1D2
  8
DEFPOINTS
 10
16580.43693
 20
9945.964269
 30
0.0
  0
LINE
  5
1D3
  8
2
 10
16276.200675
 20
9855.213769
 30
0.0
 11
16276.200675
 21
9950.964269
 31
0.0
  0
LINE
  5
1D4
  8
2
 10
17326.202575
 20
9855.213769
 30
0.0
 11
17326.202575
 21
9950.964269
 31
0.0
  0
LINE
  5
1D5
  8
2
 10
16276.200675
 20
9945.964269
 30
0.0
 11
17326.202575
 21
9945.964269
 31
0.0
  0
LINE
  5
1D6
  8
2
 10
16310.668946
 20
9952.041955
 30
0.0
 11
16276.200675
 21
9945.964269
 31
0.0
  0
LINE
  5
1D7
  8
2
 10
16310.668946
 20
9939.886583
 30
0.0
 11
16276.200675
 21
9945.964269
 31
0.0
  0
LINE
  5
1D8
  8
2
 10
17291.734304
 20
9939.88658
 30
0.0
 11
17326.202575
 21
9945.964269
 31
0.0
  0
LINE
  5
1D9
  8
2
 10
17291.734303
 20
9952.041952
 30
0.0
 11
17326.202575
 21
9945.964269
 31
0.0
  0
TEXT
  5
1DA
  8
2
 10
16591.90625
 20
9947.963867
 30
0.0
 40
48.0
  1
1050
 41
0.9
  7
MONOTXT
  0
ENDBLK
  5
1DB
  8
0
  0
BLOCK
  5
1DD
  8
2
  2
*D33
 70
    65
 10
0.0
 20
0.0
 30
0.0
  3
*D33
  1

  0
POINT
  5
1DE
  8
DEFPOINTS
 10
16256.194975
 20
9202.213769
 30
0.0
  0
POINT
  5
1DF
  8
DEFPOINTS
 10
16256.195975
 20
9832.213769
 30
0.0
  0
POINT
  5
1E0
  8
DEFPOINTS
 10
16120.695475
 20
9293.865656
 30
0.0
  0
LINE
  5
1E1
  8
2
 10
16253.194975
 20
9202.213769
 30
0.0
 11
16115.695475
 21
9202.213769
 31
0.0
  0
LINE
  5
1E2
  8
2
 10
16253.195975
 20
9832.213769
 30
0.0
 11
16115.695475
 21
9832.213769
 31
0.0
  0
LINE
  5
1E3
  8
2
 10
16120.695475
 20
9202.213769
 30
0.0
 11
16120.695475
 21
9832.213769
 31
0.0
  0
LINE
  5
1E4
  8
2
 10
16114.617787
 20
9236.68204
 30
0.0
 11
16120.695475
 21
9202.213769
 31
0.0
  0
LINE
  5
1E5
  8
2
 10
16126.77316
 20
9236.68204
 30
0.0
 11
16120.695475
 21
9202.213769
 31
0.0
  0
LINE
  5
1E6
  8
2
 10
16126.773161
 20
9797.745497
 30
0.0
 11
16120.695475
 21
9832.213769
 31
0.0
  0
LINE
  5
1E7
  8
2
 10
16114.617789
 20
9797.745497
 30
0.0
 11
16120.695475
 21
9832.213769
 31
0.0
  0
TEXT
  5
1E8
  8
2
 10
16118.695313
 20
9530.208008
 30
0.0
 40
48.0
  1
630
 50
90.000003
 41
0.9
  7
MONOTXT
  0
ENDBLK
  5
1E9
  8
0
  0
BLOCK
  5
1EB
  8
2
  2
*D34
 70
    65
 10
0.0
 20
0.0
 30
0.0
  3
*D34
  1

  0
POINT
  5
1EC
  8
DEFPOINTS
 10
16301.195075
 20
9057.214169
 30
0.0
  0
POINT
  5
1ED
  8
DEFPOINTS
 10
16256.194975
 20
9202.213769
 30
0.0
  0
POINT
  5
1EE
  8
DEFPOINTS
 10
16120.695475
 20
9144.618467
 30
0.0
  0
LINE
  5
1EF
  8
2
 10
16298.195075
 20
9057.214169
 30
0.0
 11
16115.695475
 21
9057.214169
 31
0.0
  0
LINE
  5
1F0
  8
2
 10
16253.194975
 20
9202.213769
 30
0.0
 11
16115.695475
 21
9202.213769
 31
0.0
  0
LINE
  5
1F1
  8
2
 10
16120.695475
 20
9057.214169
 30
0.0
 11
16120.695475
 21
9202.213769
 31
0.0
  0
LINE
  5
1F2
  8
2
 10
16114.617787
 20
9091.68244
 30
0.0
 11
16120.695475
 21
9057.214169
 31
0.0
  0
LINE
  5
1F3
  8
2
 10
16126.77316
 20
9091.68244
 30
0.0
 11
16120.695475
 21
9057.214169
 31
0.0
  0
LINE
  5
1F4
  8
2
 10
16126.773161
 20
9167.745497
 30
0.0
 11
16120.695475
 21
9202.213769
 31
0.0
  0
LINE
  5
1F5
  8
2
 10
16114.617789
 20
9167.745497
 30
0.0
 11
16120.695475
 21
9202.213769
 31
0.0
  0
TEXT
  5
1F6
  8
2
 10
16118.695312
 20
9062.03418
 30
0.0
 40
48.0
  1
145
 50
90.000003
 41
0.9
  7
MONOTXT
  0
ENDBLK
  5
1F7
  8
0
  0
BLOCK
  5
1F9
  8
2
  2
*D35
 70
    65
 10
0.0
 20
0.0
 30
0.0
  3
*D35
  1

  0
POINT
  5
1FA
  8
DEFPOINTS
 10
18251.195275
 20
9205.689999
 30
0.0
  0
POINT
  5
1FB
  8
DEFPOINTS
 10
19351.195275
 20
9205.689999
 30
0.0
  0
POINT
  5
1FC
  8
DEFPOINTS
 10
18542.86722
 20
8974.714399
 30
0.0
  0
LINE
  5
1FD
  8
2
 10
18251.195275
 20
9202.689999
 30
0.0
 11
18251.195275
 21
8969.714399
 31
0.0
  0
LINE
  5
1FE
  8
2
 10
19351.195275
 20
9202.689999
 30
0.0
 11
19351.195275
 21
8969.714399
 31
0.0
  0
LINE
  5
1FF
  8
2
 10
18251.195275
 20
8974.714399
 30
0.0
 11
19351.195275
 21
8974.714399
 31
0.0
  0
LINE
  5
200
  8
2
 10
18285.663546
 20
8980.792085
 30
0.0
 11
18251.195275
 21
8974.714399
 31
0.0
  0
LINE
  5
201
  8
2
 10
18285.663546
 20
8968.636712
 30
0.0
 11
18251.195275
 21
8974.714399
 31
0.0
  0
LINE
  5
202
  8
2
 10
19316.727004
 20
8968.636709
 30
0.0
 11
19351.195275
 21
8974.714399
 31
0.0
  0
LINE
  5
203
  8
2
 10
19316.727003
 20
8980.792082
 30
0.0
 11
19351.195275
 21
8974.714399
 31
0.0
  0
TEXT
  5
204
  8
2
 10
18711.675781
 20
8976.714844
 30
0.0
 40
48.0
  1
1100
 41
0.9
  7
MONOTXT
  0
ENDBLK
  5
205
  8
0
  0
BLOCK
  5
207
  8
2
  2
*D36
 70
    65
 10
0.0
 20
0.0
 30
0.0
  3
*D36
  1

  0
POINT
  5
208
  8
DEFPOINTS
 10
18271.193675
 20
9201.688499
 30
0.0
  0
POINT
  5
209
  8
DEFPOINTS
 10
19331.195475
 20
9201.689999
 30
0.0
  0
POINT
  5
20A
  8
DEFPOINTS
 10
18574.411047
 20
9079.714399
 30
0.0
  0
LINE
  5
20B
  8
2
 10
18271.193675
 20
9198.688499
 30
0.0
 11
18271.193675
 21
9074.714399
 31
0.0
  0
LINE
  5
20C
  8
2
 10
19331.195475
 20
9198.689999
 30
0.0
 11
19331.195475
 21
9074.714399
 31
0.0
  0
LINE
  5
20D
  8
2
 10
18271.193675
 20
9079.714399
 30
0.0
 11
19331.195475
 21
9079.714399
 31
0.0
  0
LINE
  5
20E
  8
2
 10
18305.661946
 20
9085.792085
 30
0.0
 11
18271.193675
 21
9079.714399
 31
0.0
  0
LINE
  5
20F
  8
2
 10
18305.661946
 20
9073.636712
 30
0.0
 11
18271.193675
 21
9079.714399
 31
0.0
  0
LINE
  5
210
  8
2
 10
19296.727204
 20
9073.636709
 30
0.0
 11
19331.195475
 21
9079.714399
 31
0.0
  0
LINE
  5
211
  8
2
 10
19296.727203
 20
9085.792082
 30
0.0
 11
19331.195475
 21
9079.714399
 31
0.0
  0
TEXT
  5
212
  8
2
 10
18599.957031
 20
9081.714844
 30
0.0
 40
48.0
  1
1060
 41
0.9
  7
MONOTXT
  0
ENDBLK
  5
213
  8
0
  0
BLOCK
  5
215
  8
2
  2
*D37
 70
    65
 10
0.0
 20
0.0
 30
0.0
  3
*D37
  1

  0
POINT
  5
216
  8
DEFPOINTS
 10
19327.195275
 20
9181.689999
 30
0.0
  0
POINT
  5
217
  8
DEFPOINTS
 10
19327.195275
 20
9683.689999
 30
0.0
  0
POINT
  5
218
  8
DEFPOINTS
 10
19580.732075
 20
9400.502129
 30
0.0
  0
LINE
  5
219
  8
2
 10
19330.195275
 20
9181.689999
 30
0.0
 11
19585.732075
 21
9181.689999
 31
0.0
  0
LINE
  5
21A
  8
2
 10
19330.195275
 20
9683.689999
 30
0.0
 11
19585.732075
 21
9683.689999
 31
0.0
  0
LINE
  5
21B
  8
2
 10
19580.732075
 20
9181.689999
 30
0.0
 11
19580.732075
 21
9683.689999
 31
0.0
  0
LINE
  5
21C
  8
2
 10
19574.654387
 20
9216.15827
 30
0.0
 11
19580.732075
 21
9181.689999
 31
0.0
  0
LINE
  5
21D
  8
2
 10
19586.80976
 20
9216.15827
 30
0.0
 11
19580.732075
 21
9181.689999
 31
0.0
  0
LINE
  5
21E
  8
2
 10
19586.809761
 20
9649.221727
 30
0.0
 11
19580.732075
 21
9683.689999
 31
0.0
  0
LINE
  5
21F
  8
2
 10
19574.654389
 20
9649.221727
 30
0.0
 11
19580.732075
 21
9683.689999
 31
0.0
  0
TEXT
  5
220
  8
2
 10
19578.732422
 20
9365.009766
 30
0.0
 40
48.0
  1
500
 50
90.000003
 41
0.9
  7
MONOTXT
  0
ENDBLK
  5
221
  8
0
  0
BLOCK
  5
223
  8
2
  2
*D38
 70
    65
 10
0.0
 20
0.0
 30
0.0
  3
*D38
  1

  0
POINT
  5
224
  8
DEFPOINTS
 10
19331.195375
 20
9202.689999
 30
0.0
  0
POINT
  5
225
  8
DEFPOINTS
 10
19331.195075
 20
9662.689999
 30
0.0
  0
POINT
  5
226
  8
DEFPOINTS
 10
19470.695475
 20
9485.595653
 30
0.0
  0
LINE
  5
227
  8
2
 10
19334.195375
 20
9202.689999
 30
0.0
 11
19475.695475
 21
9202.689999
 31
0.0
  0
LINE
  5
228
  8
2
 10
19334.195075
 20
9662.689999
 30
0.0
 11
19475.695475
 21
9662.689999
 31
0.0
  0
LINE
  5
229
  8
2
 10
19470.695475
 20
9202.689999
 30
0.0
 11
19470.695475
 21
9662.689999
 31
0.0
  0
LINE
  5
22A
  8
2
 10
19464.617787
 20
9237.15827
 30
0.0
 11
19470.695475
 21
9202.689999
 31
0.0
  0
LINE
  5
22B
  8
2
 10
19476.77316
 20
9237.15827
 30
0.0
 11
19470.695475
 21
9202.689999
 31
0.0
  0
LINE
  5
22C
  8
2
 10
19476.773161
 20
9628.221727
 30
0.0
 11
19470.695475
 21
9662.689999
 31
0.0
  0
LINE
  5
22D
  8
2
 10
19464.617789
 20
9628.221727
 30
0.0
 11
19470.695475
 21
9662.689999
 31
0.0
  0
TEXT
  5
22E
  8
2
 10
19468.695313
 20
9209.550781
 30
0.0
 40
48.0
  1
462
 50
90.000003
 41
0.9
  7
MONOTXT
  0
ENDBLK
  5
22F
  8
0
  0
BLOCK
  5
231
  8
2
  2
*D39
 70
    65
 10
0.0
 20
0.0
 30
0.0
  3
*D39
  1

  0
POINT
  5
232
  8
DEFPOINTS
 10
16378.695275
 20
9036.213869
 30
0.0
  0
POINT
  5
233
  8
DEFPOINTS
 10
17093.695275
 20
9036.213869
 30
0.0
  0
POINT
  5
234
  8
DEFPOINTS
 10
16857.493624
 20
8930.612229
 30
0.0
  0
LINE
  5
235
  8
2
 10
16378.695275
 20
9033.213869
 30
0.0
 11
16378.695275
 21
8925.612229
 31
0.0
  0
LINE
  5
236
  8
2
 10
17093.695275
 20
9033.213869
 30
0.0
 11
17093.695275
 21
8925.612229
 31
0.0
  0
LINE
  5
237
  8
2
 10
16378.695275
 20
8930.612229
 30
0.0
 11
17093.695275
 21
8930.612229
 31
0.0
  0
LINE
  5
238
  8
2
 10
16413.163546
 20
8936.689915
 30
0.0
 11
16378.695275
 21
8930.612229
 31
0.0
  0
LINE
  5
239
  8
2
 10
16413.163546
 20
8924.534543
 30
0.0
 11
16378.695275
 21
8930.612229
 31
0.0
  0
LINE
  5
23A
  8
2
 10
17059.227004
 20
8924.53454
 30
0.0
 11
17093.695275
 21
8930.612229
 31
0.0
  0
LINE
  5
23B
  8
2
 10
17059.227003
 20
8936.689912
 30
0.0
 11
17093.695275
 21
8930.612229
 31
0.0
  0
TEXT
  5
23C
  8
2
 10
16539.195313
 20
8932.612305
 30
0.0
 40
40.0
  1
１１×６５＝７１５
 41
0.9
  7
MONOTXT
  0
ENDBLK
  5
23D
  8
0
  0
ENDSEC
  0
SECTION
  2
ENTITIES
  0
DIMENSION
  5
23E
  8
2
 62
     7
  2
*D2
 10
18529.341325
 20
8607.578577
 30
0.0
 11
18750.318672
 21
8633.578125
 31
0.0
 13
18350.318975
 23
8121.329077
 33
0.0
 14
19150.318975
 24
8121.329077
 34
0.0
  0
DIMENSION
  5
23F
  8
2
 62
     7
  2
*D3
 10
18659.125322
 20
8442.578577
 30
0.0
 11
18570.318672
 21
8468.578125
 31
0.0
 13
18350.318975
 23
8121.329077
 33
0.0
 14
18790.318975
 24
8023.329077
 34
0.0
  0
DIMENSION
  5
240
  8
2
 62
     7
  2
*D4
 10
18529.341325
 20
8352.578577
 30
0.0
 11
18507.818672
 21
8378.578125
 31
0.0
 13
18350.318975
 23
8121.329077
 33
0.0
 14
18665.319275
 24
8081.329277
 34
0.0
  0
DIMENSION
  5
241
  8
2
 62
     7
  2
*D5
 10
18350.154675
 20
8607.994867
 30
0.0
 11
18235.798984
 21
8633.995117
 31
0.0
 13
18325.318975
 23
8098.828777
 33
0.0
 14
18350.318975
 24
8121.329077
 34
0.0
  0
DIMENSION
  5
242
  8
2
 62
     7
  2
*D6
 10
19067.958375
 20
7942.146534
 30
0.0
 11
19041.958981
 21
7928.014472
 31
0.0
 13
18812.318975
 23
7866.329077
 33
0.0
 14
18812.318975
 24
8001.329077
 34
0.0
 50
90.000003
  0
DIMENSION
  5
243
  8
2
 62
     7
  2
*D7
 10
19067.958375
 20
8075.692386
 30
0.0
 11
19041.958981
 21
8055.881659
 31
0.0
 13
18812.318975
 23
8001.329077
 33
0.0
 14
19150.318975
 24
8121.329077
 34
0.0
 50
90.000003
  0
DIMENSION
  5
244
  8
2
 62
     7
  2
*D8
 10
18205.695475
 20
7977.884157
 30
0.0
 11
18181.820307
 21
7990.551757
 31
0.0
  1
２×６５＝１３０
 13
18329.318975
 23
7921.329277
 33
0.0
 14
18329.323875
 24
8051.330277
 34
0.0
 50
90.000003
  0
DIMENSION
  5
245
  8
2
 62
     7
  2
*D9
 10
19345.400575
 20
8051.240329
 30
0.0
 11
19319.400388
 21
8023.828925
 31
0.0
 13
19149.319275
 23
7926.329077
 33
0.0
 14
19150.318975
 24
8121.329077
 34
0.0
 50
90.000003
  0
DIMENSION
  5
246
  8
2
 62
     7
  2
*D10
 10
18536.865035
 20
8532.578577
 30
0.0
 11
18439.037422
 21
8558.578125
 31
0.0
 13
18350.318975
 23
8121.329077
 33
0.0
 14
18945.320475
 24
8081.328577
 34
0.0
  0
DIMENSION
  5
247
  8
2
 62
     7
  2
*D11
 10
17435.695475
 20
8080.640327
 30
0.0
 11
17409.69531
 21
8089.177401
 31
0.0
 13
17351.195275
 23
8054.329077
 33
0.0
 14
17301.195275
 24
8121.329077
 34
0.0
 50
90.000003
  0
DIMENSION
  5
248
  8
2
 62
     7
  2
*D12
 10
17523.361975
 20
8032.769429
 30
0.0
 11
17497.361325
 21
8046.328925
 31
0.0
 13
17391.195275
 23
7971.329077
 33
0.0
 14
17301.195275
 24
8121.329077
 34
0.0
 50
90.000003
  0
DIMENSION
  5
249
  8
2
 62
     7
  2
*D13
 10
17601.292875
 20
8018.807083
 30
0.0
 11
17575.292966
 21
8021.328925
 31
0.0
 13
17390.446475
 23
7921.329077
 33
0.0
 14
17301.195275
 24
8121.328777
 34
0.0
 50
90.000003
  0
DIMENSION
  5
24A
  8
2
 62
     7
  2
*D14
 10
17370.26939
 20
7712.578577
 30
0.0
 11
17447.715
 21
7738.578613
 31
0.0
 13
17301.195275
 23
7712.578577
 33
0.0
 14
17358.195375
 24
7836.312177
 34
0.0
  0
DIMENSION
  5
24B
  8
2
 62
     7
  2
*D15
 10
16445.104838
 20
8607.578577
 30
0.0
 11
16801.195781
 21
8633.578125
 31
0.0
 13
16301.195075
 23
8121.329077
 33
0.0
 14
17301.195275
 24
8121.329077
 34
0.0
  0
DIMENSION
  5
24C
  8
2
 62
     7
  2
*D16
 10
17396.53894
 20
8532.578577
 30
0.0
 11
17440.715
 21
8558.578125
 31
0.0
 13
17301.195275
 23
8121.329077
 33
0.0
 14
17351.195275
 24
8069.329077
 34
0.0
  0
DIMENSION
  5
24D
  8
2
 62
     7
  2
*D17
 10
17382.576594
 20
8607.578577
 30
0.0
 11
17450.715
 21
8633.578125
 31
0.0
 13
17301.195275
 23
8121.329077
 33
0.0
 14
17361.195275
 24
7978.329077
 34
0.0
  0
DIMENSION
  5
24E
  8
2
 62
     7
  2
*D18
 10
16479.013391
 20
8532.578577
 30
0.0
 11
16736.195625
 21
8558.578125
 31
0.0
 13
16343.695475
 23
8073.829777
 33
0.0
 14
17128.695475
 24
8073.829277
 34
0.0
  0
DIMENSION
  5
24F
  8
2
 62
     7
  2
*D19
 10
16544.835876
 20
8442.578577
 30
0.0
 11
16736.195625
 21
8468.578125
 31
0.0
 13
16356.195475
 23
8093.829777
 33
0.0
 14
17116.195475
 24
8093.829277
 34
0.0
  0
DIMENSION
  5
250
  8
2
 62
     7
  2
*D20
 10
16850.012852
 20
8262.578577
 30
0.0
 11
16890.715
 21
8288.578125
 31
0.0
 13
16736.195475
 23
8172.578777
 33
0.0
 14
16801.195375
 24
8221.329577
 34
0.0
  0
DIMENSION
  5
251
  8
2
 62
     7
  2
*D21
 10
16481.008012
 20
8352.578577
 30
0.0
 11
16742.683594
 21
8374.578125
 31
0.0
  1
５×１５０＝７５０
 13
16361.195875
 23
8116.829277
 33
0.0
 14
17111.195875
 24
8116.829277
 34
0.0
  0
DIMENSION
  5
252
  8
2
 62
     7
  2
*D22
 10
15980.695475
 20
7707.646245
 30
0.0
 11
15958.695308
 21
7696.66748
 31
0.0
  1
１１５～２５５
 13
16301.195075
 23
7581.329277
 33
0.0
 14
16301.195075
 24
7821.329577
 34
0.0
 50
90.000003
  0
DIMENSION
  5
253
  8
2
 62
     7
  2
*D23
 10
15980.695475
 20
8042.742533
 30
0.0
 11
15954.69531
 21
7971.329901
 31
0.0
 13
16301.195075
 23
7821.329577
 33
0.0
 14
16301.195075
 24
8121.329777
 34
0.0
 50
90.000003
  0
DIMENSION
  5
254
  8
2
 62
     7
  2
*D24
 10
16040.695475
 20
8050.721016
 30
0.0
 11
16014.69531
 21
7986.329413
 31
0.0
 13
16357.695875
 23
7863.829577
 33
0.0
 14
16357.695875
 24
8108.829577
 34
0.0
 50
90.000003
  0
DIMENSION
  5
255
  8
2
 62
     7
  2
*D25
 10
16100.695475
 20
8044.737153
 30
0.0
 11
16074.69531
 21
7986.329901
 31
0.0
 13
16333.695475
 23
7878.829577
 33
0.0
 14
16333.695475
 24
8093.829777
 34
0.0
 50
90.000003
  0
DIMENSION
  5
256
  8
2
 62
     7
  2
*D26
 10
16235.695475
 20
8077.788802
 30
0.0
 11
16209.69531
 21
8049.184882
 31
0.0
 13
16305.695575
 23
7986.329577
 33
0.0
 14
16301.195075
 24
8121.329777
 34
0.0
 50
90.000003
  0
DIMENSION
  5
257
  8
2
 62
     7
  2
*D27
 10
16160.695475
 20
8002.850117
 30
0.0
 11
16134.69531
 21
7986.329413
 31
0.0
 13
16338.195275
 23
7911.329277
 33
0.0
 14
16338.195375
 24
8061.329277
 34
0.0
 50
90.000003
  0
DIMENSION
  5
258
  8
2
 62
     7
  2
*D28
 10
18367.581561
 20
7750.197677
 30
0.0
 11
18260.798984
 21
7776.197754
 31
0.0
 13
18350.318975
 23
7821.329077
 33
0.0
 14
18395.318975
 24
7900.329077
 34
0.0
  0
DIMENSION
  5
259
  8
2
 62
     7
  2
*D29
 10
18480.43721
 20
7750.197677
 30
0.0
 11
18530.838047
 21
7776.197754
 31
0.0
 13
18395.318975
 23
7900.329077
 33
0.0
 14
18441.318975
 24
7955.329077
 34
0.0
  0
DIMENSION
  5
25A
  8
2
 62
     7
  2
*D30
 10
15926.095575
 20
7629.856036
 30
0.0
 11
15900.095701
 21
7684.142245
 31
0.0
 13
16261.195275
 23
7526.329077
 33
0.0
 14
16251.195075
 24
7536.329577
 34
0.0
 50
90.000003
  0
DIMENSION
  5
25B
  8
2
 62
     7
  2
*D31
 10
15926.095575
 20
7621.877553
 30
0.0
 11
15900.095701
 21
7670.849276
 31
0.0
 13
16251.195075
 23
7536.329577
 33
0.0
 14
16301.195075
 24
7581.329277
 34
0.0
 50
90.000003
  0
DIMENSION
  5
25C
  8
2
 62
     7
  2
*D32
 10
16580.43693
 20
9945.964269
 30
0.0
 11
16681.42625
 21
9971.963867
 31
0.0
 13
16276.200675
 23
9852.213769
 33
0.0
 14
17326.202575
 24
9852.213769
 34
0.0
  0
DIMENSION
  5
25D
  8
2
 62
     7
  2
*D33
 10
16120.695475
 20
9293.865656
 30
0.0
 11
16094.69531
 21
9597.888007
 31
0.0
 13
16256.194975
 23
9202.213769
 33
0.0
 14
16256.195975
 24
9832.213769
 34
0.0
 50
90.000003
  0
DIMENSION
  5
25E
  8
2
 62
     7
  2
*D34
 10
16120.695475
 20
9144.618467
 30
0.0
 11
16094.69531
 21
9129.714179
 31
0.0
 13
16301.195075
 23
9057.214169
 33
0.0
 14
16256.194975
 24
9202.213769
 34
0.0
 50
90.000003
  0
DIMENSION
  5
25F
  8
2
 62
     7
  2
*D35
 10
18542.86722
 20
8974.714399
 30
0.0
 11
18801.195781
 21
9000.714844
 31
0.0
 13
18251.195275
 23
9205.689999
 33
0.0
 14
19351.195275
 24
9205.689999
 34
0.0
  0
DIMENSION
  5
260
  8
2
 62
     7
  2
*D36
 10
18574.411047
 20
9079.714399
 30
0.0
 11
18689.477031
 21
9105.714844
 31
0.0
 13
18271.193675
 23
9201.688499
 33
0.0
 14
19331.195475
 24
9201.689999
 34
0.0
  0
DIMENSION
  5
261
  8
2
 62
     7
  2
*D37
 10
19580.732075
 20
9400.502129
 30
0.0
 11
19554.732419
 21
9432.689765
 31
0.0
  1
500
 13
19327.195275
 23
9181.689999
 33
0.0
 14
19327.195275
 24
9683.689999
 34
0.0
 50
90.000003
  0
DIMENSION
  5
262
  8
2
 62
     7
  2
*D38
 10
19470.695475
 20
9485.595653
 30
0.0
 11
19444.69531
 21
9277.23078
 31
0.0
  1
462
 13
19331.195375
 23
9202.689999
 33
0.0
 14
19331.195075
 24
9662.689999
 34
0.0
 50
90.000003
  0
DIMENSION
  5
263
  8
2
 62
     7
  2
*D39
 10
16857.493624
 20
8930.612229
 30
0.0
 11
16736.195313
 21
8952.612305
 31
0.0
  1
１１×６５＝７１５
 13
16378.695275
 23
9036.213869
 33
0.0
 14
17093.695275
 24
9036.213869
 34
0.0
  0
LINE
  5
264
  8
1
 10
17301.195275
 20
7555.405477
 30
0.0
 11
17301.195275
 21
7580.405477
 31
0.0
  0
LINE
  5
265
  8
1
 10
18309.195275
 20
9239.689999
 30
0.0
 11
19293.195075
 21
9239.689999
 31
0.0
  0
LINE
  5
266
  8
1
 10
17301.195275
 20
8121.329077
 30
0.0
 11
17301.195275
 21
7788.329077
 31
0.0
  0
LINE
  5
267
  8
1
 10
17341.195375
 20
7526.329277
 30
0.0
 11
16261.195275
 21
7526.329077
 31
0.0
  0
LINE
  5
268
  8
1
 10
18350.318975
 20
8121.329077
 30
0.0
 11
19150.318975
 21
8121.329077
 31
0.0
  0
LINE
  5
269
  8
1
 10
19150.318975
 20
8121.329077
 30
0.0
 11
19150.319275
 21
7821.329077
 31
0.0
  0
CIRCLE
  5
26A
  8
1
 10
18395.318975
 20
7920.329077
 30
0.0
 40
15.5
  0
LINE
  5
26B
  8
1
  6
DASHDOT
 10
17271.194975
 20
9102.213869
 30
0.0
 11
17390.446175
 21
9102.213869
 31
0.0
  0
LINE
  5
26C
  8
1
 10
18275.195275
 20
9683.689999
 30
0.0
 11
19327.195275
 21
9683.689999
 31
0.0
  0
LINE
  5
26D
  8
1
  6
DASHDOT
 10
18801.195375
 20
9783.689999
 30
0.0
 11
18801.195275
 21
9161.690199
 31
0.0
  0
LINE
  5
26E
  8
1
 10
16301.195075
 20
9057.213869
 30
0.0
 11
16301.195075
 21
9857.214069
 31
0.0
  0
LINE
  5
26F
  8
1
 10
16301.195075
 20
9857.214169
 30
0.0
 11
17301.195275
 21
9857.213869
 31
0.0
  0
ARC
  5
270
  8
1
 10
17319.733775
 20
9107.478769
 30
0.0
 40
12.4312
 50
334.942
 51
27.4578
  0
LINE
  5
271
  8
1
 10
17301.195275
 20
7929.329077
 30
0.0
 11
17315.195475
 21
7929.329077
 31
0.0
  0
LINE
  5
272
  8
1
 10
17301.195275
 20
7913.329077
 30
0.0
 11
17315.195675
 21
7913.329077
 31
0.0
  0
LINE
  5
273
  8
1
 10
17361.194975
 20
7909.329077
 30
0.0
 11
17361.195275
 21
7933.329077
 31
0.0
  0
LINE
  5
274
  8
1
 10
17335.195275
 20
7936.829077
 30
0.0
 11
17353.195275
 21
7936.829077
 31
0.0
  0
LINE
  5
275
  8
1
 10
17335.195275
 20
7905.829077
 30
0.0
 11
17353.194975
 21
7905.829077
 31
0.0
  0
ARC
  5
276
  8
1
 10
17361.238175
 20
7944.320477
 30
0.0
 40
10.9915
 50
222.9664
 51
269.7756
  0
ARC
  5
277
  8
1
 10
17361.238175
 20
7898.337577
 30
0.0
 40
10.9915
 50
90.2247
 51
137.0338
  0
ARC
  5
278
  8
1
 10
17339.178875
 20
7929.079077
 30
0.0
 40
16.0161
 50
331.0605
 51
28.9399
  0
ARC
  5
279
  8
1
 10
17339.178875
 20
7913.579077
 30
0.0
 40
16.0161
 50
331.0607
 51
28.9401
  0
ARC
  5
27A
  8
1
 10
17351.211075
 20
7929.079077
 30
0.0
 40
16.0161
 50
151.0606
 51
208.9399
  0
ARC
  5
27B
  8
1
 10
17351.211075
 20
7913.579077
 30
0.0
 40
16.0161
 50
151.0604
 51
208.9397
  0
LINE
  5
27C
  8
1
 10
17335.195275
 20
7905.829077
 30
0.0
 11
17335.195275
 21
7936.829077
 31
0.0
  0
LINE
  5
27D
  8
1
 10
17333.195275
 20
7921.329077
 30
0.0
 11
17335.195275
 21
7921.329077
 31
0.0
  0
LINE
  5
27E
  8
1
  6
DASHDOT
 10
17391.195275
 20
7971.329077
 30
0.0
 11
17271.195275
 21
7971.329077
 31
0.0
  0
LINE
  5
27F
  8
1
 10
17329.195275
 20
7964.329077
 30
0.0
 11
17329.195275
 21
7978.329077
 31
0.0
  0
LINE
  5
280
  8
1
  6
DASHDOT
 10
17271.195275
 20
7921.329077
 30
0.0
 11
17390.446475
 21
7921.329077
 31
0.0
  0
LINE
  5
281
  8
1
 10
17307.195275
 20
7976.329277
 30
0.0
 11
17329.195275
 21
7976.329077
 31
0.0
  0
LINE
  5
282
  8
1
 10
17307.195275
 20
7966.329077
 30
0.0
 11
17329.195275
 21
7966.329077
 31
0.0
  0
LINE
  5
283
  8
1
 10
17333.194975
 20
7980.329077
 30
0.0
 11
17339.195275
 21
7980.329077
 31
0.0
  0
LINE
  5
284
  8
1
 10
17333.194775
 20
7962.329077
 30
0.0
 11
17339.194975
 21
7962.329077
 31
0.0
  0
LINE
  5
285
  8
1
 10
17329.195275
 20
7978.329077
 30
0.0
 11
17332.195275
 21
7978.329077
 31
0.0
  0
LINE
  5
286
  8
1
 10
17329.195275
 20
7964.329077
 30
0.0
 11
17332.195275
 21
7964.329077
 31
0.0
  0
LINE
  5
287
  8
1
 10
17339.896375
 20
7978.329077
 30
0.0
 11
17343.195275
 21
7978.329077
 31
0.0
  0
LINE
  5
288
  8
1
 10
17339.896875
 20
7964.328777
 30
0.0
 11
17343.195275
 21
7964.329077
 31
0.0
  0
LINE
  5
289
  8
1
 10
17340.194975
 20
7966.829077
 30
0.0
 11
17340.194975
 21
7971.329077
 31
0.0
  0
LINE
  5
28A
  8
1
 10
17340.194975
 20
7971.329077
 30
0.0
 11
17340.194975
 21
7975.829077
 31
0.0
  0
ARC
  5
28B
  8
1
 10
17329.569975
 20
7975.829077
 30
0.0
 40
10.625
 50
334.9427
 51
25.058
  0
ARC
  5
28C
  8
1
 10
17342.819975
 20
7975.829077
 30
0.0
 40
10.625
 50
154.9425
 51
205.0578
  0
ARC
  5
28D
  8
1
 10
17342.819975
 20
7966.829077
 30
0.0
 40
10.625
 50
154.9425
 51
205.0578
  0
ARC
  5
28E
  8
1
 10
17329.569975
 20
7966.829077
 30
0.0
 40
10.625
 50
334.9426
 51
25.058
  0
LINE
  5
28F
  8
1
 10
17332.195275
 20
7966.829077
 30
0.0
 11
17332.195275
 21
7971.329077
 31
0.0
  0
LINE
  5
290
  8
1
 10
17332.195275
 20
7971.329077
 30
0.0
 11
17332.195275
 21
7975.829077
 31
0.0
  0
LINE
  5
291
  8
1
 10
17343.195275
 20
7982.329077
 30
0.0
 11
17354.694975
 21
7982.329077
 31
0.0
  0
LINE
  5
292
  8
1
 10
17343.195275
 20
7960.329077
 30
0.0
 11
17354.694975
 21
7960.329077
 31
0.0
  0
LINE
  5
293
  8
1
 10
17343.195275
 20
7960.329077
 30
0.0
 11
17343.195275
 21
7965.829077
 31
0.0
  0
LINE
  5
294
  8
1
 10
17343.195275
 20
7965.829077
 30
0.0
 11
17343.195275
 21
7971.329077
 31
0.0
  0
LINE
  5
295
  8
1
 10
17343.195275
 20
7971.329077
 30
0.0
 11
17343.195275
 21
7976.829077
 31
0.0
  0
LINE
  5
296
  8
1
 10
17343.195275
 20
7976.829077
 30
0.0
 11
17343.195275
 21
7982.329077
 31
0.0
  0
LINE
  5
297
  8
1
 10
17361.195275
 20
7978.329077
 30
0.0
 11
17361.195275
 21
7964.329077
 31
0.0
  0
ARC
  5
298
  8
1
 10
17345.361775
 20
7976.829077
 30
0.0
 40
10.8333
 50
329.4898
 51
30.5108
  0
ARC
  5
299
  8
1
 10
17354.028975
 20
7976.828777
 30
0.0
 40
10.8333
 50
149.4896
 51
210.5106
  0
ARC
  5
29A
  8
1
 10
17354.028975
 20
7965.829277
 30
0.0
 40
10.8333
 50
149.4897
 51
210.5106
  0
ARC
  5
29B
  8
1
 10
17345.361775
 20
7965.829077
 30
0.0
 40
10.8333
 50
329.4898
 51
30.5108
  0
ARC
  5
29C
  8
1
 10
17361.289275
 20
7985.763377
 30
0.0
 40
7.4349
 50
207.511
 51
269.2759
  0
ARC
  5
29D
  8
1
 10
17361.289275
 20
7956.894777
 30
0.0
 40
7.4349
 50
90.7244
 51
152.4893
  0
LINE
  5
29E
  8
1
 10
17333.195475
 20
7921.329577
 30
0.0
 11
17319.195275
 21
7921.329277
 31
0.0
  0
LINE
  5
29F
  8
1
 10
17317.195475
 20
7915.820977
 30
0.0
 11
17317.195275
 21
7926.819077
 31
0.0
  0
LINE
  5
2A0
  8
1
 10
17315.195975
 20
7912.328577
 30
0.0
 11
17317.779675
 21
7912.329077
 31
0.0
  0
LINE
  5
2A1
  8
1
 10
17318.444975
 20
7970.328777
 30
0.0
 11
17333.944975
 21
7970.328777
 31
0.0
  0
LINE
  5
2A2
  8
1
 10
17332.195475
 20
7915.820977
 30
0.0
 11
17332.195275
 21
7926.819077
 31
0.0
  0
LINE
  5
2A3
  8
1
 10
17331.591675
 20
7912.331977
 30
0.0
 11
17335.194975
 21
7912.332977
 31
0.0
  0
LINE
  5
2A4
  8
1
 10
17315.195475
 20
7930.329777
 30
0.0
 11
17317.779475
 21
7930.329077
 31
0.0
  0
LINE
  5
2A5
  8
1
 10
17330.764775
 20
7910.332277
 30
0.0
 11
17318.606875
 21
7910.329577
 31
0.0
  0
LINE
  5
2A6
  8
1
 10
17335.195275
 20
7930.325877
 30
0.0
 11
17331.591975
 21
7930.325677
 31
0.0
  0
LINE
  5
2A7
  8
1
 10
17330.764575
 20
7932.326877
 30
0.0
 11
17318.607075
 21
7932.329277
 31
0.0
  0
LINE
  5
2A8
  8
1
 10
17315.195675
 20
7912.328577
 30
0.0
 11
17315.195475
 21
7930.329777
 31
0.0
  0
ARC
  5
2A9
  8
1
 10
17319.734075
 20
7926.594177
 30
0.0
 40
12.4312
 50
334.9427
 51
27.4624
  0
ARC
  5
2AA
  8
1
 10
17329.636375
 20
7926.594177
 30
0.0
 40
12.4312
 50
152.5256
 51
205.0578
  0
ARC
  5
2AB
  8
1
 10
17329.636375
 20
7916.064177
 30
0.0
 40
12.4312
 50
154.9425
 51
207.4724
  0
ARC
  5
2AC
  8
1
 10
17319.734075
 20
7916.064177
 30
0.0
 40
12.4312
 50
332.5422
 51
25.058
  0
LINE
  5
2AD
  8
1
  6
DASHDOT
 10
16801.195375
 20
8221.329577
 30
0.0
 11
16801.195275
 21
7497.578577
 31
0.0
  0
LINE
  5
2AE
  8
1
 10
16357.695875
 20
8108.829577
 30
0.0
 11
17116.195475
 21
8108.786577
 31
0.0
  0
LINE
  5
2AF
  8
1
 10
18275.195275
 20
9181.690499
 30
0.0
 11
19327.195275
 21
9181.689999
 31
0.0
  0
LINE
  5
2B0
  8
1
 10
19351.195275
 20
9659.689999
 30
0.0
 11
19351.195275
 21
9205.689999
 31
0.0
  0
LINE
  5
2B1
  8
1
 10
18251.195275
 20
9659.689999
 30
0.0
 11
18251.195275
 21
9205.689999
 31
0.0
  0
LINE
  5
2B2
  8
1
  6
DASHDOT
 10
16511.195875
 20
8116.829277
 30
0.0
 11
16511.195875
 21
8100.829577
 31
0.0
  0
LINE
  5
2B3
  8
1
  6
DIVIDE
 10
19331.195275
 20
9662.689999
 30
0.0
 11
19331.195475
 21
9201.689999
 31
0.0
  0
LINE
  5
2B4
  8
1
  6
DIVIDE
 10
18271.195075
 20
9662.690499
 30
0.0
 11
18271.193675
 21
9201.688499
 31
0.0
  0
LINE
  5
2B5
  8
1
  6
DIVIDE
 10
18271.195075
 20
9662.690199
 30
0.0
 11
19331.195075
 21
9662.689999
 31
0.0
  0
LINE
  5
2B6
  8
1
 10
18251.195275
 20
9249.689699
 30
0.0
 11
18309.195275
 21
9249.689499
 31
0.0
  0
TEXT
  5
2B7
  8
2
 10
18770.761719
 20
9090.988281
 30
0.0
 40
43.75
  1
（天井開口部）
 41
0.84
  7
MONOTXT
  0
LINE
  5
2B8
  8
1
 10
16301.195075
 20
7806.329577
 30
0.0
 11
17301.195275
 21
7806.329077
 31
0.0
  0
TEXT
  5
2B9
  8
2
 10
19455.091797
 20
9329.897461
 30
0.0
 40
43.75
  1
（天井開口部）
 50
90.000201
 41
0.84
  7
MONOTXT
  0
LINE
  5
2BA
  8
1
  6
DASHDOT
 10
16811.195875
 20
7871.829277
 30
0.0
 11
16811.195875
 21
7855.829577
 31
0.0
  0
LINE
  5
2BB
  8
1
  6
DASHDOT
 10
16443.695275
 20
9036.213869
 30
0.0
 11
16443.695275
 21
9048.214169
 31
0.0
  0
LINE
  5
2BC
  8
1
 10
16301.195075
 20
7788.329577
 30
0.0
 11
17301.195275
 21
7788.328777
 31
0.0
  0
LINE
  5
2BD
  8
1
 10
17301.195275
 20
8069.329077
 30
0.0
 11
17351.195275
 21
8069.329077
 31
0.0
  0
LINE
  5
2BE
  8
1
  6
DIVIDE
 10
18271.193575
 20
9202.689999
 30
0.0
 11
19331.195375
 21
9202.689999
 31
0.0
  0
LINE
  5
2BF
  8
1
  6
DIVIDE
 10
16276.200675
 20
9852.213769
 30
0.0
 11
16276.200675
 21
9812.214269
 31
0.0
  0
LINE
  5
2C0
  8
1
  6
DASHDOT
 10
16661.195875
 20
8116.829277
 30
0.0
 11
16661.195875
 21
8100.829577
 31
0.0
  0
LINE
  5
2C1
  8
1
 10
18320.195075
 20
9239.689999
 30
0.0
 11
18320.195275
 21
9181.689999
 31
0.0
  0
LINE
  5
2C2
  8
1
 10
18320.195275
 20
9683.689999
 30
0.0
 11
18320.195275
 21
9625.690499
 31
0.0
  0
LINE
  5
2C3
  8
1
 10
18251.195275
 20
9615.689999
 30
0.0
 11
18309.195275
 21
9615.689699
 31
0.0
  0
LINE
  5
2C4
  8
1
 10
19293.195075
 20
9615.691199
 30
0.0
 11
19351.195275
 21
9615.690499
 31
0.0
  0
LINE
  5
2C5
  8
1
 10
19282.195275
 20
9683.689999
 30
0.0
 11
19282.194375
 21
9625.690199
 31
0.0
  0
LINE
  5
2C6
  8
1
 10
19282.195475
 20
9239.689999
 30
0.0
 11
19282.195275
 21
9181.689999
 31
0.0
  0
LINE
  5
2C7
  8
1
 10
19293.195475
 20
9249.690199
 30
0.0
 11
19351.195375
 21
9249.690199
 31
0.0
  0
LINE
  5
2C8
  8
1
 10
18309.195275
 20
9625.690499
 30
0.0
 11
19293.195275
 21
9625.690199
 31
0.0
  0
LINE
  5
2C9
  8
1
 10
18309.195275
 20
9625.690499
 30
0.0
 11
18309.195275
 21
9239.689999
 31
0.0
  0
LINE
  5
2CA
  8
1
 10
19293.195275
 20
9625.690199
 30
0.0
 11
19293.195275
 21
9239.689999
 31
0.0
  0
ARC
  5
2CB
  8
1
 10
19327.195275
 20
9205.689999
 30
0.0
 40
24.0
 50
270.0002
 51
0.0
  0
ARC
  5
2CC
  8
1
 10
19327.195275
 20
9659.689999
 30
0.0
 40
24.0
 50
0.0
 51
90.0001
  0
ARC
  5
2CD
  8
1
 10
18275.195275
 20
9659.689999
 30
0.0
 40
24.0
 50
90.0001
 51
180.0002
  0
ARC
  5
2CE
  8
1
 10
18275.195275
 20
9205.689999
 30
0.0
 40
24.0
 50
180.0002
 51
270.0002
  0
LINE
  5
2CF
  8
1
 10
18324.195275
 20
9610.689999
 30
0.0
 11
18324.195275
 21
9254.690199
 31
0.0
  0
LINE
  5
2D0
  8
1
 10
18324.195275
 20
9254.689999
 30
0.0
 11
19278.195275
 21
9254.689999
 31
0.0
  0
LINE
  5
2D1
  8
1
 10
19278.195275
 20
9610.689999
 30
0.0
 11
19278.195275
 21
9254.689999
 31
0.0
  0
LINE
  5
2D2
  8
1
  6
DASHDOT
 10
16811.195875
 20
8116.829277
 30
0.0
 11
16811.195875
 21
8100.829577
 31
0.0
  0
LINE
  5
2D3
  8
1
 10
16256.196075
 20
9856.213469
 30
0.0
 11
16256.195975
 21
9838.213669
 31
0.0
  0
LINE
  5
2D4
  8
1
  6
DASHDOT
 10
16361.195875
 20
8116.829277
 30
0.0
 11
16361.195875
 21
8100.829577
 31
0.0
  0
LINE
  5
2D5
  8
1
  6
DASHDOT
 10
16961.195875
 20
8116.829277
 30
0.0
 11
16961.195875
 21
8100.829577
 31
0.0
  0
LINE
  5
2D6
  8
1
  6
DASHDOT
 10
17111.195875
 20
8116.829277
 30
0.0
 11
17111.195875
 21
8100.829577
 31
0.0
  0
LINE
  5
2D7
  8
1
  6
DASHDOT
 10
17111.195875
 20
7871.829277
 30
0.0
 11
17111.195875
 21
7855.829577
 31
0.0
  0
LINE
  5
2D8
  8
1
  6
DASHDOT
 10
16961.195875
 20
7871.829277
 30
0.0
 11
16961.195875
 21
7855.829577
 31
0.0
  0
LINE
  5
2D9
  8
1
  6
DASHDOT
 10
16361.195875
 20
7871.829277
 30
0.0
 11
16361.195875
 21
7855.829577
 31
0.0
  0
LINE
  5
2DA
  8
1
  6
DASHDOT
 10
16661.195875
 20
7871.829277
 30
0.0
 11
16661.195875
 21
7855.829577
 31
0.0
  0
LINE
  5
2DB
  8
1
  6
DASHDOT
 10
16511.195875
 20
7871.829277
 30
0.0
 11
16511.195875
 21
7855.829577
 31
0.0
  0
LINE
  5
2DC
  8
1
 10
16357.695875
 20
7863.829577
 30
0.0
 11
17116.195475
 21
7863.786577
 31
0.0
  0
LINE
  5
2DD
  8
1
  6
DASHDOT
 10
17123.195375
 20
7911.329277
 30
0.0
 11
17134.195375
 21
7911.329577
 31
0.0
  0
LINE
  5
2DE
  8
1
 10
17301.195275
 20
8039.329077
 30
0.0
 11
17351.195275
 21
8039.329077
 31
0.0
  0
LINE
  5
2DF
  8
1
  6
DASHDOT
 10
17123.195375
 20
8061.329277
 30
0.0
 11
17134.195375
 21
8061.329577
 31
0.0
  0
LINE
  5
2E0
  8
1
  6
DASHDOT
 10
16338.195275
 20
7911.329277
 30
0.0
 11
16349.195275
 21
7911.329577
 31
0.0
  0
LINE
  5
2E1
  8
1
  6
DASHDOT
 10
16338.195375
 20
8061.329277
 30
0.0
 11
16349.195375
 21
8061.329577
 31
0.0
  0
LINE
  5
2E2
  8
1
 10
18692.318975
 20
7832.998777
 30
0.0
 11
18692.318975
 21
7825.791177
 31
0.0
  0
TEXT
  5
2E3
  8
2
 10
16106.313477
 20
9247.09668
 30
0.0
 40
43.75
  1
（吊り位置）
 50
89.999811
 41
0.825
  7
MONOTXT
  0
LINE
  5
2E4
  8
1
 10
18325.318975
 20
7873.829077
 30
0.0
 11
18345.319475
 21
7873.829077
 31
0.0
  0
LINE
  5
2E5
  8
1
 10
18325.318975
 20
8098.829077
 30
0.0
 11
18345.319275
 21
8098.829077
 31
0.0
  0
LINE
  5
2E6
  8
1
 10
18345.318975
 20
7853.829077
 30
0.0
 11
18350.318975
 21
7853.828777
 31
0.0
  0
LINE
  5
2E7
  8
1
 10
18345.319275
 20
8118.828777
 30
0.0
 11
18350.318975
 21
8118.828777
 31
0.0
  0
LINE
  5
2E8
  8
1
 10
18325.318975
 20
7878.829277
 30
0.0
 11
18350.318975
 21
7878.829277
 31
0.0
  0
LINE
  5
2E9
  8
1
 10
18658.318975
 20
7832.998777
 30
0.0
 11
18658.318975
 21
7825.792677
 31
0.0
  0
LINE
  5
2EA
  8
1
  6
DASHDOT
 10
16508.695275
 20
9036.213869
 30
0.0
 11
16508.695275
 21
9048.214169
 31
0.0
  0
LINE
  5
2EB
  8
1
  6
DASHDOT
 10
16573.695275
 20
9036.213869
 30
0.0
 11
16573.695275
 21
9048.214169
 31
0.0
  0
LINE
  5
2EC
  8
1
  6
DASHDOT
 10
16378.695275
 20
9036.213869
 30
0.0
 11
16378.695275
 21
9048.214169
 31
0.0
  0
LINE
  5
2ED
  8
1
  6
DASHDOT
 10
16372.695375
 20
9042.214069
 30
0.0
 11
17099.694475
 21
9042.206469
 31
0.0
  0
LINE
  5
2EE
  8
1
 10
18325.318975
 20
8093.829077
 30
0.0
 11
18350.319275
 21
8093.829077
 31
0.0
  0
LINE
  5
2EF
  8
1
  6
DASHDOT
 10
16638.695275
 20
9036.213869
 30
0.0
 11
16638.695275
 21
9048.214169
 31
0.0
  0
LINE
  5
2F0
  8
1
 10
16258.495975
 20
9826.213869
 30
0.0
 11
16258.495975
 21
9808.213569
 31
0.0
  0
LINE
  5
2F1
  8
1
 10
16301.195075
 20
7821.329577
 30
0.0
 11
17301.195275
 21
7821.329077
 31
0.0
  0
ARC
  5
2F2
  8
1
 10
17329.636175
 20
9107.478769
 30
0.0
 40
12.4312
 50
152.5276
 51
205.0575
  0
LINE
  5
2F3
  8
1
 10
19180.318275
 20
7536.329277
 30
0.0
 11
18710.318276
 21
7536.329051
 31
0.0
  0
LINE
  5
2F4
  8
1
 10
18735.730176
 20
7526.329051
 30
0.0
 11
19154.911075
 21
7526.328777
 31
0.0
  0
LINE
  5
2F5
  8
1
 10
19150.318275
 20
7536.329277
 30
0.0
 11
19150.318275
 21
7566.329277
 31
0.0
  0
LINE
  5
2F6
  8
1
  6
DASHDOT
 10
16703.695275
 20
9036.213869
 30
0.0
 11
16703.695275
 21
9048.214169
 31
0.0
  0
LINE
  5
2F7
  8
1
  6
DASHDOT
 10
16768.695275
 20
9036.213869
 30
0.0
 11
16768.695275
 21
9048.214169
 31
0.0
  0
LINE
  5
2F8
  8
1
 10
16301.195075
 20
7566.329277
 30
0.0
 11
16301.195075
 21
7581.329577
 31
0.0
  0
LINE
  5
2F9
  8
1
 10
18710.318276
 20
7536.329051
 30
0.0
 11
18710.318276
 21
7531.976251
 31
0.0
  0
LINE
  5
2FA
  8
1
 10
18350.318975
 20
7821.329077
 30
0.0
 11
19150.319275
 21
7821.329077
 31
0.0
  0
LINE
  5
2FB
  8
1
 10
19137.818975
 20
8121.329077
 30
0.0
 11
19042.958375
 21
8121.329077
 31
0.0
  0
LINE
  5
2FC
  8
1
 10
17343.897175
 20
9196.213869
 30
0.0
 11
17343.897175
 21
9178.213569
 31
0.0
  0
LINE
  5
2FD
  8
1
 10
16301.195075
 20
7788.329777
 30
0.0
 11
16301.195075
 21
8121.329077
 31
0.0
  0
LINE
  5
2FE
  8
1
 10
17343.897375
 20
9226.213369
 30
0.0
 11
17343.897175
 21
9208.213669
 31
0.0
  0
LINE
  5
2FF
  8
1
 10
16301.195075
 20
7566.329277
 30
0.0
 11
16301.195275
 21
7536.329577
 31
0.0
  0
LINE
  5
300
  8
1
 10
17343.895875
 20
9856.213469
 30
0.0
 11
17343.896175
 21
9838.213669
 31
0.0
  0
LINE
  5
301
  8
1
 10
16251.195075
 20
7536.329077
 30
0.0
 11
16251.195075
 21
7531.329077
 31
0.0
  0
LINE
  5
302
  8
1
 10
17343.896175
 20
9826.213869
 30
0.0
 11
17343.896375
 21
9808.213569
 31
0.0
  0
LINE
  5
303
  8
1
 10
17351.195275
 20
7536.329077
 30
0.0
 11
17351.195275
 21
7531.329077
 31
0.0
  0
LINE
  5
304
  8
1
 10
16261.195275
 20
7526.329077
 30
0.0
 11
16251.195075
 21
7531.329077
 31
0.0
  0
LINE
  5
305
  8
1
  6
DASHDOT
 10
16833.695275
 20
9036.213869
 30
0.0
 11
16833.695275
 21
9048.214169
 31
0.0
  0
LINE
  5
306
  8
1
  6
DASHDOT
 10
16898.695275
 20
9036.213869
 30
0.0
 11
16898.695275
 21
9048.214169
 31
0.0
  0
LINE
  5
307
  8
1
 10
17341.195275
 20
7526.329077
 30
0.0
 11
17351.195275
 21
7531.329077
 31
0.0
  0
LINE
  5
308
  8
1
 10
18324.195275
 20
9610.689999
 30
0.0
 11
19278.195275
 21
9610.689999
 31
0.0
  0
CIRCLE
  5
309
  8
1
 10
17093.694775
 20
9042.214069
 30
0.0
 40
2.35
  0
LINE
  5
30A
  8
1
  6
DASHDOT
 10
16963.695275
 20
9036.213869
 30
0.0
 11
16963.695275
 21
9048.214169
 31
0.0
  0
LINE
  5
30B
  8
1
  6
DASHDOT
 10
17028.695275
 20
9036.213869
 30
0.0
 11
17028.695275
 21
9048.214169
 31
0.0
  0
LINE
  5
30C
  8
1
  6
DASHDOT
 10
17093.695275
 20
9036.213869
 30
0.0
 11
17093.695275
 21
9048.214169
 31
0.0
  0
LINE
  5
30D
  8
1
 10
18365.820475
 20
7932.832477
 30
0.0
 11
18365.818975
 21
7883.828777
 31
0.0
  0
LINE
  5
30E
  8
1
 10
18350.319475
 20
7881.328577
 30
0.0
 11
18363.318975
 21
7881.328777
 31
0.0
  0
ARC
  5
30F
  8
1
 10
18735.725776
 20
7586.328551
 30
0.0
 40
60.0
 50
244.9425
 51
270.0002
  0
LINE
  5
310
  8
1
 10
19180.318275
 20
7536.329277
 30
0.0
 11
19180.318275
 21
7531.976477
 31
0.0
  0
LINE
  5
311
  8
1
  6
DASHED
 10
19150.319475
 20
7735.829277
 30
0.0
 11
19150.319275
 21
7703.829277
 31
0.0
  0
LINE
  5
312
  8
1
 10
18379.818975
 20
7929.278077
 30
0.0
 11
18379.818975
 21
7911.379877
 31
0.0
  0
LINE
  5
313
  8
1
 10
18379.818975
 20
7911.379877
 30
0.0
 11
18395.318975
 21
7902.431077
 31
0.0
  0
LINE
  5
314
  8
1
 10
18395.318975
 20
7902.431077
 30
0.0
 11
18410.818975
 21
7911.379877
 31
0.0
  0
LINE
  5
315
  8
1
 10
18410.818975
 20
7911.379877
 30
0.0
 11
18410.818975
 21
7929.278077
 31
0.0
  0
LINE
  5
316
  8
1
 10
18410.818975
 20
7929.278077
 30
0.0
 11
18395.318975
 21
7938.226777
 31
0.0
  0
LINE
  5
317
  8
1
 10
18395.318975
 20
7938.226777
 30
0.0
 11
18379.818975
 21
7929.278077
 31
0.0
  0
CIRCLE
  5
318
  8
1
 10
18395.318975
 20
7920.329077
 30
0.0
 40
7.75
  0
CIRCLE
  5
319
  8
1
 10
18441.318975
 20
7970.329077
 30
0.0
 40
11.0
  0
LINE
  5
31A
  8
1
 10
18430.318975
 20
7976.679677
 30
0.0
 11
18430.318975
 21
7963.978277
 31
0.0
  0
LINE
  5
31B
  8
1
 10
18430.318975
 20
7963.978277
 30
0.0
 11
18441.318975
 21
7957.627377
 31
0.0
  0
LINE
  5
31C
  8
1
 10
18441.318975
 20
7957.627377
 30
0.0
 11
18452.318975
 21
7963.978277
 31
0.0
  0
LINE
  5
31D
  8
1
  6
DASHED
 10
19150.319275
 20
7683.829277
 30
0.0
 11
19150.318975
 21
7651.829277
 31
0.0
  0
LINE
  5
31E
  8
1
 10
18452.318975
 20
7963.978277
 30
0.0
 11
18452.318975
 21
7976.679677
 31
0.0
  0
LINE
  5
31F
  8
1
 10
18452.318975
 20
7976.679677
 30
0.0
 11
18441.318975
 21
7983.030477
 31
0.0
  0
LINE
  5
320
  8
1
 10
18441.318975
 20
7983.030477
 30
0.0
 11
18430.318975
 21
7976.679677
 31
0.0
  0
LINE
  5
321
  8
1
  6
DASHED
 10
19150.318775
 20
7631.829277
 30
0.0
 11
19150.318475
 21
7599.329277
 31
0.0
  0
LINE
  5
322
  8
1
  6
DASHED
 10
19144.318475
 20
7641.829277
 30
0.0
 11
19150.318475
 21
7631.829277
 31
0.0
  0
LINE
  5
323
  8
1
 10
18368.318775
 20
7935.329277
 30
0.0
 11
18372.818975
 21
7935.329277
 31
0.0
  0
LINE
  5
324
  8
1
 10
18493.319275
 20
7852.829577
 30
0.0
 11
18493.318975
 21
7821.329077
 31
0.0
  0
CIRCLE
  5
325
  8
1
 10
18441.318975
 20
7970.329077
 30
0.0
 40
6.6
  0
CIRCLE
  5
326
  8
1
 10
17028.694775
 20
9042.214069
 30
0.0
 40
2.35
  0
CIRCLE
  5
327
  8
1
 10
16963.694775
 20
9042.214069
 30
0.0
 40
2.35
  0
LINE
  5
328
  8
1
  6
DASHED
 10
17295.194475
 20
7641.829577
 30
0.0
 11
17301.194475
 21
7631.829577
 31
0.0
  0
CIRCLE
  5
329
  8
1
 10
16898.694775
 20
9042.214069
 30
0.0
 40
2.35
  0
LINE
  5
32A
  8
1
  6
DASHDOT
 10
16736.195075
 20
9096.640569
 30
0.0
 11
16736.195075
 21
9000.964269
 31
0.0
  0
CIRCLE
  5
32B
  8
1
 10
16378.694775
 20
9042.214069
 30
0.0
 40
2.35
  0
LINE
  5
32C
  8
1
  6
DASHED
 10
19150.318475
 20
7651.829277
 30
0.0
 11
19144.318475
 21
7641.829277
 31
0.0
  0
LINE
  5
32D
  8
1
 10
18467.319275
 20
7855.329277
 30
0.0
 11
18490.818475
 21
7855.328577
 31
0.0
  0
LINE
  5
32E
  8
1
  6
DASHED
 10
19144.318775
 20
7693.829277
 30
0.0
 11
19150.318775
 21
7683.829277
 31
0.0
  0
LINE
  5
32F
  8
1
  6
DASHED
 10
19150.318775
 20
7703.829277
 30
0.0
 11
19144.318775
 21
7693.829277
 31
0.0
  0
LINE
  5
330
  8
1
 10
16301.195075
 20
7566.329277
 30
0.0
 11
17301.195575
 21
7566.328777
 31
0.0
  0
ARC
  5
331
  8
1
 10
17329.636175
 20
9096.948869
 30
0.0
 40
12.4312
 50
154.9422
 51
207.4744
  0
ARC
  5
332
  8
1
 10
17319.733775
 20
9096.948869
 30
0.0
 40
12.4312
 50
332.5376
 51
25.0573
  0
CIRCLE
  5
333
  8
1
 10
18790.318975
 20
8001.329077
 30
0.0
 40
16.25
  0
CIRCLE
  5
334
  8
1
 10
18665.318975
 20
7944.329577
 30
0.0
 40
30.0
  0
LINE
  5
335
  8
1
 10
16258.495075
 20
9226.213569
 30
0.0
 11
16258.495075
 21
9208.213669
 31
0.0
  0
LINE
  5
336
  8
1
 10
16258.495075
 20
9196.213869
 30
0.0
 11
16258.495075
 21
9178.213669
 31
0.0
  0
LINE
  5
337
  8
1
 10
16258.495975
 20
9856.213469
 30
0.0
 11
16258.495975
 21
9838.213669
 31
0.0
  0
LINE
  5
338
  8
1
 10
16301.195075
 20
7581.329277
 30
0.0
 11
17301.195575
 21
7581.328777
 31
0.0
  0
LINE
  5
339
  8
1
  6
DASHED
 10
19144.318975
 20
7745.829277
 30
0.0
 11
19150.318975
 21
7735.829277
 31
0.0
  0
LINE
  5
33A
  8
1
  6
DASHED
 10
19150.318975
 20
7755.829277
 30
0.0
 11
19144.318975
 21
7745.829277
 31
0.0
  0
LINE
  5
33B
  8
1
 10
18464.820475
 20
7977.828577
 30
0.0
 11
18464.819275
 21
7857.829277
 31
0.0
  0
LINE
  5
33C
  8
1
  6
DASHED
 10
18740.319776
 20
7788.330351
 30
0.0
 11
18740.319776
 21
7755.830751
 31
0.0
  0
LINE
  5
33D
  8
1
  6
DASHED
 10
18740.320276
 20
7755.830751
 30
0.0
 11
18746.320076
 21
7745.830751
 31
0.0
  0
LINE
  5
33E
  8
1
  6
DASHED
 10
18746.320076
 20
7745.830751
 30
0.0
 11
18740.320076
 21
7735.830751
 31
0.0
  0
CIRCLE
  5
33F
  8
1
 10
16443.694775
 20
9042.214069
 30
0.0
 40
2.35
  0
LINE
  5
340
  8
1
  6
DASHED
 10
18740.320076
 20
7703.830751
 30
0.0
 11
18746.320076
 21
7693.830551
 31
0.0
  0
LINE
  5
341
  8
1
  6
DASHED
 10
18746.320076
 20
7693.830551
 30
0.0
 11
18740.319776
 21
7683.830751
 31
0.0
  0
LINE
  5
342
  8
1
  6
DASHED
 10
18740.319776
 20
7651.830751
 30
0.0
 11
18746.319776
 21
7641.830551
 31
0.0
  0
LINE
  5
343
  8
1
  6
DASHED
 10
18746.319776
 20
7641.830551
 30
0.0
 11
18740.319776
 21
7631.830751
 31
0.0
  0
LINE
  5
344
  8
1
  6
DASHED
 10
18740.319576
 20
7631.830751
 30
0.0
 11
18740.319576
 21
7599.330751
 31
0.0
  0
LINE
  5
345
  8
1
  6
DASHED
 10
19150.319775
 20
7788.328777
 30
0.0
 11
19150.319475
 21
7755.829277
 31
0.0
  0
LINE
  5
346
  8
1
  6
DASHED
 10
18740.319276
 20
7683.830751
 30
0.0
 11
18740.319276
 21
7651.830751
 31
0.0
  0
LINE
  5
347
  8
1
 10
19150.318475
 20
7599.329277
 30
0.0
 11
19150.318275
 21
7566.329277
 31
0.0
  0
LINE
  5
348
  8
1
 10
16301.195075
 20
7599.329277
 30
0.0
 11
17301.195575
 21
7599.328777
 31
0.0
  0
LINE
  5
349
  8
1
 10
17351.195275
 20
8069.329077
 30
0.0
 11
17351.195275
 21
8054.329077
 31
0.0
  0
LINE
  5
34A
  8
1
 10
18740.318776
 20
7599.329051
 30
0.0
 11
18740.318576
 21
7536.329051
 31
0.0
  0
LINE
  5
34B
  8
1
  6
DASHED
 10
19144.318475
 20
7641.829277
 30
0.0
 11
18746.320076
 21
7641.829051
 31
0.0
  0
LINE
  5
34C
  8
1
  6
DASHED
 10
19144.318975
 20
7745.829277
 30
0.0
 11
18746.320076
 21
7745.829051
 31
0.0
  0
LINE
  5
34D
  8
1
  6
DASHED
 10
19144.318475
 20
7693.829277
 30
0.0
 11
18746.320076
 21
7693.829051
 31
0.0
  0
LINE
  5
34E
  8
1
  6
DASHED
 10
18740.319576
 20
7735.830751
 30
0.0
 11
18740.319576
 21
7703.830751
 31
0.0
  0
LINE
  5
34F
  8
1
 10
19150.318275
 20
7599.329277
 30
0.0
 11
18740.318776
 21
7599.329051
 31
0.0
  0
ARC
  5
350
  8
1
 10
19154.911575
 20
7586.328777
 30
0.0
 40
60.0
 50
270.0002
 51
295.058
  0
LINE
  5
351
  8
1
 10
19150.318275
 20
7581.329277
 30
0.0
 11
18740.318776
 21
7581.329051
 31
0.0
  0
LINE
  5
352
  8
1
 10
19150.318275
 20
7566.329277
 30
0.0
 11
18740.318776
 21
7566.329051
 31
0.0
  0
LINE
  5
353
  8
1
 10
17301.195675
 20
7536.329077
 30
0.0
 11
17301.195475
 21
7599.329077
 31
0.0
  0
LINE
  5
354
  8
1
 10
17329.195275
 20
9155.214069
 30
0.0
 11
17329.195275
 21
9141.214069
 31
0.0
  0
LINE
  5
355
  8
1
  6
DASHDOT
 10
17271.195275
 20
9148.214069
 30
0.0
 11
17390.446475
 21
9148.214069
 31
0.0
  0
CIRCLE
  5
356
  8
1
 10
16508.694775
 20
9042.214069
 30
0.0
 40
2.35
  0
LINE
  5
357
  8
1
 10
16301.195075
 20
7599.329277
 30
0.0
 11
16301.195075
 21
7581.329277
 31
0.0
  0
CIRCLE
  5
358
  8
1
 10
16573.694775
 20
9042.214069
 30
0.0
 40
2.35
  0
CIRCLE
  5
359
  8
1
 10
18790.318975
 20
8001.329077
 30
0.0
 40
24.0
  0
CIRCLE
  5
35A
  8
1
 10
18790.318975
 20
7866.329077
 30
0.0
 40
16.25
  0
CIRCLE
  5
35B
  8
1
 10
18790.318975
 20
7866.329077
 30
0.0
 40
24.0
  0
CIRCLE
  5
35C
  8
1
 10
18665.319275
 20
8057.329277
 30
0.0
 40
16.0
  0
LINE
  5
35D
  8
1
 10
17315.195475
 20
9111.214369
 30
0.0
 11
17315.195275
 21
9093.213169
 31
0.0
  0
LINE
  5
35E
  8
1
 10
18756.319076
 20
7821.328851
 30
0.0
 11
19150.319275
 21
7821.329077
 31
0.0
  0
LINE
  5
35F
  8
1
 10
18418.818975
 20
7980.328577
 30
0.0
 11
18424.818975
 21
7980.328577
 31
0.0
  0
ARC
  5
360
  8
1
 10
18372.818975
 20
7932.829277
 30
0.0
 40
2.5
 50
0.0
 51
90.0001
  0
ARC
  5
361
  8
1
 10
17339.178675
 20
9094.463869
 30
0.0
 40
16.0161
 50
331.0601
 51
28.9395
  0
LINE
  5
362
  8
1
 10
17301.195275
 20
9143.213669
 30
0.0
 11
17329.195275
 21
9143.214069
 31
0.0
  0
ARC
  5
363
  8
1
 10
16276.200675
 20
9832.213769
 30
0.0
 40
6.0
 50
269.9825
 51
0.0
  0
LINE
  5
364
  8
1
 10
16256.196075
 20
9856.213369
 30
0.0
 11
16301.195675
 21
9856.213769
 31
0.0
  0
LINE
  5
365
  8
1
  6
DASHED
 10
16307.195575
 20
7693.829077
 30
0.0
 11
17295.194375
 21
7693.828577
 31
0.0
  0
TEXT
  5
366
  8
2
 10
16790.6875
 20
9952.652344
 30
0.0
 40
43.75
  1
（吊り位置）
 41
0.825
  7
MONOTXT
  0
CIRCLE
  5
367
  8
1
 10
18441.318975
 20
7970.329077
 30
0.0
 40
13.0
  0
LINE
  5
368
  8
1
 10
18457.819275
 20
7980.328777
 30
0.0
 11
18462.319275
 21
7980.329077
 31
0.0
  0
ARC
  5
369
  8
1
 10
18490.818975
 20
7852.829277
 30
0.0
 40
2.5
 50
0.0
 51
90.0001
  0
LINE
  5
36A
  8
1
 10
17346.196175
 20
9826.213869
 30
0.0
 11
17346.196475
 21
9808.213569
 31
0.0
  0
LINE
  5
36B
  8
1
 10
17346.196175
 20
9856.213469
 30
0.0
 11
17301.196475
 21
9856.213769
 31
0.0
  0
LINE
  5
36C
  8
1
  6
DASHDOT
 10
17301.196175
 20
9832.213769
 30
0.0
 11
17346.196175
 21
9832.213769
 31
0.0
  0
LINE
  5
36D
  8
1
 10
16256.194975
 20
9196.213869
 30
0.0
 11
16256.194975
 21
9178.213669
 31
0.0
  0
LINE
  5
36E
  8
1
 10
16256.195075
 20
9226.213569
 30
0.0
 11
16301.194775
 21
9226.213769
 31
0.0
  0
LINE
  5
36F
  8
1
  6
DASHDOT
 10
16301.194975
 20
9202.213769
 30
0.0
 11
16256.194975
 21
9202.213769
 31
0.0
  0
LINE
  5
370
  8
1
 10
17346.197475
 20
9226.213369
 30
0.0
 11
17346.197175
 21
9208.213669
 31
0.0
  0
LINE
  5
371
  8
1
 10
16256.196075
 20
9808.213669
 30
0.0
 11
16301.196175
 21
9808.213769
 31
0.0
  0
LINE
  5
372
  8
1
 10
17346.197175
 20
9178.213669
 30
0.0
 11
17301.196975
 21
9178.213769
 31
0.0
  0
LINE
  5
373
  8
1
 10
16275.211075
 20
9838.213769
 30
0.0
 11
16256.195975
 21
9838.213769
 31
0.0
  0
LINE
  5
374
  8
1
 10
16275.212575
 20
9826.213769
 30
0.0
 11
16256.195975
 21
9826.213869
 31
0.0
  0
ARC
  5
375
  8
1
 10
18368.318775
 20
7932.829277
 30
0.0
 40
2.5
 50
90.0001
 51
180.0002
  0
ARC
  5
376
  8
1
 10
16276.200675
 20
9832.213769
 30
0.0
 40
6.0
 50
0.0
 51
90.0185
  0
LINE
  5
377
  8
1
  6
DASHED
 10
16297.995775
 20
9808.213769
 30
0.0
 11
16297.995775
 21
9856.213769
 31
0.0
  0
LINE
  5
378
  8
1
  6
DASHED
 10
16297.994775
 20
9178.213769
 30
0.0
 11
16297.994775
 21
9226.213769
 31
0.0
  0
LINE
  5
379
  8
1
 10
17327.182075
 20
9208.213769
 30
0.0
 11
17346.197175
 21
9208.213769
 31
0.0
  0
LINE
  5
37A
  8
1
 10
16276.190375
 20
9208.213769
 30
0.0
 11
16275.210075
 21
9208.213769
 31
0.0
  0
LINE
  5
37B
  8
1
 10
16275.211575
 20
9196.213769
 30
0.0
 11
16256.194975
 21
9196.213869
 31
0.0
  0
LINE
  5
37C
  8
1
 10
16275.210075
 20
9208.213769
 30
0.0
 11
16256.194975
 21
9208.213769
 31
0.0
  0
LINE
  5
37D
  8
1
 10
16256.194975
 20
9178.213669
 30
0.0
 11
16301.195275
 21
9178.213769
 31
0.0
  0
LINE
  5
37E
  8
1
 10
16256.194975
 20
9226.213569
 30
0.0
 11
16256.194975
 21
9208.213669
 31
0.0
  0
LINE
  5
37F
  8
1
 10
17301.195275
 20
9153.213869
 30
0.0
 11
17329.195275
 21
9153.214069
 31
0.0
  0
LINE
  5
380
  8
1
 10
17333.194975
 20
9139.214069
 30
0.0
 11
17339.195275
 21
9139.214069
 31
0.0
  0
LINE
  5
381
  8
1
 10
17333.194775
 20
9157.214069
 30
0.0
 11
17339.194975
 21
9157.214069
 31
0.0
  0
LINE
  5
382
  8
1
 10
17329.195275
 20
9141.214069
 30
0.0
 11
17332.195275
 21
9141.214069
 31
0.0
  0
LINE
  5
383
  8
1
 10
17329.195275
 20
9155.214069
 30
0.0
 11
17332.195275
 21
9155.214069
 31
0.0
  0
LINE
  5
384
  8
1
 10
17339.896375
 20
9141.214069
 30
0.0
 11
17343.195275
 21
9141.214069
 31
0.0
  0
LINE
  5
385
  8
1
 10
17339.896875
 20
9155.214269
 30
0.0
 11
17343.195275
 21
9155.214069
 31
0.0
  0
LINE
  5
386
  8
1
 10
17340.194975
 20
9152.714069
 30
0.0
 11
17340.194975
 21
9148.214069
 31
0.0
  0
LINE
  5
387
  8
1
 10
17340.194975
 20
9148.214069
 30
0.0
 11
17340.194975
 21
9143.714069
 31
0.0
  0
ARC
  5
388
  8
1
 10
17329.569975
 20
9143.714069
 30
0.0
 40
10.625
 50
334.942
 51
25.0573
  0
ARC
  5
389
  8
1
 10
17342.819975
 20
9143.714069
 30
0.0
 40
10.625
 50
154.9422
 51
205.0575
  0
ARC
  5
38A
  8
1
 10
17342.819975
 20
9152.714069
 30
0.0
 40
10.625
 50
154.9422
 51
205.0575
  0
ARC
  5
38B
  8
1
 10
17329.569975
 20
9152.714069
 30
0.0
 40
10.625
 50
334.942
 51
25.0574
  0
CIRCLE
  5
38C
  8
1
 10
16638.694775
 20
9042.214069
 30
0.0
 40
2.35
  0
LINE
  5
38D
  8
1
 10
18375.318975
 20
7932.829277
 30
0.0
 11
18377.318975
 21
7920.329077
 31
0.0
  0
LINE
  5
38E
  8
1
 10
17327.180575
 20
9196.213769
 30
0.0
 11
17346.197175
 21
9196.213869
 31
0.0
  0
CIRCLE
  5
38F
  8
1
 10
16703.694775
 20
9042.214069
 30
0.0
 40
2.35
  0
LINE
  5
390
  8
1
  6
DASHDOT
 10
18315.319275
 20
7986.330277
 30
0.0
 11
18360.318975
 21
7986.328577
 31
0.0
  0
ARC
  5
391
  8
1
 10
16343.694775
 20
9042.214869
 30
0.0
 40
10.0
 50
180.0005
 51
269.9996
  0
ARC
  5
392
  8
1
 10
17128.694475
 20
9042.210869
 30
0.0
 40
10.0
 50
269.9999
 51
0.0
  0
CIRCLE
  5
393
  8
1
 10
16768.694775
 20
9042.214069
 30
0.0
 40
2.35
  0
CIRCLE
  5
394
  8
1
 10
16833.694775
 20
9042.214069
 30
0.0
 40
2.35
  0
LINE
  5
395
  8
1
 10
18325.318975
 20
8098.828777
 30
0.0
 11
18325.318975
 21
7873.829077
 31
0.0
  0
LINE
  5
396
  8
1
 10
18850.319275
 20
8031.329077
 30
0.0
 11
18850.319275
 21
7821.329077
 31
0.0
  0
LINE
  5
397
  8
1
  6
DASHED
 10
16307.195875
 20
7745.829077
 30
0.0
 11
17295.194475
 21
7745.829077
 31
0.0
  0
ARC
  5
398
  8
1
 10
16276.200675
 20
9202.213769
 30
0.0
 40
6.0
 50
269.8105
 51
0.0
  0
CIRCLE
  5
399
  8
1
 10
18665.318975
 20
7944.329577
 30
0.0
 40
23.0
  0
LINE
  5
39A
  8
1
 10
17332.195275
 20
9152.714069
 30
0.0
 11
17332.195275
 21
9148.214069
 31
0.0
  0
LINE
  5
39B
  8
1
 10
17332.195275
 20
9148.214069
 30
0.0
 11
17332.195275
 21
9143.714069
 31
0.0
  0
LINE
  5
39C
  8
1
 10
17343.195275
 20
9137.214069
 30
0.0
 11
17354.694975
 21
9137.214069
 31
0.0
  0
LINE
  5
39D
  8
1
 10
17343.195275
 20
9159.214069
 30
0.0
 11
17354.694975
 21
9159.214069
 31
0.0
  0
ARC
  5
39E
  8
1
 10
16276.200675
 20
9202.213769
 30
0.0
 40
6.0
 50
0.0
 51
90.0993
  0
LINE
  5
39F
  8
1
 10
17343.195275
 20
9159.214069
 30
0.0
 11
17343.195275
 21
9153.714069
 31
0.0
  0
LINE
  5
3A0
  8
1
 10
17343.195275
 20
9153.714069
 30
0.0
 11
17343.195275
 21
9148.214069
 31
0.0
  0
LINE
  5
3A1
  8
1
 10
17343.195275
 20
9148.214069
 30
0.0
 11
17343.195275
 21
9142.714069
 31
0.0
  0
LINE
  5
3A2
  8
1
 10
16276.180975
 20
9196.213769
 30
0.0
 11
16275.211575
 21
9196.213769
 31
0.0
  0
LINE
  5
3A3
  8
1
 10
16276.198775
 20
9838.213769
 30
0.0
 11
16275.211075
 21
9838.213769
 31
0.0
  0
LINE
  5
3A4
  8
1
 10
16276.198875
 20
9826.213769
 30
0.0
 11
16275.212575
 21
9826.213769
 31
0.0
  0
LINE
  5
3A5
  8
1
 10
17327.179575
 20
9826.213769
 30
0.0
 11
17326.210575
 21
9826.213769
 31
0.0
  0
ARC
  5
3A6
  8
1
 10
17326.202575
 20
9832.213769
 30
0.0
 40
6.0
 50
89.8924
 51
270.0766
  0
LINE
  5
3A7
  8
1
 10
17301.194975
 20
9057.213869
 30
0.0
 11
17301.195275
 21
9857.213769
 31
0.0
  0
LINE
  5
3A8
  8
1
  6
DASHED
 10
16307.195375
 20
7641.829077
 30
0.0
 11
17295.193975
 21
7641.828777
 31
0.0
  0
LINE
  5
3A9
  8
1
 10
17358.195275
 20
7861.312177
 30
0.0
 11
17358.195375
 21
7836.312177
 31
0.0
  0
LINE
  5
3AA
  8
1
  6
DASHED
 10
17304.397375
 20
9178.213769
 30
0.0
 11
17304.397375
 21
9226.213769
 31
0.0
  0
LINE
  5
3AB
  8
1
  6
DASHDOT
 10
18329.318975
 20
7921.329277
 30
0.0
 11
18341.318975
 21
7921.329277
 31
0.0
  0
LINE
  5
3AC
  8
1
 10
16343.694575
 20
9032.214769
 30
0.0
 11
17128.694475
 21
9032.210869
 31
0.0
  0
LINE
  5
3AD
  8
1
  6
DASHDOT
 10
18790.318975
 20
8023.329077
 30
0.0
 11
18790.318975
 21
7979.329077
 31
0.0
  0
LINE
  5
3AE
  8
1
 10
16301.195075
 20
9057.214169
 30
0.0
 11
17301.194975
 21
9057.213769
 31
0.0
  0
LINE
  5
3AF
  8
1
 10
17343.195275
 20
9142.714069
 30
0.0
 11
17343.195275
 21
9137.214069
 31
0.0
  0
LINE
  5
3B0
  8
1
 10
17361.195275
 20
9155.213769
 30
0.0
 11
17361.195275
 21
9153.714069
 31
0.0
  0
LINE
  5
3B1
  8
1
 10
17361.195275
 20
9153.714069
 30
0.0
 11
17361.195275
 21
9148.214069
 31
0.0
  0
LINE
  5
3B2
  8
1
 10
17361.195275
 20
9148.214069
 30
0.0
 11
17361.195275
 21
9142.714069
 31
0.0
  0
LINE
  5
3B3
  8
1
 10
17361.195275
 20
9142.714069
 30
0.0
 11
17361.195275
 21
9141.214069
 31
0.0
  0
ARC
  5
3B4
  8
1
 10
17345.361775
 20
9142.714069
 30
0.0
 40
10.8333
 50
329.4892
 51
30.5102
  0
ARC
  5
3B5
  8
1
 10
17354.028975
 20
9142.714269
 30
0.0
 40
10.8333
 50
149.4894
 51
210.5104
  0
ARC
  5
3B6
  8
1
 10
17354.028975
 20
9153.713769
 30
0.0
 40
10.8333
 50
149.4894
 51
210.5103
  0
ARC
  5
3B7
  8
1
 10
17345.361775
 20
9153.714069
 30
0.0
 40
10.8333
 50
329.4892
 51
30.5102
  0
ARC
  5
3B8
  8
1
 10
17361.289275
 20
9133.779669
 30
0.0
 40
7.4349
 50
90.7241
 51
152.489
  0
LINE
  5
3B9
  8
1
 10
17327.181075
 20
9838.213769
 30
0.0
 11
17326.213775
 21
9838.213769
 31
0.0
  0
LINE
  5
3BA
  8
1
  6
DASHDOT
 10
16301.195975
 20
9832.213769
 30
0.0
 11
16256.195975
 21
9832.213769
 31
0.0
  0
LINE
  5
3BB
  8
1
 10
16256.195975
 20
9826.213869
 30
0.0
 11
16256.195975
 21
9808.213569
 31
0.0
  0
LINE
  5
3BC
  8
1
  6
DASHED
 10
17304.396375
 20
9808.213769
 30
0.0
 11
17304.396375
 21
9856.213769
 31
0.0
  0
LINE
  5
3BD
  8
1
 10
17327.180575
 20
9196.213769
 30
0.0
 11
17326.224775
 21
9196.213769
 31
0.0
  0
LINE
  5
3BE
  8
1
 10
17327.179575
 20
9826.213769
 30
0.0
 11
17346.196175
 21
9826.213869
 31
0.0
  0
LINE
  5
3BF
  8
1
 10
17327.181075
 20
9838.213769
 30
0.0
 11
17346.196175
 21
9838.213769
 31
0.0
  0
LINE
  5
3C0
  8
1
 10
17346.196175
 20
9808.213569
 30
0.0
 11
17301.195975
 21
9808.213769
 31
0.0
  0
ARC
  5
3C1
  8
1
 10
18395.318975
 20
7920.329077
 30
0.0
 40
18.0
 50
180.0
 51
0.0
  0
ARC
  5
3C2
  8
1
 10
17326.202275
 20
9202.213769
 30
0.0
 40
6.0
 50
89.9569
 51
270.2135
  0
LINE
  5
3C3
  8
1
 10
17327.182075
 20
9208.213769
 30
0.0
 11
17326.206675
 21
9208.213769
 31
0.0
  0
ARC
  5
3C4
  8
1
 10
18395.318975
 20
7920.329077
 30
0.0
 40
18.0
 50
180.0003
 51
0.0
  0
LINE
  5
3C5
  8
1
 10
16333.694575
 20
9057.214469
 30
0.0
 11
16333.694775
 21
9042.214769
 31
0.0
  0
LINE
  5
3C6
  8
1
 10
17138.694475
 20
9057.214269
 30
0.0
 11
17138.694475
 21
9042.210869
 31
0.0
  0
LINE
  5
3C7
  8
1
  6
DASHDOT
 10
18335.319275
 20
8059.329277
 30
0.0
 11
18335.318975
 21
7913.329577
 31
0.0
  0
CIRCLE
  5
3C8
  8
1
 10
18335.318975
 20
8051.329077
 30
0.0
 40
2.35
  0
CIRCLE
  5
3C9
  8
1
 10
18335.318975
 20
7986.329077
 30
0.0
 40
2.35
  0
CIRCLE
  5
3CA
  8
1
 10
18335.318975
 20
7921.329077
 30
0.0
 40
2.35
  0
LINE
  5
3CB
  8
1
  6
DASHDOT
 10
18329.323875
 20
8051.330277
 30
0.0
 11
18341.323875
 21
8051.329277
 31
0.0
  0
LINE
  5
3CC
  8
1
 10
18345.319275
 20
8118.828777
 30
0.0
 11
18345.319275
 21
8098.829077
 31
0.0
  0
LINE
  5
3CD
  8
1
 10
18345.319275
 20
8093.829077
 30
0.0
 11
18345.318975
 21
7878.829277
 31
0.0
  0
LINE
  5
3CE
  8
1
 10
18345.318975
 20
7873.829077
 30
0.0
 11
18345.318975
 21
7853.828777
 31
0.0
  0
LINE
  5
3CF
  8
1
  6
DASHDOT
 10
18945.318275
 20
7496.329277
 30
0.0
 11
18945.320475
 21
8081.328577
 31
0.0
  0
TEXT
  5
3D0
  8
2
 10
18506.083984
 20
8547.060547
 30
0.0
 40
43.75
  1
（吸込パネル中心）
 41
0.825
  7
MONOTXT
  0
LINE
  5
3D1
  8
1
 10
18324.195275
 20
9284.689999
 30
0.0
 11
19278.195275
 21
9284.689999
 31
0.0
  0
LINE
  5
3D2
  8
1
  6
DASHDOT
 10
16305.695575
 20
7986.329577
 30
0.0
 11
17168.695475
 21
7986.329777
 31
0.0
  0
CIRCLE
  5
3D3
  8
1
 10
16961.195275
 20
8108.829277
 30
0.0
 40
3.5
  0
LINE
  5
3D4
  8
1
  6
DASHDOT
 10
16736.195475
 20
7851.329777
 30
0.0
 11
16736.195475
 21
8172.578777
 31
0.0
  0
LINE
  5
3D5
  8
1
  6
DASHDOT
 10
18768.318975
 20
8001.329077
 30
0.0
 11
18812.318975
 21
8001.329077
 31
0.0
  0
LINE
  5
3D6
  8
1
  6
DASHDOT
 10
18768.318975
 20
7866.329077
 30
0.0
 11
18812.318975
 21
7866.329077
 31
0.0
  0
LINE
  5
3D7
  8
1
  6
DASHDOT
 10
18790.318975
 20
7888.329077
 30
0.0
 11
18790.318975
 21
7844.329077
 31
0.0
  0
LINE
  5
3D8
  8
1
  6
DASHDOT
 10
17301.197175
 20
9202.213769
 30
0.0
 11
17346.197175
 21
9202.213769
 31
0.0
  0
LINE
  5
3D9
  8
1
 10
17346.197475
 20
9226.213369
 30
0.0
 11
17301.197475
 21
9226.213769
 31
0.0
  0
LINE
  5
3DA
  8
1
 10
17346.197175
 20
9196.213869
 30
0.0
 11
17346.197175
 21
9178.213569
 31
0.0
  0
ARC
  5
3DB
  8
1
 10
18462.319275
 20
7977.829077
 30
0.0
 40
2.5
 50
0.0
 51
90.0001
  0
ARC
  5
3DC
  8
1
 10
18457.819275
 20
7977.829077
 30
0.0
 40
2.5
 50
90.0001
 51
180.0002
  0
ARC
  5
3DD
  8
1
 10
18441.318975
 20
7970.329077
 30
0.0
 40
13.0
 50
179.9999
 51
0.0
  0
CIRCLE
  5
3DE
  8
1
 10
17111.195275
 20
8108.829277
 30
0.0
 40
3.5
  0
LINE
  5
3DF
  8
1
 10
18642.841475
 20
7943.329577
 30
0.0
 11
18687.797075
 21
7943.329577
 31
0.0
  0
LINE
  5
3E0
  8
1
 10
18687.796075
 20
7945.329577
 30
0.0
 11
18642.841475
 21
7945.329777
 31
0.0
  0
LINE
  5
3E1
  8
1
 10
18455.319475
 20
7977.829277
 30
0.0
 11
18454.318975
 21
7970.329077
 31
0.0
  0
ARC
  5
3E2
  8
1
 10
18424.819275
 20
7977.828577
 30
0.0
 40
2.5
 50
0.0
 51
90.0057
  0
ARC
  5
3E3
  8
1
 10
18418.818975
 20
7977.828377
 30
0.0
 40
2.5
 50
90.0001
 51
180.0002
  0
LINE
  5
3E4
  8
1
 10
18427.319475
 20
7977.828577
 30
0.0
 11
18428.318975
 21
7970.329077
 31
0.0
  0
CIRCLE
  5
3E5
  8
1
 10
16511.195675
 20
8108.829277
 30
0.0
 40
3.5
  0
LINE
  5
3E6
  8
1
 10
18416.318975
 20
7977.828377
 30
0.0
 11
18413.318975
 21
7920.329077
 31
0.0
  0
ARC
  5
3E7
  8
1
 10
18467.318475
 20
7857.829077
 30
0.0
 40
2.5
 50
180.0002
 51
270.0114
  0
ARC
  5
3E8
  8
1
 10
18363.318975
 20
7883.828777
 30
0.0
 40
2.5
 50
270.0002
 51
0.0
  0
CIRCLE
  5
3E9
  8
1
 10
16361.195675
 20
8108.829277
 30
0.0
 40
3.5
  0
LINE
  5
3EA
  8
1
  6
DASHDOT
 10
18395.318975
 20
7940.329077
 30
0.0
 11
18395.318975
 21
7900.329077
 31
0.0
  0
CIRCLE
  5
3EB
  8
1
 10
16661.195675
 20
8108.829277
 30
0.0
 40
3.5
  0
LINE
  5
3EC
  8
1
  6
DASHDOT
 10
18375.318975
 20
7920.329077
 30
0.0
 11
18415.318975
 21
7920.329077
 31
0.0
  0
CIRCLE
  5
3ED
  8
1
 10
16811.195275
 20
8108.829277
 30
0.0
 40
3.5
  0
CIRCLE
  5
3EE
  8
1
 10
16361.195675
 20
7863.829277
 30
0.0
 40
3.5
  0
LINE
  5
3EF
  8
1
  6
DASHDOT
 10
18441.318975
 20
7985.329077
 30
0.0
 11
18441.318975
 21
7955.329077
 31
0.0
  0
CIRCLE
  5
3F0
  8
1
 10
16511.195675
 20
7863.829277
 30
0.0
 40
3.5
  0
LINE
  5
3F1
  8
1
  6
DASHDOT
 10
18426.318975
 20
7970.329077
 30
0.0
 11
18456.318975
 21
7970.329077
 31
0.0
  0
LINE
  5
3F2
  8
1
 10
16333.695475
 20
7873.829577
 30
0.0
 11
17138.695475
 21
7873.829777
 31
0.0
  0
LINE
  5
3F3
  8
1
 10
16333.695475
 20
8098.829777
 30
0.0
 11
17138.695375
 21
8098.829277
 31
0.0
  0
LINE
  5
3F4
  8
1
 10
18602.319275
 20
7901.329577
 30
0.0
 11
18728.318975
 21
7901.329277
 31
0.0
  0
LINE
  5
3F5
  8
1
 10
18602.318975
 20
8107.329077
 30
0.0
 11
18728.318975
 21
8107.329077
 31
0.0
  0
LINE
  5
3F6
  8
1
 10
17330.764275
 20
9091.216069
 30
0.0
 11
17318.606875
 21
9091.213669
 31
0.0
  0
LINE
  5
3F7
  8
1
 10
18592.319275
 20
8097.329077
 30
0.0
 11
18592.318975
 21
7911.329277
 31
0.0
  0
LINE
  5
3F8
  8
1
 10
18738.318975
 20
8097.329277
 30
0.0
 11
18738.318975
 21
7911.329277
 31
0.0
  0
ARC
  5
3F9
  8
1
 10
18728.318975
 20
7911.329277
 30
0.0
 40
10.0
 50
270.0002
 51
0.0
  0
ARC
  5
3FA
  8
1
 10
18728.318975
 20
8097.329077
 30
0.0
 40
10.0
 50
0.0
 51
90.0001
  0
ARC
  5
3FB
  8
1
 10
18602.319275
 20
8097.329077
 30
0.0
 40
10.0
 50
90.0001
 51
180.0002
  0
ARC
  5
3FC
  8
1
 10
18602.318975
 20
7911.329277
 30
0.0
 40
10.0
 50
180.0002
 51
270.0002
  0
LINE
  5
3FD
  8
1
 10
18753.318975
 20
8031.329277
 30
0.0
 11
18753.318975
 21
8013.329077
 31
0.0
  0
LINE
  5
3FE
  8
1
 10
18763.318775
 20
8041.329077
 30
0.0
 11
18840.319475
 21
8041.329277
 31
0.0
  0
LINE
  5
3FF
  8
1
 10
17335.194975
 20
9093.217169
 30
0.0
 11
17331.591675
 21
9093.217369
 31
0.0
  0
CIRCLE
  5
400
  8
1
 10
18675.318975
 20
7851.329077
 30
0.0
 40
25.0
  0
CIRCLE
  5
401
  8
1
 10
18675.318975
 20
7851.329077
 30
0.0
 40
10.0
  0
CIRCLE
  5
402
  8
1
 10
18665.319275
 20
8057.329277
 30
0.0
 40
20.0
  0
ARC
  5
403
  8
1
 10
18665.318975
 20
7919.329577
 30
0.0
 40
4.0
 50
0.0
 51
4.591
  0
ARC
  5
404
  8
1
 10
18665.318975
 20
7969.329577
 30
0.0
 40
4.0
 50
355.4124
 51
0.0
  0
LINE
  5
405
  8
1
 10
16333.695475
 20
7878.829577
 30
0.0
 11
17138.695475
 21
7878.829777
 31
0.0
  0
ARC
  5
406
  8
1
 10
18698.118575
 20
7827.328777
 30
0.0
 40
6.0
 50
180.0001
 51
291.5096
  0
ARC
  5
407
  8
1
 10
18652.518975
 20
7827.329077
 30
0.0
 40
6.0
 50
0.0
 51
14.8329
  0
ARC
  5
408
  8
1
 10
18652.518975
 20
7827.329077
 30
0.0
 40
6.0
 50
248.4908
 51
0.0
  0
ARC
  5
409
  8
1
 10
18840.318775
 20
8031.329077
 30
0.0
 40
10.0
 50
0.0
 51
89.9973
  0
ARC
  5
40A
  8
1
 10
18763.318975
 20
8031.329277
 30
0.0
 40
10.0
 50
90.0001
 51
180.0016
  0
LINE
  5
40B
  8
1
 10
18755.318975
 20
8011.329077
 30
0.0
 11
18768.501675
 21
8011.329277
 31
0.0
  0
LINE
  5
40C
  8
1
 10
18755.319275
 20
7991.329277
 30
0.0
 11
18768.501875
 21
7991.329277
 31
0.0
  0
LINE
  5
40D
  8
1
 10
18753.319275
 20
7989.329577
 30
0.0
 11
18753.319475
 21
7886.329077
 31
0.0
  0
ARC
  5
40E
  8
1
 10
18755.318975
 20
8013.329077
 30
0.0
 40
2.0
 50
180.0002
 51
270.0002
  0
ARC
  5
40F
  8
1
 10
18755.318975
 20
7989.329577
 30
0.0
 40
2.0
 50
89.9861
 51
180.0002
  0
LINE
  5
410
  8
1
 10
18758.319475
 20
7841.329077
 30
0.0
 11
18765.308975
 21
7841.329077
 31
0.0
  0
LINE
  5
411
  8
1
 10
18758.319775
 20
7856.328777
 30
0.0
 11
18768.501675
 21
7856.329077
 31
0.0
  0
LINE
  5
412
  8
1
 10
18765.308975
 20
7841.329077
 30
0.0
 11
18765.307575
 21
7821.329077
 31
0.0
  0
LINE
  5
413
  8
1
 10
18763.319475
 20
7876.329077
 30
0.0
 11
18768.501675
 21
7876.329077
 31
0.0
  0
LINE
  5
414
  8
1
 10
18753.319975
 20
7851.329077
 30
0.0
 11
18753.319975
 21
7846.329277
 31
0.0
  0
ARC
  5
415
  8
1
 10
18763.319475
 20
7886.329077
 30
0.0
 40
10.0
 50
180.0002
 51
270.0002
  0
ARC
  5
416
  8
1
 10
18758.319775
 20
7851.328377
 30
0.0
 40
5.0
 50
90.0001
 51
179.9946
  0
ARC
  5
417
  8
1
 10
18758.319775
 20
7846.329277
 30
0.0
 40
5.0
 50
180.0002
 51
270.0002
  0
LINE
  5
418
  8
1
 10
16333.695475
 20
8093.829777
 30
0.0
 11
17138.695375
 21
8093.829277
 31
0.0
  0
CIRCLE
  5
419
  8
1
 10
17111.195275
 20
7863.829277
 30
0.0
 40
3.5
  0
LINE
  5
41A
  8
1
 10
17346.195975
 20
9856.213469
 30
0.0
 11
17346.196175
 21
9838.213669
 31
0.0
  0
LINE
  5
41B
  8
1
  6
DIVIDE
 10
17326.202575
 20
9852.213769
 30
0.0
 11
17326.202575
 21
9812.214269
 31
0.0
  0
LINE
  5
41C
  8
1
  6
DIVIDE
 10
16276.200675
 20
9222.213769
 30
0.0
 11
16276.200675
 21
9182.214269
 31
0.0
  0
CIRCLE
  5
41D
  8
1
 10
16961.195275
 20
7863.829277
 30
0.0
 40
3.5
  0
LINE
  5
41E
  8
1
  6
DASHDOT
 10
16343.695475
 20
7898.829577
 30
0.0
 11
16343.695475
 21
8073.829777
 31
0.0
  0
LINE
  5
41F
  8
1
  6
DASHDOT
 10
17128.695475
 20
7898.829777
 30
0.0
 11
17128.695475
 21
8073.829277
 31
0.0
  0
LINE
  5
420
  8
1
 10
17121.195475
 20
7878.829777
 30
0.0
 11
17121.195575
 21
8093.829277
 31
0.0
  0
LINE
  5
421
  8
1
 10
16351.195475
 20
7878.829577
 30
0.0
 11
16351.195475
 21
8093.829777
 31
0.0
  0
LINE
  5
422
  8
1
 10
16333.695475
 20
7853.829577
 30
0.0
 11
16333.695475
 21
8118.829577
 31
0.0
  0
LINE
  5
423
  8
1
 10
17138.695475
 20
7853.829777
 30
0.0
 11
17138.695475
 21
8118.829577
 31
0.0
  0
LINE
  5
424
  8
1
 10
16356.195475
 20
7878.829577
 30
0.0
 11
16356.195475
 21
8093.829777
 31
0.0
  0
LINE
  5
425
  8
1
 10
17116.195475
 20
7878.829777
 30
0.0
 11
17116.195475
 21
8093.829277
 31
0.0
  0
CIRCLE
  5
426
  8
1
 10
16661.195675
 20
7863.829277
 30
0.0
 40
3.5
  0
CIRCLE
  5
427
  8
1
 10
16811.195275
 20
7863.829277
 30
0.0
 40
3.5
  0
ARC
  5
428
  8
1
 10
17128.695675
 20
7911.329277
 30
0.0
 40
3.5
 50
180.0001
 51
0.0
  0
ARC
  5
429
  8
1
 10
17128.695475
 20
8050.329577
 30
0.0
 40
7.0
 50
119.9995
 51
60.0006
  0
LINE
  5
42A
  8
1
 10
17125.195475
 20
8056.391777
 30
0.0
 11
17125.195475
 21
8061.329577
 31
0.0
  0
LINE
  5
42B
  8
1
 10
17132.195475
 20
8056.391777
 30
0.0
 11
17132.195475
 21
8061.329577
 31
0.0
  0
ARC
  5
42C
  8
1
 10
17128.695475
 20
8061.329577
 30
0.0
 40
3.5
 50
0.0
 51
180.0004
  0
LINE
  5
42D
  8
1
 10
17132.195675
 20
7916.267277
 30
0.0
 11
17132.195675
 21
7911.329277
 31
0.0
  0
LINE
  5
42E
  8
1
 10
17351.195275
 20
8054.329077
 30
0.0
 11
17351.195275
 21
8039.329077
 31
0.0
  0
LINE
  5
42F
  8
1
 10
17125.195675
 20
7916.267077
 30
0.0
 11
17125.195675
 21
7911.329277
 31
0.0
  0
LINE
  5
430
  8
1
  6
DASHED
 10
17301.195275
 20
7599.328377
 30
0.0
 11
17301.194975
 21
7631.828077
 31
0.0
  0
ARC
  5
431
  8
1
 10
17128.695675
 20
7922.329277
 30
0.0
 40
7.0
 50
299.9999
 51
240.0012
  0
LINE
  5
432
  8
1
  6
DASHED
 10
17295.194475
 20
7641.828077
 30
0.0
 11
17301.194475
 21
7651.828077
 31
0.0
  0
LINE
  5
433
  8
1
  6
DASHED
 10
17301.194275
 20
7683.828077
 30
0.0
 11
17295.194275
 21
7693.828077
 31
0.0
  0
LINE
  5
434
  8
1
  6
DASHED
 10
17295.194275
 20
7693.828077
 30
0.0
 11
17301.194275
 21
7703.828077
 31
0.0
  0
LINE
  5
435
  8
1
  6
DASHED
 10
17301.193975
 20
7735.828077
 30
0.0
 11
17295.193975
 21
7745.828077
 31
0.0
  0
LINE
  5
436
  8
1
  6
DASHED
 10
17295.193975
 20
7745.828077
 30
0.0
 11
17301.193975
 21
7755.828077
 31
0.0
  0
LINE
  5
437
  8
1
  6
DASHED
 10
17301.194275
 20
7755.828077
 30
0.0
 11
17301.193975
 21
7788.328077
 31
0.0
  0
LINE
  5
438
  8
1
  6
DASHED
 10
17301.194775
 20
7703.828077
 30
0.0
 11
17301.194475
 21
7735.828077
 31
0.0
  0
LINE
  5
439
  8
1
  6
DASHED
 10
17301.194975
 20
7651.828077
 30
0.0
 11
17301.194775
 21
7683.828077
 31
0.0
  0
ARC
  5
43A
  8
1
 10
16343.695275
 20
7922.329277
 30
0.0
 40
7.0
 50
299.9996
 51
240.0008
  0
LINE
  5
43B
  8
1
 10
16347.195275
 20
7916.267077
 30
0.0
 11
16347.195275
 21
7911.329277
 31
0.0
  0
LINE
  5
43C
  8
1
 10
16340.195275
 20
7916.267277
 30
0.0
 11
16340.195275
 21
7911.329277
 31
0.0
  0
ARC
  5
43D
  8
1
 10
16343.695275
 20
7911.329277
 30
0.0
 40
3.5
 50
180.0001
 51
0.0
  0
ARC
  5
43E
  8
1
 10
16343.695475
 20
8061.329577
 30
0.0
 40
3.5
 50
0.0
 51
180.0002
  0
LINE
  5
43F
  8
1
 10
16340.195475
 20
8056.391777
 30
0.0
 11
16340.195475
 21
8061.329577
 31
0.0
  0
LINE
  5
440
  8
1
 10
16347.195475
 20
8056.391777
 30
0.0
 11
16347.195475
 21
8061.329577
 31
0.0
  0
ARC
  5
441
  8
1
 10
16343.695475
 20
8050.329577
 30
0.0
 40
7.0
 50
119.9998
 51
60.0009
  0
LINE
  5
442
  8
1
 10
16333.695475
 20
8118.829577
 30
0.0
 11
17138.695475
 21
8118.829577
 31
0.0
  0
LINE
  5
443
  8
1
 10
16333.695475
 20
7853.829577
 30
0.0
 11
17138.695475
 21
7853.829577
 31
0.0
  0
LINE
  5
444
  8
1
  6
DASHED
 10
16301.194575
 20
7788.328777
 30
0.0
 11
16301.194875
 21
7755.829077
 31
0.0
  0
LINE
  5
445
  8
1
  6
DASHED
 10
16301.195375
 20
7755.829077
 30
0.0
 11
16307.195375
 21
7745.829077
 31
0.0
  0
LINE
  5
446
  8
1
 10
18748.319076
 20
7806.328851
 30
0.0
 11
19150.318975
 21
7806.329077
 31
0.0
  0
LINE
  5
447
  8
1
 10
18740.319076
 20
7806.328851
 30
0.0
 11
19142.318975
 21
7806.329077
 31
0.0
  0
LINE
  5
448
  8
1
 10
18740.318776
 20
7788.328851
 30
0.0
 11
19150.318975
 21
7788.329077
 31
0.0
  0
LINE
  5
449
  8
1
  6
DASHED
 10
16307.195375
 20
7745.829077
 30
0.0
 11
16301.195375
 21
7735.829077
 31
0.0
  0
LINE
  5
44A
  8
1
  6
DASHED
 10
16301.195575
 20
7703.829077
 30
0.0
 11
16307.195575
 21
7693.829077
 31
0.0
  0
LINE
  5
44B
  8
1
 10
19150.318975
 20
7821.329077
 30
0.0
 11
19150.318975
 21
7788.329077
 31
0.0
  0
LINE
  5
44C
  8
1
 10
18740.318776
 20
7821.328851
 30
0.0
 11
18740.318776
 21
7788.328851
 31
0.0
  0
LINE
  5
44D
  8
1
  6
DASHED
 10
16307.195575
 20
7693.829077
 30
0.0
 11
16301.195575
 21
7683.829077
 31
0.0
  0
LINE
  5
44E
  8
1
  6
DASHED
 10
16301.195875
 20
7651.829077
 30
0.0
 11
16307.195875
 21
7641.829077
 31
0.0
  0
LINE
  5
44F
  8
1
  6
DASHED
 10
16307.195875
 20
7641.829077
 30
0.0
 11
16301.195875
 21
7631.829077
 31
0.0
  0
LINE
  5
450
  8
1
  6
DASHED
 10
16301.195575
 20
7631.829077
 30
0.0
 11
16301.195875
 21
7599.329077
 31
0.0
  0
LINE
  5
451
  8
1
  6
DASHED
 10
16301.195075
 20
7683.829077
 30
0.0
 11
16301.195375
 21
7651.829077
 31
0.0
  0
LINE
  5
452
  8
1
  6
DASHED
 10
16301.194875
 20
7735.829077
 30
0.0
 11
16301.195075
 21
7703.829077
 31
0.0
  0
ARC
  5
453
  8
1
 10
17361.289275
 20
9162.648369
 30
0.0
 40
7.4349
 50
207.5107
 51
269.2756
  0
LINE
  5
454
  8
1
 10
16251.195075
 20
7536.329577
 30
0.0
 11
17351.195375
 21
7536.328777
 31
0.0
  0
ARC
  5
455
  8
1
 10
17351.210875
 20
9094.463869
 30
0.0
 40
16.0161
 50
151.0601
 51
208.9394
  0
LINE
  5
456
  8
1
 10
17330.764575
 20
9113.210869
 30
0.0
 11
17318.606575
 21
9113.213569
 31
0.0
  0
LINE
  5
457
  8
1
 10
17315.195275
 20
9093.213269
 30
0.0
 11
17317.779175
 21
9093.213869
 31
0.0
  0
LINE
  5
458
  8
1
 10
17333.195475
 20
9096.723869
 30
0.0
 11
17333.195475
 21
9096.942769
 31
0.0
  0
ARC
  5
459
  8
1
 10
17361.237975
 20
9079.222469
 30
0.0
 40
10.9915
 50
90.2244
 51
137.0336
  0
LINE
  5
45A
  8
1
 10
17331.591475
 20
9111.210969
 30
0.0
 11
17335.194775
 21
9111.210069
 31
0.0
  0
LINE
  5
45B
  8
1
 10
17301.194975
 20
9369.713669
 30
0.0
 11
17357.364675
 21
9369.713669
 31
0.0
  0
LINE
  5
45C
  8
1
 10
18350.318975
 20
8121.329077
 30
0.0
 11
18350.318975
 21
7841.329077
 31
0.0
  0
LINE
  5
45D
  8
1
 10
18350.318975
 20
7841.329077
 30
0.0
 11
18350.318975
 21
7821.329277
 31
0.0
  0
LINE
  5
45E
  8
1
  6
DIVIDE
 10
18665.319275
 20
8081.329277
 30
0.0
 11
18665.319275
 21
8033.329277
 31
0.0
  0
LINE
  5
45F
  8
1
 10
16301.195075
 20
8121.329777
 30
0.0
 11
17301.195275
 21
8121.328777
 31
0.0
  0
LINE
  5
460
  8
1
  6
DIVIDE
 10
18641.319275
 20
8057.329277
 30
0.0
 11
18689.319275
 21
8057.329277
 31
0.0
  0
LINE
  5
461
  8
1
 10
17332.195275
 20
9107.721969
 30
0.0
 11
17332.194975
 21
9096.723869
 31
0.0
  0
LINE
  5
462
  8
1
  6
DASHDOT
 10
16801.195275
 20
9000.964269
 30
0.0
 11
16801.195075
 21
9870.964269
 31
0.0
  0
LINE
  5
463
  8
1
 10
17307.194975
 20
9202.213669
 30
0.0
 11
17329.194975
 21
9202.213869
 31
0.0
  0
LINE
  5
464
  8
1
 10
17315.195675
 20
9111.214469
 30
0.0
 11
17317.779475
 21
9111.214069
 31
0.0
  0
LINE
  5
465
  8
1
 10
17333.194975
 20
9102.213869
 30
0.0
 11
17335.194975
 21
9102.213869
 31
0.0
  0
LINE
  5
466
  8
1
 10
17335.194975
 20
9117.713869
 30
0.0
 11
17335.194975
 21
9086.713869
 31
0.0
  0
ARC
  5
467
  8
1
 10
17351.210875
 20
9109.963869
 30
0.0
 40
16.0161
 50
151.0603
 51
208.9396
  0
ARC
  5
468
  8
1
 10
17339.178675
 20
9109.963869
 30
0.0
 40
16.0161
 50
331.0599
 51
28.9393
  0
ARC
  5
469
  8
1
 10
17361.237975
 20
9125.205369
 30
0.0
 40
10.9915
 50
222.9662
 51
269.7753
  0
LINE
  5
46A
  8
1
 10
17317.195275
 20
9107.721969
 30
0.0
 11
17317.194975
 21
9096.723869
 31
0.0
  0
LINE
  5
46B
  8
1
 10
17335.194975
 20
9117.713869
 30
0.0
 11
17353.194775
 21
9117.713869
 31
0.0
  0
LINE
  5
46C
  8
1
 10
17335.194975
 20
9086.713869
 30
0.0
 11
17353.194975
 21
9086.713869
 31
0.0
  0
LINE
  5
46D
  8
1
 10
17361.194775
 20
9114.213869
 30
0.0
 11
17361.194975
 21
9090.213869
 31
0.0
  0
LINE
  5
46E
  8
1
 10
17301.194975
 20
9110.213869
 30
0.0
 11
17315.195475
 21
9110.213869
 31
0.0
  0
LINE
  5
46F
  8
1
 10
17301.194975
 20
9094.213869
 30
0.0
 11
17315.194975
 21
9094.213769
 31
0.0
  0
LINE
  5
470
  8
1
 10
18324.195275
 20
9314.689999
 30
0.0
 11
19278.195275
 21
9314.689999
 31
0.0
  0
LINE
  5
471
  8
1
 10
18324.195175
 20
9344.689999
 30
0.0
 11
19278.195275
 21
9344.689999
 31
0.0
  0
LINE
  5
472
  8
1
 10
18324.195275
 20
9374.690199
 30
0.0
 11
19278.195275
 21
9374.690199
 31
0.0
  0
LINE
  5
473
  8
1
 10
18324.195275
 20
9404.689999
 30
0.0
 11
19278.195275
 21
9404.689999
 31
0.0
  0
LINE
  5
474
  8
1
  6
DIVIDE
 10
17289.564575
 20
9382.213669
 30
0.0
 11
17366.469875
 21
9382.213769
 31
0.0
  0
LINE
  5
475
  8
1
 10
17351.195275
 20
8054.329077
 30
0.0
 11
17301.195275
 21
8054.329077
 31
0.0
  0
LINE
  5
476
  8
1
 10
17301.194975
 20
9362.213669
 30
0.0
 11
17343.899375
 21
9362.213669
 31
0.0
  0
LINE
  5
477
  8
1
 10
17343.899375
 20
9362.213669
 30
0.0
 11
17343.899375
 21
9382.213669
 31
0.0
  0
LINE
  5
478
  8
1
  6
DIVIDE
 10
17289.564575
 20
9372.213669
 30
0.0
 11
17366.469875
 21
9372.213669
 31
0.0
  0
LINE
  5
479
  8
1
 10
17301.194975
 20
9394.713669
 30
0.0
 11
17357.364675
 21
9394.713669
 31
0.0
  0
LINE
  5
47A
  8
1
 10
17357.364675
 20
9369.713669
 30
0.0
 11
17357.364675
 21
9394.713669
 31
0.0
  0
LINE
  5
47B
  8
1
 10
17301.195275
 20
7836.312177
 30
0.0
 11
17358.195275
 21
7836.312177
 31
0.0
  0
LINE
  5
47C
  8
1
  6
DIVIDE
 10
17288.016775
 20
7848.812177
 30
0.0
 11
17364.922075
 21
7848.811977
 31
0.0
  0
LINE
  5
47D
  8
1
 10
17301.195275
 20
7861.312177
 30
0.0
 11
17358.195275
 21
7861.312177
 31
0.0
  0
LINE
  5
47F
  8
1
 10
18740.318576
 20
7536.330819
 30
0.0
 11
18740.318801
 21
7566.330819
 31
0.0
  0
LINE
  5
480
  8
1
  6
DASHDOT
 10
19409.432775
 20
9432.689999
 30
0.0
 11
18185.432775
 21
9432.689999
 31
0.0
  0
LINE
  5
481
  8
1
  6
DASHDOT
 10
17401.432775
 20
7981.329077
 30
0.0
 11
16225.432775
 21
7981.329077
 31
0.0
  0
LINE
  5
482
  8
1
 10
16256.246148
 20
7914.563552
 30
0.0
 11
16250.253044
 21
7914.563552
 31
0.0
  0
LINE
  5
483
  8
1
 10
16256.246148
 20
7920.556755
 30
0.0
 11
16256.246148
 21
7914.563552
 31
0.0
  0
LINE
  5
484
  8
1
 10
16295.201971
 20
7920.556755
 30
0.0
 11
16256.246148
 21
7920.556755
 31
0.0
  0
LINE
  5
485
  8
1
 10
16301.195175
 20
7926.549959
 30
0.0
 11
16250.252944
 21
7926.550159
 31
0.0
  0
LINE
  5
486
  8
1
 10
16250.252944
 20
7926.549959
 30
0.0
 11
16250.252944
 21
7914.563552
 31
0.0
  0
LINE
  5
487
  8
1
 10
16295.201971
 20
7920.556755
 30
0.0
 11
16295.201971
 21
7866.617923
 31
0.0
  0
LINE
  5
488
  8
1
 10
16295.201971
 20
7866.617923
 30
0.0
 11
16301.194076
 21
7866.617923
 31
0.0
  0
LINE
  5
489
  8
1
 10
18472.088098
 20
7926.549959
 30
0.0
 11
18472.088098
 21
7874.109627
 31
0.0
  0
LINE
  5
48A
  8
1
 10
18472.088398
 20
7926.549959
 30
0.0
 11
18520.033727
 21
7926.549959
 31
0.0
  0
ARC
  5
48B
  8
1
 10
18484.573939
 20
7874.109427
 30
0.0
 40
12.485841
 50
180.0002
 51
270.0002
  0
LINE
  5
48C
  8
1
 10
18484.574239
 20
7861.623786
 30
0.0
 11
18507.547886
 21
7861.623786
 31
0.0
  0
ARC
  5
48D
  8
1
 10
18507.547886
 20
7874.109627
 30
0.0
 40
12.485841
 50
270.0002
 51
0.0
  0
LINE
  5
48E
  8
1
 10
18520.033727
 20
7926.549959
 30
0.0
 11
18520.033727
 21
7874.109627
 31
0.0
  0
LINE
  5
48F
  8
1
 10
18506.050384
 20
7914.564051
 30
0.0
 11
18520.034226
 21
7914.56505
 31
0.0
  0
LINE
  5
490
  8
1
 10
18501.055748
 20
7926.550459
 30
0.0
 11
18501.055548
 21
7919.558587
 31
0.0
  0
LINE
  5
491
  8
1
 10
18491.066876
 20
7926.549959
 30
0.0
 11
18491.066876
 21
7919.557888
 31
0.0
  0
ARC
  5
492
  8
1
 10
18486.072539
 20
7919.557888
 30
0.0
 40
4.994336
 50
270.0002
 51
0.0
  0
LINE
  5
493
  8
1
 10
18472.088398
 20
7914.563552
 30
0.0
 11
18486.072739
 21
7914.563552
 31
0.0
  0
ARC
  5
494
  8
1
 10
18506.049885
 20
7919.558388
 30
0.0
 40
4.994336
 50
180.0002
 51
270.003
  0
LINE
  5
495
  8
1
 10
19101.374978
 20
7926.549959
 30
0.0
 11
19149.320407
 21
7926.549959
 31
0.0
  0
LINE
  5
496
  8
1
 10
19130.342429
 20
7926.550459
 30
0.0
 11
19130.342129
 21
7919.558587
 31
0.0
  0
ARC
  5
497
  8
1
 10
19135.336465
 20
7919.558388
 30
0.0
 40
4.994336
 50
180.0002
 51
270.003
  0
LINE
  5
498
  8
1
 10
19120.353456
 20
7926.549959
 30
0.0
 11
19120.353456
 21
7919.557888
 31
0.0
  0
ARC
  5
499
  8
1
 10
19115.35912
 20
7919.557888
 30
0.0
 40
4.994336
 50
270.0002
 51
0.0
  0
LINE
  5
49A
  8
1
 10
19101.374978
 20
7914.563552
 30
0.0
 11
19115.359419
 21
7914.563552
 31
0.0
  0
LINE
  5
49B
  8
1
 10
19101.374778
 20
7926.549959
 30
0.0
 11
19101.374778
 21
7871.612259
 31
0.0
  0
ARC
  5
49C
  8
1
 10
19111.363451
 20
7871.612259
 30
0.0
 40
9.988673
 50
180.0002
 51
270.0002
  0
LINE
  5
49D
  8
1
 10
19111.363651
 20
7861.623586
 30
0.0
 11
19139.331735
 21
7861.623786
 31
0.0
  0
ARC
  5
49E
  8
1
 10
19139.331735
 20
7871.612259
 30
0.0
 40
9.988673
 50
270.0002
 51
0.0
  0
LINE
  5
49F
  8
1
 10
19149.320407
 20
7926.549959
 30
0.0
 11
19149.320407
 21
7871.61196
 31
0.0
  0
LINE
  5
4A0
  8
1
 10
19135.336965
 20
7914.564051
 30
0.0
 11
19149.320907
 21
7914.56505
 31
0.0
  0
TEXT
  8
3
  40
100
  5
4FA
  72
0
  71
0
 10
19463.1
 20
8283.10
 30
0.000000
  1

  0
TEXT
  8
3
  40
100
  5
4FB
  72
0
  71
0
 10
19463.1
 20
8153.10
 30
0.000000
  1
GBS16_3
  0
TEXT
  8
3
  40
100
  5
4FC
  72
0
  71
0
 10
19463.1
 20
8023.10
 30
0.000000
  1
FXYS63KV1
  0
TEXT
  8
3
  40
100
  5
4FD
  72
0
  71
0
 10
19463.1
 20
7893.10
 30
0.000000
  1
FXYS63KVAL
  0
ENDSEC
  0
EOF
