  0
SECTION
  2
HEADER
  9
$ACADVER
  1
AC1009
  9
$DWGCODEPAGE
  3
dos932
  9
$INSBASE
 10
0.0
 20
0.0
 30
0.0
  9
$EXTMIN
 10
25178.8275
 20
10676.733333
 30
0.0
  9
$EXTMAX
 10
30586.042687
 20
13636.987957
 30
0.0
  9
$LIMMIN
 10
25132.073066
 20
10243.776583
  9
$LIMMAX
 10
30484.082158
 20
14026.35955
  9
$ORTHOMODE
 70
     0
  9
$REGENMODE
 70
     1
  9
$FILLMODE
 70
     1
  9
$QTEXTMODE
 70
     0
  9
$MIRRTEXT
 70
     0
  9
$DRAGMODE
 70
     2
  9
$LTSCALE
 40
1.0
  9
$OSMODE
 70
     0
  9
$ATTMODE
 70
     1
  9
$TEXTSIZE
 40
0.2
  9
$TRACEWID
 40
0.05
  9
$TEXTSTYLE
  7
STANDARD
  9
$CLAYER
  8
0
  9
$CELTYPE
  6
BYLAYER
  9
$CECOLOR
 62
   256
  9
$DIMSCALE
 40
1.0
  9
$DIMASZ
 40
0.18
  9
$DIMEXO
 40
3.0
  9
$DIMDLI
 40
0.38
  9
$DIMRND
 40
0.0
  9
$DIMDLE
 40
0.0
  9
$DIMEXE
 40
5.0
  9
$DIMTP
 40
0.0
  9
$DIMTM
 40
0.0
  9
$DIMTXT
 40
0.18
  9
$DIMCEN
 40
0.09
  9
$DIMTSZ
 40
0.0
  9
$DIMTOL
 70
     0
  9
$DIMLIM
 70
     0
  9
$DIMTIH
 70
     1
  9
$DIMTOH
 70
     1
  9
$DIMSE1
 70
     0
  9
$DIMSE2
 70
     0
  9
$DIMTAD
 70
     1
  9
$DIMZIN
 70
     0
  9
$DIMBLK
  1

  9
$DIMASO
 70
     1
  9
$DIMSHO
 70
     0
  9
$DIMPOST
  1

  9
$DIMAPOST
  1

  9
$DIMALT
 70
     0
  9
$DIMALTD
 70
     2
  9
$DIMALTF
 40
25.4
  9
$DIMLFAC
 40
1.0
  9
$DIMTOFL
 70
     0
  9
$DIMTVP
 40
1.0
  9
$DIMTIX
 70
     0
  9
$DIMSOXD
 70
     0
  9
$DIMSAH
 70
     0
  9
$DIMBLK1
  1

  9
$DIMBLK2
  1

  9
$DIMSTYLE
  2
STANDARD
  9
$DIMCLRD
 70
     0
  9
$DIMCLRE
 70
     0
  9
$DIMCLRT
 70
     0
  9
$DIMTFAC
 40
1.0
  9
$DIMGAP
 40
0.09
  9
$LUNITS
 70
     2
  9
$LUPREC
 70
     4
  9
$SKETCHINC
 40
0.1
  9
$FILLETRAD
 40
0.05
  9
$AUNITS
 70
     0
  9
$AUPREC
 70
     0
  9
$MENU
  1
acad
  9
$ELEVATION
 40
0.0
  9
$PELEVATION
 40
0.0
  9
$THICKNESS
 40
0.0
  9
$LIMCHECK
 70
     0
  9
$BLIPMODE
 70
     1
  9
$CHAMFERA
 40
0.0
  9
$CHAMFERB
 40
0.0
  9
$SKPOLY
 70
     0
  9
$TDCREATE
 40
0.0
  9
$TDUPDATE
 40
0.0
  9
$TDINDWG
 40
0.0
  9
$TDUSRTIMER
 40
0.0
  9
$USRTIMER
 70
     1
  9
$ANGBASE
 50
0.0
  9
$ANGDIR
 70
     0
  9
$PDMODE
 70
     0
  9
$PDSIZE
 40
0.0
  9
$PLINEWID
 40
0.0
  9
$COORDS
 70
     0
  9
$SPLFRAME
 70
     0
  9
$SPLINETYPE
 70
     6
  9
$SPLINESEGS
 70
     8
  9
$ATTDIA
 70
     1
  9
$ATTREQ
 70
     1
  9
$HANDLING
 70
     1
  9
$HANDSEED
  5
59F
  9
$SURFTAB1
 70
     6
  9
$SURFTAB2
 70
     6
  9
$SURFTYPE
 70
     6
  9
$SURFU
 70
     6
  9
$SURFV
 70
     6
  9
$UCSNAME
  2

  9
$UCSORG
 10
0.0
 20
0.0
 30
0.0
  9
$UCSXDIR
 10
1.0
 20
0.0
 30
0.0
  9
$UCSYDIR
 10
0.0
 20
1.0
 30
0.0
  9
$PUCSNAME
  2

  9
$PUCSORG
 10
0.0
 20
0.0
 30
0.0
  9
$PUCSXDIR
 10
1.0
 20
0.0
 30
0.0
  9
$PUCSYDIR
 10
0.0
 20
1.0
 30
0.0
  9
$USERI1
 70
     0
  9
$USERI2
 70
     0
  9
$USERI3
 70
     0
  9
$USERI4
 70
     0
  9
$USERI5
 70
     0
  9
$USERR1
 40
0.0
  9
$USERR2
 40
0.0
  9
$USERR3
 40
0.0
  9
$USERR4
 40
0.0
  9
$USERR5
 40
0.0
  9
$WORLDVIEW
 70
     1
  9
$SHADEDGE
 70
     3
  9
$SHADEDIF
 70
    70
  9
$TILEMODE
 70
     1
  9
$MAXACTVP
 70
    16
  9
$PINSBASE
 10
0.0
 20
0.0
 30
0.0
  9
$PLIMCHECK
 70
     0
  9
$PEXTMIN
 10
1.000000E+020
 20
1.000000E+020
 30
1.000000E+020
  9
$PEXTMAX
 10
-1.000000E+020
 20
-1.000000E+020
 30
-1.000000E+020
  9
$PLIMMIN
 10
0.0
 20
0.0
  9
$PLIMMAX
 10
12.0
 20
9.0
  9
$UNITMODE
 70
     0
  9
$VISRETAIN
 70
     0
  9
$PLINEGEN
 70
     0
  9
$PSLTSCALE
 70
     1
  9
$TREEDEPTH
 70
  3020
  0
ENDSEC
  0
SECTION
  2
TABLES
  0
TABLE
  2
VPORT
 70
     2
  0
VPORT
  2
*ACTIVE
 70
     0
 10
0.0
 20
0.0
 11
1.0
 21
1.0
 12
28797.620669
 22
12135.068067
 13
0.0
 23
0.0
 14
1.0
 24
1.0
 15
0.0
 25
0.0
 16
0.0
 26
0.0
 36
1.0
 17
0.0
 27
0.0
 37
0.0
 40
3782.582967
 41
1.938119
 42
50.0
 43
0.0
 44
0.0
 50
0.0
 51
0.0
 71
     0
 72
   100
 73
     1
 74
     1
 75
     0
 76
     0
 77
     0
 78
     0
  0
ENDTAB
  0
TABLE
  2
LTYPE
 70
     5
  0
LTYPE
  2
CONTINUOUS
 70
    64
  3
Solid line
 72
    65
 73
     0
 40
0.0
  0
LTYPE
  2
DASHDOT
 70
    64
  3
__ . __ . __ . __ . __ . __ . __ . __ . __ . __
 72
    65
 73
     4
 40
1.0
 49
0.5
 49
-0.25
 49
0.0
 49
-0.25
  0
LTYPE
  2
DIVIDE
 70
    64
  3
__ . . __ . . __ . . __ . . __ . . __ . . __
 72
    65
 73
     6
 40
1.25
 49
0.5
 49
-0.25
 49
0.0
 49
-0.25
 49
0.0
 49
-0.25
  0
LTYPE
  2
DASHED
 70
    64
  3
__ __ __ __ __ __ __ __ __ __ __ __ __ __ __
 72
    65
 73
     2
 40
0.75
 49
0.5
 49
-0.25
  0
LTYPE
  2
DOT
 70
    64
  3
...............................................
 72
    65
 73
     2
 40
0.25
 49
0.0
 49
-0.25
  0
ENDTAB
  0
TABLE
  2
LAYER
 70
     5
  0
LAYER
  2
0
 70
     0
 62
     7
  6
CONTINUOUS
  0
LAYER
  2
DEFPOINTS
 70
     0
 62
    -7
  6
CONTINUOUS
  0
LAYER
  2
1
 70
     0
 62
     7
  6
CONTINUOUS
  0
LAYER
  2
2
 70
     0
 62
     7
  6
CONTINUOUS
  0
LAYER
  2
3
 70
     0
 62
     7
  6
CONTINUOUS
  0
ENDTAB
  0
TABLE
  2
STYLE
 70
     3
  0
STYLE
  2
STANDARD
 70
    64
 40
100.0
 41
0.8
 50
0.0
 71
     0
 42
0.2
  3
txt
  4

  0
STYLE
  2
MONOTXT
 70
    64
 40
0.0
 41
0.5
 50
0.0
 71
     0
 42
4.191412
  3
monotxt
  4
BIGFONT
  0
STYLE
  2
VERTICAL
 70
    68
 40
0.0
 41
0.5
 50
0.0
 71
     0
 42
4.191412
  3
monotxt
  4
BIGFONT
  0
ENDTAB
  0
TABLE
  2
VIEW
 70
     0
  0
ENDTAB
  0
TABLE
  2
UCS
 70
     0
  0
ENDTAB
  0
TABLE
  2
APPID
 70
     1
  0
APPID
  2
ACAD
 70
     0
  0
ENDTAB
  0
TABLE
  2
DIMSTYLE
 70
     1
  0
DIMSTYLE
  2
STANDARD
 70
     0
  3

  4

  5

  6

  7

 40
1.0
 41
0.18
 42
0.0625
 43
0.38
 44
0.18
 45
0.0
 46
0.0
 47
0.0
 48
0.0
140
0.18
141
0.09
142
0.0
143
25.4
144
1.0
145
0.0
146
1.0
147
0.09
 71
     0
 72
     0
 73
     1
 74
     1
 75
     0
 76
     0
 77
     0
 78
     0
170
     0
171
     2
172
     0
173
     0
174
     0
175
     0
176
     0
177
     0
178
     0
  0
ENDTAB
  0
ENDSEC
  0
SECTION
  2
BLOCKS
  0
BLOCK
  5
559
  8
0
  2
$MODEL_SPACE
 70
     0
 10
0.0
 20
0.0
 30
0.0
  3
$MODEL_SPACE
  1

  0
ENDBLK
  5
55A
  8
0
  0
BLOCK
  5
556
 67
     1
  8
0
  2
$PAPER_SPACE
 70
     0
 10
0.0
 20
0.0
 30
0.0
  3
$PAPER_SPACE
  1

  0
ENDBLK
  5
557
 67
     1
  8
0
  0
BLOCK
  5
2B
  8
1
  2
*U2
 70
    65
 10
0.0
 20
0.0
 30
0.0
  3
*U2
  1

  0
LINE
  5
2C
  8
1
 10
27588.17268
 20
11476.245864
 30
0.0
 11
27602.17288
 21
11476.245864
 31
0.0
  0
LINE
  5
2D
  8
1
 10
27588.17268
 20
11460.245864
 30
0.0
 11
27602.17308
 21
11460.245864
 31
0.0
  0
LINE
  5
2E
  8
1
 10
27648.17238
 20
11456.245864
 30
0.0
 11
27648.17268
 21
11480.245864
 31
0.0
  0
LINE
  5
2F
  8
1
 10
27622.17268
 20
11483.745864
 30
0.0
 11
27640.17268
 21
11483.745864
 31
0.0
  0
LINE
  5
30
  8
1
 10
27622.17268
 20
11452.745864
 30
0.0
 11
27640.17238
 21
11452.745864
 31
0.0
  0
ARC
  5
31
  8
1
 10
27648.21558
 20
11491.237264
 30
0.0
 40
10.9915
 50
222.9664
 51
269.7756
  0
ARC
  5
32
  8
1
 10
27648.21558
 20
11445.254364
 30
0.0
 40
10.9915
 50
90.2247
 51
137.0338
  0
ARC
  5
33
  8
1
 10
27626.15628
 20
11475.995864
 30
0.0
 40
16.0161
 50
331.0605
 51
28.9399
  0
ARC
  5
34
  8
1
 10
27626.15628
 20
11460.495864
 30
0.0
 40
16.0161
 50
331.0607
 51
28.9401
  0
ARC
  5
35
  8
1
 10
27638.18848
 20
11475.995864
 30
0.0
 40
16.0161
 50
151.0606
 51
208.9399
  0
ARC
  5
36
  8
1
 10
27638.18848
 20
11460.495864
 30
0.0
 40
16.0161
 50
151.0604
 51
208.9397
  0
LINE
  5
37
  8
1
 10
27622.17268
 20
11452.745864
 30
0.0
 11
27622.17268
 21
11483.745864
 31
0.0
  0
LINE
  5
38
  8
1
 10
27620.17268
 20
11468.245864
 30
0.0
 11
27622.17268
 21
11468.245864
 31
0.0
  0
LINE
  5
39
  8
1
  6
DASHDOT
 10
27678.17268
 20
11518.245864
 30
0.0
 11
27558.17268
 21
11518.245864
 31
0.0
  0
LINE
  5
3A
  8
1
 10
27616.17268
 20
11511.245864
 30
0.0
 11
27616.17268
 21
11525.245864
 31
0.0
  0
LINE
  5
3B
  8
1
  6
DASHDOT
 10
27558.17268
 20
11468.245864
 30
0.0
 11
27677.42388
 21
11468.245864
 31
0.0
  0
LINE
  5
3C
  8
1
 10
27588.17248
 20
11523.245864
 30
0.0
 11
27616.17268
 21
11523.245864
 31
0.0
  0
LINE
  5
3D
  8
1
 10
27588.17268
 20
11513.245864
 30
0.0
 11
27616.17268
 21
11513.245864
 31
0.0
  0
LINE
  5
3E
  8
1
 10
27620.17238
 20
11527.245864
 30
0.0
 11
27626.17268
 21
11527.245864
 31
0.0
  0
LINE
  5
3F
  8
1
 10
27620.17218
 20
11509.245864
 30
0.0
 11
27626.17238
 21
11509.245864
 31
0.0
  0
LINE
  5
40
  8
1
 10
27616.17268
 20
11525.245864
 30
0.0
 11
27619.17268
 21
11525.245864
 31
0.0
  0
LINE
  5
41
  8
1
 10
27616.17268
 20
11511.245864
 30
0.0
 11
27619.17268
 21
11511.245864
 31
0.0
  0
LINE
  5
42
  8
1
 10
27626.87378
 20
11525.245864
 30
0.0
 11
27630.17268
 21
11525.245864
 31
0.0
  0
LINE
  5
43
  8
1
 10
27626.87428
 20
11511.245564
 30
0.0
 11
27630.17268
 21
11511.245864
 31
0.0
  0
LINE
  5
44
  8
1
 10
27627.17238
 20
11513.745864
 30
0.0
 11
27627.17238
 21
11518.245864
 31
0.0
  0
LINE
  5
45
  8
1
 10
27627.17238
 20
11518.245864
 30
0.0
 11
27627.17238
 21
11522.745864
 31
0.0
  0
ARC
  5
46
  8
1
 10
27616.54738
 20
11522.745864
 30
0.0
 40
10.625
 50
334.9427
 51
25.058
  0
ARC
  5
47
  8
1
 10
27629.79738
 20
11522.745864
 30
0.0
 40
10.625
 50
154.9425
 51
205.0578
  0
ARC
  5
48
  8
1
 10
27629.79738
 20
11513.745864
 30
0.0
 40
10.625
 50
154.9425
 51
205.0578
  0
ARC
  5
49
  8
1
 10
27616.54738
 20
11513.745864
 30
0.0
 40
10.625
 50
334.9426
 51
25.058
  0
LINE
  5
4A
  8
1
 10
27619.17268
 20
11513.745864
 30
0.0
 11
27619.17268
 21
11518.245864
 31
0.0
  0
LINE
  5
4B
  8
1
 10
27619.17268
 20
11518.245864
 30
0.0
 11
27619.17268
 21
11522.745864
 31
0.0
  0
LINE
  5
4C
  8
1
 10
27630.17268
 20
11529.245864
 30
0.0
 11
27641.67238
 21
11529.245864
 31
0.0
  0
LINE
  5
4D
  8
1
 10
27630.17268
 20
11507.245864
 30
0.0
 11
27641.67238
 21
11507.245864
 31
0.0
  0
LINE
  5
4E
  8
1
 10
27630.17268
 20
11507.245864
 30
0.0
 11
27630.17268
 21
11512.745864
 31
0.0
  0
LINE
  5
4F
  8
1
 10
27630.17268
 20
11512.745864
 30
0.0
 11
27630.17268
 21
11518.245864
 31
0.0
  0
LINE
  5
50
  8
1
 10
27630.17268
 20
11518.245864
 30
0.0
 11
27630.17268
 21
11523.745864
 31
0.0
  0
LINE
  5
51
  8
1
 10
27630.17268
 20
11523.745864
 30
0.0
 11
27630.17268
 21
11529.245864
 31
0.0
  0
LINE
  5
52
  8
1
 10
27648.17268
 20
11525.245864
 30
0.0
 11
27648.17268
 21
11511.245864
 31
0.0
  0
ARC
  5
53
  8
1
 10
27632.33918
 20
11523.745864
 30
0.0
 40
10.8333
 50
329.4898
 51
30.5108
  0
ARC
  5
54
  8
1
 10
27641.00638
 20
11523.745564
 30
0.0
 40
10.8333
 50
149.4896
 51
210.5106
  0
ARC
  5
55
  8
1
 10
27641.00638
 20
11512.746064
 30
0.0
 40
10.8333
 50
149.4897
 51
210.5106
  0
ARC
  5
56
  8
1
 10
27632.33918
 20
11512.745864
 30
0.0
 40
10.8333
 50
329.4898
 51
30.5108
  0
ARC
  5
57
  8
1
 10
27648.26668
 20
11532.680164
 30
0.0
 40
7.4349
 50
207.511
 51
269.2759
  0
ARC
  5
58
  8
1
 10
27648.26668
 20
11503.811564
 30
0.0
 40
7.4349
 50
90.7244
 51
152.4893
  0
LINE
  5
59
  8
1
 10
27620.17288
 20
11468.246364
 30
0.0
 11
27606.17268
 21
11468.246064
 31
0.0
  0
LINE
  5
5A
  8
1
 10
27604.17288
 20
11462.737764
 30
0.0
 11
27604.17268
 21
11473.735864
 31
0.0
  0
LINE
  5
5B
  8
1
 10
27602.17338
 20
11459.245364
 30
0.0
 11
27604.75708
 21
11459.245864
 31
0.0
  0
LINE
  5
5C
  8
1
 10
27605.42238
 20
11517.245564
 30
0.0
 11
27620.92238
 21
11517.245564
 31
0.0
  0
LINE
  5
5D
  8
1
 10
27619.17288
 20
11462.737764
 30
0.0
 11
27619.17268
 21
11473.735864
 31
0.0
  0
LINE
  5
5E
  8
1
 10
27618.56908
 20
11459.248764
 30
0.0
 11
27622.17238
 21
11459.249764
 31
0.0
  0
LINE
  5
5F
  8
1
 10
27602.17288
 20
11477.246564
 30
0.0
 11
27604.75688
 21
11477.245864
 31
0.0
  0
LINE
  5
60
  8
1
 10
27617.74218
 20
11457.249064
 30
0.0
 11
27605.58428
 21
11457.246364
 31
0.0
  0
LINE
  5
61
  8
1
 10
27622.17268
 20
11477.242664
 30
0.0
 11
27618.56938
 21
11477.242464
 31
0.0
  0
LINE
  5
62
  8
1
 10
27617.74198
 20
11479.243664
 30
0.0
 11
27605.58448
 21
11479.246064
 31
0.0
  0
LINE
  5
63
  8
1
 10
27602.17308
 20
11459.245364
 30
0.0
 11
27602.17288
 21
11477.246564
 31
0.0
  0
ARC
  5
64
  8
1
 10
27606.71148
 20
11473.510964
 30
0.0
 40
12.4312
 50
334.9427
 51
27.4624
  0
ARC
  5
65
  8
1
 10
27616.61378
 20
11473.510964
 30
0.0
 40
12.4312
 50
152.5256
 51
205.0578
  0
ARC
  5
66
  8
1
 10
27616.61378
 20
11462.980964
 30
0.0
 40
12.4312
 50
154.9425
 51
207.4724
  0
ARC
  5
67
  8
1
 10
27606.71148
 20
11462.980964
 30
0.0
 40
12.4312
 50
332.5422
 51
25.058
  0
ENDBLK
  5
68
  8
0
  0
BLOCK
  5
6A
  8
1
  2
*U3
 70
    65
 10
0.0
 20
0.0
 30
0.0
  3
*U3
  1

  0
LINE
  5
6B
  8
1
  6
DASHDOT
 10
27558.171524
 20
12586.667386
 30
0.0
 11
27677.422724
 21
12586.667386
 31
0.0
  0
ARC
  5
6C
  8
1
 10
27606.710324
 20
12591.932286
 30
0.0
 40
12.4312
 50
334.942
 51
27.4578
  0
ARC
  5
6D
  8
1
 10
27616.612724
 20
12591.932286
 30
0.0
 40
12.4312
 50
152.5276
 51
205.0575
  0
ARC
  5
6E
  8
1
 10
27616.612724
 20
12581.402386
 30
0.0
 40
12.4312
 50
154.9422
 51
207.4744
  0
ARC
  5
6F
  8
1
 10
27606.710324
 20
12581.402386
 30
0.0
 40
12.4312
 50
332.5376
 51
25.0573
  0
LINE
  5
70
  8
1
 10
27616.171824
 20
12639.667586
 30
0.0
 11
27616.171824
 21
12625.667586
 31
0.0
  0
LINE
  5
71
  8
1
  6
DASHDOT
 10
27558.171824
 20
12632.667586
 30
0.0
 11
27677.423024
 21
12632.667586
 31
0.0
  0
LINE
  5
72
  8
1
 10
27602.172024
 20
12595.667886
 30
0.0
 11
27602.171824
 21
12577.666686
 31
0.0
  0
ARC
  5
73
  8
1
 10
27626.155224
 20
12578.917386
 30
0.0
 40
16.0161
 50
331.0601
 51
28.9395
  0
LINE
  5
74
  8
1
 10
27588.171824
 20
12627.667186
 30
0.0
 11
27616.171824
 21
12627.667586
 31
0.0
  0
LINE
  5
75
  8
1
 10
27588.171824
 20
12637.667386
 30
0.0
 11
27616.171824
 21
12637.667586
 31
0.0
  0
LINE
  5
76
  8
1
 10
27620.171524
 20
12623.667586
 30
0.0
 11
27626.171824
 21
12623.667586
 31
0.0
  0
LINE
  5
77
  8
1
 10
27620.171324
 20
12641.667586
 30
0.0
 11
27626.171524
 21
12641.667586
 31
0.0
  0
LINE
  5
78
  8
1
 10
27616.171824
 20
12625.667586
 30
0.0
 11
27619.171824
 21
12625.667586
 31
0.0
  0
LINE
  5
79
  8
1
 10
27616.171824
 20
12639.667586
 30
0.0
 11
27619.171824
 21
12639.667586
 31
0.0
  0
LINE
  5
7A
  8
1
 10
27626.872924
 20
12625.667586
 30
0.0
 11
27630.171824
 21
12625.667586
 31
0.0
  0
LINE
  5
7B
  8
1
 10
27626.873424
 20
12639.667786
 30
0.0
 11
27630.171824
 21
12639.667586
 31
0.0
  0
LINE
  5
7C
  8
1
 10
27627.171524
 20
12637.167586
 30
0.0
 11
27627.171524
 21
12632.667586
 31
0.0
  0
LINE
  5
7D
  8
1
 10
27627.171524
 20
12632.667586
 30
0.0
 11
27627.171524
 21
12628.167586
 31
0.0
  0
ARC
  5
7E
  8
1
 10
27616.546524
 20
12628.167586
 30
0.0
 40
10.625
 50
334.942
 51
25.0573
  0
ARC
  5
7F
  8
1
 10
27629.796524
 20
12628.167586
 30
0.0
 40
10.625
 50
154.9422
 51
205.0575
  0
ARC
  5
80
  8
1
 10
27629.796524
 20
12637.167586
 30
0.0
 40
10.625
 50
154.9422
 51
205.0575
  0
ARC
  5
81
  8
1
 10
27616.546524
 20
12637.167586
 30
0.0
 40
10.625
 50
334.942
 51
25.0574
  0
LINE
  5
82
  8
1
 10
27619.171824
 20
12637.167586
 30
0.0
 11
27619.171824
 21
12632.667586
 31
0.0
  0
LINE
  5
83
  8
1
 10
27619.171824
 20
12632.667586
 30
0.0
 11
27619.171824
 21
12628.167586
 31
0.0
  0
LINE
  5
84
  8
1
 10
27630.171824
 20
12621.667586
 30
0.0
 11
27641.671524
 21
12621.667586
 31
0.0
  0
LINE
  5
85
  8
1
 10
27630.171824
 20
12643.667586
 30
0.0
 11
27641.671524
 21
12643.667586
 31
0.0
  0
LINE
  5
86
  8
1
 10
27630.171824
 20
12643.667586
 30
0.0
 11
27630.171824
 21
12638.167586
 31
0.0
  0
LINE
  5
87
  8
1
 10
27630.171824
 20
12638.167586
 30
0.0
 11
27630.171824
 21
12632.667586
 31
0.0
  0
LINE
  5
88
  8
1
 10
27630.171824
 20
12632.667586
 30
0.0
 11
27630.171824
 21
12627.167586
 31
0.0
  0
LINE
  5
89
  8
1
 10
27588.171524
 20
12541.667386
 30
0.0
 11
27588.171824
 21
13341.667286
 31
0.0
  0
LINE
  5
8A
  8
1
 10
27630.171824
 20
12627.167586
 30
0.0
 11
27630.171824
 21
12621.667586
 31
0.0
  0
LINE
  5
8B
  8
1
 10
27648.171824
 20
12639.667286
 30
0.0
 11
27648.171824
 21
12638.167586
 31
0.0
  0
LINE
  5
8C
  8
1
 10
27648.171824
 20
12638.167586
 30
0.0
 11
27648.171824
 21
12632.667586
 31
0.0
  0
LINE
  5
8D
  8
1
 10
27648.171824
 20
12632.667586
 30
0.0
 11
27648.171824
 21
12627.167586
 31
0.0
  0
LINE
  5
8E
  8
1
 10
27648.171824
 20
12627.167586
 30
0.0
 11
27648.171824
 21
12625.667586
 31
0.0
  0
ARC
  5
8F
  8
1
 10
27632.338324
 20
12627.167586
 30
0.0
 40
10.8333
 50
329.4892
 51
30.5102
  0
ARC
  5
90
  8
1
 10
27641.005524
 20
12627.167786
 30
0.0
 40
10.8333
 50
149.4894
 51
210.5104
  0
ARC
  5
91
  8
1
 10
27641.005524
 20
12638.167286
 30
0.0
 40
10.8333
 50
149.4894
 51
210.5103
  0
ARC
  5
92
  8
1
 10
27632.338324
 20
12638.167586
 30
0.0
 40
10.8333
 50
329.4892
 51
30.5102
  0
ARC
  5
93
  8
1
 10
27648.265824
 20
12618.233186
 30
0.0
 40
7.4349
 50
90.7241
 51
152.489
  0
LINE
  5
94
  8
1
 10
27617.740824
 20
12575.669586
 30
0.0
 11
27605.583424
 21
12575.667186
 31
0.0
  0
LINE
  5
95
  8
1
 10
27622.171524
 20
12577.670686
 30
0.0
 11
27618.568224
 21
12577.670886
 31
0.0
  0
ARC
  5
96
  8
1
 10
27648.265824
 20
12647.101886
 30
0.0
 40
7.4349
 50
207.5107
 51
269.2756
  0
ARC
  5
97
  8
1
 10
27638.187424
 20
12578.917386
 30
0.0
 40
16.0161
 50
151.0601
 51
208.9394
  0
LINE
  5
98
  8
1
 10
27617.741124
 20
12597.664386
 30
0.0
 11
27605.583124
 21
12597.667086
 31
0.0
  0
LINE
  5
99
  8
1
 10
27602.171824
 20
12577.666786
 30
0.0
 11
27604.755724
 21
12577.667386
 31
0.0
  0
LINE
  5
9A
  8
1
 10
27620.172024
 20
12581.177386
 30
0.0
 11
27620.172024
 21
12581.396286
 31
0.0
  0
ARC
  5
9B
  8
1
 10
27648.214524
 20
12563.675986
 30
0.0
 40
10.9915
 50
90.2244
 51
137.0336
  0
LINE
  5
9C
  8
1
 10
27618.568024
 20
12595.664486
 30
0.0
 11
27622.171324
 21
12595.663586
 31
0.0
  0
LINE
  5
9D
  8
1
 10
27619.171824
 20
12592.175486
 30
0.0
 11
27619.171524
 21
12581.177386
 31
0.0
  0
LINE
  5
9E
  8
1
 10
27602.172224
 20
12595.667986
 30
0.0
 11
27604.756024
 21
12595.667586
 31
0.0
  0
LINE
  5
9F
  8
1
 10
27620.171524
 20
12586.667386
 30
0.0
 11
27622.171524
 21
12586.667386
 31
0.0
  0
LINE
  5
A0
  8
1
 10
27622.171524
 20
12602.167386
 30
0.0
 11
27622.171524
 21
12571.167386
 31
0.0
  0
ARC
  5
A1
  8
1
 10
27638.187424
 20
12594.417386
 30
0.0
 40
16.0161
 50
151.0603
 51
208.9396
  0
ARC
  5
A2
  8
1
 10
27626.155224
 20
12594.417386
 30
0.0
 40
16.0161
 50
331.0599
 51
28.9393
  0
ARC
  5
A3
  8
1
 10
27648.214524
 20
12609.658886
 30
0.0
 40
10.9915
 50
222.9662
 51
269.7753
  0
LINE
  5
A4
  8
1
 10
27604.171824
 20
12592.175486
 30
0.0
 11
27604.171524
 21
12581.177386
 31
0.0
  0
LINE
  5
A5
  8
1
 10
27622.171524
 20
12602.167386
 30
0.0
 11
27640.171324
 21
12602.167386
 31
0.0
  0
LINE
  5
A6
  8
1
 10
27622.171524
 20
12571.167386
 30
0.0
 11
27640.171524
 21
12571.167386
 31
0.0
  0
LINE
  5
A7
  8
1
 10
27648.171324
 20
12598.667386
 30
0.0
 11
27648.171524
 21
12574.667386
 31
0.0
  0
LINE
  5
A8
  8
1
 10
27588.171524
 20
12594.667386
 30
0.0
 11
27602.172024
 21
12594.667386
 31
0.0
  0
LINE
  5
A9
  8
1
 10
27588.171524
 20
12578.667386
 30
0.0
 11
27602.171524
 21
12578.667286
 31
0.0
  0
ENDBLK
  5
AA
  8
0
  0
BLOCK
  5
AC
  8
2
  2
*D4
 70
    65
 10
0.0
 20
0.0
 30
0.0
  3
*D4
  1

  0
POINT
  5
AD
  8
DEFPOINTS
 10
29386.237037
 20
11473.245864
 30
0.0
  0
POINT
  5
AE
  8
DEFPOINTS
 10
29387.236737
 20
11668.245864
 30
0.0
  0
POINT
  5
AF
  8
DEFPOINTS
 10
29582.318337
 20
11540.278698
 30
0.0
  0
LINE
  5
B0
  8
2
 10
29389.237037
 20
11473.245864
 30
0.0
 11
29587.318337
 21
11473.245864
 31
0.0
  0
LINE
  5
B1
  8
2
 10
29390.236737
 20
11668.245864
 30
0.0
 11
29587.318337
 21
11668.245864
 31
0.0
  0
LINE
  5
B2
  8
2
 10
29582.318337
 20
11421.543456
 30
0.0
 11
29582.318337
 21
11719.948272
 31
0.0
  0
LINE
  5
B3
  8
2
 10
29588.396024
 20
11438.777593
 30
0.0
 11
29582.318337
 21
11473.245864
 31
0.0
  0
LINE
  5
B4
  8
2
 10
29576.240652
 20
11438.777592
 30
0.0
 11
29582.318337
 21
11473.245864
 31
0.0
  0
LINE
  5
B5
  8
2
 10
29576.240656
 20
11702.714136
 30
0.0
 11
29582.318337
 21
11668.245864
 31
0.0
  0
LINE
  5
B6
  8
2
 10
29588.396028
 20
11702.714134
 30
0.0
 11
29582.318337
 21
11668.245864
 31
0.0
  0
TEXT
  5
B7
  8
2
 10
29580.318359
 20
11503.06543
 30
0.0
 40
48.0
  1
195
 50
90.000003
 41
0.9
  7
MONOTXT
  0
ENDBLK
  5
B8
  8
0
  0
BLOCK
  5
BA
  8
2
  2
*D5
 70
    65
 10
0.0
 20
0.0
 30
0.0
  3
*D5
  1

  0
POINT
  5
BB
  8
DEFPOINTS
 10
29049.236737
 20
11413.245864
 30
0.0
  0
POINT
  5
BC
  8
DEFPOINTS
 10
29049.236737
 20
11548.245864
 30
0.0
  0
POINT
  5
BD
  8
DEFPOINTS
 10
29304.876137
 20
11490.282239
 30
0.0
  0
LINE
  5
BE
  8
2
 10
29052.236737
 20
11413.245864
 30
0.0
 11
29309.876137
 21
11413.245864
 31
0.0
  0
LINE
  5
BF
  8
2
 10
29052.236737
 20
11548.245864
 30
0.0
 11
29309.876137
 21
11548.245864
 31
0.0
  0
LINE
  5
C0
  8
2
 10
29304.876137
 20
11413.245864
 30
0.0
 11
29304.876137
 21
11548.245864
 31
0.0
  0
LINE
  5
C1
  8
2
 10
29298.79845
 20
11447.714135
 30
0.0
 11
29304.876137
 21
11413.245864
 31
0.0
  0
LINE
  5
C2
  8
2
 10
29310.953822
 20
11447.714136
 30
0.0
 11
29304.876137
 21
11413.245864
 31
0.0
  0
LINE
  5
C3
  8
2
 10
29310.953824
 20
11513.777593
 30
0.0
 11
29304.876137
 21
11548.245864
 31
0.0
  0
LINE
  5
C4
  8
2
 10
29298.798452
 20
11513.777592
 30
0.0
 11
29304.876137
 21
11548.245864
 31
0.0
  0
TEXT
  5
C5
  8
2
 10
29302.876953
 20
11405.62207
 30
0.0
 40
48.0
  1
135
 50
90.000003
 41
0.9
  7
MONOTXT
  0
ENDBLK
  5
C6
  8
0
  0
BLOCK
  5
C8
  8
2
  2
*D6
 70
    65
 10
0.0
 20
0.0
 30
0.0
  3
*D6
  1

  0
POINT
  5
C9
  8
DEFPOINTS
 10
29049.236737
 20
11548.245864
 30
0.0
  0
POINT
  5
CA
  8
DEFPOINTS
 10
29387.236737
 20
11668.245864
 30
0.0
  0
POINT
  5
CB
  8
DEFPOINTS
 10
29304.876137
 20
11625.986913
 30
0.0
  0
LINE
  5
CC
  8
2
 10
29052.236737
 20
11548.245864
 30
0.0
 11
29309.876137
 21
11548.245864
 31
0.0
  0
LINE
  5
CD
  8
2
 10
29384.236737
 20
11668.245864
 30
0.0
 11
29299.876137
 21
11668.245864
 31
0.0
  0
LINE
  5
CE
  8
2
 10
29304.876137
 20
11548.245864
 30
0.0
 11
29304.876137
 21
11668.245864
 31
0.0
  0
LINE
  5
CF
  8
2
 10
29298.79845
 20
11582.714135
 30
0.0
 11
29304.876137
 21
11548.245864
 31
0.0
  0
LINE
  5
D0
  8
2
 10
29310.953822
 20
11582.714136
 30
0.0
 11
29304.876137
 21
11548.245864
 31
0.0
  0
LINE
  5
D1
  8
2
 10
29310.953824
 20
11633.777593
 30
0.0
 11
29304.876137
 21
11668.245864
 31
0.0
  0
LINE
  5
D2
  8
2
 10
29298.798452
 20
11633.777592
 30
0.0
 11
29304.876137
 21
11668.245864
 31
0.0
  0
TEXT
  5
D3
  8
2
 10
29302.876953
 20
11536.938477
 30
0.0
 40
48.0
  1
120
 50
90.000003
 41
0.9
  7
MONOTXT
  0
ENDBLK
  5
D4
  8
0
  0
BLOCK
  5
D6
  8
2
  2
*D7
 70
    65
 10
0.0
 20
0.0
 30
0.0
  3
*D7
  1

  0
POINT
  5
D7
  8
DEFPOINTS
 10
28587.236737
 20
11668.245864
 30
0.0
  0
POINT
  5
D8
  8
DEFPOINTS
 10
29387.236737
 20
11668.245864
 30
0.0
  0
POINT
  5
D9
  8
DEFPOINTS
 10
28721.688597
 20
12039.495364
 30
0.0
  0
LINE
  5
DA
  8
2
 10
28587.236737
 20
11671.245864
 30
0.0
 11
28587.236737
 21
12044.495364
 31
0.0
  0
LINE
  5
DB
  8
2
 10
29387.236737
 20
11671.245864
 30
0.0
 11
29387.236737
 21
12044.495364
 31
0.0
  0
LINE
  5
DC
  8
2
 10
28587.236737
 20
12039.495364
 30
0.0
 11
29387.236737
 21
12039.495364
 31
0.0
  0
LINE
  5
DD
  8
2
 10
28621.705009
 20
12045.57305
 30
0.0
 11
28587.236737
 21
12039.495364
 31
0.0
  0
LINE
  5
DE
  8
2
 10
28621.705009
 20
12033.417678
 30
0.0
 11
28587.236737
 21
12039.495364
 31
0.0
  0
LINE
  5
DF
  8
2
 10
29352.768467
 20
12033.417675
 30
0.0
 11
29387.236737
 21
12039.495364
 31
0.0
  0
LINE
  5
E0
  8
2
 10
29352.768465
 20
12045.573047
 30
0.0
 11
29387.236737
 21
12039.495364
 31
0.0
  0
TEXT
  5
E1
  8
2
 10
28919.556641
 20
12041.495117
 30
0.0
 40
48.0
  1
800
 41
0.9
  7
MONOTXT
  0
ENDBLK
  5
E2
  8
0
  0
BLOCK
  5
E4
  8
2
  2
*D8
 70
    65
 10
0.0
 20
0.0
 30
0.0
  3
*D8
  1

  0
POINT
  5
E5
  8
DEFPOINTS
 10
28587.236737
 20
11668.245864
 30
0.0
  0
POINT
  5
E6
  8
DEFPOINTS
 10
29027.236737
 20
11570.245864
 30
0.0
  0
POINT
  5
E7
  8
DEFPOINTS
 10
28721.688597
 20
11879.495364
 30
0.0
  0
LINE
  5
E8
  8
2
 10
28587.236737
 20
11671.245864
 30
0.0
 11
28587.236737
 21
11884.495364
 31
0.0
  0
LINE
  5
E9
  8
2
 10
29027.236737
 20
11573.245864
 30
0.0
 11
29027.236737
 21
11884.495364
 31
0.0
  0
LINE
  5
EA
  8
2
 10
28587.236737
 20
11879.495364
 30
0.0
 11
29027.236737
 21
11879.495364
 31
0.0
  0
LINE
  5
EB
  8
2
 10
28621.705009
 20
11885.57305
 30
0.0
 11
28587.236737
 21
11879.495364
 31
0.0
  0
LINE
  5
EC
  8
2
 10
28621.705009
 20
11873.417678
 30
0.0
 11
28587.236737
 21
11879.495364
 31
0.0
  0
LINE
  5
ED
  8
2
 10
28992.768467
 20
11873.417675
 30
0.0
 11
29027.236737
 21
11879.495364
 31
0.0
  0
LINE
  5
EE
  8
2
 10
28992.768465
 20
11885.573047
 30
0.0
 11
29027.236737
 21
11879.495364
 31
0.0
  0
TEXT
  5
EF
  8
2
 10
28739.556641
 20
11881.495117
 30
0.0
 40
48.0
  1
440
 41
0.9
  7
MONOTXT
  0
ENDBLK
  5
F0
  8
0
  0
BLOCK
  5
F2
  8
2
  2
*D9
 70
    65
 10
0.0
 20
0.0
 30
0.0
  3
*D9
  1

  0
POINT
  5
F3
  8
DEFPOINTS
 10
28587.236737
 20
11668.245864
 30
0.0
  0
POINT
  5
F4
  8
DEFPOINTS
 10
28902.237037
 20
11628.246064
 30
0.0
  0
POINT
  5
F5
  8
DEFPOINTS
 10
28669.90655
 20
11800.941364
 30
0.0
  0
LINE
  5
F6
  8
2
 10
28587.236737
 20
11671.245864
 30
0.0
 11
28587.236737
 21
11805.941364
 31
0.0
  0
LINE
  5
F7
  8
2
 10
28902.237037
 20
11631.246064
 30
0.0
 11
28902.237037
 21
11805.941364
 31
0.0
  0
LINE
  5
F8
  8
2
 10
28587.236737
 20
11800.941364
 30
0.0
 11
28902.237037
 21
11800.941364
 31
0.0
  0
LINE
  5
F9
  8
2
 10
28621.705009
 20
11807.01905
 30
0.0
 11
28587.236737
 21
11800.941364
 31
0.0
  0
LINE
  5
FA
  8
2
 10
28621.705009
 20
11794.863678
 30
0.0
 11
28587.236737
 21
11800.941364
 31
0.0
  0
LINE
  5
FB
  8
2
 10
28867.768767
 20
11794.863675
 30
0.0
 11
28902.237037
 21
11800.941364
 31
0.0
  0
LINE
  5
FC
  8
2
 10
28867.768765
 20
11807.019047
 30
0.0
 11
28902.237037
 21
11800.941364
 31
0.0
  0
TEXT
  5
FD
  8
2
 10
28677.056641
 20
11802.941406
 30
0.0
 40
48.0
  1
315
 41
0.9
  7
MONOTXT
  0
ENDBLK
  5
FE
  8
0
  0
BLOCK
  5
100
  8
2
  2
*D10
 70
    65
 10
0.0
 20
0.0
 30
0.0
  3
*D10
  1

  0
POINT
  5
101
  8
DEFPOINTS
 10
28587.236737
 20
11668.245864
 30
0.0
  0
POINT
  5
102
  8
DEFPOINTS
 10
29182.238237
 20
11628.245364
 30
0.0
  0
POINT
  5
103
  8
DEFPOINTS
 10
28753.829177
 20
11959.495364
 30
0.0
  0
LINE
  5
104
  8
2
 10
28587.236737
 20
11671.245864
 30
0.0
 11
28587.236737
 21
11964.495364
 31
0.0
  0
LINE
  5
105
  8
2
 10
29182.238237
 20
11631.245364
 30
0.0
 11
29182.238237
 21
11964.495364
 31
0.0
  0
LINE
  5
106
  8
2
 10
28587.236737
 20
11959.495364
 30
0.0
 11
29182.238237
 21
11959.495364
 31
0.0
  0
LINE
  5
107
  8
2
 10
28621.705009
 20
11965.57305
 30
0.0
 11
28587.236737
 21
11959.495364
 31
0.0
  0
LINE
  5
108
  8
2
 10
28621.705009
 20
11953.417678
 30
0.0
 11
28587.236737
 21
11959.495364
 31
0.0
  0
LINE
  5
109
  8
2
 10
29147.769967
 20
11953.417675
 30
0.0
 11
29182.238237
 21
11959.495364
 31
0.0
  0
LINE
  5
10A
  8
2
 10
29147.769965
 20
11965.573047
 30
0.0
 11
29182.238237
 21
11959.495364
 31
0.0
  0
TEXT
  5
10B
  8
2
 10
28618.857422
 20
11961.495117
 30
0.0
 40
48.0
  1
595
 41
0.9
  7
MONOTXT
  0
ENDBLK
  5
10C
  8
0
  0
BLOCK
  5
10E
  8
2
  2
*D11
 70
    65
 10
0.0
 20
0.0
 30
0.0
  3
*D11
  1

  0
POINT
  5
10F
  8
DEFPOINTS
 10
28562.237037
 20
11641.244364
 30
0.0
  0
POINT
  5
110
  8
DEFPOINTS
 10
28587.236737
 20
11668.245864
 30
0.0
  0
POINT
  5
111
  8
DEFPOINTS
 10
28484.205417
 20
12039.495364
 30
0.0
  0
LINE
  5
112
  8
2
 10
28562.237037
 20
11644.244364
 30
0.0
 11
28562.237037
 21
12044.495364
 31
0.0
  0
LINE
  5
113
  8
2
 10
28587.236737
 20
11671.245864
 30
0.0
 11
28587.236737
 21
12044.495364
 31
0.0
  0
LINE
  5
114
  8
2
 10
28383.197029
 20
12039.495364
 30
0.0
 11
28638.939145
 21
12039.495364
 31
0.0
  0
LINE
  5
115
  8
2
 10
28527.768767
 20
12033.417675
 30
0.0
 11
28562.237037
 21
12039.495364
 31
0.0
  0
LINE
  5
116
  8
2
 10
28527.768765
 20
12045.573047
 30
0.0
 11
28562.237037
 21
12039.495364
 31
0.0
  0
LINE
  5
117
  8
2
 10
28621.705008
 20
12045.573056
 30
0.0
 11
28587.236737
 21
12039.495364
 31
0.0
  0
LINE
  5
118
  8
2
 10
28621.70501
 20
12033.417684
 30
0.0
 11
28587.236737
 21
12039.495364
 31
0.0
  0
TEXT
  5
119
  8
2
 10
28426.876953
 20
12041.495117
 30
0.0
 40
48.0
  1
25
 41
0.9
  7
MONOTXT
  0
ENDBLK
  5
11A
  8
0
  0
BLOCK
  5
11C
  8
2
  2
*D12
 70
    65
 10
0.0
 20
0.0
 30
0.0
  3
*D12
  1

  0
POINT
  5
11D
  8
DEFPOINTS
 10
28566.984648
 20
11468.245864
 30
0.0
  0
POINT
  5
11E
  8
DEFPOINTS
 10
28566.746165
 20
11598.245864
 30
0.0
  0
POINT
  5
11F
  8
DEFPOINTS
 10
28442.613237
 20
11534.921934
 30
0.0
  0
LINE
  5
120
  8
2
 10
28563.984648
 20
11468.245864
 30
0.0
 11
28437.613237
 21
11468.245864
 31
0.0
  0
LINE
  5
121
  8
2
 10
28563.746165
 20
11598.245864
 30
0.0
 11
28437.613237
 21
11598.245864
 31
0.0
  0
LINE
  5
122
  8
2
 10
28442.613237
 20
11468.245864
 30
0.0
 11
28442.613237
 21
11598.245864
 31
0.0
  0
LINE
  5
123
  8
2
 10
28436.53555
 20
11502.714135
 30
0.0
 11
28442.613237
 21
11468.245864
 31
0.0
  0
LINE
  5
124
  8
2
 10
28448.690922
 20
11502.714136
 30
0.0
 11
28442.613237
 21
11468.245864
 31
0.0
  0
LINE
  5
125
  8
2
 10
28448.690924
 20
11563.777593
 30
0.0
 11
28442.613237
 21
11598.245864
 31
0.0
  0
LINE
  5
126
  8
2
 10
28436.535552
 20
11563.777592
 30
0.0
 11
28442.613237
 21
11598.245864
 31
0.0
  0
TEXT
  5
127
  8
2
 10
28440.613281
 20
11387.69043
 30
0.0
 40
40.0
  1
２×６５＝１３０
 50
90.000003
 41
0.9
  7
MONOTXT
  0
ENDBLK
  5
128
  8
0
  0
BLOCK
  5
12A
  8
2
  2
*D13
 70
    65
 10
0.0
 20
0.0
 30
0.0
  3
*D13
  1

  0
POINT
  5
12B
  8
DEFPOINTS
 10
28587.236737
 20
11368.245864
 30
0.0
  0
POINT
  5
12C
  8
DEFPOINTS
 10
28632.236737
 20
11447.245864
 30
0.0
  0
POINT
  5
12D
  8
DEFPOINTS
 10
28539.55864
 20
11297.114464
 30
0.0
  0
LINE
  5
12E
  8
2
 10
28587.236737
 20
11365.245864
 30
0.0
 11
28587.236737
 21
11292.114464
 31
0.0
  0
LINE
  5
12F
  8
2
 10
28632.236737
 20
11444.245864
 30
0.0
 11
28632.236737
 21
11292.114464
 31
0.0
  0
LINE
  5
130
  8
2
 10
28408.196729
 20
11297.114464
 30
0.0
 11
28676.553086
 21
11297.114464
 31
0.0
  0
LINE
  5
131
  8
2
 10
28552.768467
 20
11291.036775
 30
0.0
 11
28587.236737
 21
11297.114464
 31
0.0
  0
LINE
  5
132
  8
2
 10
28552.768465
 20
11303.192147
 30
0.0
 11
28587.236737
 21
11297.114464
 31
0.0
  0
CIRCLE
  5
133
  8
2
 10
28632.236737
 20
11297.114464
 30
0.0
 40
7.5
  0
CIRCLE
  5
134
  8
2
 10
28632.236737
 20
11297.114464
 30
0.0
 40
4.5
  0
TEXT
  5
135
  8
2
 10
28451.876953
 20
11299.114258
 30
0.0
 40
48.0
  1
45
 41
0.9
  7
MONOTXT
  0
ENDBLK
  5
136
  8
0
  0
BLOCK
  5
138
  8
2
  2
*D14
 70
    65
 10
0.0
 20
0.0
 30
0.0
  3
*D14
  1

  0
POINT
  5
139
  8
DEFPOINTS
 10
28632.236737
 20
11447.245864
 30
0.0
  0
POINT
  5
13A
  8
DEFPOINTS
 10
28678.236737
 20
11502.245864
 30
0.0
  0
POINT
  5
13B
  8
DEFPOINTS
 10
28721.688597
 20
11297.114464
 30
0.0
  0
LINE
  5
13C
  8
2
 10
28632.236737
 20
11444.245864
 30
0.0
 11
28632.236737
 21
11292.114464
 31
0.0
  0
LINE
  5
13D
  8
2
 10
28678.236737
 20
11499.245864
 30
0.0
 11
28678.236737
 21
11292.114464
 31
0.0
  0
LINE
  5
13E
  8
2
 10
28587.920388
 20
11297.114464
 30
0.0
 11
28857.276746
 21
11297.114464
 31
0.0
  0
CIRCLE
  5
13F
  8
2
 10
28632.236737
 20
11297.114464
 30
0.0
 40
7.5
  0
CIRCLE
  5
140
  8
2
 10
28632.236737
 20
11297.114464
 30
0.0
 40
4.5
  0
LINE
  5
141
  8
2
 10
28712.705008
 20
11303.192156
 30
0.0
 11
28678.236737
 21
11297.114464
 31
0.0
  0
LINE
  5
142
  8
2
 10
28712.70501
 20
11291.036784
 30
0.0
 11
28678.236737
 21
11297.114464
 31
0.0
  0
TEXT
  5
143
  8
2
 10
28721.916016
 20
11299.114258
 30
0.0
 40
48.0
  1
46
 41
0.9
  7
MONOTXT
  0
ENDBLK
  5
144
  8
0
  0
BLOCK
  5
146
  8
2
  2
*D15
 70
    65
 10
0.0
 20
0.0
 30
0.0
  3
*D15
  1

  0
POINT
  5
147
  8
DEFPOINTS
 10
27588.17238
 20
11282.746064
 30
0.0
  0
POINT
  5
148
  8
DEFPOINTS
 10
27645.17268
 20
11383.228964
 30
0.0
  0
POINT
  5
149
  8
DEFPOINTS
 10
27627.601683
 20
11262.748264
 30
0.0
  0
LINE
  5
14A
  8
2
 10
27588.17238
 20
11279.746064
 30
0.0
 11
27588.17238
 21
11257.748264
 31
0.0
  0
LINE
  5
14B
  8
2
 10
27645.17268
 20
11380.228964
 30
0.0
 11
27645.17268
 21
11257.748264
 31
0.0
  0
LINE
  5
14C
  8
2
 10
27536.469972
 20
11262.748264
 30
0.0
 11
27824.212688
 21
11262.748264
 31
0.0
  0
LINE
  5
14D
  8
2
 10
27553.704109
 20
11256.670575
 30
0.0
 11
27588.17238
 21
11262.748264
 31
0.0
  0
LINE
  5
14E
  8
2
 10
27553.704108
 20
11268.825947
 30
0.0
 11
27588.17238
 21
11262.748264
 31
0.0
  0
LINE
  5
14F
  8
2
 10
27679.64095
 20
11268.825956
 30
0.0
 11
27645.17268
 21
11262.748264
 31
0.0
  0
LINE
  5
150
  8
2
 10
27679.640952
 20
11256.670584
 30
0.0
 11
27645.17268
 21
11262.748264
 31
0.0
  0
TEXT
  5
151
  8
2
 10
27688.853516
 20
11264.748047
 30
0.0
 40
48.0
  1
57
 41
0.9
  7
MONOTXT
  0
ENDBLK
  5
152
  8
0
  0
BLOCK
  5
154
  8
2
  2
*D16
 70
    65
 10
0.0
 20
0.0
 30
0.0
  3
*D16
  1

  0
POINT
  5
155
  8
DEFPOINTS
 10
27638.17268
 20
11601.245864
 30
0.0
  0
POINT
  5
156
  8
DEFPOINTS
 10
27588.17268
 20
11668.245864
 30
0.0
  0
POINT
  5
157
  8
DEFPOINTS
 10
27720.67708
 20
11635.277017
 30
0.0
  0
LINE
  5
158
  8
2
 10
27641.17268
 20
11601.245864
 30
0.0
 11
27725.67708
 21
11601.245864
 31
0.0
  0
LINE
  5
159
  8
2
 10
27591.17268
 20
11668.245864
 30
0.0
 11
27725.67708
 21
11668.245864
 31
0.0
  0
LINE
  5
15A
  8
2
 10
27720.67708
 20
11601.245864
 30
0.0
 11
27720.67708
 21
11668.245864
 31
0.0
  0
LINE
  5
15B
  8
2
 10
27714.599392
 20
11635.714135
 30
0.0
 11
27720.67708
 21
11601.245864
 31
0.0
  0
LINE
  5
15C
  8
2
 10
27726.754764
 20
11635.714136
 30
0.0
 11
27720.67708
 21
11601.245864
 31
0.0
  0
LINE
  5
15D
  8
2
 10
27726.754766
 20
11633.777593
 30
0.0
 11
27720.67708
 21
11668.245864
 31
0.0
  0
LINE
  5
15E
  8
2
 10
27714.599394
 20
11633.777592
 30
0.0
 11
27720.67708
 21
11668.245864
 31
0.0
  0
TEXT
  5
15F
  8
2
 10
27718.677734
 20
11592.269531
 30
0.0
 40
48.0
  1
67
 50
90.000003
 41
0.9
  7
MONOTXT
  0
ENDBLK
  5
160
  8
0
  0
BLOCK
  5
162
  8
2
  2
*D17
 70
    65
 10
0.0
 20
0.0
 30
0.0
  3
*D17
  1

  0
POINT
  5
163
  8
DEFPOINTS
 10
27677.42388
 20
11468.245864
 30
0.0
  0
POINT
  5
164
  8
DEFPOINTS
 10
27588.17268
 20
11668.245864
 30
0.0
  0
POINT
  5
165
  8
DEFPOINTS
 10
27888.27028
 20
11561.46276
 30
0.0
  0
LINE
  5
166
  8
2
 10
27680.42388
 20
11468.245864
 30
0.0
 11
27893.27028
 21
11468.245864
 31
0.0
  0
LINE
  5
167
  8
2
 10
27591.17268
 20
11668.245864
 30
0.0
 11
27893.27028
 21
11668.245864
 31
0.0
  0
LINE
  5
168
  8
2
 10
27888.27028
 20
11468.245864
 30
0.0
 11
27888.27028
 21
11668.245864
 31
0.0
  0
LINE
  5
169
  8
2
 10
27882.192592
 20
11502.714135
 30
0.0
 11
27888.27028
 21
11468.245864
 31
0.0
  0
LINE
  5
16A
  8
2
 10
27894.347964
 20
11502.714136
 30
0.0
 11
27888.27028
 21
11468.245864
 31
0.0
  0
LINE
  5
16B
  8
2
 10
27894.347966
 20
11633.777593
 30
0.0
 11
27888.27028
 21
11668.245864
 31
0.0
  0
LINE
  5
16C
  8
2
 10
27882.192594
 20
11633.777592
 30
0.0
 11
27888.27028
 21
11668.245864
 31
0.0
  0
TEXT
  5
16D
  8
2
 10
27886.269531
 20
11500.56543
 30
0.0
 40
48.0
  1
200
 50
90.000003
 41
0.9
  7
MONOTXT
  0
ENDBLK
  5
16E
  8
0
  0
BLOCK
  5
170
  8
2
  2
*D18
 70
    65
 10
0.0
 20
0.0
 30
0.0
  3
*D18
  1

  0
POINT
  5
171
  8
DEFPOINTS
 10
27678.17268
 20
11518.245864
 30
0.0
  0
POINT
  5
172
  8
DEFPOINTS
 10
27588.17268
 20
11668.245864
 30
0.0
  0
POINT
  5
173
  8
DEFPOINTS
 10
27810.33938
 20
11613.521236
 30
0.0
  0
LINE
  5
174
  8
2
 10
27681.17268
 20
11518.245864
 30
0.0
 11
27815.33938
 21
11518.245864
 31
0.0
  0
LINE
  5
175
  8
2
 10
27591.17268
 20
11668.245864
 30
0.0
 11
27815.33938
 21
11668.245864
 31
0.0
  0
LINE
  5
176
  8
2
 10
27810.33938
 20
11518.245864
 30
0.0
 11
27810.33938
 21
11668.245864
 31
0.0
  0
LINE
  5
177
  8
2
 10
27804.261692
 20
11552.714135
 30
0.0
 11
27810.33938
 21
11518.245864
 31
0.0
  0
LINE
  5
178
  8
2
 10
27816.417064
 20
11552.714136
 30
0.0
 11
27810.33938
 21
11518.245864
 31
0.0
  0
LINE
  5
179
  8
2
 10
27816.417066
 20
11633.777593
 30
0.0
 11
27810.33938
 21
11668.245864
 31
0.0
  0
LINE
  5
17A
  8
2
 10
27804.261694
 20
11633.777592
 30
0.0
 11
27810.33938
 21
11668.245864
 31
0.0
  0
TEXT
  5
17B
  8
2
 10
27808.339844
 20
11525.56543
 30
0.0
 40
48.0
  1
150
 50
90.000003
 41
0.9
  7
MONOTXT
  0
ENDBLK
  5
17C
  8
0
  0
BLOCK
  5
17E
  8
2
  2
*D19
 70
    65
 10
0.0
 20
0.0
 30
0.0
  3
*D19
  1

  0
POINT
  5
17F
  8
DEFPOINTS
 10
26188.17248
 20
11668.245864
 30
0.0
  0
POINT
  5
180
  8
DEFPOINTS
 10
27588.17268
 20
11668.245864
 30
0.0
  0
POINT
  5
181
  8
DEFPOINTS
 10
26647.356298
 20
12169.495364
 30
0.0
  0
LINE
  5
182
  8
2
 10
26188.17248
 20
11671.245864
 30
0.0
 11
26188.17248
 21
12174.495364
 31
0.0
  0
LINE
  5
183
  8
2
 10
27588.17268
 20
11671.245864
 30
0.0
 11
27588.17268
 21
12174.495364
 31
0.0
  0
LINE
  5
184
  8
2
 10
26188.17248
 20
12169.495364
 30
0.0
 11
27588.17268
 21
12169.495364
 31
0.0
  0
LINE
  5
185
  8
2
 10
26222.640751
 20
12175.57305
 30
0.0
 11
26188.17248
 21
12169.495364
 31
0.0
  0
LINE
  5
186
  8
2
 10
26222.640751
 20
12163.417678
 30
0.0
 11
26188.17248
 21
12169.495364
 31
0.0
  0
LINE
  5
187
  8
2
 10
27553.704409
 20
12163.417675
 30
0.0
 11
27588.17268
 21
12169.495364
 31
0.0
  0
LINE
  5
188
  8
2
 10
27553.704408
 20
12175.573047
 30
0.0
 11
27588.17268
 21
12169.495364
 31
0.0
  0
TEXT
  5
189
  8
2
 10
26798.652344
 20
12171.495117
 30
0.0
 40
48.0
  1
1400
 41
0.9
  7
MONOTXT
  0
ENDBLK
  5
18A
  8
0
  0
BLOCK
  5
18C
  8
2
  2
*D20
 70
    65
 10
0.0
 20
0.0
 30
0.0
  3
*D20
  1

  0
POINT
  5
18D
  8
DEFPOINTS
 10
27588.17268
 20
11668.245864
 30
0.0
  0
POINT
  5
18E
  8
DEFPOINTS
 10
27648.17268
 20
11525.245864
 30
0.0
  0
POINT
  5
18F
  8
DEFPOINTS
 10
27694.115825
 20
12169.495364
 30
0.0
  0
LINE
  5
190
  8
2
 10
27588.17268
 20
11671.245864
 30
0.0
 11
27588.17268
 21
12174.495364
 31
0.0
  0
LINE
  5
191
  8
2
 10
27648.17268
 20
11528.245864
 30
0.0
 11
27648.17268
 21
12174.495364
 31
0.0
  0
LINE
  5
192
  8
2
 10
27536.470272
 20
12169.495364
 30
0.0
 11
27827.212688
 21
12169.495364
 31
0.0
  0
LINE
  5
193
  8
2
 10
27553.704409
 20
12163.417675
 30
0.0
 11
27588.17268
 21
12169.495364
 31
0.0
  0
LINE
  5
194
  8
2
 10
27553.704408
 20
12175.573047
 30
0.0
 11
27588.17268
 21
12169.495364
 31
0.0
  0
LINE
  5
195
  8
2
 10
27682.64095
 20
12175.573056
 30
0.0
 11
27648.17268
 21
12169.495364
 31
0.0
  0
LINE
  5
196
  8
2
 10
27682.640952
 20
12163.417684
 30
0.0
 11
27648.17268
 21
12169.495364
 31
0.0
  0
TEXT
  5
197
  8
2
 10
27691.853516
 20
12171.495117
 30
0.0
 40
48.0
  1
60
 41
0.9
  7
MONOTXT
  0
ENDBLK
  5
198
  8
0
  0
BLOCK
  5
19A
  8
2
  2
*D21
 70
    65
 10
0.0
 20
0.0
 30
0.0
  3
*D21
  1

  0
POINT
  5
19B
  8
DEFPOINTS
 10
27588.17268
 20
11668.245864
 30
0.0
  0
POINT
  5
19C
  8
DEFPOINTS
 10
27638.17268
 20
11616.245864
 30
0.0
  0
POINT
  5
19D
  8
DEFPOINTS
 10
27695.777348
 20
12079.495364
 30
0.0
  0
LINE
  5
19E
  8
2
 10
27588.17268
 20
11671.245864
 30
0.0
 11
27588.17268
 21
12084.495364
 31
0.0
  0
LINE
  5
19F
  8
2
 10
27638.17268
 20
11619.245864
 30
0.0
 11
27638.17268
 21
12084.495364
 31
0.0
  0
LINE
  5
1A0
  8
2
 10
27536.470272
 20
12079.495364
 30
0.0
 11
27817.212688
 21
12079.495364
 31
0.0
  0
LINE
  5
1A1
  8
2
 10
27553.704409
 20
12073.417675
 30
0.0
 11
27588.17268
 21
12079.495364
 31
0.0
  0
LINE
  5
1A2
  8
2
 10
27553.704408
 20
12085.573047
 30
0.0
 11
27588.17268
 21
12079.495364
 31
0.0
  0
LINE
  5
1A3
  8
2
 10
27672.64095
 20
12085.573056
 30
0.0
 11
27638.17268
 21
12079.495364
 31
0.0
  0
LINE
  5
1A4
  8
2
 10
27672.640952
 20
12073.417684
 30
0.0
 11
27638.17268
 21
12079.495364
 31
0.0
  0
TEXT
  5
1A5
  8
2
 10
27681.853516
 20
12081.495117
 30
0.0
 40
48.0
  1
50
 41
0.9
  7
MONOTXT
  0
ENDBLK
  5
1A6
  8
0
  0
BLOCK
  5
1A8
  8
2
  2
*D22
 70
    65
 10
0.0
 20
0.0
 30
0.0
  3
*D22
  1

  0
POINT
  5
1A9
  8
DEFPOINTS
 10
26230.67268
 20
11620.941821
 30
0.0
  0
POINT
  5
1AA
  8
DEFPOINTS
 10
27415.67268
 20
11621.355963
 30
0.0
  0
POINT
  5
1AB
  8
DEFPOINTS
 10
26655.663913
 20
12079.495364
 30
0.0
  0
LINE
  5
1AC
  8
2
 10
26230.67268
 20
11623.941821
 30
0.0
 11
26230.67268
 21
12084.495364
 31
0.0
  0
LINE
  5
1AD
  8
2
 10
27415.67268
 20
11624.355963
 30
0.0
 11
27415.67268
 21
12084.495364
 31
0.0
  0
LINE
  5
1AE
  8
2
 10
26230.67268
 20
12079.495364
 30
0.0
 11
27415.67268
 21
12079.495364
 31
0.0
  0
LINE
  5
1AF
  8
2
 10
26265.140951
 20
12085.57305
 30
0.0
 11
26230.67268
 21
12079.495364
 31
0.0
  0
LINE
  5
1B0
  8
2
 10
26265.140951
 20
12073.417678
 30
0.0
 11
26230.67268
 21
12079.495364
 31
0.0
  0
LINE
  5
1B1
  8
2
 10
27381.204409
 20
12073.417675
 30
0.0
 11
27415.67268
 21
12079.495364
 31
0.0
  0
LINE
  5
1B2
  8
2
 10
27381.204408
 20
12085.573047
 30
0.0
 11
27415.67268
 21
12079.495364
 31
0.0
  0
TEXT
  5
1B3
  8
2
 10
26733.652344
 20
12081.495117
 30
0.0
 40
48.0
  1
1185
 41
0.9
  7
MONOTXT
  0
ENDBLK
  5
1B4
  8
0
  0
BLOCK
  5
1B6
  8
2
  2
*D23
 70
    65
 10
0.0
 20
0.0
 30
0.0
  3
*D23
  1

  0
POINT
  5
1B7
  8
DEFPOINTS
 10
26243.17278
 20
11640.746364
 30
0.0
  0
POINT
  5
1B8
  8
DEFPOINTS
 10
27403.17288
 20
11640.745364
 30
0.0
  0
POINT
  5
1B9
  8
DEFPOINTS
 10
26667.294574
 20
11989.495364
 30
0.0
  0
LINE
  5
1BA
  8
2
 10
26243.17278
 20
11643.746364
 30
0.0
 11
26243.17278
 21
11994.495364
 31
0.0
  0
LINE
  5
1BB
  8
2
 10
27403.17288
 20
11643.745364
 30
0.0
 11
27403.17288
 21
11994.495364
 31
0.0
  0
LINE
  5
1BC
  8
2
 10
26243.17278
 20
11989.495364
 30
0.0
 11
27403.17288
 21
11989.495364
 31
0.0
  0
LINE
  5
1BD
  8
2
 10
26277.641051
 20
11995.57305
 30
0.0
 11
26243.17278
 21
11989.495364
 31
0.0
  0
LINE
  5
1BE
  8
2
 10
26277.641051
 20
11983.417678
 30
0.0
 11
26243.17278
 21
11989.495364
 31
0.0
  0
LINE
  5
1BF
  8
2
 10
27368.704609
 20
11983.417675
 30
0.0
 11
27403.17288
 21
11989.495364
 31
0.0
  0
LINE
  5
1C0
  8
2
 10
27368.704608
 20
11995.573047
 30
0.0
 11
27403.17288
 21
11989.495364
 31
0.0
  0
TEXT
  5
1C1
  8
2
 10
26733.652344
 20
11991.495117
 30
0.0
 40
48.0
  1
1160
 41
0.9
  7
MONOTXT
  0
ENDBLK
  5
1C2
  8
0
  0
BLOCK
  5
1C4
  8
2
  2
*D24
 70
    65
 10
0.0
 20
0.0
 30
0.0
  3
*D24
  1

  0
POINT
  5
1C5
  8
DEFPOINTS
 10
26823.17248
 20
11700.812464
 30
0.0
  0
POINT
  5
1C6
  8
DEFPOINTS
 10
26888.17248
 20
11735.028064
 30
0.0
  0
POINT
  5
1C7
  8
DEFPOINTS
 10
26870.000388
 20
11818.568454
 30
0.0
  0
LINE
  5
1C8
  8
2
 10
26823.17248
 20
11703.812464
 30
0.0
 11
26823.17248
 21
11823.568454
 31
0.0
  0
LINE
  5
1C9
  8
2
 10
26888.17248
 20
11738.028064
 30
0.0
 11
26888.17248
 21
11823.568454
 31
0.0
  0
LINE
  5
1CA
  8
2
 10
26771.470072
 20
11818.568454
 30
0.0
 11
27067.212488
 21
11818.568454
 31
0.0
  0
LINE
  5
1CB
  8
2
 10
26788.704209
 20
11812.490765
 30
0.0
 11
26823.17248
 21
11818.568454
 31
0.0
  0
LINE
  5
1CC
  8
2
 10
26788.704208
 20
11824.646138
 30
0.0
 11
26823.17248
 21
11818.568454
 31
0.0
  0
LINE
  5
1CD
  8
2
 10
26922.64075
 20
11824.646147
 30
0.0
 11
26888.17248
 21
11818.568454
 31
0.0
  0
LINE
  5
1CE
  8
2
 10
26922.640752
 20
11812.490774
 30
0.0
 11
26888.17248
 21
11818.568454
 31
0.0
  0
TEXT
  5
1CF
  8
2
 10
26931.851563
 20
11820.568359
 30
0.0
 40
48.0
  1
65
 41
0.9
  7
MONOTXT
  0
ENDBLK
  5
1D0
  8
0
  0
BLOCK
  5
1D2
  8
2
  2
*D25
 70
    65
 10
0.0
 20
0.0
 30
0.0
  3
*D25
  1

  0
POINT
  5
1D3
  8
DEFPOINTS
 10
26298.17268
 20
11665.685067
 30
0.0
  0
POINT
  5
1D4
  8
DEFPOINTS
 10
27348.17268
 20
11665.687804
 30
0.0
  0
POINT
  5
1D5
  8
DEFPOINTS
 10
26534.37273
 20
11899.495364
 30
0.0
  0
LINE
  5
1D6
  8
2
 10
26298.17268
 20
11668.685067
 30
0.0
 11
26298.17268
 21
11904.495364
 31
0.0
  0
LINE
  5
1D7
  8
2
 10
27348.17268
 20
11668.687804
 30
0.0
 11
27348.17268
 21
11904.495364
 31
0.0
  0
LINE
  5
1D8
  8
2
 10
26298.17268
 20
11899.495364
 30
0.0
 11
27348.17268
 21
11899.495364
 31
0.0
  0
LINE
  5
1D9
  8
2
 10
26332.640951
 20
11905.57305
 30
0.0
 11
26298.17268
 21
11899.495364
 31
0.0
  0
LINE
  5
1DA
  8
2
 10
26332.640951
 20
11893.417678
 30
0.0
 11
26298.17268
 21
11899.495364
 31
0.0
  0
LINE
  5
1DB
  8
2
 10
27313.704409
 20
11893.417675
 30
0.0
 11
27348.17268
 21
11899.495364
 31
0.0
  0
LINE
  5
1DC
  8
2
 10
27313.704408
 20
11905.573047
 30
0.0
 11
27348.17268
 21
11899.495364
 31
0.0
  0
TEXT
  5
1DD
  8
2
 10
26576.796875
 20
11901.495117
 30
0.0
 40
45.0
  1
７×１５０＝１０５０
 41
0.9
  7
MONOTXT
  0
ENDBLK
  5
1DE
  8
0
  0
BLOCK
  5
1E0
  8
2
  2
*D26
 70
    65
 10
0.0
 20
0.0
 30
0.0
  3
*D26
  1

  0
POINT
  5
1E1
  8
DEFPOINTS
 10
26188.17248
 20
11128.246064
 30
0.0
  0
POINT
  5
1E2
  8
DEFPOINTS
 10
26188.17248
 20
11368.245864
 30
0.0
  0
POINT
  5
1E3
  8
DEFPOINTS
 10
25732.67288
 20
11294.707437
 30
0.0
  0
LINE
  5
1E4
  8
2
 10
26185.17248
 20
11128.246064
 30
0.0
 11
25727.67288
 21
11128.246064
 31
0.0
  0
LINE
  5
1E5
  8
2
 10
26185.17248
 20
11368.245864
 30
0.0
 11
25727.67288
 21
11368.245864
 31
0.0
  0
LINE
  5
1E6
  8
2
 10
25732.67288
 20
11128.246064
 30
0.0
 11
25732.67288
 21
11368.245864
 31
0.0
  0
LINE
  5
1E7
  8
2
 10
25726.595192
 20
11162.714335
 30
0.0
 11
25732.67288
 21
11128.246064
 31
0.0
  0
LINE
  5
1E8
  8
2
 10
25738.750564
 20
11162.714336
 30
0.0
 11
25732.67288
 21
11128.246064
 31
0.0
  0
LINE
  5
1E9
  8
2
 10
25738.750566
 20
11333.777593
 30
0.0
 11
25732.67288
 21
11368.245864
 31
0.0
  0
LINE
  5
1EA
  8
2
 10
25726.595194
 20
11333.777592
 30
0.0
 11
25732.67288
 21
11368.245864
 31
0.0
  0
TEXT
  5
1EB
  8
2
 10
25730.673828
 20
11180.566406
 30
0.0
 40
48.0
  1
240
 50
90.000003
 41
0.9
  7
MONOTXT
  0
ENDBLK
  5
1EC
  8
0
  0
BLOCK
  5
1EE
  8
2
  2
*D27
 70
    65
 10
0.0
 20
0.0
 30
0.0
  3
*D27
  1

  0
POINT
  5
1EF
  8
DEFPOINTS
 10
26188.17248
 20
11368.245864
 30
0.0
  0
POINT
  5
1F0
  8
DEFPOINTS
 10
26188.17248
 20
11668.245864
 30
0.0
  0
POINT
  5
1F1
  8
DEFPOINTS
 10
25732.67288
 20
11506.337371
 30
0.0
  0
LINE
  5
1F2
  8
2
 10
26185.17248
 20
11368.245864
 30
0.0
 11
25727.67288
 21
11368.245864
 31
0.0
  0
LINE
  5
1F3
  8
2
 10
26185.17248
 20
11668.245864
 30
0.0
 11
25727.67288
 21
11668.245864
 31
0.0
  0
LINE
  5
1F4
  8
2
 10
25732.67288
 20
11368.245864
 30
0.0
 11
25732.67288
 21
11668.245864
 31
0.0
  0
LINE
  5
1F5
  8
2
 10
25726.595192
 20
11402.714135
 30
0.0
 11
25732.67288
 21
11368.245864
 31
0.0
  0
LINE
  5
1F6
  8
2
 10
25738.750564
 20
11402.714136
 30
0.0
 11
25732.67288
 21
11368.245864
 31
0.0
  0
LINE
  5
1F7
  8
2
 10
25738.750566
 20
11633.777593
 30
0.0
 11
25732.67288
 21
11668.245864
 31
0.0
  0
LINE
  5
1F8
  8
2
 10
25726.595194
 20
11633.777592
 30
0.0
 11
25732.67288
 21
11668.245864
 31
0.0
  0
TEXT
  5
1F9
  8
2
 10
25730.673828
 20
11450.56543
 30
0.0
 40
48.0
  1
300
 50
90.000003
 41
0.9
  7
MONOTXT
  0
ENDBLK
  5
1FA
  8
0
  0
BLOCK
  5
1FC
  8
2
  2
*D28
 70
    65
 10
0.0
 20
0.0
 30
0.0
  3
*D28
  1

  0
POINT
  5
1FD
  8
DEFPOINTS
 10
26270.33588
 20
11410.745564
 30
0.0
  0
POINT
  5
1FE
  8
DEFPOINTS
 10
26270.33588
 20
11655.746364
 30
0.0
  0
POINT
  5
1FF
  8
DEFPOINTS
 10
25847.67288
 20
11542.677865
 30
0.0
  0
LINE
  5
200
  8
2
 10
26267.33588
 20
11410.745564
 30
0.0
 11
25842.67288
 21
11410.745564
 31
0.0
  0
LINE
  5
201
  8
2
 10
26267.33588
 20
11655.746364
 30
0.0
 11
25842.67288
 21
11655.746364
 31
0.0
  0
LINE
  5
202
  8
2
 10
25847.67288
 20
11410.745564
 30
0.0
 11
25847.67288
 21
11655.746364
 31
0.0
  0
LINE
  5
203
  8
2
 10
25841.595192
 20
11445.213835
 30
0.0
 11
25847.67288
 21
11410.745564
 31
0.0
  0
LINE
  5
204
  8
2
 10
25853.750564
 20
11445.213836
 30
0.0
 11
25847.67288
 21
11410.745564
 31
0.0
  0
LINE
  5
205
  8
2
 10
25853.750566
 20
11621.278093
 30
0.0
 11
25847.67288
 21
11655.746364
 31
0.0
  0
LINE
  5
206
  8
2
 10
25841.595194
 20
11621.278092
 30
0.0
 11
25847.67288
 21
11655.746364
 31
0.0
  0
TEXT
  5
207
  8
2
 10
25845.673828
 20
11465.566406
 30
0.0
 40
48.0
  1
245
 50
90.000003
 41
0.9
  7
MONOTXT
  0
ENDBLK
  5
208
  8
0
  0
BLOCK
  5
20A
  8
2
  2
*D29
 70
    65
 10
0.0
 20
0.0
 30
0.0
  3
*D29
  1

  0
POINT
  5
20B
  8
DEFPOINTS
 10
26220.67258
 20
11425.745864
 30
0.0
  0
POINT
  5
20C
  8
DEFPOINTS
 10
26220.67268
 20
11640.746364
 30
0.0
  0
POINT
  5
20D
  8
DEFPOINTS
 10
25937.67288
 20
11585.431387
 30
0.0
  0
LINE
  5
20E
  8
2
 10
26217.67258
 20
11425.745864
 30
0.0
 11
25932.67288
 21
11425.745864
 31
0.0
  0
LINE
  5
20F
  8
2
 10
26217.67268
 20
11640.746364
 30
0.0
 11
25932.67288
 21
11640.746364
 31
0.0
  0
LINE
  5
210
  8
2
 10
25937.67288
 20
11425.745864
 30
0.0
 11
25937.67288
 21
11640.746364
 31
0.0
  0
LINE
  5
211
  8
2
 10
25931.595192
 20
11460.214135
 30
0.0
 11
25937.67288
 21
11425.745864
 31
0.0
  0
LINE
  5
212
  8
2
 10
25943.750564
 20
11460.214136
 30
0.0
 11
25937.67288
 21
11425.745864
 31
0.0
  0
LINE
  5
213
  8
2
 10
25943.750566
 20
11606.278093
 30
0.0
 11
25937.67288
 21
11640.746364
 31
0.0
  0
LINE
  5
214
  8
2
 10
25931.595194
 20
11606.278092
 30
0.0
 11
25937.67288
 21
11640.746364
 31
0.0
  0
TEXT
  5
215
  8
2
 10
25935.673828
 20
11465.566406
 30
0.0
 40
48.0
  1
215
 50
90.000003
 41
0.9
  7
MONOTXT
  0
ENDBLK
  5
216
  8
0
  0
BLOCK
  5
218
  8
2
  2
*D30
 70
    65
 10
0.0
 20
0.0
 30
0.0
  3
*D30
  1

  0
POINT
  5
219
  8
DEFPOINTS
 10
26193.17258
 20
11533.246064
 30
0.0
  0
POINT
  5
21A
  8
DEFPOINTS
 10
26188.17248
 20
11668.245864
 30
0.0
  0
POINT
  5
21B
  8
DEFPOINTS
 10
26092.67288
 20
11592.913253
 30
0.0
  0
LINE
  5
21C
  8
2
 10
26190.17258
 20
11533.246064
 30
0.0
 11
26087.67288
 21
11533.246064
 31
0.0
  0
LINE
  5
21D
  8
2
 10
26185.17248
 20
11668.245864
 30
0.0
 11
26087.67288
 21
11668.245864
 31
0.0
  0
LINE
  5
21E
  8
2
 10
26092.67288
 20
11533.246064
 30
0.0
 11
26092.67288
 21
11668.245864
 31
0.0
  0
LINE
  5
21F
  8
2
 10
26086.595192
 20
11567.714335
 30
0.0
 11
26092.67288
 21
11533.246064
 31
0.0
  0
LINE
  5
220
  8
2
 10
26098.750564
 20
11567.714336
 30
0.0
 11
26092.67288
 21
11533.246064
 31
0.0
  0
LINE
  5
221
  8
2
 10
26098.750566
 20
11633.777593
 30
0.0
 11
26092.67288
 21
11668.245864
 31
0.0
  0
LINE
  5
222
  8
2
 10
26086.595194
 20
11633.777592
 30
0.0
 11
26092.67288
 21
11668.245864
 31
0.0
  0
TEXT
  5
223
  8
2
 10
26090.673828
 20
11518.095703
 30
0.0
 40
48.0
  1
135
 50
90.000003
 41
0.9
  7
MONOTXT
  0
ENDBLK
  5
224
  8
0
  0
BLOCK
  5
226
  8
2
  2
*D31
 70
    65
 10
0.0
 20
0.0
 30
0.0
  3
*D31
  1

  0
POINT
  5
227
  8
DEFPOINTS
 10
26223.540537
 20
11458.246064
 30
0.0
  0
POINT
  5
228
  8
DEFPOINTS
 10
26223.825686
 20
11608.246064
 30
0.0
  0
POINT
  5
229
  8
DEFPOINTS
 10
26027.67288
 20
11543.163976
 30
0.0
  0
LINE
  5
22A
  8
2
 10
26220.540537
 20
11458.246064
 30
0.0
 11
26022.67288
 21
11458.246064
 31
0.0
  0
LINE
  5
22B
  8
2
 10
26220.825686
 20
11608.246064
 30
0.0
 11
26022.67288
 21
11608.246064
 31
0.0
  0
LINE
  5
22C
  8
2
 10
26027.67288
 20
11458.246064
 30
0.0
 11
26027.67288
 21
11608.246064
 31
0.0
  0
LINE
  5
22D
  8
2
 10
26021.595192
 20
11492.714335
 30
0.0
 11
26027.67288
 21
11458.246064
 31
0.0
  0
LINE
  5
22E
  8
2
 10
26033.750564
 20
11492.714336
 30
0.0
 11
26027.67288
 21
11458.246064
 31
0.0
  0
LINE
  5
22F
  8
2
 10
26033.750566
 20
11573.777793
 30
0.0
 11
26027.67288
 21
11608.246064
 31
0.0
  0
LINE
  5
230
  8
2
 10
26021.595194
 20
11573.777792
 30
0.0
 11
26027.67288
 21
11608.246064
 31
0.0
  0
TEXT
  5
231
  8
2
 10
26025.673828
 20
11465.566406
 30
0.0
 40
48.0
  1
150
 50
90.000003
 41
0.9
  7
MONOTXT
  0
ENDBLK
  5
232
  8
0
  0
BLOCK
  5
234
  8
2
  2
*D32
 70
    65
 10
0.0
 20
0.0
 30
0.0
  3
*D32
  1

  0
POINT
  5
235
  8
DEFPOINTS
 10
26148.17258
 20
11073.245864
 30
0.0
  0
POINT
  5
236
  8
DEFPOINTS
 10
26138.17248
 20
11083.245564
 30
0.0
  0
POINT
  5
237
  8
DEFPOINTS
 10
25637.67288
 20
11018.947219
 30
0.0
  0
LINE
  5
238
  8
2
 10
26145.17258
 20
11073.245864
 30
0.0
 11
25632.67288
 21
11073.245864
 31
0.0
  0
LINE
  5
239
  8
2
 10
26135.17248
 20
11083.245564
 30
0.0
 11
25632.67288
 21
11083.245564
 31
0.0
  0
LINE
  5
23A
  8
2
 10
25637.67288
 20
10894.205855
 30
0.0
 11
25637.67288
 21
11112.789797
 31
0.0
  0
LINE
  5
23B
  8
2
 10
25643.750566
 20
11038.777593
 30
0.0
 11
25637.67288
 21
11073.245864
 31
0.0
  0
LINE
  5
23C
  8
2
 10
25631.595194
 20
11038.777592
 30
0.0
 11
25637.67288
 21
11073.245864
 31
0.0
  0
CIRCLE
  5
23D
  8
2
 10
25637.67288
 20
11083.245564
 30
0.0
 40
5.0
  0
CIRCLE
  5
23E
  8
2
 10
25637.67288
 20
11083.245564
 30
0.0
 40
3.0
  0
TEXT
  5
23F
  8
2
 10
25635.673828
 20
10937.885742
 30
0.0
 40
48.0
  1
10
 50
90.000003
 41
0.9
  7
MONOTXT
  0
ENDBLK
  5
240
  8
0
  0
BLOCK
  5
242
  8
2
  2
*D33
 70
    65
 10
0.0
 20
0.0
 30
0.0
  3
*D33
  1

  0
POINT
  5
243
  8
DEFPOINTS
 10
26138.17248
 20
11083.245564
 30
0.0
  0
POINT
  5
244
  8
DEFPOINTS
 10
26188.17248
 20
11128.246064
 30
0.0
  0
POINT
  5
245
  8
DEFPOINTS
 10
25637.67288
 20
11180.341765
 30
0.0
  0
LINE
  5
246
  8
2
 10
26135.17248
 20
11083.245564
 30
0.0
 11
25632.67288
 21
11083.245564
 31
0.0
  0
LINE
  5
247
  8
2
 10
26185.17248
 20
11128.246064
 30
0.0
 11
25632.67288
 21
11128.246064
 31
0.0
  0
LINE
  5
248
  8
2
 10
25637.67288
 20
11053.701331
 30
0.0
 11
25637.67288
 21
11307.286072
 31
0.0
  0
CIRCLE
  5
249
  8
2
 10
25637.67288
 20
11083.245564
 30
0.0
 40
5.0
  0
CIRCLE
  5
24A
  8
2
 10
25637.67288
 20
11083.245564
 30
0.0
 40
3.0
  0
LINE
  5
24B
  8
2
 10
25631.595198
 20
11162.714336
 30
0.0
 11
25637.67288
 21
11128.246064
 31
0.0
  0
LINE
  5
24C
  8
2
 10
25643.750571
 20
11162.714334
 30
0.0
 11
25637.67288
 21
11128.246064
 31
0.0
  0
TEXT
  5
24D
  8
2
 10
25635.673828
 20
11171.925781
 30
0.0
 40
48.0
  1
45
 50
90.000003
 41
0.9
  7
MONOTXT
  0
ENDBLK
  5
24E
  8
0
  0
BLOCK
  5
250
  8
2
  2
*D34
 70
    65
 10
0.0
 20
0.0
 30
0.0
  3
*D34
  1

  0
POINT
  5
251
  8
DEFPOINTS
 10
26163.177224
 20
13336.667286
 30
0.0
  0
POINT
  5
252
  8
DEFPOINTS
 10
27613.179124
 20
13336.667286
 30
0.0
  0
POINT
  5
253
  8
DEFPOINTS
 10
26537.737792
 20
13442.714086
 30
0.0
  0
LINE
  5
254
  8
2
 10
26163.177224
 20
13339.667286
 30
0.0
 11
26163.177224
 21
13447.714086
 31
0.0
  0
LINE
  5
255
  8
2
 10
27613.179124
 20
13339.667286
 30
0.0
 11
27613.179124
 21
13447.714086
 31
0.0
  0
LINE
  5
256
  8
2
 10
26163.177224
 20
13442.714086
 30
0.0
 11
27613.179124
 21
13442.714086
 31
0.0
  0
LINE
  5
257
  8
2
 10
26197.645495
 20
13448.791772
 30
0.0
 11
26163.177224
 21
13442.714086
 31
0.0
  0
LINE
  5
258
  8
2
 10
26197.645495
 20
13436.6364
 30
0.0
 11
26163.177224
 21
13442.714086
 31
0.0
  0
LINE
  5
259
  8
2
 10
27578.710853
 20
13436.636397
 30
0.0
 11
27613.179124
 21
13442.714086
 31
0.0
  0
LINE
  5
25A
  8
2
 10
27578.710852
 20
13448.791769
 30
0.0
 11
27613.179124
 21
13442.714086
 31
0.0
  0
TEXT
  5
25B
  8
2
 10
26697.298828
 20
13444.713867
 30
0.0
 40
48.0
  1
1450
 41
0.9
  7
MONOTXT
  0
ENDBLK
  5
25C
  8
0
  0
BLOCK
  5
25E
  8
2
  2
*D35
 70
    65
 10
0.0
 20
0.0
 30
0.0
  3
*D35
  1

  0
POINT
  5
25F
  8
DEFPOINTS
 10
26143.171524
 20
12686.667286
 30
0.0
  0
POINT
  5
260
  8
DEFPOINTS
 10
26143.172524
 20
13316.667286
 30
0.0
  0
POINT
  5
261
  8
DEFPOINTS
 10
25997.086324
 20
12812.083502
 30
0.0
  0
LINE
  5
262
  8
2
 10
26140.171524
 20
12686.667286
 30
0.0
 11
25992.086324
 21
12686.667286
 31
0.0
  0
LINE
  5
263
  8
2
 10
26140.172524
 20
13316.667286
 30
0.0
 11
25992.086324
 21
13316.667286
 31
0.0
  0
LINE
  5
264
  8
2
 10
25997.086324
 20
12686.667286
 30
0.0
 11
25997.086324
 21
13316.667286
 31
0.0
  0
LINE
  5
265
  8
2
 10
25991.008636
 20
12721.135557
 30
0.0
 11
25997.086324
 21
12686.667286
 31
0.0
  0
LINE
  5
266
  8
2
 10
26003.164009
 20
12721.135558
 30
0.0
 11
25997.086324
 21
12686.667286
 31
0.0
  0
LINE
  5
267
  8
2
 10
26003.164011
 20
13282.199015
 30
0.0
 11
25997.086324
 21
13316.667286
 31
0.0
  0
LINE
  5
268
  8
2
 10
25991.008638
 20
13282.199015
 30
0.0
 11
25997.086324
 21
13316.667286
 31
0.0
  0
TEXT
  5
269
  8
2
 10
25995.085938
 20
13011.956055
 30
0.0
 40
48.0
  1
630
 50
90.000003
 41
0.9
  7
MONOTXT
  0
ENDBLK
  5
26A
  8
0
  0
BLOCK
  5
26C
  8
2
  2
*D36
 70
    65
 10
0.0
 20
0.0
 30
0.0
  3
*D36
  1

  0
POINT
  5
26D
  8
DEFPOINTS
 10
26188.171524
 20
12541.667586
 30
0.0
  0
POINT
  5
26E
  8
DEFPOINTS
 10
26143.171524
 20
12686.667286
 30
0.0
  0
POINT
  5
26F
  8
DEFPOINTS
 10
25997.086324
 20
12605.466495
 30
0.0
  0
LINE
  5
270
  8
2
 10
26185.171524
 20
12541.667586
 30
0.0
 11
25992.086324
 21
12541.667586
 31
0.0
  0
LINE
  5
271
  8
2
 10
26140.171524
 20
12686.667286
 30
0.0
 11
25992.086324
 21
12686.667286
 31
0.0
  0
LINE
  5
272
  8
2
 10
25997.086324
 20
12541.667586
 30
0.0
 11
25997.086324
 21
12686.667286
 31
0.0
  0
LINE
  5
273
  8
2
 10
25991.008636
 20
12576.135857
 30
0.0
 11
25997.086324
 21
12541.667586
 31
0.0
  0
LINE
  5
274
  8
2
 10
26003.164009
 20
12576.135858
 30
0.0
 11
25997.086324
 21
12541.667586
 31
0.0
  0
LINE
  5
275
  8
2
 10
26003.164011
 20
12652.199015
 30
0.0
 11
25997.086324
 21
12686.667286
 31
0.0
  0
LINE
  5
276
  8
2
 10
25991.008638
 20
12652.199015
 30
0.0
 11
25997.086324
 21
12686.667286
 31
0.0
  0
TEXT
  5
277
  8
2
 10
25995.085938
 20
12546.487305
 30
0.0
 40
48.0
  1
145
 50
90.000003
 41
0.9
  7
MONOTXT
  0
ENDBLK
  5
278
  8
0
  0
BLOCK
  5
27A
  8
2
  2
*D37
 70
    65
 10
0.0
 20
0.0
 30
0.0
  3
*D37
  1

  0
POINT
  5
27B
  8
DEFPOINTS
 10
28302.466914
 20
12589.947646
 30
0.0
  0
POINT
  5
27C
  8
DEFPOINTS
 10
29802.466914
 20
12589.947646
 30
0.0
  0
POINT
  5
27D
  8
DEFPOINTS
 10
28814.296256
 20
12403.908046
 30
0.0
  0
LINE
  5
27E
  8
2
 10
28302.466914
 20
12586.947646
 30
0.0
 11
28302.466914
 21
12398.908046
 31
0.0
  0
LINE
  5
27F
  8
2
 10
29802.466914
 20
12586.947646
 30
0.0
 11
29802.466914
 21
12398.908046
 31
0.0
  0
LINE
  5
280
  8
2
 10
28302.466914
 20
12403.908046
 30
0.0
 11
29802.466914
 21
12403.908046
 31
0.0
  0
LINE
  5
281
  8
2
 10
28336.935185
 20
12409.985732
 30
0.0
 11
28302.466914
 21
12403.908046
 31
0.0
  0
LINE
  5
282
  8
2
 10
28336.935185
 20
12397.83036
 30
0.0
 11
28302.466914
 21
12403.908046
 31
0.0
  0
LINE
  5
283
  8
2
 10
29767.998643
 20
12397.830357
 30
0.0
 11
29802.466914
 21
12403.908046
 31
0.0
  0
LINE
  5
284
  8
2
 10
29767.998642
 20
12409.985729
 30
0.0
 11
29802.466914
 21
12403.908046
 31
0.0
  0
TEXT
  5
285
  8
2
 10
28962.947266
 20
12405.908203
 30
0.0
 40
48.0
  1
1500
 41
0.9
  7
MONOTXT
  0
ENDBLK
  5
286
  8
0
  0
BLOCK
  5
288
  8
2
  2
*D38
 70
    65
 10
0.0
 20
0.0
 30
0.0
  3
*D38
  1

  0
POINT
  5
289
  8
DEFPOINTS
 10
29778.466914
 20
12565.947646
 30
0.0
  0
POINT
  5
28A
  8
DEFPOINTS
 10
29778.466914
 20
13067.947646
 30
0.0
  0
POINT
  5
28B
  8
DEFPOINTS
 10
30032.003714
 20
12900.785552
 30
0.0
  0
LINE
  5
28C
  8
2
 10
29781.466914
 20
12565.947646
 30
0.0
 11
30037.003714
 21
12565.947646
 31
0.0
  0
LINE
  5
28D
  8
2
 10
29781.466914
 20
13067.947646
 30
0.0
 11
30037.003714
 21
13067.947646
 31
0.0
  0
LINE
  5
28E
  8
2
 10
30032.003714
 20
12565.947646
 30
0.0
 11
30032.003714
 21
13067.947646
 31
0.0
  0
LINE
  5
28F
  8
2
 10
30025.926026
 20
12600.415917
 30
0.0
 11
30032.003714
 21
12565.947646
 31
0.0
  0
LINE
  5
290
  8
2
 10
30038.081399
 20
12600.415918
 30
0.0
 11
30032.003714
 21
12565.947646
 31
0.0
  0
LINE
  5
291
  8
2
 10
30038.081401
 20
13033.479375
 30
0.0
 11
30032.003714
 21
13067.947646
 31
0.0
  0
LINE
  5
292
  8
2
 10
30025.926028
 20
13033.479375
 30
0.0
 11
30032.003714
 21
13067.947646
 31
0.0
  0
TEXT
  5
293
  8
2
 10
30030.003906
 20
12749.267578
 30
0.0
 40
48.0
  1
500
 50
90.000003
 41
0.9
  7
MONOTXT
  0
ENDBLK
  5
294
  8
0
  0
BLOCK
  5
296
  8
2
  2
*D39
 70
    65
 10
0.0
 20
0.0
 30
0.0
  3
*D39
  1

  0
POINT
  5
297
  8
DEFPOINTS
 10
29782.467114
 20
12585.947646
 30
0.0
  0
POINT
  5
298
  8
DEFPOINTS
 10
29782.466914
 20
13047.947646
 30
0.0
  0
POINT
  5
299
  8
DEFPOINTS
 10
29923.699514
 20
12770.041434
 30
0.0
  0
LINE
  5
29A
  8
2
 10
29785.467114
 20
12585.947646
 30
0.0
 11
29928.699514
 21
12585.947646
 31
0.0
  0
LINE
  5
29B
  8
2
 10
29785.466914
 20
13047.947646
 30
0.0
 11
29928.699514
 21
13047.947646
 31
0.0
  0
LINE
  5
29C
  8
2
 10
29923.699514
 20
12585.947646
 30
0.0
 11
29923.699514
 21
13047.947646
 31
0.0
  0
LINE
  5
29D
  8
2
 10
29917.621826
 20
12620.415917
 30
0.0
 11
29923.699514
 21
12585.947646
 31
0.0
  0
LINE
  5
29E
  8
2
 10
29929.777199
 20
12620.415918
 30
0.0
 11
29923.699514
 21
12585.947646
 31
0.0
  0
LINE
  5
29F
  8
2
 10
29929.777201
 20
13013.479375
 30
0.0
 11
29923.699514
 21
13047.947646
 31
0.0
  0
LINE
  5
2A0
  8
2
 10
29917.621828
 20
13013.479375
 30
0.0
 11
29923.699514
 21
13047.947646
 31
0.0
  0
TEXT
  5
2A1
  8
2
 10
29921.699219
 20
12599.009766
 30
0.0
 40
48.0
  1
462
 50
90.000003
 41
0.9
  7
MONOTXT
  0
ENDBLK
  5
2A2
  8
0
  0
BLOCK
  5
2A4
  8
2
  2
*D40
 70
    65
 10
0.0
 20
0.0
 30
0.0
  3
*D40
  1

  0
POINT
  5
2A5
  8
DEFPOINTS
 10
28322.465214
 20
12585.946146
 30
0.0
  0
POINT
  5
2A6
  8
DEFPOINTS
 10
29782.467114
 20
12585.947646
 30
0.0
  0
POINT
  5
2A7
  8
DEFPOINTS
 10
28917.720707
 20
12484.965446
 30
0.0
  0
LINE
  5
2A8
  8
2
 10
28322.465214
 20
12582.946146
 30
0.0
 11
28322.465214
 21
12479.965446
 31
0.0
  0
LINE
  5
2A9
  8
2
 10
29782.467114
 20
12582.947646
 30
0.0
 11
29782.467114
 21
12479.965446
 31
0.0
  0
LINE
  5
2AA
  8
2
 10
28322.465214
 20
12484.965446
 30
0.0
 11
29782.467114
 21
12484.965446
 31
0.0
  0
LINE
  5
2AB
  8
2
 10
28356.933485
 20
12491.043132
 30
0.0
 11
28322.465214
 21
12484.965446
 31
0.0
  0
LINE
  5
2AC
  8
2
 10
28356.933485
 20
12478.88776
 30
0.0
 11
28322.465214
 21
12484.965446
 31
0.0
  0
LINE
  5
2AD
  8
2
 10
29747.998843
 20
12478.887757
 30
0.0
 11
29782.467114
 21
12484.965446
 31
0.0
  0
LINE
  5
2AE
  8
2
 10
29747.998842
 20
12491.043129
 30
0.0
 11
29782.467114
 21
12484.965446
 31
0.0
  0
TEXT
  5
2AF
  8
2
 10
28834.154297
 20
12486.96582
 30
0.0
 40
48.0
  1
1460
 41
0.9
  7
MONOTXT
  0
ENDBLK
  5
2B0
  8
0
  0
BLOCK
  5
2B2
  8
2
  2
*D41
 70
    65
 10
0.0
 20
0.0
 30
0.0
  3
*D41
  1

  0
POINT
  5
2B3
  8
DEFPOINTS
 10
26303.172724
 20
12520.417786
 30
0.0
  0
POINT
  5
2B4
  8
DEFPOINTS
 10
27343.173224
 20
12520.417786
 30
0.0
  0
POINT
  5
2B5
  8
DEFPOINTS
 10
26962.182954
 20
12414.372835
 30
0.0
  0
LINE
  5
2B6
  8
2
 10
26303.172724
 20
12517.417786
 30
0.0
 11
26303.172724
 21
12409.372835
 31
0.0
  0
LINE
  5
2B7
  8
2
 10
27343.173224
 20
12517.417786
 30
0.0
 11
27343.173224
 21
12409.372835
 31
0.0
  0
LINE
  5
2B8
  8
2
 10
26303.172724
 20
12414.372835
 30
0.0
 11
27343.173224
 21
12414.372835
 31
0.0
  0
LINE
  5
2B9
  8
2
 10
26337.640995
 20
12420.450521
 30
0.0
 11
26303.172724
 21
12414.372835
 31
0.0
  0
LINE
  5
2BA
  8
2
 10
26337.640995
 20
12408.295148
 30
0.0
 11
26303.172724
 21
12414.372835
 31
0.0
  0
LINE
  5
2BB
  8
2
 10
27308.704953
 20
12408.295145
 30
0.0
 11
27343.173224
 21
12414.372835
 31
0.0
  0
LINE
  5
2BC
  8
2
 10
27308.704952
 20
12420.450518
 30
0.0
 11
27343.173224
 21
12414.372835
 31
0.0
  0
TEXT
  5
2BD
  8
2
 10
26576.798828
 20
12416.373047
 30
0.0
 40
45.0
  1
１６×６５＝１０４０
 41
0.9
  7
MONOTXT
  0
ENDBLK
  5
2BE
  8
0
  0
ENDSEC
  0
SECTION
  2
ENTITIES
  0
INSERT
  5
2BF
  8
1
  2
*U2
 10
0.0
 20
0.0
 30
0.0
  0
INSERT
  5
2C0
  8
1
  2
*U3
 10
0.0
 20
0.0
 30
0.0
  0
DIMENSION
  5
2C1
  8
2
 62
     7
  2
*D4
 10
29582.318337
 20
11540.278698
 30
0.0
 11
29556.318356
 21
11570.745429
 31
0.0
 13
29386.237037
 23
11473.245864
 33
0.0
 14
29387.236737
 24
11668.245864
 34
0.0
 50
90.000003
  0
DIMENSION
  5
2C2
  8
2
 62
     7
  2
*D5
 10
29304.876137
 20
11490.282239
 30
0.0
 11
29278.87695
 21
11473.302069
 31
0.0
 13
29049.236737
 23
11413.245864
 33
0.0
 14
29049.236737
 24
11548.245864
 34
0.0
 50
90.000003
  0
DIMENSION
  5
2C3
  8
2
 62
     7
  2
*D6
 10
29304.876137
 20
11625.986913
 30
0.0
 11
29278.87695
 21
11604.618476
 31
0.0
 13
29049.236737
 23
11548.245864
 33
0.0
 14
29387.236737
 24
11668.245864
 34
0.0
 50
90.000003
  0
DIMENSION
  5
2C4
  8
2
 62
     7
  2
*D7
 10
28721.688597
 20
12039.495364
 30
0.0
 11
28987.236641
 21
12065.495117
 31
0.0
 13
28587.236737
 23
11668.245864
 33
0.0
 14
29387.236737
 24
11668.245864
 34
0.0
  0
DIMENSION
  5
2C5
  8
2
 62
     7
  2
*D8
 10
28721.688597
 20
11879.495364
 30
0.0
 11
28807.236641
 21
11905.495117
 31
0.0
 13
28587.236737
 23
11668.245864
 33
0.0
 14
29027.236737
 24
11570.245864
 34
0.0
  0
DIMENSION
  5
2C6
  8
2
 62
     7
  2
*D9
 10
28669.90655
 20
11800.941364
 30
0.0
 11
28744.736641
 21
11826.941406
 31
0.0
 13
28587.236737
 23
11668.245864
 33
0.0
 14
28902.237037
 24
11628.246064
 34
0.0
  0
DIMENSION
  5
2C7
  8
2
 62
     7
  2
*D10
 10
28753.829177
 20
11959.495364
 30
0.0
 11
28686.537422
 21
11985.495117
 31
0.0
 13
28587.236737
 23
11668.245864
 33
0.0
 14
29182.238237
 24
11628.245364
 34
0.0
  0
DIMENSION
  5
2C8
  8
2
 62
     7
  2
*D11
 10
28484.205417
 20
12039.495364
 30
0.0
 11
28472.716953
 21
12065.495117
 31
0.0
 13
28562.237037
 23
11641.244364
 33
0.0
 14
28587.236737
 24
11668.245864
 34
0.0
  0
DIMENSION
  5
2C9
  8
2
 62
     7
  2
*D12
 10
28442.613237
 20
11534.921934
 30
0.0
 11
28420.613275
 21
11530.690429
 31
0.0
  1
２×６５＝１３０
 13
28566.984648
 23
11468.245864
 33
0.0
 14
28566.746165
 24
11598.245864
 34
0.0
 50
90.000003
  0
DIMENSION
  5
2CA
  8
2
 62
     7
  2
*D13
 10
28539.55864
 20
11297.114464
 30
0.0
 11
28497.716953
 21
11323.114258
 31
0.0
 13
28587.236737
 23
11368.245864
 33
0.0
 14
28632.236737
 24
11447.245864
 34
0.0
  0
DIMENSION
  5
2CB
  8
2
 62
     7
  2
*D14
 10
28721.688597
 20
11297.114464
 30
0.0
 11
28767.756016
 21
11323.114258
 31
0.0
 13
28632.236737
 23
11447.245864
 33
0.0
 14
28678.236737
 24
11502.245864
 34
0.0
  0
DIMENSION
  5
2CC
  8
2
 62
     7
  2
*D15
 10
27627.601683
 20
11262.748264
 30
0.0
 11
27734.693516
 21
11288.748047
 31
0.0
 13
27588.17238
 23
11282.746064
 33
0.0
 14
27645.17268
 24
11383.228964
 34
0.0
  0
DIMENSION
  5
2CD
  8
2
 62
     7
  2
*D16
 10
27720.67708
 20
11635.277017
 30
0.0
 11
27694.677732
 21
11638.10953
 31
0.0
 13
27638.17268
 23
11601.245864
 33
0.0
 14
27588.17268
 24
11668.245864
 34
0.0
 50
90.000003
  0
DIMENSION
  5
2CE
  8
2
 62
     7
  2
*D17
 10
27888.27028
 20
11561.46276
 30
0.0
 11
27862.269528
 21
11568.245429
 31
0.0
 13
27677.42388
 23
11468.245864
 33
0.0
 14
27588.17268
 24
11668.245864
 34
0.0
 50
90.000003
  0
DIMENSION
  5
2CF
  8
2
 62
     7
  2
*D18
 10
27810.33938
 20
11613.521236
 30
0.0
 11
27784.339841
 21
11593.245429
 31
0.0
 13
27678.17268
 23
11518.245864
 33
0.0
 14
27588.17268
 24
11668.245864
 34
0.0
 50
90.000003
  0
DIMENSION
  5
2D0
  8
2
 62
     7
  2
*D19
 10
26647.356298
 20
12169.495364
 30
0.0
 11
26888.172344
 21
12195.495117
 31
0.0
 13
26188.17248
 23
11668.245864
 33
0.0
 14
27588.17268
 24
11668.245864
 34
0.0
  0
DIMENSION
  5
2D1
  8
2
 62
     7
  2
*D20
 10
27694.115825
 20
12169.495364
 30
0.0
 11
27737.693516
 21
12195.495117
 31
0.0
 13
27588.17268
 23
11668.245864
 33
0.0
 14
27648.17268
 24
11525.245864
 34
0.0
  0
DIMENSION
  5
2D2
  8
2
 62
     7
  2
*D21
 10
27695.777348
 20
12079.495364
 30
0.0
 11
27727.693516
 21
12105.495117
 31
0.0
 13
27588.17268
 23
11668.245864
 33
0.0
 14
27638.17268
 24
11616.245864
 34
0.0
  0
DIMENSION
  5
2D3
  8
2
 62
     7
  2
*D22
 10
26655.663913
 20
12079.495364
 30
0.0
 11
26823.172344
 21
12105.495117
 31
0.0
 13
26230.67268
 23
11620.941821
 33
0.0
 14
27415.67268
 24
11621.355963
 34
0.0
  0
DIMENSION
  5
2D4
  8
2
 62
     7
  2
*D23
 10
26667.294574
 20
11989.495364
 30
0.0
 11
26823.172344
 21
12015.495117
 31
0.0
 13
26243.17278
 23
11640.746364
 33
0.0
 14
27403.17288
 24
11640.745364
 34
0.0
  0
DIMENSION
  5
2D5
  8
2
 62
     7
  2
*D24
 10
26870.000388
 20
11818.568454
 30
0.0
 11
26977.691563
 21
11844.568359
 31
0.0
 13
26823.17248
 23
11700.812464
 33
0.0
 14
26888.17248
 24
11735.028064
 34
0.0
  0
DIMENSION
  5
2D6
  8
2
 62
     7
  2
*D25
 10
26534.37273
 20
11899.495364
 30
0.0
 11
26823.171875
 21
11923.995117
 31
0.0
  1
７×１５０＝１０５０
 13
26298.17268
 23
11665.685067
 33
0.0
 14
27348.17268
 24
11665.687804
 34
0.0
  0
DIMENSION
  5
2D7
  8
2
 62
     7
  2
*D26
 10
25732.67288
 20
11294.707437
 30
0.0
 11
25706.673825
 21
11248.246405
 31
0.0
 13
26188.17248
 23
11128.246064
 33
0.0
 14
26188.17248
 24
11368.245864
 34
0.0
 50
90.000003
  0
DIMENSION
  5
2D8
  8
2
 62
     7
  2
*D27
 10
25732.67288
 20
11506.337371
 30
0.0
 11
25706.673825
 21
11518.245429
 31
0.0
 13
26188.17248
 23
11368.245864
 33
0.0
 14
26188.17248
 24
11668.245864
 34
0.0
 50
90.000003
  0
DIMENSION
  5
2D9
  8
2
 62
     7
  2
*D28
 10
25847.67288
 20
11542.677865
 30
0.0
 11
25821.673825
 21
11533.246405
 31
0.0
 13
26270.33588
 23
11410.745564
 33
0.0
 14
26270.33588
 24
11655.746364
 34
0.0
 50
90.000003
  0
DIMENSION
  5
2DA
  8
2
 62
     7
  2
*D29
 10
25937.67288
 20
11585.431387
 30
0.0
 11
25911.673825
 21
11533.246405
 31
0.0
 13
26220.67258
 23
11425.745864
 33
0.0
 14
26220.67268
 24
11640.746364
 34
0.0
 50
90.000003
  0
DIMENSION
  5
2DB
  8
2
 62
     7
  2
*D30
 10
26092.67288
 20
11592.913253
 30
0.0
 11
26066.673825
 21
11585.775702
 31
0.0
 13
26193.17258
 23
11533.246064
 33
0.0
 14
26188.17248
 24
11668.245864
 34
0.0
 50
90.000003
  0
DIMENSION
  5
2DC
  8
2
 62
     7
  2
*D31
 10
26027.67288
 20
11543.163976
 30
0.0
 11
26001.673825
 21
11533.246405
 31
0.0
 13
26223.540537
 23
11458.246064
 33
0.0
 14
26223.825686
 24
11608.246064
 34
0.0
 50
90.000003
  0
DIMENSION
  5
2DD
  8
2
 62
     7
  2
*D32
 10
25637.67288
 20
11018.947219
 30
0.0
 11
25611.673826
 21
10983.725741
 31
0.0
 13
26148.17258
 23
11073.245864
 33
0.0
 14
26138.17248
 24
11083.245564
 34
0.0
 50
90.000003
  0
DIMENSION
  5
2DE
  8
2
 62
     7
  2
*D33
 10
25637.67288
 20
11180.341765
 30
0.0
 11
25611.673826
 21
11217.76578
 31
0.0
 13
26138.17248
 23
11083.245564
 33
0.0
 14
26188.17248
 24
11128.246064
 34
0.0
 50
90.000003
  0
DIMENSION
  5
2DF
  8
2
 62
     7
  2
*D34
 10
26537.737792
 20
13442.714086
 30
0.0
 11
26786.818828
 21
13468.713867
 31
0.0
 13
26163.177224
 23
13336.667286
 33
0.0
 14
27613.179124
 24
13336.667286
 34
0.0
  0
DIMENSION
  5
2E0
  8
2
 62
     7
  2
*D35
 10
25997.086324
 20
12812.083502
 30
0.0
 11
25971.085935
 21
13079.636054
 31
0.0
 13
26143.171524
 23
12686.667286
 33
0.0
 14
26143.172524
 24
13316.667286
 34
0.0
 50
90.000003
  0
DIMENSION
  5
2E1
  8
2
 62
     7
  2
*D36
 10
25997.086324
 20
12605.466495
 30
0.0
 11
25971.085935
 21
12614.167304
 31
0.0
 13
26188.171524
 23
12541.667586
 33
0.0
 14
26143.171524
 24
12686.667286
 34
0.0
 50
90.000003
  0
DIMENSION
  5
2E2
  8
2
 62
     7
  2
*D37
 10
28814.296256
 20
12403.908046
 30
0.0
 11
29052.467266
 21
12429.908203
 31
0.0
 13
28302.466914
 23
12589.947646
 33
0.0
 14
29802.466914
 24
12589.947646
 34
0.0
  0
DIMENSION
  5
2E3
  8
2
 62
     7
  2
*D38
 10
30032.003714
 20
12900.785552
 30
0.0
 11
30006.003903
 21
12816.947577
 31
0.0
  1
500
 13
29778.466914
 23
12565.947646
 33
0.0
 14
29778.466914
 24
13067.947646
 34
0.0
 50
90.000003
  0
DIMENSION
  5
2E4
  8
2
 62
     7
  2
*D39
 10
29923.699514
 20
12770.041434
 30
0.0
 11
29897.699216
 21
12666.689765
 31
0.0
 13
29782.467114
 23
12585.947646
 33
0.0
 14
29782.466914
 24
13047.947646
 34
0.0
 50
90.000003
  0
DIMENSION
  5
2E5
  8
2
 62
     7
  2
*D40
 10
28917.720707
 20
12484.965446
 30
0.0
 11
28923.674297
 21
12510.96582
 31
0.0
 13
28322.465214
 23
12585.946146
 33
0.0
 14
29782.467114
 24
12585.947646
 34
0.0
  0
DIMENSION
  5
2E6
  8
2
 62
     7
  2
*D41
 10
26962.182954
 20
12414.372835
 30
0.0
 11
26823.173828
 21
12438.873047
 31
0.0
  1
１６×６５＝１０４０
 13
26303.172724
 23
12520.417786
 33
0.0
 14
27343.173224
 24
12520.417786
 34
0.0
  0
LINE
  5
2E7
  8
1
 10
26188.17248
 20
11668.245864
 30
0.0
 11
26863.17238
 21
11668.246064
 31
0.0
  0
LINE
  5
2E8
  8
1
 10
27588.17268
 20
11668.245864
 30
0.0
 11
27588.17268
 21
11335.245864
 31
0.0
  0
LINE
  5
2E9
  8
1
 10
27628.17268
 20
11073.245864
 30
0.0
 11
26888.17268
 21
11073.245864
 31
0.0
  0
LINE
  5
2EA
  8
1
 10
28326.466914
 20
13067.947646
 30
0.0
 11
29778.466914
 21
13067.947646
 31
0.0
  0
LINE
  5
2EB
  8
1
 10
26188.17248
 20
11353.245864
 30
0.0
 11
26863.17238
 21
11353.246064
 31
0.0
  0
LINE
  5
2EC
  8
1
 10
26188.17248
 20
11113.246064
 30
0.0
 11
26863.17248
 21
11113.245864
 31
0.0
  0
LINE
  5
2ED
  8
1
 10
26138.17248
 20
11083.245564
 30
0.0
 11
26888.17248
 21
11083.245864
 31
0.0
  0
LINE
  5
2EE
  8
1
 10
28326.466914
 20
12565.947846
 30
0.0
 11
29778.466914
 21
12565.947646
 31
0.0
  0
LINE
  5
2EF
  8
1
 10
29802.466914
 20
13043.947646
 30
0.0
 11
29802.466914
 21
12589.947646
 31
0.0
  0
LINE
  5
2F0
  8
1
 10
28302.466914
 20
13043.947646
 30
0.0
 11
28302.466914
 21
12589.947646
 31
0.0
  0
LINE
  5
2F1
  8
1
  6
DIVIDE
 10
29782.466914
 20
13047.947346
 30
0.0
 11
29782.467114
 21
12585.947646
 31
0.0
  0
LINE
  5
2F2
  8
1
  6
DIVIDE
 10
28322.466714
 20
13047.947846
 30
0.0
 11
28322.465214
 21
12585.946146
 31
0.0
  0
LINE
  5
2F3
  8
1
  6
DIVIDE
 10
28322.467114
 20
13047.947646
 30
0.0
 11
29782.466914
 21
13047.947646
 31
0.0
  0
LINE
  5
2F4
  8
1
 10
28302.466914
 20
12633.947646
 30
0.0
 11
28359.466714
 21
12633.947346
 31
0.0
  0
TEXT
  5
2F5
  8
2
 10
29017.033203
 20
12490.245117
 30
0.0
 40
43.75
  1
（天井開口部）
 41
0.84
  7
MONOTXT
  0
CIRCLE
  5
2F6
  8
1
 10
27348.17268
 20
11410.746064
 30
0.0
 40
7.0
  0
LINE
  5
2F7
  8
1
 10
26863.17268
 20
11353.246364
 30
0.0
 11
27588.17268
 21
11353.245864
 31
0.0
  0
TEXT
  5
2F8
  8
2
 10
29921.363281
 20
12714.155273
 30
0.0
 40
43.75
  1
（天井開口部）
 50
90.000201
 41
0.84
  7
MONOTXT
  0
LINE
  5
2F9
  8
1
 10
26220.67258
 20
11668.245864
 30
0.0
 11
26220.67258
 21
11398.245864
 31
0.0
  0
CIRCLE
  5
2FA
  8
1
 10
27198.17268
 20
11410.746064
 30
0.0
 40
7.0
  0
LINE
  5
2FB
  8
1
 10
26863.17268
 20
11335.246364
 30
0.0
 11
27588.17268
 21
11335.245864
 31
0.0
  0
LINE
  5
2FC
  8
1
 10
26188.17248
 20
11335.245864
 30
0.0
 11
26863.17238
 21
11335.246064
 31
0.0
  0
LINE
  5
2FD
  8
1
 10
27588.17268
 20
11616.245864
 30
0.0
 11
27638.17268
 21
11616.245864
 31
0.0
  0
LINE
  5
2FE
  8
1
  6
DIVIDE
 10
28322.466914
 20
12585.947646
 30
0.0
 11
29782.467114
 21
12585.947646
 31
0.0
  0
LINE
  5
2FF
  8
1
 10
28370.466714
 20
12622.947646
 30
0.0
 11
28370.466914
 21
12565.947646
 31
0.0
  0
LINE
  5
300
  8
1
 10
28370.466914
 20
13067.947646
 30
0.0
 11
28370.466914
 21
13010.947646
 31
0.0
  0
LINE
  5
301
  8
1
 10
28302.466914
 20
12999.947646
 30
0.0
 11
28359.467014
 21
12999.947646
 31
0.0
  0
LINE
  5
302
  8
1
 10
29745.467114
 20
12999.948146
 30
0.0
 11
29802.466914
 21
12999.947646
 31
0.0
  0
LINE
  5
303
  8
1
 10
29734.466914
 20
13067.947646
 30
0.0
 11
29734.466114
 21
13010.947646
 31
0.0
  0
LINE
  5
304
  8
1
 10
29734.467114
 20
12622.948146
 30
0.0
 11
29734.466914
 21
12565.947646
 31
0.0
  0
LINE
  5
305
  8
1
 10
29745.467114
 20
12633.947646
 30
0.0
 11
29802.466914
 21
12633.947646
 31
0.0
  0
LINE
  5
306
  8
1
 10
28359.466914
 20
12622.947646
 30
0.0
 11
29745.466914
 21
12622.947646
 31
0.0
  0
LINE
  5
307
  8
1
 10
28359.466914
 20
13010.947846
 30
0.0
 11
29745.466614
 21
13010.947646
 31
0.0
  0
LINE
  5
308
  8
1
 10
28359.466914
 20
13010.947646
 30
0.0
 11
28359.466914
 21
12622.947646
 31
0.0
  0
LINE
  5
309
  8
1
 10
29745.466914
 20
13010.947646
 30
0.0
 11
29745.466914
 21
12622.947646
 31
0.0
  0
ARC
  5
30A
  8
1
 10
29778.466914
 20
12589.947646
 30
0.0
 40
24.0
 50
270.0002
 51
0.0
  0
ARC
  5
30B
  8
1
 10
29778.466914
 20
13043.947646
 30
0.0
 40
24.0
 50
0.0
 51
90.0001
  0
ARC
  5
30C
  8
1
 10
28326.466914
 20
13043.947646
 30
0.0
 40
24.0
 50
90.0001
 51
180.0002
  0
ARC
  5
30D
  8
1
 10
28326.466914
 20
12589.947646
 30
0.0
 40
24.0
 50
180.0002
 51
270.0002
  0
LINE
  5
30E
  8
1
 10
28374.466914
 20
12995.947846
 30
0.0
 11
28374.466914
 21
12637.947646
 31
0.0
  0
LINE
  5
30F
  8
1
 10
28374.466914
 20
12637.947646
 30
0.0
 11
29730.466914
 21
12637.947646
 31
0.0
  0
LINE
  5
310
  8
1
 10
29730.466914
 20
12995.947646
 30
0.0
 11
29730.466914
 21
12637.947646
 31
0.0
  0
LINE
  5
311
  8
1
 10
28374.466914
 20
12637.947646
 30
0.0
 11
29730.466914
 21
12637.947646
 31
0.0
  0
LINE
  5
312
  8
1
 10
28374.466914
 20
12637.947646
 30
0.0
 11
29730.466914
 21
12637.947646
 31
0.0
  0
LINE
  5
313
  8
1
 10
28374.466914
 20
12637.947646
 30
0.0
 11
29730.466914
 21
12637.947646
 31
0.0
  0
LINE
  5
314
  8
1
 10
28374.466914
 20
12637.947646
 30
0.0
 11
29730.466914
 21
12637.947646
 31
0.0
  0
LINE
  5
315
  8
1
 10
28374.466914
 20
12637.947646
 30
0.0
 11
29730.466914
 21
12637.947646
 31
0.0
  0
LINE
  5
316
  8
1
 10
28374.466914
 20
12637.947646
 30
0.0
 11
29730.466914
 21
12637.947646
 31
0.0
  0
LINE
  5
317
  8
1
 10
28374.466914
 20
12637.947646
 30
0.0
 11
29730.466914
 21
12637.947646
 31
0.0
  0
LINE
  5
318
  8
1
 10
28374.466914
 20
12637.947646
 30
0.0
 11
29730.466914
 21
12637.947646
 31
0.0
  0
LINE
  5
319
  8
1
 10
28374.466914
 20
12637.947646
 30
0.0
 11
29730.466914
 21
12637.947646
 31
0.0
  0
LINE
  5
31A
  8
1
 10
28374.466914
 20
12637.947646
 30
0.0
 11
29730.466914
 21
12637.947646
 31
0.0
  0
CIRCLE
  5
31B
  8
1
 10
26898.17268
 20
11655.746364
 30
0.0
 40
7.0
  0
CIRCLE
  5
31C
  8
1
 10
26748.17268
 20
11655.746364
 30
0.0
 40
7.0
  0
CIRCLE
  5
31D
  8
1
 10
26598.17268
 20
11655.746364
 30
0.0
 40
7.0
  0
LINE
  5
31E
  8
1
 10
27588.17268
 20
11586.245864
 30
0.0
 11
27638.17268
 21
11586.245864
 31
0.0
  0
LINE
  5
31F
  8
1
 10
26260.67248
 20
11668.245864
 30
0.0
 11
27425.67248
 21
11668.246364
 31
0.0
  0
LINE
  5
320
  8
1
 10
26220.67258
 20
11398.246064
 30
0.0
 11
27425.67278
 21
11398.246364
 31
0.0
  0
CIRCLE
  5
321
  8
1
 10
26448.17268
 20
11655.746364
 30
0.0
 40
7.0
  0
LINE
  5
322
  8
1
 10
27588.17268
 20
11119.495364
 30
0.0
 11
27588.17268
 21
11144.495364
 31
0.0
  0
LINE
  5
323
  8
1
  6
DASHDOT
 10
27390.73498
 20
11655.746564
 30
0.0
 11
26270.33588
 21
11655.746364
 31
0.0
  0
CIRCLE
  5
324
  8
1
 10
26298.17268
 20
11655.746364
 30
0.0
 40
7.0
  0
CIRCLE
  5
325
  8
1
 10
27048.17268
 20
11655.746364
 30
0.0
 40
7.0
  0
CIRCLE
  5
326
  8
1
 10
27198.17268
 20
11655.746364
 30
0.0
 40
7.0
  0
CIRCLE
  5
327
  8
1
 10
27348.17268
 20
11655.746364
 30
0.0
 40
7.0
  0
CIRCLE
  5
328
  8
1
 10
27048.17268
 20
11410.746064
 30
0.0
 40
7.0
  0
CIRCLE
  5
329
  8
1
 10
26298.17268
 20
11410.745564
 30
0.0
 40
7.0
  0
LINE
  5
32A
  8
1
  6
DASHDOT
 10
27390.73498
 20
11410.745864
 30
0.0
 11
26270.33588
 21
11410.745564
 31
0.0
  0
LINE
  5
32B
  8
1
 10
26220.67268
 20
11640.746364
 30
0.0
 11
26243.17278
 21
11640.746364
 31
0.0
  0
LINE
  5
32C
  8
1
 10
26225.67258
 20
11425.745864
 30
0.0
 11
26248.17268
 21
11425.746064
 31
0.0
  0
LINE
  5
32D
  8
1
 10
26188.17248
 20
11128.246064
 30
0.0
 11
26863.17248
 21
11128.245864
 31
0.0
  0
LINE
  5
32E
  8
1
 10
27403.17268
 20
11425.747364
 30
0.0
 11
27425.67288
 21
11425.747364
 31
0.0
  0
LINE
  5
32F
  8
1
 10
27403.17288
 20
11640.745364
 30
0.0
 11
27425.67268
 21
11640.745364
 31
0.0
  0
LINE
  5
330
  8
1
 10
27408.17298
 20
11635.745364
 30
0.0
 11
27425.67268
 21
11635.745364
 31
0.0
  0
LINE
  5
331
  8
1
 10
26863.17268
 20
11368.246364
 30
0.0
 11
27588.17268
 21
11368.246064
 31
0.0
  0
LINE
  5
332
  8
1
 10
26188.17248
 20
11113.246064
 30
0.0
 11
26188.17248
 21
11128.246364
 31
0.0
  0
LINE
  5
333
  8
1
 10
26188.17248
 20
11335.246564
 30
0.0
 11
26188.17248
 21
11668.245864
 31
0.0
  0
LINE
  5
334
  8
1
 10
26188.17248
 20
11113.246064
 30
0.0
 11
26188.17258
 21
11083.246364
 31
0.0
  0
LINE
  5
335
  8
1
 10
27588.17268
 20
11113.245864
 30
0.0
 11
27588.17268
 21
11083.245864
 31
0.0
  0
LINE
  5
336
  8
1
  6
DASHDOT
 10
29052.466714
 20
13108.971846
 30
0.0
 11
29052.466714
 21
12543.897846
 31
0.0
  0
LINE
  5
337
  8
1
 10
26138.17248
 20
11083.245864
 30
0.0
 11
26138.17248
 21
11078.245864
 31
0.0
  0
LINE
  5
338
  8
1
 10
27638.17268
 20
11083.245864
 30
0.0
 11
27638.17268
 21
11078.245864
 31
0.0
  0
LINE
  5
339
  8
1
 10
26148.17258
 20
11073.245864
 30
0.0
 11
26138.17248
 21
11078.245864
 31
0.0
  0
LINE
  5
33A
  8
1
 10
26220.67268
 20
11645.746364
 30
0.0
 11
27425.67238
 21
11645.745364
 31
0.0
  0
LINE
  5
33B
  8
1
 10
26220.67258
 20
11420.745864
 30
0.0
 11
27425.67288
 21
11420.747364
 31
0.0
  0
LINE
  5
33C
  8
1
 10
27628.17268
 20
11073.245864
 30
0.0
 11
27638.17268
 21
11078.245864
 31
0.0
  0
LINE
  5
33D
  8
1
 10
28374.466914
 20
12652.947646
 30
0.0
 11
29730.466914
 21
12652.947646
 31
0.0
  0
LINE
  5
33E
  8
1
 10
28374.466814
 20
12995.947646
 30
0.0
 11
29730.466914
 21
12995.947646
 31
0.0
  0
LINE
  5
33F
  8
1
 10
27408.17288
 20
11635.745364
 30
0.0
 11
27408.17268
 21
11430.747364
 31
0.0
  0
LINE
  5
340
  8
1
 10
27408.17268
 20
11430.747564
 30
0.0
 11
27425.67288
 21
11430.747364
 31
0.0
  0
LINE
  5
341
  8
1
 10
26243.17278
 20
11640.746364
 30
0.0
 11
27403.17288
 21
11640.745364
 31
0.0
  0
LINE
  5
342
  8
1
 10
26243.17268
 20
11425.746064
 30
0.0
 11
27403.17268
 21
11425.747564
 31
0.0
  0
LINE
  5
343
  8
1
 10
26863.17268
 20
11113.246064
 30
0.0
 11
27588.17288
 21
11113.245864
 31
0.0
  0
LINE
  5
344
  8
1
 10
26863.17268
 20
11128.246064
 30
0.0
 11
27588.17288
 21
11128.245864
 31
0.0
  0
LINE
  5
345
  8
1
 10
26863.17268
 20
11146.246064
 30
0.0
 11
27588.17288
 21
11146.245864
 31
0.0
  0
LINE
  5
346
  8
1
 10
27638.17268
 20
11616.245864
 30
0.0
 11
27638.17268
 21
11601.245864
 31
0.0
  0
LINE
  5
347
  8
1
 10
27588.17288
 20
11128.245864
 30
0.0
 11
27588.17268
 21
11113.245864
 31
0.0
  0
LINE
  5
348
  8
1
 10
27588.17288
 20
11128.245864
 30
0.0
 11
27588.17288
 21
11146.245864
 31
0.0
  0
LINE
  5
349
  8
1
 10
26220.67258
 20
11430.745864
 30
0.0
 11
26238.17258
 21
11430.746364
 31
0.0
  0
LINE
  5
34A
  8
1
 10
26220.67268
 20
11635.746364
 30
0.0
 11
26238.17278
 21
11635.746364
 31
0.0
  0
LINE
  5
34B
  8
1
 10
26188.17248
 20
11146.246064
 30
0.0
 11
26188.17248
 21
11128.246064
 31
0.0
  0
LINE
  5
34C
  8
1
 10
26188.17248
 20
11146.246064
 30
0.0
 11
26863.17248
 21
11146.245864
 31
0.0
  0
LINE
  5
34D
  8
1
  6
DASHED
 10
26194.17298
 20
11240.746064
 30
0.0
 11
27582.17168
 21
11240.745564
 31
0.0
  0
LINE
  5
34E
  8
1
 10
28374.466914
 20
12652.947646
 30
0.0
 11
29730.466914
 21
12652.947646
 31
0.0
  0
LINE
  5
34F
  8
1
 10
26243.17278
 20
11640.746364
 30
0.0
 11
26243.17258
 21
11425.746064
 31
0.0
  0
ARC
  5
350
  8
1
 10
27415.67268
 20
11458.246364
 30
0.0
 40
3.5
 50
179.5449
 51
0.0
  0
LINE
  5
351
  8
1
  6
DASHED
 10
26194.17328
 20
11292.746064
 30
0.0
 11
27582.17188
 21
11292.745564
 31
0.0
  0
LINE
  5
352
  8
1
 10
27588.171824
 20
12541.667186
 30
0.0
 11
27588.172124
 21
13341.667086
 31
0.0
  0
LINE
  5
353
  8
1
  6
DASHED
 10
26194.17278
 20
11188.745864
 30
0.0
 11
27582.17138
 21
11188.745564
 31
0.0
  0
LINE
  5
354
  8
1
 10
28374.466914
 20
12652.947646
 30
0.0
 11
29730.466914
 21
12652.947646
 31
0.0
  0
CIRCLE
  5
355
  8
1
 10
26448.17268
 20
11410.745564
 30
0.0
 40
7.0
  0
LINE
  5
356
  8
1
  6
DASHED
 10
27588.17238
 20
11282.746064
 30
0.0
 11
27588.17218
 21
11250.746064
 31
0.0
  0
LINE
  5
357
  8
1
 10
28374.466914
 20
12652.947646
 30
0.0
 11
29730.466914
 21
12652.947646
 31
0.0
  0
LINE
  5
358
  8
1
 10
28374.466914
 20
12652.947646
 30
0.0
 11
29730.466914
 21
12652.947646
 31
0.0
  0
LINE
  5
359
  8
1
 10
28374.466914
 20
12652.947646
 30
0.0
 11
29730.466914
 21
12652.947646
 31
0.0
  0
LINE
  5
35A
  8
1
 10
28374.466914
 20
12652.947646
 30
0.0
 11
29730.466914
 21
12652.947646
 31
0.0
  0
LINE
  5
35B
  8
1
 10
28374.466914
 20
12652.947646
 30
0.0
 11
29730.466914
 21
12652.947646
 31
0.0
  0
CIRCLE
  5
35C
  8
1
 10
26598.17268
 20
11410.745864
 30
0.0
 40
7.0
  0
CIRCLE
  5
35D
  8
1
 10
26748.17268
 20
11410.745864
 30
0.0
 40
7.0
  0
CIRCLE
  5
35E
  8
1
 10
26898.17268
 20
11410.745864
 30
0.0
 40
7.0
  0
LINE
  5
35F
  8
1
 10
28374.466914
 20
12652.947646
 30
0.0
 11
29730.466914
 21
12652.947646
 31
0.0
  0
LINE
  5
360
  8
1
 10
28374.466914
 20
12667.947646
 30
0.0
 11
29730.466914
 21
12667.947646
 31
0.0
  0
LINE
  5
361
  8
1
 10
28374.466914
 20
12667.947646
 30
0.0
 11
29730.466914
 21
12667.947646
 31
0.0
  0
LINE
  5
362
  8
1
 10
27403.17288
 20
11640.745364
 30
0.0
 11
27403.17268
 21
11425.747364
 31
0.0
  0
ARC
  5
363
  8
1
 10
27283.17268
 20
11410.746064
 30
0.0
 40
12.5
 50
359.9865
 51
0.0
  0
LINE
  5
364
  8
1
 10
27425.67268
 20
11668.246564
 30
0.0
 11
27425.67288
 21
11398.246364
 31
0.0
  0
ARC
  5
365
  8
1
 10
27415.67268
 20
11608.246364
 30
0.0
 40
3.5
 50
0.0
 51
180.3741
  0
LINE
  5
366
  8
1
  6
DASHED
 10
27588.17218
 20
11230.746064
 30
0.0
 11
27588.17188
 21
11198.746064
 31
0.0
  0
LINE
  5
367
  8
1
  6
DASHED
 10
27588.17168
 20
11178.746064
 30
0.0
 11
27588.17138
 21
11146.246064
 31
0.0
  0
LINE
  5
368
  8
1
  6
DASHED
 10
27582.17138
 20
11188.746064
 30
0.0
 11
27588.17138
 21
11178.746064
 31
0.0
  0
LINE
  5
369
  8
1
  6
DASHED
 10
27588.17138
 20
11198.746064
 30
0.0
 11
27582.17138
 21
11188.746064
 31
0.0
  0
LINE
  5
36A
  8
1
  6
DASHED
 10
27582.17168
 20
11240.746064
 30
0.0
 11
27588.17168
 21
11230.746064
 31
0.0
  0
LINE
  5
36B
  8
1
  6
DASHED
 10
27588.17168
 20
11250.746064
 30
0.0
 11
27582.17168
 21
11240.746064
 31
0.0
  0
LINE
  5
36C
  8
1
  6
DASHED
 10
27582.17188
 20
11292.746064
 30
0.0
 11
27588.17188
 21
11282.746064
 31
0.0
  0
LINE
  5
36D
  8
1
  6
DASHED
 10
27588.17188
 20
11302.746064
 30
0.0
 11
27582.17188
 21
11292.746064
 31
0.0
  0
LINE
  5
36E
  8
1
  6
DASHED
 10
27588.17268
 20
11335.245864
 30
0.0
 11
27588.17238
 21
11302.746064
 31
0.0
  0
LINE
  5
36F
  8
1
 10
27638.17268
 20
11601.245864
 30
0.0
 11
27638.17268
 21
11586.245864
 31
0.0
  0
LINE
  5
370
  8
1
  6
DASHED
 10
27588.17268
 20
11146.245164
 30
0.0
 11
27588.17238
 21
11178.744864
 31
0.0
  0
LINE
  5
371
  8
1
  6
DASHED
 10
27588.17188
 20
11178.744864
 30
0.0
 11
27582.17188
 21
11188.744864
 31
0.0
  0
LINE
  5
372
  8
1
  6
DASHED
 10
27582.17188
 20
11188.744864
 30
0.0
 11
27588.17188
 21
11198.744864
 31
0.0
  0
LINE
  5
373
  8
1
  6
DASHED
 10
27588.17168
 20
11230.744864
 30
0.0
 11
27582.17168
 21
11240.744864
 31
0.0
  0
LINE
  5
374
  8
1
  6
DASHED
 10
27582.17168
 20
11240.744864
 30
0.0
 11
27588.17168
 21
11250.744864
 31
0.0
  0
LINE
  5
375
  8
1
  6
DASHED
 10
27588.17138
 20
11282.744864
 30
0.0
 11
27582.17138
 21
11292.744864
 31
0.0
  0
LINE
  5
376
  8
1
  6
DASHED
 10
27582.17138
 20
11292.744864
 30
0.0
 11
27588.17138
 21
11302.744864
 31
0.0
  0
LINE
  5
377
  8
1
  6
DASHED
 10
27588.17168
 20
11302.744864
 30
0.0
 11
27588.17138
 21
11335.244864
 31
0.0
  0
LINE
  5
378
  8
1
  6
DASHED
 10
27588.17218
 20
11250.744864
 30
0.0
 11
27588.17188
 21
11282.744864
 31
0.0
  0
LINE
  5
379
  8
1
  6
DASHED
 10
27588.17238
 20
11198.744864
 30
0.0
 11
27588.17218
 21
11230.744864
 31
0.0
  0
LINE
  5
37A
  8
1
  6
DASHED
 10
26188.17228
 20
11198.744664
 30
0.0
 11
26188.17248
 21
11230.744664
 31
0.0
  0
LINE
  5
37B
  8
1
  6
DASHED
 10
26188.17248
 20
11250.744664
 30
0.0
 11
26188.17278
 21
11282.744664
 31
0.0
  0
LINE
  5
37C
  8
1
  6
DASHED
 10
26188.17298
 20
11302.744664
 30
0.0
 11
26188.17328
 21
11335.244664
 31
0.0
  0
LINE
  5
37D
  8
1
  6
DASHED
 10
26194.17328
 20
11292.744664
 30
0.0
 11
26188.17328
 21
11302.744664
 31
0.0
  0
LINE
  5
37E
  8
1
  6
DASHED
 10
26188.17328
 20
11282.744664
 30
0.0
 11
26194.17328
 21
11292.744664
 31
0.0
  0
LINE
  5
37F
  8
1
  6
DASHED
 10
26194.17298
 20
11240.744664
 30
0.0
 11
26188.17298
 21
11250.744664
 31
0.0
  0
LINE
  5
380
  8
1
  6
DASHED
 10
26188.17298
 20
11230.744664
 30
0.0
 11
26194.17298
 21
11240.744664
 31
0.0
  0
LINE
  5
381
  8
1
  6
DASHED
 10
26194.17278
 20
11188.744664
 30
0.0
 11
26188.17278
 21
11198.744664
 31
0.0
  0
LINE
  5
382
  8
1
  6
DASHED
 10
26188.17278
 20
11178.744664
 30
0.0
 11
26194.17278
 21
11188.744664
 31
0.0
  0
LINE
  5
383
  8
1
  6
DASHED
 10
26188.17198
 20
11146.244864
 30
0.0
 11
26188.17228
 21
11178.744664
 31
0.0
  0
LINE
  5
384
  8
1
  6
DASHED
 10
26188.17198
 20
11335.245564
 30
0.0
 11
26188.17228
 21
11302.745864
 31
0.0
  0
LINE
  5
385
  8
1
  6
DASHED
 10
26188.17278
 20
11302.745864
 30
0.0
 11
26194.17278
 21
11292.745864
 31
0.0
  0
LINE
  5
386
  8
1
  6
DASHED
 10
26194.17278
 20
11292.745864
 30
0.0
 11
26188.17278
 21
11282.745864
 31
0.0
  0
LINE
  5
387
  8
1
  6
DASHED
 10
26188.17298
 20
11250.745864
 30
0.0
 11
26194.17298
 21
11240.745864
 31
0.0
  0
LINE
  5
388
  8
1
  6
DASHED
 10
26194.17298
 20
11240.745864
 30
0.0
 11
26188.17298
 21
11230.745864
 31
0.0
  0
LINE
  5
389
  8
1
  6
DASHED
 10
26188.17328
 20
11198.745864
 30
0.0
 11
26194.17328
 21
11188.745864
 31
0.0
  0
LINE
  5
38A
  8
1
  6
DASHED
 10
26194.17328
 20
11188.745864
 30
0.0
 11
26188.17328
 21
11178.745864
 31
0.0
  0
LINE
  5
38B
  8
1
  6
DASHED
 10
26188.17298
 20
11178.745864
 30
0.0
 11
26188.17328
 21
11146.245864
 31
0.0
  0
LINE
  5
38C
  8
1
  6
DASHED
 10
26188.17248
 20
11230.745864
 30
0.0
 11
26188.17278
 21
11198.745864
 31
0.0
  0
LINE
  5
38D
  8
1
  6
DASHED
 10
26188.17228
 20
11282.745864
 30
0.0
 11
26188.17248
 21
11250.745864
 31
0.0
  0
ARC
  5
38E
  8
1
 10
27283.17268
 20
11410.746064
 30
0.0
 40
12.5
 50
359.9865
 51
0.0
  0
LINE
  5
38F
  8
1
 10
28374.466914
 20
12667.947646
 30
0.0
 11
29730.466914
 21
12667.947646
 31
0.0
  0
LINE
  5
390
  8
1
 10
28374.466914
 20
12667.947646
 30
0.0
 11
29730.466914
 21
12667.947646
 31
0.0
  0
LINE
  5
391
  8
1
 10
28374.466914
 20
12667.947646
 30
0.0
 11
29730.466914
 21
12667.947646
 31
0.0
  0
ARC
  5
392
  8
1
 10
26993.17268
 20
11410.746064
 30
0.0
 40
12.5
 50
359.9865
 51
0.0
  0
LINE
  5
393
  8
1
 10
26888.17268
 20
11083.246064
 30
0.0
 11
27638.17288
 21
11083.245864
 31
0.0
  0
LINE
  5
394
  8
1
  6
DIVIDE
 10
26193.17258
 20
11533.246064
 30
0.0
 11
27467.67278
 21
11533.246364
 31
0.0
  0
LINE
  5
395
  8
1
 10
28374.466914
 20
12667.947646
 30
0.0
 11
29730.466914
 21
12667.947646
 31
0.0
  0
LINE
  5
396
  8
1
 10
28374.466914
 20
12667.947646
 30
0.0
 11
29730.466914
 21
12667.947646
 31
0.0
  0
LINE
  5
397
  8
1
 10
28374.466914
 20
12667.947646
 30
0.0
 11
29730.466914
 21
12667.947646
 31
0.0
  0
LINE
  5
398
  8
1
 10
26888.17268
 20
11073.246064
 30
0.0
 11
26148.17258
 21
11073.245864
 31
0.0
  0
LINE
  5
399
  8
1
 10
26188.17248
 20
11368.245864
 30
0.0
 11
26863.17238
 21
11368.246064
 31
0.0
  0
LINE
  5
39A
  8
1
 10
26863.17268
 20
11668.246364
 30
0.0
 11
27588.17268
 21
11668.245864
 31
0.0
  0
LINE
  5
39B
  8
1
 10
28374.466914
 20
12667.947646
 30
0.0
 11
29730.466914
 21
12667.947646
 31
0.0
  0
ARC
  5
39C
  8
1
 10
27415.67268
 20
11597.246364
 30
0.0
 40
7.0
 50
0.0
 51
59.9987
  0
LINE
  5
39D
  8
1
 10
27419.17288
 20
11608.246564
 30
0.0
 11
27419.17288
 21
11603.308564
 31
0.0
  0
LINE
  5
39E
  8
1
 10
28374.466914
 20
12667.947646
 30
0.0
 11
29730.466914
 21
12667.947646
 31
0.0
  0
LINE
  5
39F
  8
1
 10
28374.466914
 20
12667.947646
 30
0.0
 11
29730.466914
 21
12667.947646
 31
0.0
  0
LINE
  5
3A0
  8
1
 10
27412.17268
 20
11608.273164
 30
0.0
 11
27412.17268
 21
11603.308364
 31
0.0
  0
ARC
  5
3A1
  8
1
 10
27415.67268
 20
11597.246364
 30
0.0
 40
7.0
 50
120.001
 51
0.0
  0
ARC
  5
3A2
  8
1
 10
27415.67268
 20
11469.246364
 30
0.0
 40
7.0
 50
0.0
 51
239.9994
  0
LINE
  5
3A3
  8
1
 10
27412.17268
 20
11458.219464
 30
0.0
 11
27412.17268
 21
11463.184364
 31
0.0
  0
LINE
  5
3A4
  8
1
 10
27419.17288
 20
11458.246064
 30
0.0
 11
27419.17288
 21
11463.184064
 31
0.0
  0
ARC
  5
3A5
  8
1
 10
27415.67268
 20
11469.246364
 30
0.0
 40
7.0
 50
300.0017
 51
0.0
  0
ARC
  5
3A6
  8
1
 10
27415.67268
 20
11458.246364
 30
0.0
 40
3.5
 50
179.6262
 51
0.0
  0
ARC
  5
3A7
  8
1
 10
26230.67268
 20
11458.246364
 30
0.0
 40
3.5
 50
179.6262
 51
0.0
  0
ARC
  5
3A8
  8
1
 10
26230.67268
 20
11469.246364
 30
0.0
 40
7.0
 50
300.0017
 51
0.0
  0
LINE
  5
3A9
  8
1
 10
26234.17288
 20
11458.246064
 30
0.0
 11
26234.17288
 21
11463.184064
 31
0.0
  0
LINE
  5
3AA
  8
1
 10
26227.17268
 20
11458.219464
 30
0.0
 11
26227.17268
 21
11463.184364
 31
0.0
  0
ARC
  5
3AB
  8
1
 10
26230.67268
 20
11469.246364
 30
0.0
 40
7.0
 50
0.0
 51
239.9994
  0
ARC
  5
3AC
  8
1
 10
26230.67268
 20
11597.246364
 30
0.0
 40
7.0
 50
120.001
 51
0.0
  0
LINE
  5
3AD
  8
1
 10
26227.17268
 20
11608.273164
 30
0.0
 11
26227.17268
 21
11603.308364
 31
0.0
  0
LINE
  5
3AE
  8
1
 10
26234.17288
 20
11608.246564
 30
0.0
 11
26234.17288
 21
11603.308564
 31
0.0
  0
ARC
  5
3AF
  8
1
 10
26230.67268
 20
11597.246364
 30
0.0
 40
7.0
 50
0.0
 51
59.9987
  0
ARC
  5
3B0
  8
1
 10
26230.67268
 20
11608.246364
 30
0.0
 40
3.5
 50
0.0
 51
180.3741
  0
LINE
  5
3B1
  8
1
 10
26238.17278
 20
11635.746364
 30
0.0
 11
26238.17258
 21
11430.746564
 31
0.0
  0
LINE
  5
3B2
  8
1
 10
28374.466914
 20
12682.947646
 30
0.0
 11
29730.466914
 21
12682.947646
 31
0.0
  0
LINE
  5
3B3
  8
1
 10
28374.466914
 20
12682.947646
 30
0.0
 11
29730.466914
 21
12682.947646
 31
0.0
  0
LINE
  5
3B4
  8
1
  6
DASHDOT
 10
26888.17248
 20
11735.028064
 30
0.0
 11
26888.17248
 21
11039.495364
 31
0.0
  0
LINE
  5
3B5
  8
1
  6
DASHDOT
 10
26823.17248
 20
11700.812464
 30
0.0
 11
26823.17248
 21
11372.926264
 31
0.0
  0
LINE
  5
3B6
  8
1
 10
28374.466914
 20
12682.947646
 30
0.0
 11
29730.466914
 21
12682.947646
 31
0.0
  0
LINE
  5
3B7
  8
1
 10
28374.466914
 20
12682.947646
 30
0.0
 11
29730.466914
 21
12682.947646
 31
0.0
  0
LINE
  5
3B8
  8
1
 10
28374.466914
 20
12682.947646
 30
0.0
 11
29730.466914
 21
12682.947646
 31
0.0
  0
LINE
  5
3B9
  8
1
 10
28374.466914
 20
12682.947646
 30
0.0
 11
29730.466914
 21
12682.947646
 31
0.0
  0
LINE
  5
3BA
  8
1
 10
28374.466914
 20
12682.947646
 30
0.0
 11
29730.466914
 21
12682.947646
 31
0.0
  0
LINE
  5
3BB
  8
1
 10
28374.466914
 20
12682.947646
 30
0.0
 11
29730.466914
 21
12682.947646
 31
0.0
  0
LINE
  5
3BC
  8
1
 10
28374.466914
 20
12682.947646
 30
0.0
 11
29730.466914
 21
12682.947646
 31
0.0
  0
LINE
  5
3BD
  8
1
 10
28374.466914
 20
12697.947646
 30
0.0
 11
29730.466914
 21
12697.947646
 31
0.0
  0
LINE
  5
3BE
  8
1
 10
28374.466914
 20
12697.947646
 30
0.0
 11
29730.466914
 21
12697.947646
 31
0.0
  0
LINE
  5
3BF
  8
1
 10
28374.466914
 20
12697.947646
 30
0.0
 11
29730.466914
 21
12697.947646
 31
0.0
  0
LINE
  5
3C0
  8
1
 10
28374.466914
 20
12697.947646
 30
0.0
 11
29730.466914
 21
12697.947646
 31
0.0
  0
LINE
  5
3C1
  8
1
 10
28374.466914
 20
12697.947646
 30
0.0
 11
29730.466914
 21
12697.947646
 31
0.0
  0
LINE
  5
3C2
  8
1
 10
28374.466914
 20
12697.947646
 30
0.0
 11
29730.466914
 21
12697.947646
 31
0.0
  0
LINE
  5
3C3
  8
1
 10
28374.466914
 20
12697.947646
 30
0.0
 11
29730.466914
 21
12697.947646
 31
0.0
  0
LINE
  5
3C4
  8
1
 10
28374.466914
 20
12697.947646
 30
0.0
 11
29730.466914
 21
12697.947646
 31
0.0
  0
LINE
  5
3C5
  8
1
 10
28374.466914
 20
12697.947646
 30
0.0
 11
29730.466914
 21
12697.947646
 31
0.0
  0
LINE
  5
3C6
  8
1
 10
28374.466914
 20
12697.947646
 30
0.0
 11
29730.466914
 21
12697.947646
 31
0.0
  0
LINE
  5
3C7
  8
1
 10
28374.466914
 20
12697.947646
 30
0.0
 11
29730.466914
 21
12697.947646
 31
0.0
  0
LINE
  5
3C8
  8
1
 10
28374.466914
 20
12712.947646
 30
0.0
 11
29730.466914
 21
12712.947646
 31
0.0
  0
LINE
  5
3C9
  8
1
 10
28374.466914
 20
12712.947646
 30
0.0
 11
29730.466914
 21
12712.947646
 31
0.0
  0
LINE
  5
3CA
  8
1
 10
28374.466914
 20
12712.947646
 30
0.0
 11
29730.466914
 21
12712.947646
 31
0.0
  0
LINE
  5
3CB
  8
1
 10
28374.466914
 20
12712.947646
 30
0.0
 11
29730.466914
 21
12712.947646
 31
0.0
  0
LINE
  5
3CC
  8
1
 10
28374.466914
 20
12712.947646
 30
0.0
 11
29730.466914
 21
12712.947646
 31
0.0
  0
LINE
  5
3CD
  8
1
 10
28374.466914
 20
12712.947646
 30
0.0
 11
29730.466914
 21
12712.947646
 31
0.0
  0
LINE
  5
3CE
  8
1
 10
28374.466914
 20
12712.947646
 30
0.0
 11
29730.466914
 21
12712.947646
 31
0.0
  0
LINE
  5
3CF
  8
1
 10
28374.466914
 20
12712.947646
 30
0.0
 11
29730.466914
 21
12712.947646
 31
0.0
  0
LINE
  5
3D0
  8
1
 10
28374.466914
 20
12712.947646
 30
0.0
 11
29730.466914
 21
12712.947646
 31
0.0
  0
LINE
  5
3D1
  8
1
 10
28374.466914
 20
12727.947646
 30
0.0
 11
29730.466914
 21
12727.947646
 31
0.0
  0
LINE
  5
3D2
  8
1
 10
28374.466914
 20
12727.947646
 30
0.0
 11
29730.466914
 21
12727.947646
 31
0.0
  0
LINE
  5
3D3
  8
1
 10
28374.466914
 20
12727.947646
 30
0.0
 11
29730.466914
 21
12727.947646
 31
0.0
  0
LINE
  5
3D4
  8
1
 10
28374.466914
 20
12727.947646
 30
0.0
 11
29730.466914
 21
12727.947646
 31
0.0
  0
LINE
  5
3D5
  8
1
 10
28374.466914
 20
12727.947646
 30
0.0
 11
29730.466914
 21
12727.947646
 31
0.0
  0
LINE
  5
3D6
  8
1
 10
28374.466914
 20
12727.947646
 30
0.0
 11
29730.466914
 21
12727.947646
 31
0.0
  0
LINE
  5
3D7
  8
1
 10
28374.466914
 20
12727.947646
 30
0.0
 11
29730.466914
 21
12727.947646
 31
0.0
  0
LINE
  5
3D8
  8
1
 10
28374.466914
 20
12727.947646
 30
0.0
 11
29730.466914
 21
12727.947646
 31
0.0
  0
LINE
  5
3D9
  8
1
 10
28374.466914
 20
12727.947646
 30
0.0
 11
29730.466914
 21
12727.947646
 31
0.0
  0
LINE
  5
3DA
  8
1
 10
28374.466914
 20
12727.947646
 30
0.0
 11
29730.466914
 21
12727.947646
 31
0.0
  0
LINE
  5
3DB
  8
1
 10
28374.466914
 20
12727.947646
 30
0.0
 11
29730.466914
 21
12727.947646
 31
0.0
  0
LINE
  5
3DC
  8
1
 10
28374.466914
 20
12742.947646
 30
0.0
 11
29730.466914
 21
12742.947646
 31
0.0
  0
LINE
  5
3DD
  8
1
 10
28374.466914
 20
12742.947646
 30
0.0
 11
29730.466914
 21
12742.947646
 31
0.0
  0
LINE
  5
3DE
  8
1
 10
28374.466914
 20
12742.947646
 30
0.0
 11
29730.466914
 21
12742.947646
 31
0.0
  0
LINE
  5
3DF
  8
1
 10
28374.466914
 20
12742.947646
 30
0.0
 11
29730.466914
 21
12742.947646
 31
0.0
  0
LINE
  5
3E0
  8
1
 10
28374.466914
 20
12742.947646
 30
0.0
 11
29730.466914
 21
12742.947646
 31
0.0
  0
LINE
  5
3E1
  8
1
 10
28374.466914
 20
12742.947646
 30
0.0
 11
29730.466914
 21
12742.947646
 31
0.0
  0
LINE
  5
3E2
  8
1
 10
28374.466914
 20
12742.947646
 30
0.0
 11
29730.466914
 21
12742.947646
 31
0.0
  0
LINE
  5
3E3
  8
1
 10
28374.466914
 20
12742.947646
 30
0.0
 11
29730.466914
 21
12742.947646
 31
0.0
  0
LINE
  5
3E4
  8
1
 10
28374.466914
 20
12742.947646
 30
0.0
 11
29730.466914
 21
12742.947646
 31
0.0
  0
LINE
  5
3E5
  8
1
 10
28374.466914
 20
12757.947646
 30
0.0
 11
29730.466914
 21
12757.947646
 31
0.0
  0
LINE
  5
3E6
  8
1
 10
28374.466914
 20
12757.947646
 30
0.0
 11
29730.466914
 21
12757.947646
 31
0.0
  0
LINE
  5
3E7
  8
1
 10
28374.466914
 20
12757.947646
 30
0.0
 11
29730.466914
 21
12757.947646
 31
0.0
  0
LINE
  5
3E8
  8
1
 10
28374.466914
 20
12757.947646
 30
0.0
 11
29730.466914
 21
12757.947646
 31
0.0
  0
LINE
  5
3E9
  8
1
 10
28374.466914
 20
12757.947646
 30
0.0
 11
29730.466914
 21
12757.947646
 31
0.0
  0
LINE
  5
3EA
  8
1
 10
28374.466914
 20
12757.947646
 30
0.0
 11
29730.466914
 21
12757.947646
 31
0.0
  0
LINE
  5
3EB
  8
1
 10
28374.466914
 20
12757.947646
 30
0.0
 11
29730.466914
 21
12757.947646
 31
0.0
  0
LINE
  5
3EC
  8
1
 10
28374.466914
 20
12757.947646
 30
0.0
 11
29730.466914
 21
12757.947646
 31
0.0
  0
LINE
  5
3ED
  8
1
 10
28374.466914
 20
12757.947646
 30
0.0
 11
29730.466914
 21
12757.947646
 31
0.0
  0
LINE
  5
3EE
  8
1
 10
28374.466914
 20
12757.947646
 30
0.0
 11
29730.466914
 21
12757.947646
 31
0.0
  0
LINE
  5
3EF
  8
1
 10
28374.466914
 20
12757.947646
 30
0.0
 11
29730.466914
 21
12757.947646
 31
0.0
  0
LINE
  5
3F0
  8
1
 10
28374.466914
 20
12772.947646
 30
0.0
 11
29730.466914
 21
12772.947646
 31
0.0
  0
LINE
  5
3F1
  8
1
 10
28374.466914
 20
12772.947646
 30
0.0
 11
29730.466914
 21
12772.947646
 31
0.0
  0
LINE
  5
3F2
  8
1
 10
28374.466914
 20
12772.947646
 30
0.0
 11
29730.466914
 21
12772.947646
 31
0.0
  0
LINE
  5
3F3
  8
1
 10
28374.466914
 20
12772.947646
 30
0.0
 11
29730.466914
 21
12772.947646
 31
0.0
  0
LINE
  5
3F4
  8
1
 10
28374.466914
 20
12772.947646
 30
0.0
 11
29730.466914
 21
12772.947646
 31
0.0
  0
LINE
  5
3F5
  8
1
 10
28374.466914
 20
12772.947646
 30
0.0
 11
29730.466914
 21
12772.947646
 31
0.0
  0
LINE
  5
3F6
  8
1
 10
28374.466914
 20
12772.947646
 30
0.0
 11
29730.466914
 21
12772.947646
 31
0.0
  0
LINE
  5
3F7
  8
1
 10
28374.466914
 20
12772.947646
 30
0.0
 11
29730.466914
 21
12772.947646
 31
0.0
  0
LINE
  5
3F8
  8
1
 10
28374.466914
 20
12772.947646
 30
0.0
 11
29730.466914
 21
12772.947646
 31
0.0
  0
LINE
  5
3F9
  8
1
 10
28374.466914
 20
12787.947646
 30
0.0
 11
29730.466914
 21
12787.947646
 31
0.0
  0
LINE
  5
3FA
  8
1
 10
28374.466914
 20
12787.947646
 30
0.0
 11
29730.466914
 21
12787.947646
 31
0.0
  0
LINE
  5
3FB
  8
1
 10
28374.466914
 20
12787.947646
 30
0.0
 11
29730.466914
 21
12787.947646
 31
0.0
  0
LINE
  5
3FC
  8
1
 10
28374.466914
 20
12787.947646
 30
0.0
 11
29730.466914
 21
12787.947646
 31
0.0
  0
LINE
  5
3FD
  8
1
 10
28374.466914
 20
12787.947646
 30
0.0
 11
29730.466914
 21
12787.947646
 31
0.0
  0
LINE
  5
3FE
  8
1
 10
28374.466914
 20
12787.947646
 30
0.0
 11
29730.466914
 21
12787.947646
 31
0.0
  0
LINE
  5
3FF
  8
1
 10
28374.466914
 20
12787.947646
 30
0.0
 11
29730.466914
 21
12787.947646
 31
0.0
  0
LINE
  5
400
  8
1
 10
28374.466914
 20
12787.947646
 30
0.0
 11
29730.466914
 21
12787.947646
 31
0.0
  0
LINE
  5
401
  8
1
 10
28374.466914
 20
12787.947646
 30
0.0
 11
29730.466914
 21
12787.947646
 31
0.0
  0
LINE
  5
402
  8
1
 10
28374.466914
 20
12787.947646
 30
0.0
 11
29730.466914
 21
12787.947646
 31
0.0
  0
LINE
  5
403
  8
1
 10
28374.466914
 20
12787.947646
 30
0.0
 11
29730.466914
 21
12787.947646
 31
0.0
  0
LINE
  5
404
  8
1
 10
27638.17268
 20
11601.245864
 30
0.0
 11
27588.17268
 21
11601.245864
 31
0.0
  0
LINE
  5
405
  8
1
 10
27645.17268
 20
11408.228964
 30
0.0
 11
27645.17268
 21
11383.228964
 31
0.0
  0
LINE
  5
406
  8
1
 10
27588.17268
 20
11383.228964
 30
0.0
 11
27645.17268
 21
11383.228964
 31
0.0
  0
LINE
  5
407
  8
1
  6
DIVIDE
 10
27574.99418
 20
11395.728964
 30
0.0
 11
27651.89948
 21
11395.728764
 31
0.0
  0
LINE
  5
408
  8
1
 10
27588.17268
 20
11408.228964
 30
0.0
 11
27645.17268
 21
11408.228964
 31
0.0
  0
LINE
  5
409
  8
1
 10
28587.236737
 20
11668.245864
 30
0.0
 11
29387.236737
 21
11668.245864
 31
0.0
  0
LINE
  5
40A
  8
1
 10
29387.236737
 20
11668.245864
 30
0.0
 11
29387.237037
 21
11368.245864
 31
0.0
  0
CIRCLE
  5
40B
  8
1
 10
28632.236737
 20
11467.245864
 30
0.0
 40
15.5
  0
POINT
  5
40C
  8
1
  6
DOT
 10
28587.236737
 20
11533.245864
 30
0.0
  0
LINE
  5
40D
  8
1
 10
28929.236737
 20
11379.915564
 30
0.0
 11
28929.236737
 21
11372.707964
 31
0.0
  0
LINE
  5
40E
  8
1
  6
DASHDOT
 10
29182.236037
 20
11043.246064
 30
0.0
 11
29182.238237
 21
11628.245364
 31
0.0
  0
LINE
  5
40F
  8
1
 10
28895.236737
 20
11379.915564
 30
0.0
 11
28895.236737
 21
11372.709464
 31
0.0
  0
LINE
  5
410
  8
1
 10
29417.236037
 20
11083.246064
 30
0.0
 11
28947.236038
 21
11083.247606
 31
0.0
  0
LINE
  5
411
  8
1
 10
28972.647938
 20
11073.247606
 30
0.0
 11
29391.828837
 21
11073.245564
 31
0.0
  0
LINE
  5
412
  8
1
 10
29387.236037
 20
11083.246064
 30
0.0
 11
29387.236037
 21
11113.246064
 31
0.0
  0
LINE
  5
413
  8
1
 10
28977.236538
 20
11113.247606
 30
0.0
 11
28977.236338
 21
11083.247606
 31
0.0
  0
LINE
  5
414
  8
1
 10
28947.236038
 20
11083.247606
 30
0.0
 11
28947.236038
 21
11078.894806
 31
0.0
  0
LINE
  5
415
  8
1
 10
28587.236737
 20
11368.245864
 30
0.0
 11
29387.237037
 21
11368.245864
 31
0.0
  0
LINE
  5
416
  8
1
 10
29374.736737
 20
11668.245864
 30
0.0
 11
29279.876137
 21
11668.245864
 31
0.0
  0
LINE
  5
417
  8
1
 10
28582.236737
 20
11668.246864
 30
0.0
 11
28587.237037
 21
11668.246864
 31
0.0
  0
LINE
  5
418
  8
1
 10
28602.738237
 20
11479.749264
 30
0.0
 11
28602.736737
 21
11430.745564
 31
0.0
  0
LINE
  5
419
  8
1
 10
28587.237237
 20
11428.245364
 30
0.0
 11
28600.236737
 21
11428.245564
 31
0.0
  0
ARC
  5
41A
  8
1
 10
28972.643538
 20
11133.247106
 30
0.0
 40
60.0
 50
244.9425
 51
270.0002
  0
LINE
  5
41B
  8
1
 10
29417.236037
 20
11083.246064
 30
0.0
 11
29417.236037
 21
11078.893264
 31
0.0
  0
LINE
  5
41C
  8
1
  6
DASHED
 10
29387.237237
 20
11282.746064
 30
0.0
 11
29387.237037
 21
11250.746064
 31
0.0
  0
LINE
  5
41D
  8
1
 10
28616.736737
 20
11476.194864
 30
0.0
 11
28616.736737
 21
11458.296664
 31
0.0
  0
LINE
  5
41E
  8
1
 10
28616.736737
 20
11458.296664
 30
0.0
 11
28632.236737
 21
11449.347864
 31
0.0
  0
LINE
  5
41F
  8
1
 10
28632.236737
 20
11449.347864
 30
0.0
 11
28647.736737
 21
11458.296664
 31
0.0
  0
LINE
  5
420
  8
1
 10
28647.736737
 20
11458.296664
 30
0.0
 11
28647.736737
 21
11476.194864
 31
0.0
  0
LINE
  5
421
  8
1
 10
28647.736737
 20
11476.194864
 30
0.0
 11
28632.236737
 21
11485.143564
 31
0.0
  0
LINE
  5
422
  8
1
 10
28632.236737
 20
11485.143564
 30
0.0
 11
28616.736737
 21
11476.194864
 31
0.0
  0
CIRCLE
  5
423
  8
1
 10
28632.236737
 20
11467.245864
 30
0.0
 40
7.75
  0
CIRCLE
  5
424
  8
1
 10
28678.236737
 20
11517.245864
 30
0.0
 40
11.0
  0
LINE
  5
425
  8
1
 10
28667.236737
 20
11523.596464
 30
0.0
 11
28667.236737
 21
11510.895064
 31
0.0
  0
LINE
  5
426
  8
1
 10
28667.236737
 20
11510.895064
 30
0.0
 11
28678.236737
 21
11504.544164
 31
0.0
  0
LINE
  5
427
  8
1
 10
28678.236737
 20
11504.544164
 30
0.0
 11
28689.236737
 21
11510.895064
 31
0.0
  0
LINE
  5
428
  8
1
  6
DASHED
 10
29387.237037
 20
11230.746064
 30
0.0
 11
29387.236737
 21
11198.746064
 31
0.0
  0
LINE
  5
429
  8
1
 10
28689.236737
 20
11510.895064
 30
0.0
 11
28689.236737
 21
11523.596464
 31
0.0
  0
LINE
  5
42A
  8
1
 10
28689.236737
 20
11523.596464
 30
0.0
 11
28678.236737
 21
11529.947264
 31
0.0
  0
LINE
  5
42B
  8
1
 10
28678.236737
 20
11529.947264
 30
0.0
 11
28667.236737
 21
11523.596464
 31
0.0
  0
LINE
  5
42C
  8
1
  6
DASHED
 10
29387.236537
 20
11178.746064
 30
0.0
 11
29387.236237
 21
11146.246064
 31
0.0
  0
LINE
  5
42D
  8
1
  6
DASHED
 10
29381.236237
 20
11188.746064
 30
0.0
 11
29387.236237
 21
11178.746064
 31
0.0
  0
LINE
  5
42E
  8
1
 10
28605.236537
 20
11482.246064
 30
0.0
 11
28609.736737
 21
11482.246064
 31
0.0
  0
LINE
  5
42F
  8
1
 10
28730.237037
 20
11399.746364
 30
0.0
 11
28730.236737
 21
11368.245864
 31
0.0
  0
CIRCLE
  5
430
  8
1
 10
28678.236737
 20
11517.245864
 30
0.0
 40
6.6
  0
LINE
  5
431
  8
1
  6
DASHED
 10
29387.236237
 20
11198.746064
 30
0.0
 11
29381.236237
 21
11188.746064
 31
0.0
  0
LINE
  5
432
  8
1
 10
28704.237037
 20
11402.246064
 30
0.0
 11
28727.736237
 21
11402.245364
 31
0.0
  0
LINE
  5
433
  8
1
  6
DASHED
 10
29381.236537
 20
11240.746064
 30
0.0
 11
29387.236537
 21
11230.746064
 31
0.0
  0
LINE
  5
434
  8
1
  6
DASHED
 10
29387.236537
 20
11250.746064
 30
0.0
 11
29381.236537
 21
11240.746064
 31
0.0
  0
CIRCLE
  5
435
  8
1
 10
29027.236737
 20
11548.245864
 30
0.0
 40
16.25
  0
CIRCLE
  5
436
  8
1
 10
28902.236737
 20
11491.246364
 30
0.0
 40
30.0
  0
LINE
  5
437
  8
1
  6
DASHED
 10
29381.236737
 20
11292.746064
 30
0.0
 11
29387.236737
 21
11282.746064
 31
0.0
  0
LINE
  5
438
  8
1
  6
DASHED
 10
29387.236737
 20
11302.746064
 30
0.0
 11
29381.236737
 21
11292.746064
 31
0.0
  0
LINE
  5
439
  8
1
 10
28701.738237
 20
11524.745364
 30
0.0
 11
28701.737037
 21
11404.746064
 31
0.0
  0
LINE
  5
43A
  8
1
  6
DASHED
 10
28977.237538
 20
11335.248906
 30
0.0
 11
28977.237538
 21
11302.749306
 31
0.0
  0
LINE
  5
43B
  8
1
  6
DASHED
 10
28977.238038
 20
11302.749306
 30
0.0
 11
28983.237838
 21
11292.749306
 31
0.0
  0
LINE
  5
43C
  8
1
  6
DASHED
 10
28983.237838
 20
11292.749306
 30
0.0
 11
28977.237838
 21
11282.749306
 31
0.0
  0
LINE
  5
43D
  8
1
  6
DASHED
 10
28977.237838
 20
11250.749306
 30
0.0
 11
28983.237838
 21
11240.749106
 31
0.0
  0
LINE
  5
43E
  8
1
  6
DASHED
 10
28983.237838
 20
11240.749106
 30
0.0
 11
28977.237538
 21
11230.749306
 31
0.0
  0
LINE
  5
43F
  8
1
  6
DASHED
 10
28977.237538
 20
11198.749306
 30
0.0
 11
28983.237538
 21
11188.749106
 31
0.0
  0
LINE
  5
440
  8
1
  6
DASHED
 10
28983.237538
 20
11188.749106
 30
0.0
 11
28977.237538
 21
11178.749306
 31
0.0
  0
LINE
  5
441
  8
1
  6
DASHED
 10
28977.237338
 20
11178.749306
 30
0.0
 11
28977.237338
 21
11146.249306
 31
0.0
  0
LINE
  5
442
  8
1
  6
DASHED
 10
29387.237537
 20
11335.245564
 30
0.0
 11
29387.237237
 21
11302.746064
 31
0.0
  0
LINE
  5
443
  8
1
  6
DASHED
 10
28977.237038
 20
11230.749306
 30
0.0
 11
28977.237038
 21
11198.749306
 31
0.0
  0
LINE
  5
444
  8
1
 10
29387.236237
 20
11146.246064
 30
0.0
 11
29387.236037
 21
11113.246064
 31
0.0
  0
LINE
  5
445
  8
1
 10
28977.236538
 20
11146.247606
 30
0.0
 11
28977.236338
 21
11083.247606
 31
0.0
  0
LINE
  5
446
  8
1
  6
DASHED
 10
29381.236237
 20
11188.746064
 30
0.0
 11
28983.237838
 21
11188.747606
 31
0.0
  0
LINE
  5
447
  8
1
  6
DASHED
 10
29381.236737
 20
11292.746064
 30
0.0
 11
28983.237838
 21
11292.747606
 31
0.0
  0
LINE
  5
448
  8
1
  6
DASHED
 10
29381.236237
 20
11240.746064
 30
0.0
 11
28983.237838
 21
11240.747606
 31
0.0
  0
LINE
  5
449
  8
1
  6
DASHED
 10
28977.237338
 20
11282.749306
 30
0.0
 11
28977.237338
 21
11250.749306
 31
0.0
  0
LINE
  5
44A
  8
1
 10
29387.236037
 20
11146.246064
 30
0.0
 11
28977.236538
 21
11146.247606
 31
0.0
  0
ARC
  5
44B
  8
1
 10
29391.829337
 20
11133.245564
 30
0.0
 40
60.0
 50
270.0002
 51
295.058
  0
LINE
  5
44C
  8
1
 10
29387.236037
 20
11128.246064
 30
0.0
 11
28977.236538
 21
11128.247606
 31
0.0
  0
LINE
  5
44D
  8
1
 10
29387.236037
 20
11113.246064
 30
0.0
 11
28977.236538
 21
11113.247606
 31
0.0
  0
LINE
  5
44E
  8
1
 10
28582.236737
 20
11398.245864
 30
0.0
 11
28587.237037
 21
11398.245864
 31
0.0
  0
LINE
  5
44F
  8
1
 10
28562.237037
 20
11641.244364
 30
0.0
 11
28587.237037
 21
11641.244364
 31
0.0
  0
CIRCLE
  5
450
  8
1
 10
29027.236737
 20
11548.245864
 30
0.0
 40
24.0
  0
CIRCLE
  5
451
  8
1
 10
29027.236737
 20
11413.245864
 30
0.0
 40
16.25
  0
CIRCLE
  5
452
  8
1
 10
29027.236737
 20
11413.245864
 30
0.0
 40
24.0
  0
CIRCLE
  5
453
  8
1
 10
28902.237037
 20
11604.246064
 30
0.0
 40
16.0
  0
LINE
  5
454
  8
1
 10
28993.236838
 20
11368.247406
 30
0.0
 11
29387.237037
 21
11368.245864
 31
0.0
  0
LINE
  5
455
  8
1
 10
28655.736737
 20
11527.245364
 30
0.0
 11
28661.736737
 21
11527.245364
 31
0.0
  0
ARC
  5
456
  8
1
 10
28609.736737
 20
11479.746064
 30
0.0
 40
2.5
 50
0.0
 51
90.0001
  0
CIRCLE
  5
457
  8
1
 10
28678.236737
 20
11517.245864
 30
0.0
 40
13.0
  0
LINE
  5
458
  8
1
 10
28694.737037
 20
11527.245564
 30
0.0
 11
28699.237037
 21
11527.245864
 31
0.0
  0
ARC
  5
459
  8
1
 10
28727.736737
 20
11399.746064
 30
0.0
 40
2.5
 50
0.0
 51
90.0001
  0
ARC
  5
45A
  8
1
 10
28605.236537
 20
11479.746064
 30
0.0
 40
2.5
 50
90.0001
 51
180.0002
  0
LINE
  5
45B
  8
1
 10
28612.236737
 20
11479.746064
 30
0.0
 11
28614.236737
 21
11467.245864
 31
0.0
  0
LINE
  5
45C
  8
1
 10
28562.237037
 20
11636.244364
 30
0.0
 11
28587.236537
 21
11636.244364
 31
0.0
  0
LINE
  5
45D
  8
1
 10
29087.237037
 20
11578.245864
 30
0.0
 11
29087.237037
 21
11368.245864
 31
0.0
  0
CIRCLE
  5
45E
  8
1
 10
28902.236737
 20
11491.246364
 30
0.0
 40
23.0
  0
LINE
  5
45F
  8
1
 10
28562.236737
 20
11430.248564
 30
0.0
 11
28587.237037
 21
11430.248564
 31
0.0
  0
LINE
  5
460
  8
1
  6
DASHDOT
 10
29027.236737
 20
11570.245864
 30
0.0
 11
29027.236737
 21
11526.245864
 31
0.0
  0
ARC
  5
461
  8
1
 10
28632.236737
 20
11467.245864
 30
0.0
 40
18.0
 50
180.0
 51
0.0
  0
ARC
  5
462
  8
1
 10
28632.236737
 20
11467.245864
 30
0.0
 40
18.0
 50
180.0003
 51
0.0
  0
LINE
  5
463
  8
1
 10
28562.237237
 20
11425.248564
 30
0.0
 11
28587.236737
 21
11425.248564
 31
0.0
  0
TEXT
  5
464
  8
2
 10
28748.001953
 20
11968.977539
 30
0.0
 40
43.75
  1
（吸込パネル中心）
 41
0.825
  7
MONOTXT
  0
LINE
  5
465
  8
1
  6
DASHDOT
 10
29005.236737
 20
11548.245864
 30
0.0
 11
29049.236737
 21
11548.245864
 31
0.0
  0
LINE
  5
466
  8
1
  6
DASHDOT
 10
29005.236737
 20
11413.245864
 30
0.0
 11
29049.236737
 21
11413.245864
 31
0.0
  0
LINE
  5
467
  8
1
  6
DASHDOT
 10
29027.236737
 20
11435.245864
 30
0.0
 11
29027.236737
 21
11391.245864
 31
0.0
  0
ARC
  5
468
  8
1
 10
28699.237037
 20
11524.745864
 30
0.0
 40
2.5
 50
0.0
 51
90.0001
  0
ARC
  5
469
  8
1
 10
28694.737037
 20
11524.745864
 30
0.0
 40
2.5
 50
90.0001
 51
180.0002
  0
ARC
  5
46A
  8
1
 10
28678.236737
 20
11517.245864
 30
0.0
 40
13.0
 50
179.9999
 51
0.0
  0
POINT
  5
46B
  8
1
  6
DOT
 10
28667.613237
 20
11524.495364
 30
0.0
  0
LINE
  5
46C
  8
1
 10
28879.759237
 20
11490.246364
 30
0.0
 11
28924.714837
 21
11490.246364
 31
0.0
  0
LINE
  5
46D
  8
1
 10
28924.713837
 20
11492.246364
 30
0.0
 11
28879.759237
 21
11492.246564
 31
0.0
  0
LINE
  5
46E
  8
1
 10
28692.237237
 20
11524.746064
 30
0.0
 11
28691.236737
 21
11517.245864
 31
0.0
  0
ARC
  5
46F
  8
1
 10
28661.737037
 20
11524.745364
 30
0.0
 40
2.5
 50
0.0
 51
90.0057
  0
ARC
  5
470
  8
1
 10
28655.736737
 20
11524.745164
 30
0.0
 40
2.5
 50
90.0001
 51
180.0002
  0
LINE
  5
471
  8
1
 10
28664.237237
 20
11524.745364
 30
0.0
 11
28665.236737
 21
11517.245864
 31
0.0
  0
LINE
  5
472
  8
1
 10
28653.236737
 20
11524.745164
 30
0.0
 11
28650.236737
 21
11467.245864
 31
0.0
  0
ARC
  5
473
  8
1
 10
28704.236237
 20
11404.745864
 30
0.0
 40
2.5
 50
180.0002
 51
270.0114
  0
ARC
  5
474
  8
1
 10
28600.236737
 20
11430.745564
 30
0.0
 40
2.5
 50
270.0002
 51
0.0
  0
LINE
  5
475
  8
1
  6
DASHDOT
 10
28632.236737
 20
11487.245864
 30
0.0
 11
28632.236737
 21
11447.245864
 31
0.0
  0
LINE
  5
476
  8
1
  6
DASHDOT
 10
28612.236737
 20
11467.245864
 30
0.0
 11
28652.236737
 21
11467.245864
 31
0.0
  0
LINE
  5
477
  8
1
  6
DASHDOT
 10
28678.236737
 20
11532.245864
 30
0.0
 11
28678.236737
 21
11502.245864
 31
0.0
  0
LINE
  5
478
  8
1
  6
DASHDOT
 10
28663.236737
 20
11517.245864
 30
0.0
 11
28693.236737
 21
11517.245864
 31
0.0
  0
LINE
  5
479
  8
1
 10
28839.237037
 20
11448.246364
 30
0.0
 11
28965.236737
 21
11448.246064
 31
0.0
  0
LINE
  5
47A
  8
1
 10
28839.236737
 20
11654.245864
 30
0.0
 11
28965.236737
 21
11654.245864
 31
0.0
  0
LINE
  5
47B
  8
1
 10
28829.237037
 20
11644.245864
 30
0.0
 11
28829.236737
 21
11458.246064
 31
0.0
  0
LINE
  5
47C
  8
1
 10
28975.236737
 20
11644.246064
 30
0.0
 11
28975.236737
 21
11458.246064
 31
0.0
  0
ARC
  5
47D
  8
1
 10
28965.236737
 20
11458.246064
 30
0.0
 40
10.0
 50
270.0002
 51
0.0
  0
ARC
  5
47E
  8
1
 10
28965.236737
 20
11644.245864
 30
0.0
 40
10.0
 50
0.0
 51
90.0001
  0
ARC
  5
47F
  8
1
 10
28839.237037
 20
11644.245864
 30
0.0
 40
10.0
 50
90.0001
 51
180.0002
  0
ARC
  5
480
  8
1
 10
28839.236737
 20
11458.246064
 30
0.0
 40
10.0
 50
180.0002
 51
270.0002
  0
LINE
  5
481
  8
1
 10
28990.236737
 20
11578.246064
 30
0.0
 11
28990.236737
 21
11560.245864
 31
0.0
  0
LINE
  5
482
  8
1
 10
29000.236537
 20
11588.245864
 30
0.0
 11
29077.237237
 21
11588.246064
 31
0.0
  0
CIRCLE
  5
483
  8
1
 10
28912.236737
 20
11398.245864
 30
0.0
 40
25.0
  0
CIRCLE
  5
484
  8
1
 10
28912.236737
 20
11398.245864
 30
0.0
 40
10.0
  0
CIRCLE
  5
485
  8
1
 10
28902.237037
 20
11604.246064
 30
0.0
 40
20.0
  0
ARC
  5
486
  8
1
 10
28902.236737
 20
11466.246364
 30
0.0
 40
4.0
 50
0.0
 51
4.591
  0
ARC
  5
487
  8
1
 10
28902.236737
 20
11516.246364
 30
0.0
 40
4.0
 50
355.4124
 51
0.0
  0
ARC
  5
488
  8
1
 10
28935.036337
 20
11374.245564
 30
0.0
 40
6.0
 50
180.0001
 51
291.5096
  0
ARC
  5
489
  8
1
 10
28889.436737
 20
11374.245864
 30
0.0
 40
6.0
 50
0.0
 51
14.8329
  0
ARC
  5
48A
  8
1
 10
28889.436737
 20
11374.245864
 30
0.0
 40
6.0
 50
248.4908
 51
0.0
  0
ARC
  5
48B
  8
1
 10
29077.236537
 20
11578.245864
 30
0.0
 40
10.0
 50
0.0
 51
89.9973
  0
ARC
  5
48C
  8
1
 10
29000.236737
 20
11578.246064
 30
0.0
 40
10.0
 50
90.0001
 51
180.0016
  0
LINE
  5
48D
  8
1
 10
28992.236737
 20
11558.245864
 30
0.0
 11
29005.419437
 21
11558.246064
 31
0.0
  0
LINE
  5
48E
  8
1
 10
28992.237037
 20
11538.246064
 30
0.0
 11
29005.419637
 21
11538.246064
 31
0.0
  0
LINE
  5
48F
  8
1
 10
28990.237037
 20
11536.246364
 30
0.0
 11
28990.237237
 21
11433.245864
 31
0.0
  0
ARC
  5
490
  8
1
 10
28992.236737
 20
11560.245864
 30
0.0
 40
2.0
 50
180.0002
 51
270.0002
  0
ARC
  5
491
  8
1
 10
28992.236737
 20
11536.246364
 30
0.0
 40
2.0
 50
89.9861
 51
180.0002
  0
LINE
  5
492
  8
1
 10
28995.237237
 20
11388.245864
 30
0.0
 11
29002.226737
 21
11388.245864
 31
0.0
  0
LINE
  5
493
  8
1
 10
28995.237537
 20
11403.245564
 30
0.0
 11
29005.419437
 21
11403.245864
 31
0.0
  0
LINE
  5
494
  8
1
 10
29002.226737
 20
11388.245864
 30
0.0
 11
29002.225337
 21
11368.245864
 31
0.0
  0
LINE
  5
495
  8
1
 10
29000.237237
 20
11423.245864
 30
0.0
 11
29005.419437
 21
11423.245864
 31
0.0
  0
LINE
  5
496
  8
1
 10
28990.237737
 20
11398.245864
 30
0.0
 11
28990.237737
 21
11393.246064
 31
0.0
  0
ARC
  5
497
  8
1
 10
29000.237237
 20
11433.245864
 30
0.0
 40
10.0
 50
180.0002
 51
270.0002
  0
ARC
  5
498
  8
1
 10
28995.237537
 20
11398.245164
 30
0.0
 40
5.0
 50
90.0001
 51
179.9946
  0
ARC
  5
499
  8
1
 10
28995.237537
 20
11393.246064
 30
0.0
 40
5.0
 50
180.0002
 51
270.0002
  0
LINE
  5
49A
  8
1
  6
DASHDOT
 10
28562.237037
 20
11533.245864
 30
0.0
 11
28587.236737
 21
11533.245864
 31
0.0
  0
LINE
  5
49B
  8
1
 10
28985.236838
 20
11353.247406
 30
0.0
 11
29387.236737
 21
11353.245864
 31
0.0
  0
LINE
  5
49C
  8
1
 10
28977.236838
 20
11353.247406
 30
0.0
 11
29379.236737
 21
11353.245864
 31
0.0
  0
LINE
  5
49D
  8
1
 10
28977.236538
 20
11335.247406
 30
0.0
 11
29387.236737
 21
11335.245864
 31
0.0
  0
LINE
  5
49E
  8
1
 10
29387.236737
 20
11368.245864
 30
0.0
 11
29387.236737
 21
11335.245864
 31
0.0
  0
LINE
  5
49F
  8
1
 10
28977.236538
 20
11368.247406
 30
0.0
 11
28977.236538
 21
11335.247406
 31
0.0
  0
CIRCLE
  5
4A0
  8
1
 10
28574.737037
 20
11533.245864
 30
0.0
 40
4.7
  0
LINE
  5
4A1
  8
1
  6
DASHDOT
 10
28574.737037
 20
11434.495564
 30
0.0
 11
28574.737237
 21
11629.495364
 31
0.0
  0
LINE
  5
4A2
  8
1
 10
28582.236737
 20
11668.245864
 30
0.0
 11
28582.236737
 21
11641.244364
 31
0.0
  0
LINE
  5
4A3
  8
1
 10
28582.236737
 20
11425.248564
 30
0.0
 11
28582.236737
 21
11398.245864
 31
0.0
  0
CIRCLE
  5
4A4
  8
1
 10
28574.737037
 20
11598.245864
 30
0.0
 40
4.7
  0
CIRCLE
  5
4A5
  8
1
 10
28574.737037
 20
11468.245864
 30
0.0
 40
4.7
  0
LINE
  5
4A6
  8
1
 10
28587.236737
 20
11668.245864
 30
0.0
 11
28587.236737
 21
11388.245864
 31
0.0
  0
LINE
  5
4A7
  8
1
 10
28562.237037
 20
11641.244364
 30
0.0
 11
28562.237037
 21
11425.248564
 31
0.0
  0
LINE
  5
4A8
  8
1
 10
28587.236737
 20
11388.245864
 30
0.0
 11
28587.236737
 21
11368.246064
 31
0.0
  0
LINE
  5
4A9
  8
1
  6
DIVIDE
 10
28902.237037
 20
11628.246064
 30
0.0
 11
28902.237037
 21
11580.246064
 31
0.0
  0
LINE
  5
4AA
  8
1
  6
DIVIDE
 10
28878.237037
 20
11604.246064
 30
0.0
 11
28926.237037
 21
11604.246064
 31
0.0
  0
LINE
  5
4AC
  8
1
 10
28977.236338
 20
11083.247606
 30
0.0
 11
28977.236564
 21
11113.247606
 31
0.0
  0
LINE
  5
4AD
  8
1
 10
26188.171624
 20
12541.667386
 30
0.0
 11
26188.171624
 21
13341.667586
 31
0.0
  0
LINE
  5
4AE
  8
1
 10
26188.171624
 20
13341.667586
 30
0.0
 11
27588.171824
 21
13341.667286
 31
0.0
  0
LINE
  5
4AF
  8
1
  6
DASHDOT
 10
27343.172724
 20
12537.917786
 30
0.0
 11
27343.173224
 21
12520.417786
 31
0.0
  0
LINE
  5
4B0
  8
1
  6
DIVIDE
 10
26163.177224
 20
13336.667286
 30
0.0
 11
26163.177224
 21
13296.667786
 31
0.0
  0
LINE
  5
4B1
  8
1
 10
26143.172624
 20
13340.666986
 30
0.0
 11
26143.172524
 21
13322.667186
 31
0.0
  0
POINT
  5
4B2
  8
1
  6
DOT
 10
26163.177224
 20
13316.667286
 30
0.0
  0
LINE
  5
4B3
  8
1
  6
DASHDOT
 10
26888.172624
 20
12470.417786
 30
0.0
 11
26888.172624
 21
13369.058886
 31
0.0
  0
TEXT
  5
4B4
  8
2
 10
25983.291016
 20
12731.549805
 30
0.0
 40
43.75
  1
（吊り位置）
 50
89.999811
 41
0.825
  7
MONOTXT
  0
LINE
  5
4B5
  8
1
 10
26145.472524
 20
13310.667386
 30
0.0
 11
26145.472524
 21
13292.667086
 31
0.0
  0
LINE
  5
4B6
  8
1
  6
DASHDOT
 10
26823.172624
 20
12470.417786
 30
0.0
 11
26823.172624
 21
12590.417786
 31
0.0
  0
LINE
  5
4B7
  8
1
 10
27425.673224
 20
12526.665786
 30
0.0
 11
27425.673024
 21
12541.666886
 31
0.0
  0
LINE
  5
4B8
  8
1
 10
27630.873724
 20
12680.667386
 30
0.0
 11
27630.873724
 21
12662.667086
 31
0.0
  0
LINE
  5
4B9
  8
1
 10
27630.873924
 20
12710.666886
 30
0.0
 11
27630.873724
 21
12692.667186
 31
0.0
  0
LINE
  5
4BA
  8
1
 10
27630.872424
 20
13340.666986
 30
0.0
 11
27630.872724
 21
13322.667186
 31
0.0
  0
LINE
  5
4BB
  8
1
 10
27630.872724
 20
13310.667386
 30
0.0
 11
27630.872924
 21
13292.667086
 31
0.0
  0
LINE
  5
4BC
  8
1
 10
26230.672724
 20
12516.667386
 30
0.0
 11
27415.673024
 21
12516.665986
 31
0.0
  0
LINE
  5
4BD
  8
1
  6
DASHDOT
 10
27390.735224
 20
12529.167386
 30
0.0
 11
26270.336124
 21
12529.167686
 31
0.0
  0
LINE
  5
4BE
  8
1
 10
26220.672724
 20
12526.667386
 30
0.0
 11
26220.672724
 21
12541.667386
 31
0.0
  0
ARC
  5
4BF
  8
1
 10
27415.673024
 20
12526.665986
 30
0.0
 40
10.0
 50
269.9992
 51
0.0
  0
ARC
  5
4C0
  8
1
 10
26230.672724
 20
12526.667386
 30
0.0
 40
10.0
 50
179.9998
 51
269.9996
  0
CIRCLE
  5
4C1
  8
1
 10
26823.172624
 20
12529.167586
 30
0.0
 40
4.7
  0
CIRCLE
  5
4C2
  8
1
 10
26888.172624
 20
12529.167586
 30
0.0
 40
4.7
  0
CIRCLE
  5
4C3
  8
1
 10
26953.172624
 20
12529.167586
 30
0.0
 40
4.7
  0
CIRCLE
  5
4C4
  8
1
 10
27018.172624
 20
12529.167586
 30
0.0
 40
4.7
  0
CIRCLE
  5
4C5
  8
1
 10
27083.172624
 20
12529.167586
 30
0.0
 40
4.7
  0
CIRCLE
  5
4C6
  8
1
 10
27148.172724
 20
12529.167586
 30
0.0
 40
4.7
  0
LINE
  5
4C7
  8
1
 10
26145.471624
 20
12710.667086
 30
0.0
 11
26145.471624
 21
12692.667186
 31
0.0
  0
LINE
  5
4C8
  8
1
 10
26145.471624
 20
12680.667386
 30
0.0
 11
26145.471624
 21
12662.667186
 31
0.0
  0
LINE
  5
4C9
  8
1
 10
26145.472524
 20
13340.666986
 30
0.0
 11
26145.472524
 21
13322.667186
 31
0.0
  0
CIRCLE
  5
4CA
  8
1
 10
27213.172724
 20
12529.167586
 30
0.0
 40
4.7
  0
CIRCLE
  5
4CB
  8
1
 10
27278.172724
 20
12529.167586
 30
0.0
 40
4.7
  0
CIRCLE
  5
4CC
  8
1
 10
26758.172624
 20
12529.167586
 30
0.0
 40
4.7
  0
ARC
  5
4CD
  8
1
 10
26163.177224
 20
13316.667286
 30
0.0
 40
6.0
 50
269.9825
 51
0.0
  0
LINE
  5
4CE
  8
1
 10
26143.172624
 20
13340.666886
 30
0.0
 11
26188.172224
 21
13340.667286
 31
0.0
  0
TEXT
  5
4CF
  8
2
 10
26924.669922
 20
13438.711914
 30
0.0
 40
43.75
  1
（吊り位置）
 41
0.825
  7
MONOTXT
  0
LINE
  5
4D0
  8
1
 10
27633.172724
 20
13310.667386
 30
0.0
 11
27633.173024
 21
13292.667086
 31
0.0
  0
LINE
  5
4D1
  8
1
 10
27633.172724
 20
13340.666986
 30
0.0
 11
27588.173024
 21
13340.667286
 31
0.0
  0
LINE
  5
4D2
  8
1
  6
DASHDOT
 10
27588.172724
 20
13316.667286
 30
0.0
 11
27633.172724
 21
13316.667286
 31
0.0
  0
LINE
  5
4D3
  8
1
 10
26143.171524
 20
12680.667386
 30
0.0
 11
26143.171524
 21
12662.667186
 31
0.0
  0
LINE
  5
4D4
  8
1
 10
26143.171624
 20
12710.667086
 30
0.0
 11
26188.171324
 21
12710.667286
 31
0.0
  0
LINE
  5
4D5
  8
1
  6
DASHDOT
 10
26188.171524
 20
12686.667286
 30
0.0
 11
26143.171524
 21
12686.667286
 31
0.0
  0
LINE
  5
4D6
  8
1
 10
27633.174024
 20
12710.666886
 30
0.0
 11
27633.173724
 21
12692.667186
 31
0.0
  0
LINE
  5
4D7
  8
1
 10
26143.172624
 20
13292.667186
 30
0.0
 11
26188.172724
 21
13292.667286
 31
0.0
  0
LINE
  5
4D8
  8
1
 10
27633.173724
 20
12662.667186
 30
0.0
 11
27588.173524
 21
12662.667286
 31
0.0
  0
LINE
  5
4D9
  8
1
 10
26162.187624
 20
13322.667286
 30
0.0
 11
26143.172524
 21
13322.667286
 31
0.0
  0
LINE
  5
4DA
  8
1
 10
26162.189124
 20
13310.667286
 30
0.0
 11
26143.172524
 21
13310.667386
 31
0.0
  0
ARC
  5
4DB
  8
1
 10
26163.177224
 20
13316.667286
 30
0.0
 40
6.0
 50
0.0
 51
90.0185
  0
LINE
  5
4DC
  8
1
  6
DASHED
 10
26184.972324
 20
13292.667286
 30
0.0
 11
26184.972324
 21
13340.667286
 31
0.0
  0
LINE
  5
4DD
  8
1
  6
DASHED
 10
26184.971324
 20
12662.667286
 30
0.0
 11
26184.971324
 21
12710.667286
 31
0.0
  0
LINE
  5
4DE
  8
1
 10
27614.158624
 20
12692.667286
 30
0.0
 11
27633.173724
 21
12692.667286
 31
0.0
  0
LINE
  5
4DF
  8
1
 10
26163.166924
 20
12692.667286
 30
0.0
 11
26162.186624
 21
12692.667286
 31
0.0
  0
LINE
  5
4E0
  8
1
 10
26162.188124
 20
12680.667286
 30
0.0
 11
26143.171524
 21
12680.667386
 31
0.0
  0
LINE
  5
4E1
  8
1
 10
26162.186624
 20
12692.667286
 30
0.0
 11
26143.171524
 21
12692.667286
 31
0.0
  0
LINE
  5
4E2
  8
1
 10
26143.171524
 20
12662.667186
 30
0.0
 11
26188.171824
 21
12662.667286
 31
0.0
  0
LINE
  5
4E3
  8
1
 10
26143.171524
 20
12710.667086
 30
0.0
 11
26143.171524
 21
12692.667186
 31
0.0
  0
LINE
  5
4E4
  8
1
 10
27614.157124
 20
12680.667286
 30
0.0
 11
27633.173724
 21
12680.667386
 31
0.0
  0
ARC
  5
4E5
  8
1
 10
26163.177224
 20
12686.667286
 30
0.0
 40
6.0
 50
269.8105
 51
0.0
  0
ARC
  5
4E6
  8
1
 10
26163.177224
 20
12686.667286
 30
0.0
 40
6.0
 50
0.0
 51
90.0993
  0
LINE
  5
4E7
  8
1
 10
26163.157524
 20
12680.667286
 30
0.0
 11
26162.188124
 21
12680.667286
 31
0.0
  0
LINE
  5
4E8
  8
1
 10
26163.175324
 20
13322.667286
 30
0.0
 11
26162.187624
 21
13322.667286
 31
0.0
  0
LINE
  5
4E9
  8
1
 10
26163.175424
 20
13310.667286
 30
0.0
 11
26162.189124
 21
13310.667286
 31
0.0
  0
LINE
  5
4EA
  8
1
 10
27614.156124
 20
13310.667286
 30
0.0
 11
27613.187124
 21
13310.667286
 31
0.0
  0
ARC
  5
4EB
  8
1
 10
27613.179124
 20
13316.667286
 30
0.0
 40
6.0
 50
89.8924
 51
270.0766
  0
LINE
  5
4EC
  8
1
  6
DASHED
 10
27591.373924
 20
12662.667286
 30
0.0
 11
27591.373924
 21
12710.667286
 31
0.0
  0
CIRCLE
  5
4ED
  8
1
 10
26693.172624
 20
12529.167586
 30
0.0
 40
4.7
  0
LINE
  5
4EE
  8
1
 10
26188.171524
 20
12541.667586
 30
0.0
 11
27588.171824
 21
12541.667186
 31
0.0
  0
LINE
  5
4EF
  8
1
 10
27614.157624
 20
13322.667286
 30
0.0
 11
27613.190324
 21
13322.667286
 31
0.0
  0
LINE
  5
4F0
  8
1
  6
DASHDOT
 10
26188.172524
 20
13316.667286
 30
0.0
 11
26143.172524
 21
13316.667286
 31
0.0
  0
LINE
  5
4F1
  8
1
 10
26143.172524
 20
13310.667386
 30
0.0
 11
26143.172524
 21
13292.667086
 31
0.0
  0
LINE
  5
4F2
  8
1
  6
DASHED
 10
27591.372924
 20
13292.667286
 30
0.0
 11
27591.372924
 21
13340.667286
 31
0.0
  0
LINE
  5
4F3
  8
1
 10
27614.157124
 20
12680.667286
 30
0.0
 11
27613.201324
 21
12680.667286
 31
0.0
  0
LINE
  5
4F4
  8
1
 10
27614.156124
 20
13310.667286
 30
0.0
 11
27633.172724
 21
13310.667386
 31
0.0
  0
LINE
  5
4F5
  8
1
 10
27614.157624
 20
13322.667286
 30
0.0
 11
27633.172724
 21
13322.667286
 31
0.0
  0
LINE
  5
4F6
  8
1
 10
27633.172724
 20
13292.667086
 30
0.0
 11
27588.172524
 21
13292.667286
 31
0.0
  0
ARC
  5
4F7
  8
1
 10
27613.178824
 20
12686.667286
 30
0.0
 40
6.0
 50
89.9569
 51
270.2135
  0
LINE
  5
4F8
  8
1
 10
27614.158624
 20
12692.667286
 30
0.0
 11
27613.183224
 21
12692.667286
 31
0.0
  0
CIRCLE
  5
4F9
  8
1
 10
26628.172624
 20
12529.167586
 30
0.0
 40
4.7
  0
CIRCLE
  5
4FA
  8
1
 10
26563.172624
 20
12529.167586
 30
0.0
 40
4.7
  0
CIRCLE
  5
4FB
  8
1
 10
26498.172624
 20
12529.167586
 30
0.0
 40
4.7
  0
CIRCLE
  5
4FC
  8
1
 10
26433.172624
 20
12529.167586
 30
0.0
 40
4.7
  0
CIRCLE
  5
4FD
  8
1
 10
26368.172624
 20
12529.167586
 30
0.0
 40
4.7
  0
CIRCLE
  5
4FE
  8
1
 10
26303.172624
 20
12529.167586
 30
0.0
 40
4.7
  0
CIRCLE
  5
4FF
  8
1
 10
27343.172724
 20
12529.167586
 30
0.0
 40
4.7
  0
LINE
  5
500
  8
1
  6
DASHDOT
 10
27588.173724
 20
12686.667286
 30
0.0
 11
27633.173724
 21
12686.667286
 31
0.0
  0
LINE
  5
501
  8
1
 10
27633.174024
 20
12710.666886
 30
0.0
 11
27588.174024
 21
12710.667286
 31
0.0
  0
LINE
  5
502
  8
1
 10
27633.173724
 20
12680.667386
 30
0.0
 11
27633.173724
 21
12662.667086
 31
0.0
  0
LINE
  5
503
  8
1
 10
27633.172524
 20
13340.666986
 30
0.0
 11
27633.172724
 21
13322.667186
 31
0.0
  0
LINE
  5
504
  8
1
  6
DIVIDE
 10
27613.179124
 20
13336.667286
 30
0.0
 11
27613.179124
 21
13296.667786
 31
0.0
  0
LINE
  5
505
  8
1
  6
DIVIDE
 10
26163.177224
 20
12706.667286
 30
0.0
 11
26163.177224
 21
12666.667786
 31
0.0
  0
LINE
  5
506
  8
1
  6
DASHDOT
 10
26303.172624
 20
12537.917886
 30
0.0
 11
26303.172724
 21
12520.417786
 31
0.0
  0
LINE
  5
507
  8
1
 10
27588.171524
 20
12854.167186
 30
0.0
 11
27644.341224
 21
12854.167186
 31
0.0
  0
LINE
  5
508
  8
1
 10
27594.171524
 20
12686.667186
 30
0.0
 11
27616.171524
 21
12686.667386
 31
0.0
  0
LINE
  5
509
  8
1
  6
DIVIDE
 10
27576.541124
 20
12866.667186
 30
0.0
 11
27653.446424
 21
12866.667286
 31
0.0
  0
LINE
  5
50A
  8
1
 10
27588.171524
 20
12846.667186
 30
0.0
 11
27630.875924
 21
12846.667186
 31
0.0
  0
LINE
  5
50B
  8
1
 10
27630.875924
 20
12846.667186
 30
0.0
 11
27630.875924
 21
12866.667186
 31
0.0
  0
LINE
  5
50C
  8
1
  6
DIVIDE
 10
27576.541124
 20
12856.667186
 30
0.0
 11
27653.446424
 21
12856.667186
 31
0.0
  0
LINE
  5
50D
  8
1
 10
27588.171524
 20
12879.167186
 30
0.0
 11
27644.341224
 21
12879.167186
 31
0.0
  0
LINE
  5
50E
  8
1
 10
27644.341224
 20
12854.167186
 30
0.0
 11
27644.341224
 21
12879.167186
 31
0.0
  0
LINE
  5
50F
  8
1
  6
DASHDOT
 10
29867.813418
 20
12816.947646
 30
0.0
 11
28235.35731
 21
12816.947646
 31
0.0
  0
LINE
  5
510
  8
1
  6
DASHDOT
 10
28566.746165
 20
11598.245864
 30
0.0
 11
28583.916898
 21
11598.245864
 31
0.0
  0
LINE
  5
511
  8
1
  6
DASHDOT
 10
28566.984648
 20
11468.245864
 30
0.0
 11
28583.439933
 21
11468.245864
 31
0.0
  0
LINE
  5
512
  8
1
  6
DASHDOT
 10
27415.67268
 20
11621.355963
 30
0.0
 11
27415.67268
 21
11440.976261
 31
0.0
  0
LINE
  5
513
  8
1
  6
DASHDOT
 10
26230.67268
 20
11620.941821
 30
0.0
 11
26230.67268
 21
11441.767453
 31
0.0
  0
LINE
  5
514
  8
1
  6
DASHDOT
 10
27348.17268
 20
11665.687804
 30
0.0
 11
27348.17268
 21
11647.502671
 31
0.0
  0
LINE
  5
515
  8
1
  6
DASHDOT
 10
26298.17268
 20
11665.685067
 30
0.0
 11
26298.17268
 21
11646.743096
 31
0.0
  0
LINE
  5
516
  8
1
 10
26225.67258
 20
11425.745864
 30
0.0
 11
26220.67258
 21
11425.745864
 31
0.0
  0
LINE
  5
517
  8
1
  6
DASHDOT
 10
26223.540537
 20
11458.246064
 30
0.0
 11
26236.464467
 21
11458.246064
 31
0.0
  0
LINE
  5
518
  8
1
  6
DASHDOT
 10
26223.825686
 20
11608.246064
 30
0.0
 11
26236.673741
 21
11608.246064
 31
0.0
  0
LINE
  5
519
  8
1
  6
DASHDOT
 10
27409.865953
 20
11458.246064
 30
0.0
 11
27422.238739
 21
11458.246064
 31
0.0
  0
LINE
  5
51A
  8
1
  6
DASHDOT
 10
27410.120625
 20
11608.246064
 30
0.0
 11
27422.399087
 21
11608.246064
 31
0.0
  0
LINE
  5
51B
  8
1
 10
26143.223552
 20
11461.480339
 30
0.0
 11
26137.230448
 21
11461.480339
 31
0.0
  0
LINE
  5
51C
  8
1
 10
26143.223552
 20
11467.473542
 30
0.0
 11
26143.223552
 21
11461.480339
 31
0.0
  0
LINE
  5
51D
  8
1
 10
26182.179376
 20
11467.473542
 30
0.0
 11
26143.223552
 21
11467.473542
 31
0.0
  0
LINE
  5
51E
  8
1
 10
26188.172579
 20
11473.466746
 30
0.0
 11
26137.230349
 21
11473.466946
 31
0.0
  0
LINE
  5
51F
  8
1
 10
26137.230349
 20
11473.466746
 30
0.0
 11
26137.230349
 21
11461.480339
 31
0.0
  0
LINE
  5
520
  8
1
 10
26182.179376
 20
11467.473542
 30
0.0
 11
26182.179376
 21
11413.53471
 31
0.0
  0
LINE
  5
521
  8
1
 10
26182.179376
 20
11413.53471
 30
0.0
 11
26188.171481
 21
11413.53471
 31
0.0
  0
LINE
  5
522
  8
1
 10
28709.00586
 20
11473.466746
 30
0.0
 11
28709.00586
 21
11421.026414
 31
0.0
  0
LINE
  5
523
  8
1
 10
28709.00616
 20
11473.466746
 30
0.0
 11
28756.951489
 21
11473.466746
 31
0.0
  0
ARC
  5
524
  8
1
 10
28721.491701
 20
11421.026214
 30
0.0
 40
12.485841
 50
180.0002
 51
270.0002
  0
LINE
  5
525
  8
1
 10
28721.492001
 20
11408.540573
 30
0.0
 11
28744.465649
 21
11408.540573
 31
0.0
  0
ARC
  5
526
  8
1
 10
28744.465649
 20
11421.026414
 30
0.0
 40
12.485841
 50
270.0002
 51
0.0
  0
LINE
  5
527
  8
1
 10
28756.951489
 20
11473.466746
 30
0.0
 11
28756.951489
 21
11421.026414
 31
0.0
  0
LINE
  5
528
  8
1
 10
28742.968147
 20
11461.480838
 30
0.0
 11
28756.951989
 21
11461.481837
 31
0.0
  0
LINE
  5
529
  8
1
 10
28737.973511
 20
11473.467246
 30
0.0
 11
28737.973311
 21
11466.475374
 31
0.0
  0
LINE
  5
52A
  8
1
 10
28727.984638
 20
11473.466746
 30
0.0
 11
28727.984638
 21
11466.474675
 31
0.0
  0
ARC
  5
52B
  8
1
 10
28722.990302
 20
11466.474675
 30
0.0
 40
4.994336
 50
270.0002
 51
0.0
  0
LINE
  5
52C
  8
1
 10
28709.00616
 20
11461.480339
 30
0.0
 11
28722.990502
 21
11461.480339
 31
0.0
  0
ARC
  5
52D
  8
1
 10
28742.967647
 20
11466.475175
 30
0.0
 40
4.994336
 50
180.0002
 51
270.003
  0
LINE
  5
52E
  8
1
 10
29338.292741
 20
11473.466746
 30
0.0
 11
29386.23817
 21
11473.466746
 31
0.0
  0
LINE
  5
52F
  8
1
 10
29367.260191
 20
11473.467246
 30
0.0
 11
29367.259891
 21
11466.475374
 31
0.0
  0
ARC
  5
530
  8
1
 10
29372.254228
 20
11466.475175
 30
0.0
 40
4.994336
 50
180.0002
 51
270.003
  0
LINE
  5
531
  8
1
 10
29357.271219
 20
11473.466746
 30
0.0
 11
29357.271219
 21
11466.474675
 31
0.0
  0
ARC
  5
532
  8
1
 10
29352.276882
 20
11466.474675
 30
0.0
 40
4.994336
 50
270.0002
 51
0.0
  0
LINE
  5
533
  8
1
 10
29338.292741
 20
11461.480339
 30
0.0
 11
29352.277182
 21
11461.480339
 31
0.0
  0
LINE
  5
534
  8
1
 10
29338.292541
 20
11473.466746
 30
0.0
 11
29338.292541
 21
11418.529046
 31
0.0
  0
ARC
  5
535
  8
1
 10
29348.281213
 20
11418.529046
 30
0.0
 40
9.988673
 50
180.0002
 51
270.0002
  0
LINE
  5
536
  8
1
 10
29348.281413
 20
11408.540373
 30
0.0
 11
29376.249497
 21
11408.540573
 31
0.0
  0
ARC
  5
537
  8
1
 10
29376.249497
 20
11418.529046
 30
0.0
 40
9.988673
 50
270.0002
 51
0.0
  0
LINE
  5
538
  8
1
 10
29386.23817
 20
11473.466746
 30
0.0
 11
29386.23817
 21
11418.528747
 31
0.0
  0
LINE
  5
539
  8
1
 10
29372.254727
 20
11461.480838
 30
0.0
 11
29386.238669
 21
11461.481837
 31
0.0
  0
TEXT
  8
3
  40
100
  5
596
  72
0
  71
0
 10
29732.7
 20
12084.5
 30
0.000000
  1

  0
TEXT
  8
3
  40
100
  5
597
  72
0
  71
0
 10
29732.7
 20
11954.5
 30
0.000000
  1

  0
TEXT
  8
3
  40
100
  5
598
  72
0
  71
0
 10
29732.7
 20
11824.5
 30
0.000000
  1
GBS16_4
  0
TEXT
  8
3
  40
100
  5
599
  72
0
  71
0
 10
29732.7
 20
11694.5
 30
0.000000
  1
FXYS80KV1
  0
TEXT
  8
3
  40
100
  5
59A
  72
0
  71
0
 10
29732.7
 20
11564.5
 30
0.000000
  1
FXYS100KV1
  0
TEXT
  8
3
  40
100
  5
59B
  72
0
  71
0
 10
29732.7
 20
11434.5
 30
0.000000
  1
FXYS125KV1
  0
TEXT
  8
3
  40
100
  5
59C
  72
0
  71
0
 10
29732.7
 20
11304.5
 30
0.000000
  1
FXYS80KVAL
  0
TEXT
  8
3
  40
100
  5
59D
  72
0
  71
0
 10
29732.7
 20
11174.5
 30
0.000000
  1
FXYS100KVAL
  0
TEXT
  8
3
  40
100
  5
59E
  72
0
  71
0
 10
29732.7
 20
11044.5
 30
0.000000
  1
FXYS125KVAL
  0
ENDSEC
  0
EOF
