  0
SECTION
  2
HEADER
  9
$ACADVER
  1
AC1009
  9
$DWGCODEPAGE
  3
dos932
  9
$INSBASE
 10
0.0
 20
0.0
 30
0.0
  9
$EXTMIN
 10
-2816.221766
 20
-1872.292719
 30
0.0
  9
$EXTMAX
 10
1627.529107
 20
2101.31063
 30
0.0
  9
$LIMMIN
 10
0.0
 20
0.0
  9
$LIMMAX
 10
420.0
 20
296.987823
  9
$ORTHOMODE
 70
     0
  9
$REGENMODE
 70
     1
  9
$FILLMODE
 70
     1
  9
$QTEXTMODE
 70
     0
  9
$MIRRTEXT
 70
     0
  9
$DRAGMODE
 70
     2
  9
$LTSCALE
 40
1.0
  9
$OSMODE
 70
     0
  9
$ATTMODE
 70
     1
  9
$TEXTSIZE
 40
0.2
  9
$TRACEWID
 40
0.05
  9
$TEXTSTYLE
  7
STANDARD
  9
$CLAYER
  8
0
  9
$CELTYPE
  6
BYLAYER
  9
$CECOLOR
 62
   256
  9
$DIMSCALE
 40
1.0
  9
$DIMASZ
 40
0.18
  9
$DIMEXO
 40
3.0
  9
$DIMDLI
 40
0.38
  9
$DIMRND
 40
0.0
  9
$DIMDLE
 40
0.0
  9
$DIMEXE
 40
5.0
  9
$DIMTP
 40
0.0
  9
$DIMTM
 40
0.0
  9
$DIMTXT
 40
0.18
  9
$DIMCEN
 40
0.09
  9
$DIMTSZ
 40
0.0
  9
$DIMTOL
 70
     0
  9
$DIMLIM
 70
     0
  9
$DIMTIH
 70
     1
  9
$DIMTOH
 70
     1
  9
$DIMSE1
 70
     0
  9
$DIMSE2
 70
     0
  9
$DIMTAD
 70
     1
  9
$DIMZIN
 70
     0
  9
$DIMBLK
  1

  9
$DIMASO
 70
     1
  9
$DIMSHO
 70
     0
  9
$DIMPOST
  1

  9
$DIMAPOST
  1

  9
$DIMALT
 70
     0
  9
$DIMALTD
 70
     2
  9
$DIMALTF
 40
25.4
  9
$DIMLFAC
 40
1.0
  9
$DIMTOFL
 70
     0
  9
$DIMTVP
 40
1.0
  9
$DIMTIX
 70
     0
  9
$DIMSOXD
 70
     0
  9
$DIMSAH
 70
     0
  9
$DIMBLK1
  1

  9
$DIMBLK2
  1

  9
$DIMSTYLE
  2
STANDARD
  9
$DIMCLRD
 70
     0
  9
$DIMCLRE
 70
     0
  9
$DIMCLRT
 70
     0
  9
$DIMTFAC
 40
1.0
  9
$DIMGAP
 40
0.09
  9
$LUNITS
 70
     2
  9
$LUPREC
 70
     4
  9
$SKETCHINC
 40
0.1
  9
$FILLETRAD
 40
0.05
  9
$AUNITS
 70
     0
  9
$AUPREC
 70
     0
  9
$MENU
  1
acad
  9
$ELEVATION
 40
0.0
  9
$PELEVATION
 40
0.0
  9
$THICKNESS
 40
0.0
  9
$LIMCHECK
 70
     0
  9
$BLIPMODE
 70
     1
  9
$CHAMFERA
 40
0.0
  9
$CHAMFERB
 40
0.0
  9
$SKPOLY
 70
     0
  9
$TDCREATE
 40
0.0
  9
$TDUPDATE
 40
0.0
  9
$TDINDWG
 40
0.0
  9
$TDUSRTIMER
 40
0.0
  9
$USRTIMER
 70
     1
  9
$ANGBASE
 50
0.0
  9
$ANGDIR
 70
     0
  9
$PDMODE
 70
     0
  9
$PDSIZE
 40
0.0
  9
$PLINEWID
 40
0.0
  9
$COORDS
 70
     0
  9
$SPLFRAME
 70
     0
  9
$SPLINETYPE
 70
     6
  9
$SPLINESEGS
 70
     8
  9
$ATTDIA
 70
     1
  9
$ATTREQ
 70
     1
  9
$HANDLING
 70
     1
  9
$HANDSEED
  5
BD8
  9
$SURFTAB1
 70
     6
  9
$SURFTAB2
 70
     6
  9
$SURFTYPE
 70
     6
  9
$SURFU
 70
     6
  9
$SURFV
 70
     6
  9
$UCSNAME
  2

  9
$UCSORG
 10
0.0
 20
0.0
 30
0.0
  9
$UCSXDIR
 10
1.0
 20
0.0
 30
0.0
  9
$UCSYDIR
 10
0.0
 20
1.0
 30
0.0
  9
$PUCSNAME
  2

  9
$PUCSORG
 10
0.0
 20
0.0
 30
0.0
  9
$PUCSXDIR
 10
1.0
 20
0.0
 30
0.0
  9
$PUCSYDIR
 10
0.0
 20
1.0
 30
0.0
  9
$USERI1
 70
     0
  9
$USERI2
 70
     0
  9
$USERI3
 70
     0
  9
$USERI4
 70
     0
  9
$USERI5
 70
     0
  9
$USERR1
 40
0.0
  9
$USERR2
 40
0.0
  9
$USERR3
 40
0.0
  9
$USERR4
 40
0.0
  9
$USERR5
 40
0.0
  9
$WORLDVIEW
 70
     1
  9
$SHADEDGE
 70
     3
  9
$SHADEDIF
 70
    70
  9
$TILEMODE
 70
     1
  9
$MAXACTVP
 70
    16
  9
$PINSBASE
 10
0.0
 20
0.0
 30
0.0
  9
$PLIMCHECK
 70
     0
  9
$PEXTMIN
 10
1.000000E+020
 20
1.000000E+020
 30
1.000000E+020
  9
$PEXTMAX
 10
-1.000000E+020
 20
-1.000000E+020
 30
-1.000000E+020
  9
$PLIMMIN
 10
0.0
 20
0.0
  9
$PLIMMAX
 10
12.0
 20
9.0
  9
$UNITMODE
 70
     0
  9
$VISRETAIN
 70
     0
  9
$PLINEGEN
 70
     0
  9
$PSLTSCALE
 70
     1
  9
$TREEDEPTH
 70
  3020
  0
ENDSEC
  0
SECTION
  2
TABLES
  0
TABLE
  2
VPORT
 70
     2
  0
VPORT
  2
*ACTIVE
 70
     0
 10
0.0
 20
0.0
 11
1.0
 21
1.0
 12
1622.311376
 22
172.015103
 13
0.0
 23
0.0
 14
1.0
 24
1.0
 15
0.0
 25
0.0
 16
0.0
 26
0.0
 36
1.0
 17
0.0
 27
0.0
 37
0.0
 40
4329.364512
 41
2.076923
 42
50.0
 43
0.0
 44
0.0
 50
0.0
 51
0.0
 71
     0
 72
   100
 73
     1
 74
     1
 75
     0
 76
     0
 77
     0
 78
     0
  0
ENDTAB
  0
TABLE
  2
LTYPE
 70
     5
  0
LTYPE
  2
CONTINUOUS
 70
    64
  3
Solid line
 72
    65
 73
     0
 40
0.0
  0
LTYPE
  2
DIVIDE
 70
    64
  3
__ . . __ . . __ . . __ . . __ . . __ . . __
 72
    65
 73
     6
 40
1.25
 49
0.5
 49
-0.25
 49
0.0
 49
-0.25
 49
0.0
 49
-0.25
  0
LTYPE
  2
DASHDOT
 70
    64
  3
__ . __ . __ . __ . __ . __ . __ . __ . __ . __
 72
    65
 73
     4
 40
1.0
 49
0.5
 49
-0.25
 49
0.0
 49
-0.25
  0
LTYPE
  2
DASHED
 70
    64
  3
__ __ __ __ __ __ __ __ __ __ __ __ __ __ __
 72
    65
 73
     2
 40
0.75
 49
0.5
 49
-0.25
  0
LTYPE
  2
DOT
 70
    64
  3
...............................................
 72
    65
 73
     2
 40
0.25
 49
0.0
 49
-0.25
  0
ENDTAB
  0
TABLE
  2
LAYER
 70
     5
  0
LAYER
  2
0
 70
     0
 62
     7
  6
CONTINUOUS
  0
LAYER
  2
DEFPOINTS
 70
     0
 62
    -7
  6
CONTINUOUS
  0
LAYER
  2
1
 70
     0
 62
     7
  6
CONTINUOUS
  0
LAYER
  2
2
 70
     0
 62
     7
  6
DOT
  0
LAYER
  2
3
 70
     0
 62
     7
  6
CONTINUOUS
  0
ENDTAB
  0
TABLE
  2
STYLE
 70
     3
  0
STYLE
  2
STANDARD
 70
    64
 40
100.0
 41
0.8
 50
0.0
 71
     0
 42
0.2
  3
txt
  4

  0
STYLE
  2
MONOTXT
 70
    64
 40
0.0
 41
0.5
 50
0.0
 71
     0
 42
4.191412
  3
monotxt
  4
BIGFONT
  0
STYLE
  2
VERTICAL
 70
    68
 40
0.0
 41
0.5
 50
0.0
 71
     0
 42
4.191412
  3
monotxt
  4
BIGFONT
  0
ENDTAB
  0
TABLE
  2
VIEW
 70
     0
  0
ENDTAB
  0
TABLE
  2
UCS
 70
     0
  0
ENDTAB
  0
TABLE
  2
APPID
 70
     1
  0
APPID
  2
ACAD
 70
     0
  0
ENDTAB
  0
TABLE
  2
DIMSTYLE
 70
     1
  0
DIMSTYLE
  2
STANDARD
 70
     0
  3

  4

  5

  6

  7

 40
1.0
 41
0.18
 42
0.0625
 43
0.38
 44
0.18
 45
0.0
 46
0.0
 47
0.0
 48
0.0
140
0.18
141
0.09
142
0.0
143
25.4
144
1.0
145
0.0
146
1.0
147
0.09
 71
     0
 72
     0
 73
     1
 74
     1
 75
     0
 76
     0
 77
     0
 78
     0
170
     0
171
     2
172
     0
173
     0
174
     0
175
     0
176
     0
177
     0
178
     0
  0
ENDTAB
  0
ENDSEC
  0
SECTION
  2
BLOCKS
  0
BLOCK
  5
B9F
  8
0
  2
$MODEL_SPACE
 70
     0
 10
0.0
 20
0.0
 30
0.0
  3
$MODEL_SPACE
  1

  0
ENDBLK
  5
BA0
  8
0
  0
BLOCK
  5
B9C
 67
     1
  8
0
  2
$PAPER_SPACE
 70
     0
 10
0.0
 20
0.0
 30
0.0
  3
$PAPER_SPACE
  1

  0
ENDBLK
  5
B9D
 67
     1
  8
0
  0
BLOCK
  5
2B
  8
2
  2
*D2
 70
    65
 10
0.0
 20
0.0
 30
0.0
  3
*D2
  1

  0
POINT
  5
2C
  8
DEFPOINTS
 10
-400.503397
 20
135.247897
 30
0.0
  0
POINT
  5
2D
  8
DEFPOINTS
 10
-400.503397
 20
1086.440395
 30
0.0
  0
POINT
  5
2E
  8
DEFPOINTS
 10
-220.614495
 20
750.649351
 30
0.0
  0
LINE
  5
2F
  8
2
  6
CONTINUOUS
 10
-389.203396
 20
135.247897
 30
0.0
 11
-209.314495
 21
135.247897
 31
0.0
  0
LINE
  5
30
  8
2
  6
CONTINUOUS
 10
-389.203396
 20
1086.440395
 30
0.0
 11
-209.314495
 21
1086.440395
 31
0.0
  0
LINE
  5
31
  8
2
  6
CONTINUOUS
 10
-220.614495
 20
135.247897
 30
0.0
 11
-220.614495
 21
1086.440395
 31
0.0
  0
LINE
  5
32
  8
2
  6
CONTINUOUS
 10
-227.28606
 20
173.084212
 30
0.0
 11
-220.614495
 21
135.247897
 31
0.0
  0
LINE
  5
33
  8
2
  6
CONTINUOUS
 10
-213.942934
 20
173.084213
 30
0.0
 11
-220.614495
 21
135.247897
 31
0.0
  0
LINE
  5
34
  8
2
  6
CONTINUOUS
 10
-213.94293
 20
1048.604079
 30
0.0
 11
-220.614495
 21
1086.440395
 31
0.0
  0
LINE
  5
35
  8
2
  6
CONTINUOUS
 10
-227.286057
 20
1048.604079
 30
0.0
 11
-220.614495
 21
1086.440395
 31
0.0
  0
TEXT
  5
36
  8
2
  6
CONTINUOUS
 10
-225.134491
 20
534.908142
 30
0.0
 40
63.279999
  1
９５０
 50
90.000003
 41
0.9
  7
MONOTXT
  0
ENDBLK
  5
37
  8
0
  0
BLOCK
  5
39
  8
2
  2
*D3
 70
    65
 10
0.0
 20
0.0
 30
0.0
  3
*D3
  1

  0
POINT
  5
3A
  8
DEFPOINTS
 10
-376.846443
 20
-616.924481
 30
0.0
  0
POINT
  5
3B
  8
DEFPOINTS
 10
-439.725273
 20
-356.598113
 30
0.0
  0
POINT
  5
3C
  8
DEFPOINTS
 10
-70.505695
 20
-512.898473
 30
0.0
  0
LINE
  5
3D
  8
2
  6
CONTINUOUS
 10
-365.546443
 20
-616.924481
 30
0.0
 11
-59.205695
 21
-616.924481
 31
0.0
  0
LINE
  5
3E
  8
2
  6
CONTINUOUS
 10
-428.425273
 20
-356.598113
 30
0.0
 11
-59.205695
 21
-356.598113
 31
0.0
  0
LINE
  5
3F
  8
2
  6
CONTINUOUS
 10
-70.505695
 20
-616.924481
 30
0.0
 11
-70.505695
 21
-356.598113
 31
0.0
  0
LINE
  5
40
  8
2
  6
CONTINUOUS
 10
-77.17726
 20
-579.088165
 30
0.0
 11
-70.505695
 21
-616.924481
 31
0.0
  0
LINE
  5
41
  8
2
  6
CONTINUOUS
 10
-63.834134
 20
-579.088164
 30
0.0
 11
-70.505695
 21
-616.924481
 31
0.0
  0
LINE
  5
42
  8
2
  6
CONTINUOUS
 10
-63.83413
 20
-394.434428
 30
0.0
 11
-70.505695
 21
-356.598113
 31
0.0
  0
LINE
  5
43
  8
2
  6
CONTINUOUS
 10
-77.177257
 20
-394.434429
 30
0.0
 11
-70.505695
 21
-356.598113
 31
0.0
  0
TEXT
  5
44
  8
2
  6
CONTINUOUS
 10
-75.025688
 20
-562.697266
 30
0.0
 40
63.279999
  1
２６０
 50
90.000003
 41
0.9
  7
MONOTXT
  0
ENDBLK
  5
45
  8
0
  0
BLOCK
  5
47
  8
2
  2
*D4
 70
    65
 10
0.0
 20
0.0
 30
0.0
  3
*D4
  1

  0
POINT
  5
48
  8
DEFPOINTS
 10
-1198.516712
 20
-643.958373
 30
0.0
  0
POINT
  5
49
  8
DEFPOINTS
 10
-1271.468019
 20
-594.095861
 30
0.0
  0
POINT
  5
4A
  8
DEFPOINTS
 10
-1656.483296
 20
-633.751729
 30
0.0
  0
LINE
  5
4B
  8
2
  6
CONTINUOUS
 10
-1209.816713
 20
-643.958373
 30
0.0
 11
-1667.783296
 21
-643.958373
 31
0.0
  0
LINE
  5
4C
  8
2
  6
CONTINUOUS
 10
-1282.768019
 20
-594.095861
 30
0.0
 11
-1667.783296
 21
-594.095861
 31
0.0
  0
LINE
  5
4D
  8
2
  6
CONTINUOUS
 10
-1656.483296
 20
-795.830382
 30
0.0
 11
-1656.483296
 21
-537.341386
 31
0.0
  0
LINE
  5
4E
  8
2
  6
CONTINUOUS
 10
-1649.811731
 20
-681.794688
 30
0.0
 11
-1656.483296
 21
-643.958373
 31
0.0
  0
LINE
  5
4F
  8
2
  6
CONTINUOUS
 10
-1663.154857
 20
-681.794689
 30
0.0
 11
-1656.483296
 21
-643.958373
 31
0.0
  0
LINE
  5
50
  8
2
  6
CONTINUOUS
 10
-1663.154861
 20
-556.259545
 30
0.0
 11
-1656.483296
 21
-594.095861
 31
0.0
  0
LINE
  5
51
  8
2
  6
CONTINUOUS
 10
-1649.811734
 20
-556.259544
 30
0.0
 11
-1656.483296
 21
-594.095861
 31
0.0
  0
TEXT
  5
52
  8
2
  6
CONTINUOUS
 10
-1661.003296
 20
-770.518372
 30
0.0
 40
63.279999
  1
５０
 50
90.000003
 41
0.9
  7
MONOTXT
  0
ENDBLK
  5
53
  8
0
  0
BLOCK
  5
55
  8
2
  2
*D5
 70
    65
 10
0.0
 20
0.0
 30
0.0
  3
*D5
  1

  0
POINT
  5
56
  8
DEFPOINTS
 10
-1328.038941
 20
-616.924481
 30
0.0
  0
POINT
  5
57
  8
DEFPOINTS
 10
-1171.339153
 20
-396.848574
 30
0.0
  0
POINT
  5
58
  8
DEFPOINTS
 10
-1480.380662
 20
-506.578986
 30
0.0
  0
LINE
  5
59
  8
2
  6
CONTINUOUS
 10
-1339.338941
 20
-616.924481
 30
0.0
 11
-1491.680662
 21
-616.924481
 31
0.0
  0
LINE
  5
5A
  8
2
  6
CONTINUOUS
 10
-1182.639154
 20
-396.848574
 30
0.0
 11
-1491.680662
 21
-396.848574
 31
0.0
  0
LINE
  5
5B
  8
2
  6
CONTINUOUS
 10
-1480.380662
 20
-616.924481
 30
0.0
 11
-1480.380662
 21
-396.848574
 31
0.0
  0
LINE
  5
5C
  8
2
  6
CONTINUOUS
 10
-1487.052227
 20
-579.088165
 30
0.0
 11
-1480.380662
 21
-616.924481
 31
0.0
  0
LINE
  5
5D
  8
2
  6
CONTINUOUS
 10
-1473.7091
 20
-579.088164
 30
0.0
 11
-1480.380662
 21
-616.924481
 31
0.0
  0
LINE
  5
5E
  8
2
  6
CONTINUOUS
 10
-1473.709097
 20
-434.68489
 30
0.0
 11
-1480.380662
 21
-396.848574
 31
0.0
  0
LINE
  5
5F
  8
2
  6
CONTINUOUS
 10
-1487.052223
 20
-434.68489
 30
0.0
 11
-1480.380662
 21
-396.848574
 31
0.0
  0
TEXT
  5
60
  8
2
  6
CONTINUOUS
 10
-1484.900635
 20
-582.82251
 30
0.0
 40
63.279999
  1
２２０
 50
90.000003
 41
0.9
  7
MONOTXT
  0
ENDBLK
  5
61
  8
0
  0
BLOCK
  5
63
  8
2
  2
*D6
 70
    65
 10
0.0
 20
0.0
 30
0.0
  3
*D6
  1

  0
POINT
  5
64
  8
DEFPOINTS
 10
-1271.468019
 20
-594.095861
 30
0.0
  0
POINT
  5
65
  8
DEFPOINTS
 10
-1265.160111
 20
-356.598113
 30
0.0
  0
POINT
  5
66
  8
DEFPOINTS
 10
-1656.483296
 20
-517.908975
 30
0.0
  0
LINE
  5
67
  8
2
  6
CONTINUOUS
 10
-1282.768019
 20
-594.095861
 30
0.0
 11
-1667.783296
 21
-594.095861
 31
0.0
  0
LINE
  5
68
  8
2
  6
CONTINUOUS
 10
-1276.460111
 20
-356.598113
 30
0.0
 11
-1667.783296
 21
-356.598113
 31
0.0
  0
LINE
  5
69
  8
2
  6
CONTINUOUS
 10
-1656.483296
 20
-594.095861
 30
0.0
 11
-1656.483296
 21
-356.598113
 31
0.0
  0
LINE
  5
6A
  8
2
  6
CONTINUOUS
 10
-1663.154861
 20
-556.259545
 30
0.0
 11
-1656.483296
 21
-594.095861
 31
0.0
  0
LINE
  5
6B
  8
2
  6
CONTINUOUS
 10
-1649.811734
 20
-556.259544
 30
0.0
 11
-1656.483296
 21
-594.095861
 31
0.0
  0
LINE
  5
6C
  8
2
  6
CONTINUOUS
 10
-1649.811731
 20
-394.434428
 30
0.0
 11
-1656.483296
 21
-356.598113
 31
0.0
  0
LINE
  5
6D
  8
2
  6
CONTINUOUS
 10
-1663.154857
 20
-394.434429
 30
0.0
 11
-1656.483296
 21
-356.598113
 31
0.0
  0
TEXT
  5
6E
  8
2
  6
CONTINUOUS
 10
-1661.003296
 20
-551.282959
 30
0.0
 40
63.279999
  1
２４０
 50
90.000003
 41
0.9
  7
MONOTXT
  0
ENDBLK
  5
6F
  8
0
  0
BLOCK
  5
71
  8
2
  2
*D7
 70
    65
 10
0.0
 20
0.0
 30
0.0
  3
*D7
  1

  0
POINT
  5
72
  8
DEFPOINTS
 10
-1328.038941
 20
-616.924481
 30
0.0
  0
POINT
  5
73
  8
DEFPOINTS
 10
-1248.686053
 20
-594.09586
 30
0.0
  0
POINT
  5
74
  8
DEFPOINTS
 10
-1566.374882
 20
-605.618489
 30
0.0
  0
LINE
  5
75
  8
2
  6
CONTINUOUS
 10
-1339.338941
 20
-616.924481
 30
0.0
 11
-1577.674882
 21
-616.924481
 31
0.0
  0
LINE
  5
76
  8
2
  6
CONTINUOUS
 10
-1259.986053
 20
-594.09586
 30
0.0
 11
-1577.674882
 21
-594.09586
 31
0.0
  0
LINE
  5
77
  8
2
  6
CONTINUOUS
 10
-1566.374882
 20
-656.986462
 30
0.0
 11
-1566.374882
 21
-442.223851
 31
0.0
  0
CIRCLE
  5
78
  8
2
  6
CONTINUOUS
 10
-1566.374882
 20
-616.924481
 30
0.0
 40
6.78
  0
CIRCLE
  5
79
  8
2
  6
CONTINUOUS
 10
-1566.374882
 20
-616.924481
 30
0.0
 40
4.068
  0
LINE
  5
7A
  8
2
  6
CONTINUOUS
 10
-1573.046447
 20
-556.259544
 30
0.0
 11
-1566.374882
 21
-594.09586
 31
0.0
  0
LINE
  5
7B
  8
2
  6
CONTINUOUS
 10
-1559.70332
 20
-556.259544
 30
0.0
 11
-1566.374882
 21
-594.09586
 31
0.0
  0
TEXT
  5
7C
  8
2
  6
CONTINUOUS
 10
-1570.894897
 20
-568.783875
 30
0.0
 40
63.279999
  1
２０
 50
90.000003
 41
0.9
  7
MONOTXT
  0
ENDBLK
  5
7D
  8
0
  0
BLOCK
  5
7F
  8
2
  2
*D8
 70
    65
 10
0.0
 20
0.0
 30
0.0
  3
*D8
  1

  0
POINT
  5
80
  8
DEFPOINTS
 10
-1198.516712
 20
-643.958373
 30
0.0
  0
POINT
  5
81
  8
DEFPOINTS
 10
-1328.038941
 20
-616.924481
 30
0.0
  0
POINT
  5
82
  8
DEFPOINTS
 10
-1566.374882
 20
-696.637795
 30
0.0
  0
LINE
  5
83
  8
2
  6
CONTINUOUS
 10
-1209.816713
 20
-643.958373
 30
0.0
 11
-1577.674882
 21
-643.958373
 31
0.0
  0
LINE
  5
84
  8
2
  6
CONTINUOUS
 10
-1339.338941
 20
-616.924481
 30
0.0
 11
-1577.674882
 21
-616.924481
 31
0.0
  0
LINE
  5
85
  8
2
  6
CONTINUOUS
 10
-1566.374882
 20
-795.830382
 30
0.0
 11
-1566.374882
 21
-576.862499
 31
0.0
  0
LINE
  5
86
  8
2
  6
CONTINUOUS
 10
-1559.703317
 20
-681.794688
 30
0.0
 11
-1566.374882
 21
-643.958373
 31
0.0
  0
LINE
  5
87
  8
2
  6
CONTINUOUS
 10
-1573.046444
 20
-681.794689
 30
0.0
 11
-1566.374882
 21
-643.958373
 31
0.0
  0
CIRCLE
  5
88
  8
2
  6
CONTINUOUS
 10
-1566.374882
 20
-616.924481
 30
0.0
 40
6.78
  0
CIRCLE
  5
89
  8
2
  6
CONTINUOUS
 10
-1566.374882
 20
-616.924481
 30
0.0
 40
4.068
  0
TEXT
  5
8A
  8
2
  6
CONTINUOUS
 10
-1570.894897
 20
-770.518372
 30
0.0
 40
63.279999
  1
３０
 50
90.000003
 41
0.9
  7
MONOTXT
  0
ENDBLK
  5
8B
  8
0
  0
BLOCK
  5
8D
  8
2
  2
*D9
 70
    65
 10
0.0
 20
0.0
 30
0.0
  3
*D9
  1

  0
POINT
  5
8E
  8
DEFPOINTS
 10
429.80986
 20
926.341399
 30
0.0
  0
POINT
  5
8F
  8
DEFPOINTS
 10
851.152014
 20
1116.97183
 30
0.0
  0
POINT
  5
90
  8
DEFPOINTS
 10
675.499192
 20
1135.566299
 30
0.0
  0
LINE
  5
91
  8
2
  6
CONTINUOUS
 10
429.80986
 20
937.641399
 30
0.0
 11
429.80986
 21
1146.866299
 31
0.0
  0
LINE
  5
92
  8
2
  6
CONTINUOUS
 10
851.152014
 20
1128.27183
 30
0.0
 11
851.152014
 21
1146.866299
 31
0.0
  0
LINE
  5
93
  8
2
  6
CONTINUOUS
 10
429.80986
 20
1135.566299
 30
0.0
 11
851.152014
 21
1135.566299
 31
0.0
  0
LINE
  5
94
  8
2
  6
CONTINUOUS
 10
467.646176
 20
1142.237862
 30
0.0
 11
429.80986
 21
1135.566299
 31
0.0
  0
LINE
  5
95
  8
2
  6
CONTINUOUS
 10
467.646176
 20
1128.894735
 30
0.0
 11
429.80986
 21
1135.566299
 31
0.0
  0
LINE
  5
96
  8
2
  6
CONTINUOUS
 10
813.315698
 20
1128.894735
 30
0.0
 11
851.152014
 21
1135.566299
 31
0.0
  0
LINE
  5
97
  8
2
  6
CONTINUOUS
 10
813.315698
 20
1142.237862
 30
0.0
 11
851.152014
 21
1135.566299
 31
0.0
  0
TEXT
  5
98
  8
2
  6
CONTINUOUS
 10
564.544922
 20
1140.086304
 30
0.0
 40
63.279999
  1
４２０
 41
0.9
  7
MONOTXT
  0
ENDBLK
  5
99
  8
0
  0
BLOCK
  5
9B
  8
2
  2
*D10
 70
    65
 10
0.0
 20
0.0
 30
0.0
  3
*D10
  1

  0
POINT
  5
9C
  8
DEFPOINTS
 10
413.102837
 20
1048.893323
 30
0.0
  0
POINT
  5
9D
  8
DEFPOINTS
 10
1289.201191
 20
1048.893323
 30
0.0
  0
POINT
  5
9E
  8
DEFPOINTS
 10
789.040863
 20
1325.714358
 30
0.0
  0
LINE
  5
9F
  8
2
  6
CONTINUOUS
 10
413.102837
 20
1060.193323
 30
0.0
 11
413.102837
 21
1337.014358
 31
0.0
  0
LINE
  5
A0
  8
2
  6
CONTINUOUS
 10
1289.201191
 20
1060.193323
 30
0.0
 11
1289.201191
 21
1337.014358
 31
0.0
  0
LINE
  5
A1
  8
2
  6
CONTINUOUS
 10
413.102837
 20
1325.714358
 30
0.0
 11
1289.201191
 21
1325.714358
 31
0.0
  0
LINE
  5
A2
  8
2
  6
CONTINUOUS
 10
450.939153
 20
1332.385921
 30
0.0
 11
413.102837
 21
1325.714358
 31
0.0
  0
LINE
  5
A3
  8
2
  6
CONTINUOUS
 10
450.939153
 20
1319.042794
 30
0.0
 11
413.102837
 21
1325.714358
 31
0.0
  0
LINE
  5
A4
  8
2
  6
CONTINUOUS
 10
1251.364875
 20
1319.042794
 30
0.0
 11
1289.201191
 21
1325.714358
 31
0.0
  0
LINE
  5
A5
  8
2
  6
CONTINUOUS
 10
1251.364875
 20
1332.385921
 30
0.0
 11
1289.201191
 21
1325.714358
 31
0.0
  0
TEXT
  5
A6
  8
2
  6
CONTINUOUS
 10
496.784027
 20
1330.234375
 30
0.0
 40
63.279999
  1
８６０～８９０（天井開口部）
 41
0.9
  7
MONOTXT
  0
ENDBLK
  5
A7
  8
0
  0
BLOCK
  5
A9
  8
2
  2
*D11
 70
    65
 10
0.0
 20
0.0
 30
0.0
  3
*D11
  1

  0
POINT
  5
AA
  8
DEFPOINTS
 10
511.836619
 20
1039.251235
 30
0.0
  0
POINT
  5
AB
  8
DEFPOINTS
 10
1190.467409
 20
1039.251235
 30
0.0
  0
POINT
  5
AC
  8
DEFPOINTS
 10
872.239708
 20
1230.629964
 30
0.0
  0
LINE
  5
AD
  8
2
  6
CONTINUOUS
 10
511.836619
 20
1050.551235
 30
0.0
 11
511.836619
 21
1241.929964
 31
0.0
  0
LINE
  5
AE
  8
2
  6
CONTINUOUS
 10
1190.467409
 20
1050.551235
 30
0.0
 11
1190.467409
 21
1241.929964
 31
0.0
  0
LINE
  5
AF
  8
2
  6
CONTINUOUS
 10
511.836619
 20
1230.629964
 30
0.0
 11
1190.467409
 21
1230.629964
 31
0.0
  0
LINE
  5
B0
  8
2
  6
CONTINUOUS
 10
549.672934
 20
1237.301527
 30
0.0
 11
511.836619
 21
1230.629964
 31
0.0
  0
LINE
  5
B1
  8
2
  6
CONTINUOUS
 10
549.672934
 20
1223.958401
 30
0.0
 11
511.836619
 21
1230.629964
 31
0.0
  0
LINE
  5
B2
  8
2
  6
CONTINUOUS
 10
1152.631094
 20
1223.958401
 30
0.0
 11
1190.467409
 21
1230.629964
 31
0.0
  0
LINE
  5
B3
  8
2
  6
CONTINUOUS
 10
1152.631094
 20
1237.301527
 30
0.0
 11
1190.467409
 21
1230.629964
 31
0.0
  0
TEXT
  5
B4
  8
2
  6
CONTINUOUS
 10
623.343994
 20
1235.150024
 30
0.0
 40
63.279999
  1
６８０（吊り位置）
 41
0.9
  7
MONOTXT
  0
ENDBLK
  5
B5
  8
0
  0
BLOCK
  5
B7
  8
2
  2
*D12
 70
    65
 10
0.0
 20
0.0
 30
0.0
  3
*D12
  1

  0
POINT
  5
B8
  8
DEFPOINTS
 10
430.624804
 20
285.93681
 30
0.0
  0
POINT
  5
B9
  8
DEFPOINTS
 10
851.152014
 20
102.85809
 30
0.0
  0
POINT
  5
BA
  8
DEFPOINTS
 10
603.871171
 20
17.887788
 30
0.0
  0
LINE
  5
BB
  8
2
  6
CONTINUOUS
 10
430.624804
 20
274.636809
 30
0.0
 11
430.624804
 21
6.587788
 31
0.0
  0
LINE
  5
BC
  8
2
  6
CONTINUOUS
 10
851.152014
 20
91.55809
 30
0.0
 11
851.152014
 21
6.587788
 31
0.0
  0
LINE
  5
BD
  8
2
  6
CONTINUOUS
 10
430.624804
 20
17.887788
 30
0.0
 11
851.152014
 21
17.887788
 31
0.0
  0
LINE
  5
BE
  8
2
  6
CONTINUOUS
 10
468.46112
 20
24.559351
 30
0.0
 11
430.624804
 21
17.887788
 31
0.0
  0
LINE
  5
BF
  8
2
  6
CONTINUOUS
 10
468.46112
 20
11.216224
 30
0.0
 11
430.624804
 21
17.887788
 31
0.0
  0
LINE
  5
C0
  8
2
  6
CONTINUOUS
 10
813.315698
 20
11.216224
 30
0.0
 11
851.152014
 21
17.887788
 31
0.0
  0
LINE
  5
C1
  8
2
  6
CONTINUOUS
 10
813.315698
 20
24.559351
 30
0.0
 11
851.152014
 21
17.887788
 31
0.0
  0
TEXT
  5
C2
  8
2
  6
CONTINUOUS
 10
564.952393
 20
22.407787
 30
0.0
 40
63.279999
  1
４２０
 41
0.9
  7
MONOTXT
  0
ENDBLK
  5
C3
  8
0
  0
BLOCK
  5
C5
  8
2
  2
*D13
 70
    65
 10
0.0
 20
0.0
 30
0.0
  3
*D13
  1

  0
POINT
  5
C6
  8
DEFPOINTS
 10
444.292468
 20
-364.407904
 30
0.0
  0
POINT
  5
C7
  8
DEFPOINTS
 10
1285.346887
 20
-364.407904
 30
0.0
  0
POINT
  5
C8
  8
DEFPOINTS
 10
846.646743
 20
-128.995603
 30
0.0
  0
LINE
  5
C9
  8
2
  6
CONTINUOUS
 10
444.292468
 20
-353.107904
 30
0.0
 11
444.292468
 21
-117.695603
 31
0.0
  0
LINE
  5
CA
  8
2
  6
CONTINUOUS
 10
1285.346887
 20
-353.107904
 30
0.0
 11
1285.346887
 21
-117.695603
 31
0.0
  0
LINE
  5
CB
  8
2
  6
CONTINUOUS
 10
444.292468
 20
-128.995603
 30
0.0
 11
1285.346887
 21
-128.995603
 31
0.0
  0
LINE
  5
CC
  8
2
  6
CONTINUOUS
 10
482.128783
 20
-122.32404
 30
0.0
 11
444.292468
 21
-128.995603
 31
0.0
  0
LINE
  5
CD
  8
2
  6
CONTINUOUS
 10
482.128783
 20
-135.667167
 30
0.0
 11
444.292468
 21
-128.995603
 31
0.0
  0
LINE
  5
CE
  8
2
  6
CONTINUOUS
 10
1247.510571
 20
-135.667167
 30
0.0
 11
1285.346887
 21
-128.995603
 31
0.0
  0
LINE
  5
CF
  8
2
  6
CONTINUOUS
 10
1247.510571
 20
-122.32404
 30
0.0
 11
1285.346887
 21
-128.995603
 31
0.0
  0
TEXT
  5
D0
  8
2
  6
CONTINUOUS
 10
788.883667
 20
-124.475601
 30
0.0
 40
63.279999
  1
８４０
 41
0.9
  7
MONOTXT
  0
ENDBLK
  5
D1
  8
0
  0
BLOCK
  5
D3
  8
2
  2
*D14
 70
    65
 10
0.0
 20
0.0
 30
0.0
  3
*D14
  1

  0
POINT
  5
D4
  8
DEFPOINTS
 10
389.223428
 20
-616.924481
 30
0.0
  0
POINT
  5
D5
  8
DEFPOINTS
 10
444.292468
 20
-364.407904
 30
0.0
  0
POINT
  5
D6
  8
DEFPOINTS
 10
407.704255
 20
-128.995603
 30
0.0
  0
LINE
  5
D7
  8
2
  6
CONTINUOUS
 10
389.223428
 20
-605.62448
 30
0.0
 11
389.223428
 21
-117.695603
 31
0.0
  0
LINE
  5
D8
  8
2
  6
CONTINUOUS
 10
444.292468
 20
-353.107904
 30
0.0
 11
444.292468
 21
-117.695603
 31
0.0
  0
LINE
  5
D9
  8
2
  6
CONTINUOUS
 10
237.351419
 20
-128.995603
 30
0.0
 11
501.046942
 21
-128.995603
 31
0.0
  0
LINE
  5
DA
  8
2
  6
CONTINUOUS
 10
351.387112
 20
-135.667167
 30
0.0
 11
389.223428
 21
-128.995603
 31
0.0
  0
LINE
  5
DB
  8
2
  6
CONTINUOUS
 10
351.387112
 20
-122.32404
 30
0.0
 11
389.223428
 21
-128.995603
 31
0.0
  0
LINE
  5
DC
  8
2
  6
CONTINUOUS
 10
482.128783
 20
-122.32404
 30
0.0
 11
444.292468
 21
-128.995603
 31
0.0
  0
LINE
  5
DD
  8
2
  6
CONTINUOUS
 10
482.128783
 20
-135.667167
 30
0.0
 11
444.292468
 21
-128.995603
 31
0.0
  0
TEXT
  5
DE
  8
2
  6
CONTINUOUS
 10
262.663422
 20
-124.475601
 30
0.0
 40
63.279999
  1
５５
 41
0.9
  7
MONOTXT
  0
ENDBLK
  5
DF
  8
0
  0
BLOCK
  5
E1
  8
2
  2
*D15
 70
    65
 10
0.0
 20
0.0
 30
0.0
  3
*D15
  1

  0
POINT
  5
E2
  8
DEFPOINTS
 10
1285.346887
 20
-364.407904
 30
0.0
  0
POINT
  5
E3
  8
DEFPOINTS
 10
1340.415926
 20
-616.924481
 30
0.0
  0
POINT
  5
E4
  8
DEFPOINTS
 10
1299.095154
 20
-128.995603
 30
0.0
  0
LINE
  5
E5
  8
2
  6
CONTINUOUS
 10
1285.346887
 20
-353.107904
 30
0.0
 11
1285.346887
 21
-117.695603
 31
0.0
  0
LINE
  5
E6
  8
2
  6
CONTINUOUS
 10
1340.415926
 20
-605.62448
 30
0.0
 11
1340.415926
 21
-117.695603
 31
0.0
  0
LINE
  5
E7
  8
2
  6
CONTINUOUS
 10
1228.592412
 20
-128.995603
 30
0.0
 11
1492.287936
 21
-128.995603
 31
0.0
  0
LINE
  5
E8
  8
2
  6
CONTINUOUS
 10
1247.510571
 20
-135.667167
 30
0.0
 11
1285.346887
 21
-128.995603
 31
0.0
  0
LINE
  5
E9
  8
2
  6
CONTINUOUS
 10
1247.510571
 20
-122.32404
 30
0.0
 11
1285.346887
 21
-128.995603
 31
0.0
  0
LINE
  5
EA
  8
2
  6
CONTINUOUS
 10
1378.252242
 20
-122.32404
 30
0.0
 11
1340.415926
 21
-128.995603
 31
0.0
  0
LINE
  5
EB
  8
2
  6
CONTINUOUS
 10
1378.252242
 20
-135.667167
 30
0.0
 11
1340.415926
 21
-128.995603
 31
0.0
  0
TEXT
  5
EC
  8
2
  6
CONTINUOUS
 10
1365.727905
 20
-124.475601
 30
0.0
 40
63.279999
  1
５５
 41
0.9
  7
MONOTXT
  0
ENDBLK
  5
ED
  8
0
  0
BLOCK
  5
EF
  8
2
  2
*D16
 70
    65
 10
0.0
 20
0.0
 30
0.0
  3
*D16
  1

  0
POINT
  5
F0
  8
DEFPOINTS
 10
-1094.19308
 20
-589.089584
 30
0.0
  0
POINT
  5
F1
  8
DEFPOINTS
 10
-852.442692
 20
-692.943706
 30
0.0
  0
POINT
  5
F2
  8
DEFPOINTS
 10
657.559838
 20
-743.013911
 30
0.0
  0
LINE
  5
F3
  8
2
  6
CONTINUOUS
 10
-1094.19308
 20
-600.389584
 30
0.0
 11
-1094.19308
 21
-754.313911
 31
0.0
  0
LINE
  5
F4
  8
2
  6
CONTINUOUS
 10
-852.442692
 20
-704.243707
 30
0.0
 11
-852.442692
 21
-754.313911
 31
0.0
  0
LINE
  5
F5
  8
2
  6
CONTINUOUS
 10
-1094.19308
 20
-743.013911
 30
0.0
 11
-852.442692
 21
-743.013911
 31
0.0
  0
LINE
  5
F6
  8
2
  6
CONTINUOUS
 10
-1056.356764
 20
-736.342348
 30
0.0
 11
-1094.19308
 21
-743.013911
 31
0.0
  0
LINE
  5
F7
  8
2
  6
CONTINUOUS
 10
-1056.356764
 20
-749.685474
 30
0.0
 11
-1094.19308
 21
-743.013911
 31
0.0
  0
LINE
  5
F8
  8
2
  6
CONTINUOUS
 10
-890.279008
 20
-749.685474
 30
0.0
 11
-852.442692
 21
-743.013911
 31
0.0
  0
LINE
  5
F9
  8
2
  6
CONTINUOUS
 10
-890.279008
 20
-736.342348
 30
0.0
 11
-852.442692
 21
-743.013911
 31
0.0
  0
TEXT
  5
FA
  8
2
  6
CONTINUOUS
 10
-1049.253906
 20
-738.493896
 30
0.0
 40
63.279999
  1
２４０
 41
0.9
  7
MONOTXT
  0
ENDBLK
  5
FB
  8
0
  0
BLOCK
  5
FD
  8
2
  2
*D17
 70
    65
 10
0.0
 20
0.0
 30
0.0
  3
*D17
  1

  0
POINT
  5
FE
  8
DEFPOINTS
 10
-852.442692
 20
-692.943706
 30
0.0
  0
POINT
  5
FF
  8
DEFPOINTS
 10
-581.959186
 20
-590.790675
 30
0.0
  0
POINT
  5
100
  8
DEFPOINTS
 10
730.651472
 20
-836.116865
 30
0.0
  0
LINE
  5
101
  8
2
  6
CONTINUOUS
 10
-852.442692
 20
-704.243707
 30
0.0
 11
-852.442692
 21
-847.416865
 31
0.0
  0
LINE
  5
102
  8
2
  6
CONTINUOUS
 10
-581.959186
 20
-602.090675
 30
0.0
 11
-581.959186
 21
-847.416865
 31
0.0
  0
LINE
  5
103
  8
2
  6
CONTINUOUS
 10
-852.442692
 20
-836.116865
 30
0.0
 11
-581.959186
 21
-836.116865
 31
0.0
  0
LINE
  5
104
  8
2
  6
CONTINUOUS
 10
-814.606376
 20
-829.445302
 30
0.0
 11
-852.442692
 21
-836.116865
 31
0.0
  0
LINE
  5
105
  8
2
  6
CONTINUOUS
 10
-814.606376
 20
-842.788429
 30
0.0
 11
-852.442692
 21
-836.116865
 31
0.0
  0
LINE
  5
106
  8
2
  6
CONTINUOUS
 10
-619.795501
 20
-842.788429
 30
0.0
 11
-581.959186
 21
-836.116865
 31
0.0
  0
LINE
  5
107
  8
2
  6
CONTINUOUS
 10
-619.795501
 20
-829.445302
 30
0.0
 11
-581.959186
 21
-836.116865
 31
0.0
  0
TEXT
  5
108
  8
2
  6
CONTINUOUS
 10
-793.136963
 20
-831.596863
 30
0.0
 40
63.279999
  1
２７０
 41
0.9
  7
MONOTXT
  0
ENDBLK
  5
109
  8
0
  0
BLOCK
  5
10B
  8
2
  2
*D18
 70
    65
 10
0.0
 20
0.0
 30
0.0
  3
*D18
  1

  0
POINT
  5
10C
  8
DEFPOINTS
 10
-852.442692
 20
-692.943706
 30
0.0
  0
POINT
  5
10D
  8
DEFPOINTS
 10
-539.550418
 20
-514.796461
 30
0.0
  0
POINT
  5
10E
  8
DEFPOINTS
 10
615.00649
 20
-937.520072
 30
0.0
  0
LINE
  5
10F
  8
2
  6
CONTINUOUS
 10
-852.442692
 20
-704.243707
 30
0.0
 11
-852.442692
 21
-948.820072
 31
0.0
  0
LINE
  5
110
  8
2
  6
CONTINUOUS
 10
-539.550418
 20
-526.096461
 30
0.0
 11
-539.550418
 21
-948.820072
 31
0.0
  0
LINE
  5
111
  8
2
  6
CONTINUOUS
 10
-852.442692
 20
-937.520072
 30
0.0
 11
-539.550418
 21
-937.520072
 31
0.0
  0
LINE
  5
112
  8
2
  6
CONTINUOUS
 10
-814.606376
 20
-930.848509
 30
0.0
 11
-852.442692
 21
-937.520072
 31
0.0
  0
LINE
  5
113
  8
2
  6
CONTINUOUS
 10
-814.606376
 20
-944.191636
 30
0.0
 11
-852.442692
 21
-937.520072
 31
0.0
  0
LINE
  5
114
  8
2
  6
CONTINUOUS
 10
-577.386734
 20
-944.191636
 30
0.0
 11
-539.550418
 21
-937.520072
 31
0.0
  0
LINE
  5
115
  8
2
  6
CONTINUOUS
 10
-577.386734
 20
-930.848509
 30
0.0
 11
-539.550418
 21
-937.520072
 31
0.0
  0
TEXT
  5
116
  8
2
  6
CONTINUOUS
 10
-771.932556
 20
-933.000061
 30
0.0
 40
63.279999
  1
３１５
 41
0.9
  7
MONOTXT
  0
ENDBLK
  5
117
  8
0
  0
BLOCK
  5
119
  8
2
  2
*D19
 70
    65
 10
0.0
 20
0.0
 30
0.0
  3
*D19
  1

  0
POINT
  5
11A
  8
DEFPOINTS
 10
-1272.969902
 20
-364.407904
 30
0.0
  0
POINT
  5
11B
  8
DEFPOINTS
 10
-431.915482
 20
-364.407904
 30
0.0
  0
POINT
  5
11C
  8
DEFPOINTS
 10
444.292468
 20
-128.995603
 30
0.0
  0
LINE
  5
11D
  8
2
  6
CONTINUOUS
 10
-1272.969902
 20
-353.107904
 30
0.0
 11
-1272.969902
 21
-117.695603
 31
0.0
  0
LINE
  5
11E
  8
2
  6
CONTINUOUS
 10
-431.915482
 20
-353.107904
 30
0.0
 11
-431.915482
 21
-117.695603
 31
0.0
  0
LINE
  5
11F
  8
2
  6
CONTINUOUS
 10
-1272.969902
 20
-128.995603
 30
0.0
 11
-431.915482
 21
-128.995603
 31
0.0
  0
LINE
  5
120
  8
2
  6
CONTINUOUS
 10
-1235.133586
 20
-122.32404
 30
0.0
 11
-1272.969902
 21
-128.995603
 31
0.0
  0
LINE
  5
121
  8
2
  6
CONTINUOUS
 10
-1235.133586
 20
-135.667167
 30
0.0
 11
-1272.969902
 21
-128.995603
 31
0.0
  0
LINE
  5
122
  8
2
  6
CONTINUOUS
 10
-469.751798
 20
-135.667167
 30
0.0
 11
-431.915482
 21
-128.995603
 31
0.0
  0
LINE
  5
123
  8
2
  6
CONTINUOUS
 10
-469.751798
 20
-122.32404
 30
0.0
 11
-431.915482
 21
-128.995603
 31
0.0
  0
TEXT
  5
124
  8
2
  6
CONTINUOUS
 10
-928.378662
 20
-124.475601
 30
0.0
 40
63.279999
  1
８４０
 41
0.9
  7
MONOTXT
  0
ENDBLK
  5
125
  8
0
  0
BLOCK
  5
127
  8
2
  2
*D20
 70
    65
 10
0.0
 20
0.0
 30
0.0
  3
*D20
  1

  0
POINT
  5
128
  8
DEFPOINTS
 10
-431.915482
 20
-364.407904
 30
0.0
  0
POINT
  5
129
  8
DEFPOINTS
 10
-376.846443
 20
-616.924481
 30
0.0
  0
POINT
  5
12A
  8
DEFPOINTS
 10
444.292468
 20
-128.995603
 30
0.0
  0
LINE
  5
12B
  8
2
  6
CONTINUOUS
 10
-431.915482
 20
-353.107904
 30
0.0
 11
-431.915482
 21
-117.695603
 31
0.0
  0
LINE
  5
12C
  8
2
  6
CONTINUOUS
 10
-376.846443
 20
-605.62448
 30
0.0
 11
-376.846443
 21
-117.695603
 31
0.0
  0
LINE
  5
12D
  8
2
  6
CONTINUOUS
 10
-488.669957
 20
-128.995603
 30
0.0
 11
-224.974434
 21
-128.995603
 31
0.0
  0
LINE
  5
12E
  8
2
  6
CONTINUOUS
 10
-469.751798
 20
-135.667167
 30
0.0
 11
-431.915482
 21
-128.995603
 31
0.0
  0
LINE
  5
12F
  8
2
  6
CONTINUOUS
 10
-469.751798
 20
-122.32404
 30
0.0
 11
-431.915482
 21
-128.995603
 31
0.0
  0
LINE
  5
130
  8
2
  6
CONTINUOUS
 10
-339.010127
 20
-122.32404
 30
0.0
 11
-376.846443
 21
-128.995603
 31
0.0
  0
LINE
  5
131
  8
2
  6
CONTINUOUS
 10
-339.010127
 20
-135.667167
 30
0.0
 11
-376.846443
 21
-128.995603
 31
0.0
  0
TEXT
  5
132
  8
2
  6
CONTINUOUS
 10
-351.534424
 20
-124.475601
 30
0.0
 40
63.279999
  1
５５
 41
0.9
  7
MONOTXT
  0
ENDBLK
  5
133
  8
0
  0
BLOCK
  5
135
  8
2
  2
*D21
 70
    65
 10
0.0
 20
0.0
 30
0.0
  3
*D21
  1

  0
POINT
  5
136
  8
DEFPOINTS
 10
-1328.038941
 20
-616.924481
 30
0.0
  0
POINT
  5
137
  8
DEFPOINTS
 10
-1272.969902
 20
-364.407904
 30
0.0
  0
POINT
  5
138
  8
DEFPOINTS
 10
444.292468
 20
-128.995603
 30
0.0
  0
LINE
  5
139
  8
2
  6
CONTINUOUS
 10
-1328.038941
 20
-605.62448
 30
0.0
 11
-1328.038941
 21
-117.695603
 31
0.0
  0
LINE
  5
13A
  8
2
  6
CONTINUOUS
 10
-1272.969902
 20
-353.107904
 30
0.0
 11
-1272.969902
 21
-117.695603
 31
0.0
  0
LINE
  5
13B
  8
2
  6
CONTINUOUS
 10
-1479.91095
 20
-128.995603
 30
0.0
 11
-1216.215427
 21
-128.995603
 31
0.0
  0
LINE
  5
13C
  8
2
  6
CONTINUOUS
 10
-1365.875257
 20
-135.667167
 30
0.0
 11
-1328.038941
 21
-128.995603
 31
0.0
  0
LINE
  5
13D
  8
2
  6
CONTINUOUS
 10
-1365.875257
 20
-122.32404
 30
0.0
 11
-1328.038941
 21
-128.995603
 31
0.0
  0
LINE
  5
13E
  8
2
  6
CONTINUOUS
 10
-1235.133586
 20
-122.32404
 30
0.0
 11
-1272.969902
 21
-128.995603
 31
0.0
  0
LINE
  5
13F
  8
2
  6
CONTINUOUS
 10
-1235.133586
 20
-135.667167
 30
0.0
 11
-1272.969902
 21
-128.995603
 31
0.0
  0
TEXT
  5
140
  8
2
  6
CONTINUOUS
 10
-1454.598999
 20
-124.475601
 30
0.0
 40
63.279999
  1
５５
 41
0.9
  7
MONOTXT
  0
ENDBLK
  5
141
  8
0
  0
BLOCK
  5
143
  8
2
  2
*D22
 70
    65
 10
0.0
 20
0.0
 30
0.0
  3
*D22
  1

  0
POINT
  5
144
  8
DEFPOINTS
 10
-1146.811739
 20
-367.985501
 30
0.0
  0
POINT
  5
145
  8
DEFPOINTS
 10
-852.442692
 20
-300.712031
 30
0.0
  0
POINT
  5
146
  8
DEFPOINTS
 10
723.642685
 20
-229.346183
 30
0.0
  0
LINE
  5
147
  8
2
  6
CONTINUOUS
 10
-1146.811739
 20
-356.6855
 30
0.0
 11
-1146.811739
 21
-218.046183
 31
0.0
  0
LINE
  5
148
  8
2
  6
CONTINUOUS
 10
-852.442692
 20
-289.412031
 30
0.0
 11
-852.442692
 21
-218.046183
 31
0.0
  0
LINE
  5
149
  8
2
  6
CONTINUOUS
 10
-1146.811739
 20
-229.346183
 30
0.0
 11
-852.442692
 21
-229.346183
 31
0.0
  0
LINE
  5
14A
  8
2
  6
CONTINUOUS
 10
-1108.975423
 20
-222.674619
 30
0.0
 11
-1146.811739
 21
-229.346183
 31
0.0
  0
LINE
  5
14B
  8
2
  6
CONTINUOUS
 10
-1108.975423
 20
-236.017746
 30
0.0
 11
-1146.811739
 21
-229.346183
 31
0.0
  0
LINE
  5
14C
  8
2
  6
CONTINUOUS
 10
-890.279008
 20
-236.017746
 30
0.0
 11
-852.442692
 21
-229.346183
 31
0.0
  0
LINE
  5
14D
  8
2
  6
CONTINUOUS
 10
-890.279008
 20
-222.674619
 30
0.0
 11
-852.442692
 21
-229.346183
 31
0.0
  0
TEXT
  5
14E
  8
2
  6
CONTINUOUS
 10
-1075.563232
 20
-224.826187
 30
0.0
 40
63.279999
  1
２９５
 41
0.9
  7
MONOTXT
  0
ENDBLK
  5
14F
  8
0
  0
BLOCK
  5
151
  8
2
  2
*D23
 70
    65
 10
0.0
 20
0.0
 30
0.0
  3
*D23
  1

  0
POINT
  5
152
  8
DEFPOINTS
 10
1230.396725
 20
222.368598
 30
0.0
  0
POINT
  5
153
  8
DEFPOINTS
 10
1230.51762
 20
999.201024
 30
0.0
  0
POINT
  5
154
  8
DEFPOINTS
 10
1511.905027
 20
-387.637026
 30
0.0
  0
LINE
  5
155
  8
2
  6
CONTINUOUS
 10
1241.696725
 20
222.368598
 30
0.0
 11
1523.205028
 21
222.368598
 31
0.0
  0
LINE
  5
156
  8
2
  6
CONTINUOUS
 10
1241.81762
 20
999.201024
 30
0.0
 11
1523.205028
 21
999.201024
 31
0.0
  0
LINE
  5
157
  8
2
  6
CONTINUOUS
 10
1511.905027
 20
222.368598
 30
0.0
 11
1511.905027
 21
999.201024
 31
0.0
  0
LINE
  5
158
  8
2
  6
CONTINUOUS
 10
1505.233463
 20
260.204914
 30
0.0
 11
1511.905027
 21
222.368598
 31
0.0
  0
LINE
  5
159
  8
2
  6
CONTINUOUS
 10
1518.576589
 20
260.204914
 30
0.0
 11
1511.905027
 21
222.368598
 31
0.0
  0
LINE
  5
15A
  8
2
  6
CONTINUOUS
 10
1518.576592
 20
961.364709
 30
0.0
 11
1511.905027
 21
999.201024
 31
0.0
  0
LINE
  5
15B
  8
2
  6
CONTINUOUS
 10
1505.233466
 20
961.364708
 30
0.0
 11
1511.905027
 21
999.201024
 31
0.0
  0
TEXT
  5
15C
  8
2
  6
CONTINUOUS
 10
1507.38501
 20
382.976807
 30
0.0
 40
63.279999
  1
７８０（吊り位置）
 50
90.000003
 41
0.9
  7
MONOTXT
  0
ENDBLK
  5
15D
  8
0
  0
BLOCK
  5
15F
  8
2
  2
*D24
 70
    65
 10
0.0
 20
0.0
 30
0.0
  3
*D24
  1

  0
POINT
  5
160
  8
DEFPOINTS
 10
1289.201191
 20
172.794969
 30
0.0
  0
POINT
  5
161
  8
DEFPOINTS
 10
1289.201191
 20
1048.893323
 30
0.0
  0
POINT
  5
162
  8
DEFPOINTS
 10
1616.229106
 20
-380.628239
 30
0.0
  0
LINE
  5
163
  8
2
  6
CONTINUOUS
 10
1300.501191
 20
172.794969
 30
0.0
 11
1627.529107
 21
172.794969
 31
0.0
  0
LINE
  5
164
  8
2
  6
CONTINUOUS
 10
1300.501191
 20
1048.893323
 30
0.0
 11
1627.529107
 21
1048.893323
 31
0.0
  0
LINE
  5
165
  8
2
  6
CONTINUOUS
 10
1616.229106
 20
172.794969
 30
0.0
 11
1616.229106
 21
1048.893323
 31
0.0
  0
LINE
  5
166
  8
2
  6
CONTINUOUS
 10
1609.557541
 20
210.631285
 30
0.0
 11
1616.229106
 21
172.794969
 31
0.0
  0
LINE
  5
167
  8
2
  6
CONTINUOUS
 10
1622.900668
 20
210.631285
 30
0.0
 11
1616.229106
 21
172.794969
 31
0.0
  0
LINE
  5
168
  8
2
  6
CONTINUOUS
 10
1622.900671
 20
1011.057007
 30
0.0
 11
1616.229106
 21
1048.893323
 31
0.0
  0
LINE
  5
169
  8
2
  6
CONTINUOUS
 10
1609.557545
 20
1011.057007
 30
0.0
 11
1616.229106
 21
1048.893323
 31
0.0
  0
TEXT
  5
16A
  8
2
  6
CONTINUOUS
 10
1611.709106
 20
256.476166
 30
0.0
 40
63.279999
  1
８６０～８９０（天井開口部）
 50
90.000003
 41
0.9
  7
MONOTXT
  0
ENDBLK
  5
16B
  8
0
  0
BLOCK
  5
16D
  8
2
  2
*D25
 70
    65
 10
0.0
 20
0.0
 30
0.0
  3
*D25
  1

  0
POINT
  5
16E
  8
DEFPOINTS
 10
-1341.683342
 20
1076.427842
 30
0.0
  0
POINT
  5
16F
  8
DEFPOINTS
 10
-390.490844
 20
1076.427842
 30
0.0
  0
POINT
  5
170
  8
DEFPOINTS
 10
511.836619
 20
1230.629964
 30
0.0
  0
LINE
  5
171
  8
2
  6
CONTINUOUS
 10
-1341.683342
 20
1087.727842
 30
0.0
 11
-1341.683342
 21
1241.929964
 31
0.0
  0
LINE
  5
172
  8
2
  6
CONTINUOUS
 10
-390.490844
 20
1087.727842
 30
0.0
 11
-390.490844
 21
1241.929964
 31
0.0
  0
LINE
  5
173
  8
2
  6
CONTINUOUS
 10
-1341.683342
 20
1230.629964
 30
0.0
 11
-390.490844
 21
1230.629964
 31
0.0
  0
LINE
  5
174
  8
2
  6
CONTINUOUS
 10
-1303.847026
 20
1237.301527
 30
0.0
 11
-1341.683342
 21
1230.629964
 31
0.0
  0
LINE
  5
175
  8
2
  6
CONTINUOUS
 10
-1303.847026
 20
1223.958401
 30
0.0
 11
-1341.683342
 21
1230.629964
 31
0.0
  0
LINE
  5
176
  8
2
  6
CONTINUOUS
 10
-428.32716
 20
1223.958401
 30
0.0
 11
-390.490844
 21
1230.629964
 31
0.0
  0
LINE
  5
177
  8
2
  6
CONTINUOUS
 10
-428.32716
 20
1237.301527
 30
0.0
 11
-390.490844
 21
1230.629964
 31
0.0
  0
TEXT
  5
178
  8
2
  6
CONTINUOUS
 10
-942.023071
 20
1235.150024
 30
0.0
 40
63.279999
  1
９５０
 41
0.9
  7
MONOTXT
  0
ENDBLK
  5
179
  8
0
  0
BLOCK
  5
17B
  8
2
  2
*D26
 70
    65
 10
0.0
 20
0.0
 30
0.0
  3
*D26
  1

  0
POINT
  5
17C
  8
DEFPOINTS
 10
617.009
 20
-518.816528
 30
0.0
  0
POINT
  5
17D
  8
DEFPOINTS
 10
617.009
 20
-413.684726
 30
0.0
  0
POINT
  5
17E
  8
DEFPOINTS
 10
329.565082
 20
-399.685026
 30
0.0
  0
LINE
  5
17F
  8
2
  6
CONTINUOUS
 10
605.709
 20
-518.816528
 30
0.0
 11
318.265082
 21
-518.816528
 31
0.0
  0
LINE
  5
180
  8
2
  6
CONTINUOUS
 10
605.709
 20
-413.684726
 30
0.0
 11
318.265082
 21
-413.684726
 31
0.0
  0
LINE
  5
181
  8
2
  6
CONTINUOUS
 10
329.565082
 20
-575.571003
 30
0.0
 11
329.565082
 21
-211.188723
 31
0.0
  0
LINE
  5
182
  8
2
  6
CONTINUOUS
 10
336.236647
 20
-556.652844
 30
0.0
 11
329.565082
 21
-518.816528
 31
0.0
  0
LINE
  5
183
  8
2
  6
CONTINUOUS
 10
322.89352
 20
-556.652844
 30
0.0
 11
329.565082
 21
-518.816528
 31
0.0
  0
LINE
  5
184
  8
2
  6
CONTINUOUS
 10
322.893517
 20
-375.84841
 30
0.0
 11
329.565082
 21
-413.684726
 31
0.0
  0
LINE
  5
185
  8
2
  6
CONTINUOUS
 10
336.236643
 20
-375.84841
 30
0.0
 11
329.565082
 21
-413.684726
 31
0.0
  0
TEXT
  5
186
  8
2
  6
CONTINUOUS
 10
325.045074
 20
-388.372711
 30
0.0
 40
63.279999
  1
１０５
 50
90.000003
 41
0.9
  7
MONOTXT
  0
ENDBLK
  5
187
  8
0
  0
BLOCK
  5
189
  8
2
  2
*D27
 70
    65
 10
0.0
 20
0.0
 30
0.0
  3
*D27
  1

  0
POINT
  5
18A
  8
DEFPOINTS
 10
389.599844
 20
-616.92448
 30
0.0
  0
POINT
  5
18B
  8
DEFPOINTS
 10
603.556974
 20
-466.250627
 30
0.0
  0
POINT
  5
18C
  8
DEFPOINTS
 10
239.633042
 20
-370.778299
 30
0.0
  0
LINE
  5
18D
  8
2
  6
CONTINUOUS
 10
378.299844
 20
-616.92448
 30
0.0
 11
228.333042
 21
-616.92448
 31
0.0
  0
LINE
  5
18E
  8
2
  6
CONTINUOUS
 10
592.256974
 20
-466.250627
 30
0.0
 11
228.333042
 21
-466.250627
 31
0.0
  0
LINE
  5
18F
  8
2
  6
CONTINUOUS
 10
239.633042
 20
-673.678955
 30
0.0
 11
239.633042
 21
-263.754625
 31
0.0
  0
LINE
  5
190
  8
2
  6
CONTINUOUS
 10
246.304607
 20
-654.760796
 30
0.0
 11
239.633042
 21
-616.92448
 31
0.0
  0
LINE
  5
191
  8
2
  6
CONTINUOUS
 10
232.96148
 20
-654.760796
 30
0.0
 11
239.633042
 21
-616.92448
 31
0.0
  0
LINE
  5
192
  8
2
  6
CONTINUOUS
 10
232.961477
 20
-428.414311
 30
0.0
 11
239.633042
 21
-466.250627
 31
0.0
  0
LINE
  5
193
  8
2
  6
CONTINUOUS
 10
246.304604
 20
-428.414311
 30
0.0
 11
239.633042
 21
-466.250627
 31
0.0
  0
TEXT
  5
194
  8
2
  6
CONTINUOUS
 10
235.113037
 20
-440.938629
 30
0.0
 40
63.279999
  1
１５０
 50
90.000003
 41
0.9
  7
MONOTXT
  0
ENDBLK
  5
195
  8
0
  0
BLOCK
  5
197
  8
2
  2
*D28
 70
    65
 10
0.0
 20
0.0
 30
0.0
  3
*D28
  1

  0
POINT
  5
198
  8
DEFPOINTS
 10
1338.752063
 20
-616.924481
 30
0.0
  0
POINT
  5
199
  8
DEFPOINTS
 10
1236.517015
 20
-460.127907
 30
0.0
  0
POINT
  5
19A
  8
DEFPOINTS
 10
1555.805423
 20
-545.244905
 30
0.0
  0
LINE
  5
19B
  8
2
  6
CONTINUOUS
 10
1350.052063
 20
-616.924481
 30
0.0
 11
1567.105424
 21
-616.924481
 31
0.0
  0
LINE
  5
19C
  8
2
  6
CONTINUOUS
 10
1247.817015
 20
-460.127907
 30
0.0
 11
1567.105424
 21
-460.127907
 31
0.0
  0
LINE
  5
19D
  8
2
  6
CONTINUOUS
 10
1555.805423
 20
-616.924481
 30
0.0
 11
1555.805423
 21
-460.127907
 31
0.0
  0
LINE
  5
19E
  8
2
  6
CONTINUOUS
 10
1549.133858
 20
-579.088165
 30
0.0
 11
1555.805423
 21
-616.924481
 31
0.0
  0
LINE
  5
19F
  8
2
  6
CONTINUOUS
 10
1562.476985
 20
-579.088165
 30
0.0
 11
1555.805423
 21
-616.924481
 31
0.0
  0
LINE
  5
1A0
  8
2
  6
CONTINUOUS
 10
1562.476988
 20
-497.964222
 30
0.0
 11
1555.805423
 21
-460.127907
 31
0.0
  0
LINE
  5
1A1
  8
2
  6
CONTINUOUS
 10
1549.133862
 20
-497.964223
 30
0.0
 11
1555.805423
 21
-460.127907
 31
0.0
  0
TEXT
  5
1A2
  8
2
  6
CONTINUOUS
 10
1551.2854
 20
-614.462219
 30
0.0
 40
63.279999
  1
１５５
 50
90.000003
 41
0.9
  7
MONOTXT
  0
ENDBLK
  5
1A3
  8
0
  0
BLOCK
  5
1A5
  8
2
  2
*D29
 70
    65
 10
0.0
 20
0.0
 30
0.0
  3
*D29
  1

  0
POINT
  5
1A6
  8
DEFPOINTS
 10
-376.846443
 20
-616.924481
 30
0.0
  0
POINT
  5
1A7
  8
DEFPOINTS
 10
-514.681675
 20
-456.924481
 30
0.0
  0
POINT
  5
1A8
  8
DEFPOINTS
 10
-154.929889
 20
-525.562102
 30
0.0
  0
LINE
  5
1A9
  8
2
  6
CONTINUOUS
 10
-365.546443
 20
-616.924481
 30
0.0
 11
-143.629889
 21
-616.924481
 31
0.0
  0
LINE
  5
1AA
  8
2
  6
CONTINUOUS
 10
-503.381675
 20
-456.924481
 30
0.0
 11
-143.629889
 21
-456.924481
 31
0.0
  0
LINE
  5
1AB
  8
2
  6
CONTINUOUS
 10
-154.929889
 20
-616.924481
 30
0.0
 11
-154.929889
 21
-456.924481
 31
0.0
  0
LINE
  5
1AC
  8
2
  6
CONTINUOUS
 10
-161.601454
 20
-579.088165
 30
0.0
 11
-154.929889
 21
-616.924481
 31
0.0
  0
LINE
  5
1AD
  8
2
  6
CONTINUOUS
 10
-148.258327
 20
-579.088164
 30
0.0
 11
-154.929889
 21
-616.924481
 31
0.0
  0
LINE
  5
1AE
  8
2
  6
CONTINUOUS
 10
-148.258324
 20
-494.760796
 30
0.0
 11
-154.929889
 21
-456.924481
 31
0.0
  0
LINE
  5
1AF
  8
2
  6
CONTINUOUS
 10
-161.601451
 20
-494.760797
 30
0.0
 11
-154.929889
 21
-456.924481
 31
0.0
  0
TEXT
  5
1B0
  8
2
  6
CONTINUOUS
 10
-159.44989
 20
-612.860474
 30
0.0
 40
63.279999
  1
１６０
 50
90.000003
 41
0.9
  7
MONOTXT
  0
ENDBLK
  5
1B1
  8
0
  0
BLOCK
  5
1B3
  8
2
  2
*D30
 70
    65
 10
0.0
 20
0.0
 30
0.0
  3
*D30
  1

  0
POINT
  5
1B4
  8
DEFPOINTS
 10
-376.846443
 20
-616.924481
 30
0.0
  0
POINT
  5
1B5
  8
DEFPOINTS
 10
-572.373154
 20
-481.924481
 30
0.0
  0
POINT
  5
1B6
  8
DEFPOINTS
 10
-245.921201
 20
-543.244201
 30
0.0
  0
LINE
  5
1B7
  8
2
  6
CONTINUOUS
 10
-365.546443
 20
-616.924481
 30
0.0
 11
-234.621201
 21
-616.924481
 31
0.0
  0
LINE
  5
1B8
  8
2
  6
CONTINUOUS
 10
-561.073154
 20
-481.924481
 30
0.0
 11
-234.621201
 21
-481.924481
 31
0.0
  0
LINE
  5
1B9
  8
2
  6
CONTINUOUS
 10
-245.921201
 20
-819.420483
 30
0.0
 11
-245.921201
 21
-425.170006
 31
0.0
  0
LINE
  5
1BA
  8
2
  6
CONTINUOUS
 10
-239.249636
 20
-654.760796
 30
0.0
 11
-245.921201
 21
-616.924481
 31
0.0
  0
LINE
  5
1BB
  8
2
  6
CONTINUOUS
 10
-252.592763
 20
-654.760797
 30
0.0
 11
-245.921201
 21
-616.924481
 31
0.0
  0
LINE
  5
1BC
  8
2
  6
CONTINUOUS
 10
-252.592766
 20
-444.088165
 30
0.0
 11
-245.921201
 21
-481.924481
 31
0.0
  0
LINE
  5
1BD
  8
2
  6
CONTINUOUS
 10
-239.249639
 20
-444.088164
 30
0.0
 11
-245.921201
 21
-481.924481
 31
0.0
  0
TEXT
  5
1BE
  8
2
  6
CONTINUOUS
 10
-250.441193
 20
-794.108459
 30
0.0
 40
63.279999
  1
１３５
 50
90.000003
 41
0.9
  7
MONOTXT
  0
ENDBLK
  5
1BF
  8
0
  0
BLOCK
  5
1C1
  8
2
  2
*D31
 70
    65
 10
0.0
 20
0.0
 30
0.0
  3
*D31
  1

  0
POINT
  5
1C2
  8
DEFPOINTS
 10
-852.442692
 20
-692.943706
 30
0.0
  0
POINT
  5
1C3
  8
DEFPOINTS
 10
-594.118841
 20
-503.670168
 30
0.0
  0
POINT
  5
1C4
  8
DEFPOINTS
 10
657.559838
 20
-743.013911
 30
0.0
  0
LINE
  5
1C5
  8
2
  6
CONTINUOUS
 10
-852.442692
 20
-704.243707
 30
0.0
 11
-852.442692
 21
-754.313911
 31
0.0
  0
LINE
  5
1C6
  8
2
  6
CONTINUOUS
 10
-594.118841
 20
-514.970168
 30
0.0
 11
-594.118841
 21
-754.313911
 31
0.0
  0
LINE
  5
1C7
  8
2
  6
CONTINUOUS
 10
-852.442692
 20
-743.013911
 30
0.0
 11
-594.118841
 21
-743.013911
 31
0.0
  0
LINE
  5
1C8
  8
2
  6
CONTINUOUS
 10
-814.606376
 20
-736.342348
 30
0.0
 11
-852.442692
 21
-743.013911
 31
0.0
  0
LINE
  5
1C9
  8
2
  6
CONTINUOUS
 10
-814.606376
 20
-749.685474
 30
0.0
 11
-852.442692
 21
-743.013911
 31
0.0
  0
LINE
  5
1CA
  8
2
  6
CONTINUOUS
 10
-631.955157
 20
-749.685474
 30
0.0
 11
-594.118841
 21
-743.013911
 31
0.0
  0
LINE
  5
1CB
  8
2
  6
CONTINUOUS
 10
-631.955157
 20
-736.342348
 30
0.0
 11
-594.118841
 21
-743.013911
 31
0.0
  0
TEXT
  5
1CC
  8
2
  6
CONTINUOUS
 10
-799.216736
 20
-738.493896
 30
0.0
 40
63.279999
  1
２６０
 41
0.9
  7
MONOTXT
  0
ENDBLK
  5
1CD
  8
0
  0
ENDSEC
  0
SECTION
  2
ENTITIES
  0
DIMENSION
  5
1CE
  8
2
  6
CONTINUOUS
 62
     7
  2
*D2
 10
-220.614495
 20
750.649351
 30
0.0
 11
-256.774494
 21
610.844139
 31
0.0
  1
９５０
 13
-400.503397
 23
135.247897
 33
0.0
 14
-400.503397
 24
1086.440395
 34
0.0
 50
90.000003
  0
DIMENSION
  5
1CF
  8
2
  6
CONTINUOUS
 62
     7
  2
*D3
 10
-70.505695
 20
-512.898473
 30
0.0
 11
-106.665691
 21
-486.761268
 31
0.0
  1
２６０
 13
-376.846443
 23
-616.924481
 33
0.0
 14
-439.725273
 24
-356.598113
 34
0.0
 50
90.000003
  0
DIMENSION
  5
1D0
  8
2
  6
CONTINUOUS
 62
     7
  2
*D4
 10
-1656.483296
 20
-633.751729
 30
0.0
 11
-1692.643298
 21
-719.894374
 31
0.0
  1
５０
 13
-1198.516712
 23
-643.958373
 33
0.0
 14
-1271.468019
 24
-594.095861
 34
0.0
 50
90.000003
  0
DIMENSION
  5
1D1
  8
2
  6
CONTINUOUS
 62
     7
  2
*D5
 10
-1480.380662
 20
-506.578986
 30
0.0
 11
-1516.540637
 21
-506.886513
 31
0.0
  1
２２０
 13
-1328.038941
 23
-616.924481
 33
0.0
 14
-1171.339153
 24
-396.848574
 34
0.0
 50
90.000003
  0
DIMENSION
  5
1D2
  8
2
  6
CONTINUOUS
 62
     7
  2
*D6
 10
-1656.483296
 20
-517.908975
 30
0.0
 11
-1692.643299
 21
-475.346962
 31
0.0
  1
２４０
 13
-1271.468019
 23
-594.095861
 33
0.0
 14
-1265.160111
 24
-356.598113
 34
0.0
 50
90.000003
  0
DIMENSION
  5
1D3
  8
2
  6
CONTINUOUS
 62
     7
  2
*D7
 10
-1566.374882
 20
-605.618489
 30
0.0
 11
-1602.534899
 21
-518.159877
 31
0.0
  1
２０
 13
-1328.038941
 23
-616.924481
 33
0.0
 14
-1248.686053
 24
-594.09586
 34
0.0
 50
90.000003
  0
DIMENSION
  5
1D4
  8
2
  6
CONTINUOUS
 62
     7
  2
*D8
 10
-1566.374882
 20
-696.637795
 30
0.0
 11
-1602.534899
 21
-719.894374
 31
0.0
  1
３０
 13
-1198.516712
 23
-643.958373
 33
0.0
 14
-1328.038941
 24
-616.924481
 34
0.0
 50
90.000003
  0
DIMENSION
  5
1D5
  8
2
  6
CONTINUOUS
 62
     7
  2
*D9
 10
675.499192
 20
1135.566299
 30
0.0
 11
640.48092
 21
1171.726303
 31
0.0
  1
４２０
 13
429.80986
 23
926.341399
 33
0.0
 14
851.152014
 24
1116.97183
 34
0.0
  0
DIMENSION
  5
1D6
  8
2
  6
CONTINUOUS
 62
     7
  2
*D10
 10
789.040863
 20
1325.714358
 30
0.0
 11
851.15202
 21
1361.874374
 31
0.0
  1
８６０～８９０（天井開口部）
 13
413.102837
 23
1048.893323
 33
0.0
 14
1289.201191
 24
1048.893323
 34
0.0
  0
DIMENSION
  5
1D7
  8
2
  6
CONTINUOUS
 62
     7
  2
*D11
 10
872.239708
 20
1230.629964
 30
0.0
 11
851.15199
 21
1266.790024
 31
0.0
  1
６８０（吊り位置）
 13
511.836619
 23
1039.251235
 33
0.0
 14
1190.467409
 24
1039.251235
 34
0.0
  0
DIMENSION
  5
1D8
  8
2
  6
CONTINUOUS
 62
     7
  2
*D12
 10
603.871171
 20
17.887788
 30
0.0
 11
640.888391
 21
54.047787
 31
0.0
  1
４２０
 13
430.624804
 23
285.93681
 33
0.0
 14
851.152014
 24
102.85809
 34
0.0
  0
DIMENSION
  5
1D9
  8
2
  6
CONTINUOUS
 62
     7
  2
*D13
 10
846.646743
 20
-128.995603
 30
0.0
 11
864.819666
 21
-92.835602
 31
0.0
  1
８４０
 13
444.292468
 23
-364.407904
 33
0.0
 14
1285.346887
 24
-364.407904
 34
0.0
  0
DIMENSION
  5
1DA
  8
2
  6
CONTINUOUS
 62
     7
  2
*D14
 10
407.704255
 20
-128.995603
 30
0.0
 11
313.287421
 21
-92.835602
 31
0.0
  1
５５
 13
389.223428
 23
-616.924481
 33
0.0
 14
444.292468
 24
-364.407904
 34
0.0
  0
DIMENSION
  5
1DB
  8
2
  6
CONTINUOUS
 62
     7
  2
*D15
 10
1299.095154
 20
-128.995603
 30
0.0
 11
1416.351904
 21
-92.835602
 31
0.0
  1
５５
 13
1285.346887
 23
-364.407904
 33
0.0
 14
1340.415926
 24
-616.924481
 34
0.0
  0
DIMENSION
  5
1DC
  8
2
  6
CONTINUOUS
 62
     7
  2
*D16
 10
657.559838
 20
-743.013911
 30
0.0
 11
-973.317908
 21
-706.853897
 31
0.0
  1
２４０
 13
-1094.19308
 23
-589.089584
 33
0.0
 14
-852.442692
 24
-692.943706
 34
0.0
  0
DIMENSION
  5
1DD
  8
2
  6
CONTINUOUS
 62
     7
  2
*D17
 10
730.651472
 20
-836.116865
 30
0.0
 11
-717.200964
 21
-799.956863
 31
0.0
  1
２７０
 13
-852.442692
 23
-692.943706
 33
0.0
 14
-581.959186
 24
-590.790675
 34
0.0
  0
DIMENSION
  5
1DE
  8
2
  6
CONTINUOUS
 62
     7
  2
*D18
 10
615.00649
 20
-937.520072
 30
0.0
 11
-695.996558
 21
-901.360062
 31
0.0
  1
３１５
 13
-852.442692
 23
-692.943706
 33
0.0
 14
-539.550418
 24
-514.796461
 34
0.0
  0
DIMENSION
  5
1DF
  8
2
  6
CONTINUOUS
 62
     7
  2
*D19
 10
444.292468
 20
-128.995603
 30
0.0
 11
-852.442664
 21
-92.835602
 31
0.0
  1
８４０
 13
-1272.969902
 23
-364.407904
 33
0.0
 14
-431.915482
 24
-364.407904
 34
0.0
  0
DIMENSION
  5
1E0
  8
2
  6
CONTINUOUS
 62
     7
  2
*D20
 10
444.292468
 20
-128.995603
 30
0.0
 11
-300.910425
 21
-92.835602
 31
0.0
  1
５５
 13
-431.915482
 23
-364.407904
 33
0.0
 14
-376.846443
 24
-616.924481
 34
0.0
  0
DIMENSION
  5
1E1
  8
2
  6
CONTINUOUS
 62
     7
  2
*D21
 10
444.292468
 20
-128.995603
 30
0.0
 11
-1403.975
 21
-92.835602
 31
0.0
  1
５５
 13
-1328.038941
 23
-616.924481
 33
0.0
 14
-1272.969902
 24
-364.407904
 34
0.0
  0
DIMENSION
  5
1E2
  8
2
  6
CONTINUOUS
 62
     7
  2
*D22
 10
723.642685
 20
-229.346183
 30
0.0
 11
-999.627234
 21
-193.186188
 31
0.0
  1
２９５
 13
-1146.811739
 23
-367.985501
 33
0.0
 14
-852.442692
 24
-300.712031
 34
0.0
  0
DIMENSION
  5
1E3
  8
2
  6
CONTINUOUS
 62
     7
  2
*D23
 10
1511.905027
 20
-387.637026
 30
0.0
 11
1475.745
 21
610.784801
 31
0.0
  1
７８０（吊り位置）
 13
1230.396725
 23
222.368598
 33
0.0
 14
1230.51762
 24
999.201024
 34
0.0
 50
90.000003
  0
DIMENSION
  5
1E4
  8
2
  6
CONTINUOUS
 62
     7
  2
*D24
 10
1616.229106
 20
-380.628239
 30
0.0
 11
1580.069092
 21
610.844158
 31
0.0
  1
８６０～８９０（天井開口部）
 13
1289.201191
 23
172.794969
 33
0.0
 14
1289.201191
 24
1048.893323
 34
0.0
 50
90.000003
  0
DIMENSION
  5
1E5
  8
2
  6
CONTINUOUS
 62
     7
  2
*D25
 10
511.836619
 20
1230.629964
 30
0.0
 11
-866.087073
 21
1266.790024
 31
0.0
  1
９５０
 13
-1341.683342
 23
1076.427842
 33
0.0
 14
-390.490844
 24
1076.427842
 34
0.0
  0
DIMENSION
  5
1E6
  8
2
  6
CONTINUOUS
 62
     7
  2
*D26
 10
329.565082
 20
-399.685026
 30
0.0
 11
293.405072
 21
-312.436714
 31
0.0
  1
１０５
 13
617.009
 23
-518.816528
 33
0.0
 14
617.009
 24
-413.684726
 34
0.0
 50
90.000003
  0
DIMENSION
  5
1E7
  8
2
  6
CONTINUOUS
 62
     7
  2
*D27
 10
239.633042
 20
-370.778299
 30
0.0
 11
203.473034
 21
-365.002632
 31
0.0
  1
１５０
 13
389.599844
 23
-616.92448
 33
0.0
 14
603.556974
 24
-466.250627
 34
0.0
 50
90.000003
  0
DIMENSION
  5
1E8
  8
2
  6
CONTINUOUS
 62
     7
  2
*D28
 10
1555.805423
 20
-545.244905
 30
0.0
 11
1519.645398
 21
-538.526222
 31
0.0
  1
１５５
 13
1338.752063
 23
-616.924481
 33
0.0
 14
1236.517015
 24
-460.127907
 34
0.0
 50
90.000003
  0
DIMENSION
  5
1E9
  8
2
  6
CONTINUOUS
 62
     7
  2
*D29
 10
-154.929889
 20
-525.562102
 30
0.0
 11
-191.089893
 21
-536.924476
 31
0.0
  1
１６０
 13
-376.846443
 23
-616.924481
 33
0.0
 14
-514.681675
 24
-456.924481
 34
0.0
 50
90.000003
  0
DIMENSION
  5
1EA
  8
2
  6
CONTINUOUS
 62
     7
  2
*D30
 10
-245.921201
 20
-543.244201
 30
0.0
 11
-282.081195
 21
-718.172462
 31
0.0
  1
１３５
 13
-376.846443
 23
-616.924481
 33
0.0
 14
-572.373154
 24
-481.924481
 34
0.0
 50
90.000003
  0
DIMENSION
  5
1EB
  8
2
  6
CONTINUOUS
 62
     7
  2
*D31
 10
657.559838
 20
-743.013911
 30
0.0
 11
-723.280737
 21
-706.853897
 31
0.0
  1
２６０
 13
-852.442692
 23
-692.943706
 33
0.0
 14
-594.118841
 24
-503.670168
 34
0.0
  0
LINE
  5
1EC
  8
1
 10
1340.03951
 20
-616.924481
 30
0.0
 11
389.599844
 21
-616.92448
 31
0.0
  0
LINE
  5
1ED
  8
1
 10
464.865316
 20
-484.11919
 30
0.0
 11
464.865316
 21
-469.378278
 31
0.0
  0
LINE
  5
1EE
  8
1
 10
472.875358
 20
-484.11919
 30
0.0
 11
472.875358
 21
-469.378278
 31
0.0
  0
LINE
  5
1EF
  8
1
 10
463.864061
 20
-484.696198
 30
0.0
 11
463.864061
 21
-468.80127
 31
0.0
  0
LINE
  5
1F0
  8
1
 10
464.865316
 20
-469.990261
 30
0.0
 11
462.315063
 21
-469.990261
 31
0.0
  0
LINE
  5
1F1
  8
1
 10
464.865316
 20
-483.507207
 30
0.0
 11
462.315063
 21
-483.507207
 31
0.0
  0
LINE
  5
1F2
  8
1
 10
471.456913
 20
-466.921459
 30
0.0
 11
468.137326
 21
-466.921459
 31
0.0
  0
LINE
  5
1F3
  8
1
 10
471.456913
 20
-486.576009
 30
0.0
 11
466.283761
 21
-486.576009
 31
0.0
  0
LINE
  5
1F4
  8
1
 10
463.864061
 20
-468.80127
 30
0.0
 11
462.315063
 21
-468.80127
 31
0.0
  0
LINE
  5
1F5
  8
1
 10
463.864061
 20
-484.696198
 30
0.0
 11
462.315063
 21
-484.696198
 31
0.0
  0
LINE
  5
1F6
  8
1
 10
464.865316
 20
-469.378278
 30
0.0
 11
466.050553
 21
-467.325387
 31
0.0
  0
LINE
  5
1F7
  8
1
 10
472.875358
 20
-469.378278
 30
0.0
 11
471.456913
 21
-466.921459
 31
0.0
  0
LINE
  5
1F8
  8
1
 10
464.865316
 20
-484.11919
 30
0.0
 11
466.283761
 21
-486.576009
 31
0.0
  0
LINE
  5
1F9
  8
1
 10
472.875358
 20
-484.11919
 30
0.0
 11
471.456913
 21
-486.576009
 31
0.0
  0
LINE
  5
1FA
  8
1
 10
444.292467
 20
-469.239323
 30
0.0
 11
444.292468
 21
-484.258147
 31
0.0
  0
LINE
  5
1FB
  8
1
 10
462.315063
 20
-467.325387
 30
0.0
 11
462.315063
 21
-487.261914
 31
0.0
  0
LINE
  5
1FC
  8
1
 10
462.315063
 20
-487.261914
 30
0.0
 11
460.110593
 21
-489.466384
 31
0.0
  0
ARC
  5
1FD
  8
1
 10
442.789257
 20
-494.157217
 30
0.0
 40
10.012553
 50
27.936665
 51
81.365386
  0
ARC
  5
1FE
  8
1
 10
442.789257
 20
-459.340251
 30
0.0
 40
10.012553
 50
278.634614
 51
321.628192
  0
LINE
  5
1FF
  8
1
 10
460.110593
 20
-489.466384
 30
0.0
 11
451.635006
 21
-489.466384
 31
0.0
  0
LINE
  5
200
  8
1
 10
485.691425
 20
-462.122712
 30
0.0
 11
485.691425
 21
-441.312013
 31
0.0
  0
LINE
  5
201
  8
1
 10
471.673852
 20
-462.843812
 30
0.0
 11
471.673852
 21
-440.590913
 31
0.0
  0
LINE
  5
202
  8
1
 10
474.677617
 20
-462.122712
 30
0.0
 11
474.677617
 21
-441.312013
 31
0.0
  0
LINE
  5
203
  8
1
 10
483.688915
 20
-465.591162
 30
0.0
 11
476.680128
 21
-465.591162
 31
0.0
  0
LINE
  5
204
  8
1
 10
474.677617
 20
-461.229287
 30
0.0
 11
470.325104
 21
-461.229287
 31
0.0
  0
LINE
  5
205
  8
1
 10
488.695191
 20
-462.831296
 30
0.0
 11
485.282324
 21
-462.831296
 31
0.0
  0
LINE
  5
206
  8
1
 10
471.673852
 20
-462.843812
 30
0.0
 11
470.325104
 21
-462.843812
 31
0.0
  0
LINE
  5
207
  8
1
 10
474.677617
 20
-462.122712
 30
0.0
 11
476.680128
 21
-465.591162
 31
0.0
  0
LINE
  5
208
  8
1
 10
485.691425
 20
-462.122712
 30
0.0
 11
483.688915
 21
-465.591162
 31
0.0
  0
LINE
  5
209
  8
1
 10
444.292468
 20
-463.732426
 30
0.0
 11
444.292468
 21
-439.702301
 31
0.0
  0
LINE
  5
20A
  8
1
 10
470.325104
 20
-464.733681
 30
0.0
 11
470.325104
 21
-438.701044
 31
0.0
  0
LINE
  5
20B
  8
1
 10
470.325104
 20
-464.733681
 30
0.0
 11
467.733398
 21
-467.325387
 31
0.0
  0
ARC
  5
20C
  8
1
 10
444.855845
 20
-473.729116
 30
0.0
 40
10.012553
 50
39.759754
 51
93.225574
  0
LINE
  5
20D
  8
1
 10
452.552823
 20
-467.325387
 30
0.0
 11
467.733398
 21
-467.325387
 31
0.0
  0
LINE
  5
20E
  8
1
 10
488.695191
 20
-462.831296
 30
0.0
 11
488.695191
 21
-440.603429
 31
0.0
  0
LINE
  5
20F
  8
1
 10
488.695191
 20
-459.677342
 30
0.0
 11
546.643968
 21
-459.677342
 31
0.0
  0
LINE
  5
210
  8
1
 10
1109.125961
 20
-593.89561
 30
0.0
 11
588.473225
 21
-593.89561
 31
0.0
  0
LINE
  5
211
  8
1
  6
DIVIDE
 10
730.651472
 20
-492.768828
 30
0.0
 11
1077.085793
 21
-492.768828
 31
0.0
  0
LINE
  5
212
  8
1
  6
DIVIDE
 10
615.00649
 20
-518.816528
 30
0.0
 11
700.113187
 21
-518.816528
 31
0.0
  0
LINE
  5
213
  8
1
  6
DIVIDE
 10
700.113187
 20
-518.816528
 30
0.0
 11
700.113187
 21
-413.684726
 31
0.0
  0
LINE
  5
214
  8
1
  6
DIVIDE
 10
615.00649
 20
-518.816528
 30
0.0
 11
615.00649
 21
-413.684726
 31
0.0
  0
ARC
  5
215
  8
1
 10
518.745657
 20
-443.70732
 30
0.0
 40
200.251052
 50
269.323938
 51
270.0
  0
LINE
  5
216
  8
1
 10
450.299999
 20
-616.924481
 30
0.0
 11
448.297489
 21
-616.924481
 31
0.0
  0
ARC
  5
217
  8
1
 10
606.376053
 20
352.489048
 30
0.0
 40
999.753378
 50
260.529201
 51
260.727969
  0
LINE
  5
218
  8
1
 10
441.288702
 20
-634.471163
 30
0.0
 11
441.288702
 21
-634.131085
 31
0.0
  0
LINE
  5
219
  8
1
 10
400.237236
 20
-616.924481
 30
0.0
 11
391.225939
 21
-616.924481
 31
0.0
  0
LINE
  5
21A
  8
1
 10
445.293723
 20
-634.709291
 30
0.0
 11
445.293723
 21
-634.202039
 31
0.0
  0
LINE
  5
21B
  8
1
 10
518.745657
 20
-643.958373
 30
0.0
 11
1210.893698
 21
-643.958373
 31
0.0
  0
ARC
  5
21C
  8
1
 10
1210.893698
 20
-443.70732
 30
0.0
 40
200.251052
 50
270.0
 51
270.676062
  0
ARC
  5
21D
  8
1
 10
606.376053
 20
352.489048
 30
0.0
 40
1000.254006
 50
260.732651
 51
263.719232
  0
ARC
  5
21E
  8
1
 10
518.745657
 20
-443.70732
 30
0.0
 40
199.249797
 50
263.719232
 51
269.32054
  0
LINE
  5
21F
  8
1
 10
516.382846
 20
-643.944432
 30
0.0
 11
516.382846
 21
-642.943107
 31
0.0
  0
ARC
  5
220
  8
1
 10
441.78933
 20
-634.131085
 30
0.0
 40
0.500628
 50
80.529201
 51
180.0
  0
ARC
  5
221
  8
1
 10
440.788074
 20
-634.471163
 30
0.0
 40
0.500628
 50
260.475861
 51
0.0
  0
LINE
  5
222
  8
1
 10
389.223428
 20
-621.810688
 30
0.0
 11
389.223428
 21
-616.924481
 31
0.0
  0
LINE
  5
223
  8
1
 10
389.223428
 20
-621.810688
 30
0.0
 11
393.228449
 21
-625.815709
 31
0.0
  0
ARC
  5
224
  8
1
 10
606.376053
 20
352.489048
 30
0.0
 40
1001.255261
 50
257.708796
 51
260.475861
  0
LINE
  5
225
  8
1
 10
1213.256508
 20
-643.944432
 30
0.0
 11
1213.256508
 21
-642.943107
 31
0.0
  0
LINE
  5
226
  8
1
 10
529.399165
 20
-600.904396
 30
0.0
 11
548.374762
 21
-600.904396
 31
0.0
  0
LINE
  5
227
  8
1
 10
1279.339355
 20
-616.924481
 30
0.0
 11
1281.341866
 21
-616.924481
 31
0.0
  0
ARC
  5
228
  8
1
 10
1123.263302
 20
352.489048
 30
0.0
 40
999.753378
 50
279.272031
 51
279.470799
  0
LINE
  5
229
  8
1
 10
1288.350653
 20
-634.471163
 30
0.0
 11
1288.350653
 21
-634.131085
 31
0.0
  0
LINE
  5
22A
  8
1
 10
1329.402118
 20
-616.924481
 30
0.0
 11
1338.413416
 21
-616.924481
 31
0.0
  0
LINE
  5
22B
  8
1
 10
1284.345632
 20
-634.709291
 30
0.0
 11
1284.345632
 21
-634.202039
 31
0.0
  0
ARC
  5
22C
  8
1
 10
1123.263302
 20
352.489048
 30
0.0
 40
1000.254006
 50
276.280768
 51
279.267349
  0
ARC
  5
22D
  8
1
 10
1210.893698
 20
-443.70732
 30
0.0
 40
199.249797
 50
270.67946
 51
276.280768
  0
ARC
  5
22E
  8
1
 10
1287.850025
 20
-634.131085
 30
0.0
 40
0.500628
 50
0.0
 51
99.470799
  0
ARC
  5
22F
  8
1
 10
1288.85128
 20
-634.471163
 30
0.0
 40
0.500628
 50
180.0
 51
279.524139
  0
LINE
  5
230
  8
1
 10
1340.415926
 20
-621.810688
 30
0.0
 11
1340.415926
 21
-616.924481
 31
0.0
  0
LINE
  5
231
  8
1
 10
1340.415926
 20
-621.810688
 30
0.0
 11
1336.410905
 21
-625.815709
 31
0.0
  0
ARC
  5
232
  8
1
 10
1123.263302
 20
352.489048
 30
0.0
 40
1001.255261
 50
279.524139
 51
282.291204
  0
LINE
  5
233
  8
1
 10
1279.339355
 20
-600.904396
 30
0.0
 11
1264.320526
 21
-600.904396
 31
0.0
  0
LINE
  5
234
  8
1
 10
1200.24019
 20
-600.904396
 30
0.0
 11
1181.264593
 21
-600.904396
 31
0.0
  0
LINE
  5
235
  8
1
 10
562.272449
 20
-593.89561
 30
0.0
 11
562.272449
 21
-356.598113
 31
0.0
  0
LINE
  5
236
  8
1
 10
544.126939
 20
-593.89561
 30
0.0
 11
587.47197
 21
-593.89561
 31
0.0
  0
LINE
  5
237
  8
1
 10
1200.338501
 20
-593.895609
 30
0.0
 11
1214.684408
 21
-593.895609
 31
0.0
  0
LINE
  5
238
  8
1
 10
1212.091207
 20
-582.281049
 30
0.0
 11
1221.295134
 21
-582.281049
 31
0.0
  0
LINE
  5
239
  8
1
 10
1212.892212
 20
-583.41384
 30
0.0
 11
1222.096139
 21
-583.41384
 31
0.0
  0
LINE
  5
23A
  8
1
 10
1212.091207
 20
-582.281049
 30
0.0
 11
1205.011264
 21
-592.293601
 31
0.0
  0
LINE
  5
23B
  8
1
 10
1212.892212
 20
-583.41384
 30
0.0
 11
1212.091207
 21
-582.281049
 31
0.0
  0
LINE
  5
23C
  8
1
 10
1212.892212
 20
-583.41384
 30
0.0
 11
1205.480481
 21
-593.895609
 31
0.0
  0
LINE
  5
23D
  8
1
 10
1222.096139
 20
-583.41384
 30
0.0
 11
1214.684408
 21
-593.895609
 31
0.0
  0
LINE
  5
23E
  8
1
 10
1222.096139
 20
-583.41384
 30
0.0
 11
1221.295134
 21
-582.281049
 31
0.0
  0
LINE
  5
23F
  8
1
 10
1198.386306
 20
-593.895609
 30
0.0
 11
1198.386306
 21
-592.293601
 31
0.0
  0
LINE
  5
240
  8
1
 10
1212.091207
 20
-582.281051
 30
0.0
 11
1212.091207
 21
-561.855441
 31
0.0
  0
LINE
  5
241
  8
1
 10
1200.338501
 20
-593.895609
 30
0.0
 11
1200.338501
 21
-592.293601
 31
0.0
  0
LINE
  5
242
  8
1
 10
1159.982821
 20
-593.895609
 30
0.0
 11
1159.982821
 21
-561.191869
 31
0.0
  0
LINE
  5
243
  8
1
 10
1161.115612
 20
-592.293601
 30
0.0
 11
1161.115612
 21
-561.855441
 31
0.0
  0
LINE
  5
244
  8
1
 10
1159.982821
 20
-593.895609
 30
0.0
 11
1198.386306
 21
-593.895609
 31
0.0
  0
LINE
  5
245
  8
1
 10
1161.115612
 20
-592.293601
 30
0.0
 11
1205.011264
 21
-592.293601
 31
0.0
  0
LINE
  5
246
  8
1
 10
1162.106804
 20
-558.188103
 30
0.0
 11
1162.106804
 21
-463.131671
 31
0.0
  0
LINE
  5
247
  8
1
 10
1163.239595
 20
-558.851675
 30
0.0
 11
1163.239595
 21
-469.739956
 31
0.0
  0
LINE
  5
248
  8
1
 10
1163.239595
 20
-558.851675
 30
0.0
 11
1161.115612
 21
-561.855441
 31
0.0
  0
LINE
  5
249
  8
1
 10
1162.106804
 20
-558.188103
 30
0.0
 11
1159.982821
 21
-561.191869
 31
0.0
  0
LINE
  5
24A
  8
1
 10
1163.239595
 20
-558.851675
 30
0.0
 11
1214.21519
 21
-558.851675
 31
0.0
  0
LINE
  5
24B
  8
1
 10
1161.115612
 20
-561.855441
 30
0.0
 11
1212.091207
 21
-561.855441
 31
0.0
  0
LINE
  5
24C
  8
1
 10
1214.21519
 20
-558.851675
 30
0.0
 11
1214.21519
 21
-476.748743
 31
0.0
  0
LINE
  5
24D
  8
1
 10
1214.21519
 20
-558.851675
 30
0.0
 11
1212.091207
 21
-561.855441
 31
0.0
  0
LINE
  5
24E
  8
1
 10
512.332213
 20
1031.273171
 30
0.0
 11
513.9606
 21
1029.644784
 31
0.0
  0
LINE
  5
24F
  8
1
 10
429.623549
 20
894.65102
 30
0.0
 11
429.623549
 21
926.096413
 31
0.0
  0
ARC
  5
250
  8
1
 10
433.810544
 20
977.362388
 30
0.0
 40
0.300377
 50
90.572939
 51
180.0
  0
ARC
  5
251
  8
1
 10
433.810544
 20
945.916995
 30
0.0
 40
0.300377
 50
180.0
 51
269.427061
  0
LINE
  5
252
  8
1
  6
DASHDOT
 10
411.534127
 20
610.844146
 30
0.0
 11
464.397269
 21
610.844146
 31
0.0
  0
LINE
  5
253
  8
1
  6
DASHDOT
 10
-852.442692
 20
-692.943706
 30
0.0
 11
-852.442692
 21
-300.712031
 31
0.0
  0
LINE
  5
254
  8
1
  6
DASHDOT
 10
851.152014
 20
102.85809
 30
0.0
 11
851.152014
 21
1116.97183
 31
0.0
  0
LINE
  5
255
  8
1
  6
DIVIDE
 10
413.102837
 20
1048.893323
 30
0.0
 11
413.102837
 21
172.794969
 31
0.0
  0
LINE
  5
256
  8
1
  6
DIVIDE
 10
413.102837
 20
172.794969
 30
0.0
 11
1289.201191
 21
172.794969
 31
0.0
  0
LINE
  5
257
  8
1
  6
DIVIDE
 10
1289.201191
 20
172.794969
 30
0.0
 11
1289.201191
 21
1048.893323
 31
0.0
  0
LINE
  5
258
  8
1
  6
DIVIDE
 10
1289.201191
 20
1048.893323
 30
0.0
 11
413.102837
 21
1048.893323
 31
0.0
  0
LINE
  5
259
  8
1
  6
DASHDOT
 10
553.248034
 20
222.747675
 30
0.0
 11
473.147613
 21
222.747675
 31
0.0
  0
LINE
  5
25A
  8
1
  6
DASHDOT
 10
513.197823
 20
262.797885
 30
0.0
 11
513.197823
 21
182.697464
 31
0.0
  0
LINE
  5
25B
  8
1
  6
DASHDOT
 10
1230.51762
 20
999.201024
 30
0.0
 11
1150.417199
 21
999.201024
 31
0.0
  0
LINE
  5
25C
  8
1
  6
DASHDOT
 10
1190.467409
 20
1039.251235
 30
0.0
 11
1190.467409
 21
959.150814
 31
0.0
  0
LINE
  5
25D
  8
1
  6
DASHDOT
 10
551.886829
 20
999.201024
 30
0.0
 11
471.786408
 21
999.201024
 31
0.0
  0
LINE
  5
25E
  8
1
  6
DASHDOT
 10
511.836619
 20
1039.251235
 30
0.0
 11
511.836619
 21
959.150814
 31
0.0
  0
LINE
  5
25F
  8
1
  6
DASHDOT
 10
1230.396725
 20
222.368598
 30
0.0
 11
1150.296304
 21
222.368598
 31
0.0
  0
LINE
  5
260
  8
1
  6
DASHDOT
 10
1190.346515
 20
262.418809
 30
0.0
 11
1190.346515
 21
182.318388
 31
0.0
  0
LINE
  5
261
  8
1
 10
-1341.683342
 20
145.260449
 30
0.0
 11
-1341.683342
 21
1076.427842
 31
0.0
  0
LINE
  5
262
  8
1
 10
-390.490844
 20
145.260449
 30
0.0
 11
-390.490844
 21
1076.427842
 31
0.0
  0
LINE
  5
263
  8
1
 10
-1331.670789
 20
1086.440395
 30
0.0
 11
-400.503397
 21
1086.440395
 31
0.0
  0
LINE
  5
264
  8
1
 10
-1331.670789
 20
135.247897
 30
0.0
 11
-400.503397
 21
135.247897
 31
0.0
  0
ARC
  5
265
  8
1
 10
-400.503397
 20
1076.427842
 30
0.0
 40
10.012553
 50
0.0
 51
90.0
  0
ARC
  5
266
  8
1
 10
-400.503397
 20
145.260449
 30
0.0
 40
10.012553
 50
270.0
 51
0.0
  0
ARC
  5
267
  8
1
 10
-1331.670789
 20
145.260449
 30
0.0
 40
10.012553
 50
180.0
 51
270.0
  0
ARC
  5
268
  8
1
 10
-1331.670789
 20
1076.427842
 30
0.0
 40
10.012553
 50
90.0
 51
180.0
  0
LINE
  5
269
  8
1
 10
-1289.618068
 20
360.53033
 30
0.0
 11
-1214.523924
 21
360.53033
 31
0.0
  0
LINE
  5
26A
  8
1
 10
-866.087093
 20
352.520288
 30
0.0
 11
-866.087093
 21
869.168003
 31
0.0
  0
LINE
  5
26B
  8
1
 10
-1116.400908
 20
187.31317
 30
0.0
 11
-1116.400908
 21
262.407315
 31
0.0
  0
LINE
  5
26C
  8
1
 10
-1289.618068
 20
190.316936
 30
0.0
 11
-1289.618068
 21
1028.36759
 31
0.0
  0
LINE
  5
26D
  8
1
 10
-448.563649
 20
187.31317
 30
0.0
 11
-1286.614303
 21
187.31317
 31
0.0
  0
LINE
  5
26E
  8
1
 10
-442.556117
 20
193.320702
 30
0.0
 11
-442.556117
 21
1028.36759
 31
0.0
  0
ARC
  5
26F
  8
1
 10
-448.563649
 20
193.320702
 30
0.0
 40
6.007532
 50
270.0
 51
0.0
  0
LINE
  5
270
  8
1
 10
-448.563649
 20
1034.375121
 30
0.0
 11
-1283.610537
 21
1034.375121
 31
0.0
  0
ARC
  5
271
  8
1
 10
-1283.610537
 20
1028.36759
 30
0.0
 40
6.007532
 50
90.0
 51
180.0
  0
ARC
  5
272
  8
1
 10
-448.563649
 20
1028.36759
 30
0.0
 40
6.007532
 50
0.0
 51
90.0
  0
LINE
  5
273
  8
1
 10
-1214.523924
 20
350.517778
 30
0.0
 11
-1214.523924
 21
871.170514
 31
0.0
  0
LINE
  5
274
  8
1
 10
-605.760725
 20
262.407315
 30
0.0
 11
-1126.413461
 21
262.407315
 31
0.0
  0
LINE
  5
275
  8
1
 10
-1285.613047
 20
350.517778
 30
0.0
 11
-1285.613047
 21
360.53033
 31
0.0
  0
LINE
  5
276
  8
1
 10
-1285.613047
 20
350.517778
 30
0.0
 11
-1174.473713
 21
350.517778
 31
0.0
  0
LINE
  5
277
  8
1
 10
-615.773278
 20
187.31317
 30
0.0
 11
-615.773278
 21
262.407315
 31
0.0
  0
LINE
  5
278
  8
1
 10
-1289.618068
 20
861.157961
 30
0.0
 11
-1214.523924
 21
861.157961
 31
0.0
  0
LINE
  5
279
  8
1
 10
-1116.400908
 20
1034.375121
 30
0.0
 11
-1116.400908
 21
959.280977
 31
0.0
  0
LINE
  5
27A
  8
1
 10
-605.760725
 20
959.280977
 30
0.0
 11
-1126.413461
 21
959.280977
 31
0.0
  0
LINE
  5
27B
  8
1
 10
-615.773278
 20
1034.375121
 30
0.0
 11
-615.773278
 21
959.280977
 31
0.0
  0
LINE
  5
27C
  8
1
 10
-442.556117
 20
861.157961
 30
0.0
 11
-517.650262
 21
861.157961
 31
0.0
  0
LINE
  5
27D
  8
1
 10
-517.650262
 20
350.517778
 30
0.0
 11
-517.650262
 21
871.170514
 31
0.0
  0
LINE
  5
27E
  8
1
 10
-442.556117
 20
360.53033
 30
0.0
 11
-517.650262
 21
360.53033
 31
0.0
  0
LINE
  5
27F
  8
1
 10
-1270.594218
 20
360.53033
 30
0.0
 11
-1270.594218
 21
861.157961
 31
0.0
  0
LINE
  5
280
  8
1
 10
-615.773278
 20
206.33702
 30
0.0
 11
-1116.400908
 21
206.33702
 31
0.0
  0
LINE
  5
281
  8
1
 10
-615.773278
 20
1015.351271
 30
0.0
 11
-1116.400908
 21
1015.351271
 31
0.0
  0
LINE
  5
282
  8
1
 10
-461.579967
 20
360.53033
 30
0.0
 11
-461.579967
 21
861.157961
 31
0.0
  0
ARC
  5
283
  8
1
 10
-563.708004
 20
913.223235
 30
0.0
 40
6.007532
 50
0.0
 51
90.0
  0
LINE
  5
284
  8
1
 10
-557.700472
 20
308.465057
 30
0.0
 11
-557.700472
 21
913.223235
 31
0.0
  0
LINE
  5
285
  8
1
 10
-563.708004
 20
302.457525
 30
0.0
 11
-1168.466182
 21
302.457525
 31
0.0
  0
LINE
  5
286
  8
1
 10
-1174.473713
 20
308.465057
 30
0.0
 11
-1174.473713
 21
913.223235
 31
0.0
  0
LINE
  5
287
  8
1
 10
-563.708004
 20
919.230766
 30
0.0
 11
-1168.466182
 21
919.230766
 31
0.0
  0
ARC
  5
288
  8
1
 10
-1168.466182
 20
913.223235
 30
0.0
 40
6.007532
 50
90.0
 51
180.0
  0
LINE
  5
289
  8
1
 10
-1285.613047
 20
194.321957
 30
0.0
 11
-1285.613047
 21
350.517778
 31
0.0
  0
LINE
  5
28A
  8
1
 10
-1127.414716
 20
191.318191
 30
0.0
 11
-1282.609281
 21
191.318191
 31
0.0
  0
ARC
  5
28B
  8
1
 10
-1282.609281
 20
194.321957
 30
0.0
 40
3.003766
 50
180.0
 51
270.0
  0
ARC
  5
28C
  8
1
 10
-1168.466182
 20
308.465057
 30
0.0
 40
6.007532
 50
180.0
 51
270.0
  0
LINE
  5
28D
  8
1
 10
-1127.414716
 20
302.457525
 30
0.0
 11
-1168.466182
 21
302.457525
 31
0.0
  0
LINE
  5
28E
  8
1
 10
-1174.473713
 20
308.465057
 30
0.0
 11
-1174.473713
 21
349.516523
 31
0.0
  0
ARC
  5
28F
  8
1
 10
-563.708004
 20
308.465057
 30
0.0
 40
6.007532
 50
270.0
 51
0.0
  0
LINE
  5
290
  8
1
 10
-1126.413461
 20
191.318191
 30
0.0
 11
-1116.400908
 21
191.318191
 31
0.0
  0
LINE
  5
291
  8
1
 10
-1126.413461
 20
191.318191
 30
0.0
 11
-1126.413461
 21
302.457525
 31
0.0
  0
LINE
  5
292
  8
1
 10
-605.760725
 20
191.318191
 30
0.0
 11
-605.760725
 21
302.457525
 31
0.0
  0
LINE
  5
293
  8
1
 10
-605.760725
 20
191.318191
 30
0.0
 11
-615.773278
 21
191.318191
 31
0.0
  0
LINE
  5
294
  8
1
 10
-446.561139
 20
350.517778
 30
0.0
 11
-557.700472
 21
350.517778
 31
0.0
  0
LINE
  5
295
  8
1
 10
-446.561139
 20
350.517778
 30
0.0
 11
-446.561139
 21
360.53033
 31
0.0
  0
LINE
  5
296
  8
1
 10
-446.561139
 20
871.170514
 30
0.0
 11
-557.700472
 21
871.170514
 31
0.0
  0
LINE
  5
297
  8
1
 10
-446.561139
 20
871.170514
 30
0.0
 11
-446.561139
 21
861.157961
 31
0.0
  0
LINE
  5
298
  8
1
 10
-605.760725
 20
1030.3701
 30
0.0
 11
-605.760725
 21
919.230766
 31
0.0
  0
LINE
  5
299
  8
1
 10
-605.760725
 20
1030.3701
 30
0.0
 11
-615.773278
 21
1030.3701
 31
0.0
  0
LINE
  5
29A
  8
1
 10
-1126.413461
 20
1030.3701
 30
0.0
 11
-1126.413461
 21
919.230766
 31
0.0
  0
LINE
  5
29B
  8
1
 10
-1126.413461
 20
1030.3701
 30
0.0
 11
-1116.400908
 21
1030.3701
 31
0.0
  0
LINE
  5
29C
  8
1
 10
-1285.613047
 20
871.170514
 30
0.0
 11
-1174.473713
 21
871.170514
 31
0.0
  0
LINE
  5
29D
  8
1
 10
-1285.613047
 20
871.170514
 30
0.0
 11
-1285.613047
 21
861.157961
 31
0.0
  0
ARC
  5
29E
  8
1
 10
-1286.614303
 20
190.316936
 30
0.0
 40
3.003766
 50
180.0
 51
270.0
  0
ARC
  5
29F
  8
1
 10
-1168.466182
 20
308.465057
 30
0.0
 40
6.007532
 50
180.0
 51
270.0
  0
LINE
  5
2A0
  8
1
 10
-446.561139
 20
194.321957
 30
0.0
 11
-446.561139
 21
350.517778
 31
0.0
  0
LINE
  5
2A1
  8
1
 10
-605.760725
 20
191.318191
 30
0.0
 11
-449.564904
 21
191.318191
 31
0.0
  0
ARC
  5
2A2
  8
1
 10
-449.564904
 20
194.321957
 30
0.0
 40
3.003766
 50
270.0
 51
0.0
  0
ARC
  5
2A3
  8
1
 10
-563.708004
 20
308.465057
 30
0.0
 40
6.007532
 50
270.0
 51
0.0
  0
LINE
  5
2A4
  8
1
 10
-604.75947
 20
302.457525
 30
0.0
 11
-563.708004
 21
302.457525
 31
0.0
  0
LINE
  5
2A5
  8
1
 10
-557.700472
 20
308.465057
 30
0.0
 11
-557.700472
 21
349.516523
 31
0.0
  0
LINE
  5
2A6
  8
1
 10
-446.561139
 20
1027.366334
 30
0.0
 11
-446.561139
 21
872.171769
 31
0.0
  0
LINE
  5
2A7
  8
1
 10
-605.760725
 20
1030.3701
 30
0.0
 11
-449.564904
 21
1030.3701
 31
0.0
  0
ARC
  5
2A8
  8
1
 10
-449.564904
 20
1027.366334
 30
0.0
 40
3.003766
 50
0.0
 51
90.0
  0
ARC
  5
2A9
  8
1
 10
-563.708004
 20
913.223235
 30
0.0
 40
6.007532
 50
0.0
 51
90.0
  0
LINE
  5
2AA
  8
1
 10
-604.75947
 20
919.230766
 30
0.0
 11
-563.708004
 21
919.230766
 31
0.0
  0
LINE
  5
2AB
  8
1
 10
-557.700472
 20
913.223235
 30
0.0
 11
-557.700472
 21
872.171769
 31
0.0
  0
LINE
  5
2AC
  8
1
 10
-1285.613047
 20
1027.366334
 30
0.0
 11
-1285.613047
 21
871.170514
 31
0.0
  0
LINE
  5
2AD
  8
1
 10
-1126.413461
 20
1030.3701
 30
0.0
 11
-1282.609281
 21
1030.3701
 31
0.0
  0
ARC
  5
2AE
  8
1
 10
-1282.609281
 20
1027.366334
 30
0.0
 40
3.003766
 50
90.0
 51
180.0
  0
ARC
  5
2AF
  8
1
 10
-1168.466182
 20
913.223235
 30
0.0
 40
6.007532
 50
90.0
 51
180.0
  0
LINE
  5
2B0
  8
1
 10
-1127.414716
 20
919.230766
 30
0.0
 11
-1168.466182
 21
919.230766
 31
0.0
  0
LINE
  5
2B1
  8
1
 10
-1174.473713
 20
913.223235
 30
0.0
 11
-1174.473713
 21
872.171769
 31
0.0
  0
LINE
  5
2B2
  8
1
 10
-607.763236
 20
352.520288
 30
0.0
 11
-607.763236
 21
869.168003
 31
0.0
  0
LINE
  5
2B3
  8
1
 10
-607.763236
 20
869.168003
 30
0.0
 11
-1124.41095
 21
869.168003
 31
0.0
  0
LINE
  5
2B4
  8
1
 10
-1124.41095
 20
352.520288
 30
0.0
 11
-1124.41095
 21
869.168003
 31
0.0
  0
LINE
  5
2B5
  8
1
 10
-607.763236
 20
352.520288
 30
0.0
 11
-866.087093
 21
352.520288
 31
0.0
  0
LINE
  5
2B6
  8
1
 10
-607.763236
 20
829.117793
 30
0.0
 11
-1124.41095
 21
829.117793
 31
0.0
  0
LINE
  5
2B7
  8
1
 10
-607.763236
 20
789.067582
 30
0.0
 11
-1124.41095
 21
789.067582
 31
0.0
  0
LINE
  5
2B8
  8
1
 10
-607.763236
 20
749.017372
 30
0.0
 11
-1124.41095
 21
749.017372
 31
0.0
  0
LINE
  5
2B9
  8
1
 10
-607.763236
 20
708.967161
 30
0.0
 11
-1124.41095
 21
708.967161
 31
0.0
  0
LINE
  5
2BA
  8
1
 10
-607.763236
 20
668.916951
 30
0.0
 11
-1124.41095
 21
668.916951
 31
0.0
  0
LINE
  5
2BB
  8
1
 10
-607.763236
 20
628.86674
 30
0.0
 11
-1124.41095
 21
628.86674
 31
0.0
  0
LINE
  5
2BC
  8
1
 10
-607.763236
 20
588.81653
 30
0.0
 11
-1124.41095
 21
588.81653
 31
0.0
  0
LINE
  5
2BD
  8
1
 10
-607.763236
 20
548.76632
 30
0.0
 11
-1124.41095
 21
548.76632
 31
0.0
  0
LINE
  5
2BE
  8
1
 10
-607.763236
 20
508.716109
 30
0.0
 11
-1124.41095
 21
508.716109
 31
0.0
  0
LINE
  5
2BF
  8
1
 10
-607.763236
 20
468.665899
 30
0.0
 11
-1124.41095
 21
468.665899
 31
0.0
  0
LINE
  5
2C0
  8
1
 10
-607.763236
 20
428.615688
 30
0.0
 11
-1124.41095
 21
428.615688
 31
0.0
  0
LINE
  5
2C1
  8
1
 10
-607.763236
 20
388.565478
 30
0.0
 11
-1124.41095
 21
388.565478
 31
0.0
  0
LINE
  5
2C2
  8
1
 10
-866.087093
 20
352.520288
 30
0.0
 11
-1124.41095
 21
352.520288
 31
0.0
  0
LINE
  5
2C3
  8
1
 10
-736.925164
 20
352.520288
 30
0.0
 11
-736.925164
 21
869.168003
 31
0.0
  0
LINE
  5
2C4
  8
1
 10
-995.249022
 20
352.520288
 30
0.0
 11
-995.249022
 21
869.168003
 31
0.0
  0
LINE
  5
2C5
  8
1
 10
475.027528
 20
289.991893
 30
0.0
 11
526.358785
 21
289.991893
 31
0.0
  0
LINE
  5
2C6
  8
1
 10
475.027528
 20
305.911852
 30
0.0
 11
523.898653
 21
305.911852
 31
0.0
  0
LINE
  5
2C7
  8
1
 10
472.023762
 20
287.546523
 30
0.0
 11
472.023762
 21
308.357223
 31
0.0
  0
LINE
  5
2C8
  8
1
 10
458.006188
 20
286.825424
 30
0.0
 11
458.006188
 21
309.078322
 31
0.0
  0
LINE
  5
2C9
  8
1
 10
461.009954
 20
287.546523
 30
0.0
 11
461.009954
 21
308.357223
 31
0.0
  0
LINE
  5
2CA
  8
1
 10
461.009954
 20
288.439948
 30
0.0
 11
456.657441
 21
288.439948
 31
0.0
  0
LINE
  5
2CB
  8
1
 10
461.009954
 20
307.463798
 30
0.0
 11
456.657441
 21
307.463798
 31
0.0
  0
LINE
  5
2CC
  8
1
 10
475.027528
 20
309.065806
 30
0.0
 11
471.614661
 21
309.065806
 31
0.0
  0
LINE
  5
2CD
  8
1
 10
475.027528
 20
286.837939
 30
0.0
 11
471.614661
 21
286.837939
 31
0.0
  0
LINE
  5
2CE
  8
1
 10
458.006188
 20
309.078322
 30
0.0
 11
456.657441
 21
309.078322
 31
0.0
  0
LINE
  5
2CF
  8
1
 10
458.006188
 20
286.825424
 30
0.0
 11
456.657441
 21
286.825424
 31
0.0
  0
LINE
  5
2D0
  8
1
 10
461.009954
 20
308.357223
 30
0.0
 11
461.939119
 21
309.966583
 31
0.0
  0
LINE
  5
2D1
  8
1
 10
461.009954
 20
287.546523
 30
0.0
 11
461.939119
 21
285.937162
 31
0.0
  0
LINE
  5
2D2
  8
1
 10
472.023762
 20
287.546523
 30
0.0
 11
471.094597
 21
285.937162
 31
0.0
  0
LINE
  5
2D3
  8
1
 10
472.023762
 20
308.357223
 30
0.0
 11
471.094597
 21
309.966583
 31
0.0
  0
LINE
  5
2D4
  8
1
 10
430.624804
 20
285.93681
 30
0.0
 11
430.624804
 21
309.966934
 31
0.0
  0
LINE
  5
2D5
  8
1
 10
456.657441
 20
284.935554
 30
0.0
 11
456.657441
 21
310.968191
 31
0.0
  0
LINE
  5
2D6
  8
1
 10
436.488131
 20
311.468819
 30
0.0
 11
456.156814
 21
311.468819
 31
0.0
  0
LINE
  5
2D7
  8
1
 10
456.657441
 20
310.968191
 30
0.0
 11
456.156814
 21
311.468819
 31
0.0
  0
LINE
  5
2D8
  8
1
 10
456.657441
 20
284.935554
 30
0.0
 11
456.156814
 21
284.434927
 31
0.0
  0
ARC
  5
2D9
  8
1
 10
431.188182
 20
319.963626
 30
0.0
 40
10.012553
 50
266.774426
 51
301.960227
  0
ARC
  5
2DA
  8
1
 10
431.188182
 20
275.940119
 30
0.0
 40
10.012553
 50
58.039773
 51
93.225574
  0
LINE
  5
2DB
  8
1
  6
DASHED
 10
440.984849
 20
288.439948
 30
0.0
 11
437.981083
 21
291.443713
 31
0.0
  0
LINE
  5
2DC
  8
1
  6
DASHED
 10
437.981083
 20
291.443713
 30
0.0
 11
437.981083
 21
304.460032
 31
0.0
  0
LINE
  5
2DD
  8
1
  6
DASHED
 10
444.98987
 20
286.825424
 30
0.0
 11
444.98987
 21
288.439948
 31
0.0
  0
LINE
  5
2DE
  8
1
  6
DASHED
 10
437.981083
 20
304.460032
 30
0.0
 11
440.984849
 21
307.463798
 31
0.0
  0
LINE
  5
2DF
  8
1
  6
DASHED
 10
444.98987
 20
288.439948
 30
0.0
 11
440.984849
 21
288.439948
 31
0.0
  0
LINE
  5
2E0
  8
1
  6
DASHED
 10
444.98987
 20
307.463798
 30
0.0
 11
440.984849
 21
307.463798
 31
0.0
  0
LINE
  5
2E1
  8
1
  6
DASHED
 10
444.98987
 20
307.463798
 30
0.0
 11
444.98987
 21
309.078322
 31
0.0
  0
LINE
  5
2E2
  8
1
  6
DASHED
 10
456.657441
 20
309.078322
 30
0.0
 11
444.98987
 21
309.078322
 31
0.0
  0
LINE
  5
2E3
  8
1
  6
DASHED
 10
456.657441
 20
286.825424
 30
0.0
 11
444.98987
 21
286.825424
 31
0.0
  0
LINE
  5
2E4
  8
1
 10
436.488131
 20
284.434927
 30
0.0
 11
456.156814
 21
284.434927
 31
0.0
  0
LINE
  5
2E5
  8
1
 10
471.094597
 20
309.966583
 30
0.0
 11
461.939119
 21
309.966583
 31
0.0
  0
LINE
  5
2E6
  8
1
 10
461.939119
 20
285.937162
 30
0.0
 11
471.094597
 21
285.937162
 31
0.0
  0
LINE
  5
2E7
  8
1
 10
454.065753
 20
297.951877
 30
0.0
 11
438.885154
 21
297.951875
 31
0.0
  0
LINE
  5
2E8
  8
1
 10
470.021251
 20
297.951872
 30
0.0
 11
463.012459
 21
297.951874
 31
0.0
  0
LINE
  5
2E9
  8
1
 10
475.027528
 20
286.837939
 30
0.0
 11
475.027528
 21
309.065806
 31
0.0
  0
LINE
  5
2EA
  8
1
  6
DASHDOT
 10
426.419362
 20
297.951872
 30
0.0
 11
525.128719
 21
297.951872
 31
0.0
  0
LINE
  5
2EB
  8
1
 10
524.715835
 20
186.556701
 30
0.0
 11
546.411659
 21
190.773747
 31
0.0
  0
LINE
  5
2EC
  8
1
 10
546.411659
 20
190.773747
 30
0.0
 11
545.3012
 21
196.486826
 31
0.0
  0
LINE
  5
2ED
  8
1
 10
495.669661
 20
194.170875
 30
0.0
 11
492.42198
 21
210.879513
 31
0.0
  0
LINE
  5
2EE
  8
1
 10
521.077391
 20
208.288682
 30
0.0
 11
515.727957
 21
235.810405
 31
0.0
  0
LINE
  5
2EF
  8
1
 10
509.283155
 20
205.995707
 30
0.0
 11
508.327733
 21
210.911154
 31
0.0
  0
ARC
  5
2F0
  8
1
 10
509.830983
 20
234.663177
 30
0.0
 40
6.007532
 50
10.999505
 51
190.999506
  0
ARC
  5
2F1
  8
1
 10
515.180095
 20
207.143111
 30
0.0
 40
6.007532
 50
190.999506
 51
10.999505
  0
LINE
  5
2F2
  8
1
 10
490.1295
 20
222.673845
 30
0.0
 11
502.513549
 21
225.08095
 31
0.0
  0
LINE
  5
2F3
  8
1
 10
492.42198
 20
210.879513
 30
0.0
 11
504.80603
 21
213.286617
 31
0.0
  0
LINE
  5
2F4
  8
1
 10
495.669661
 20
194.170875
 30
0.0
 11
497.242238
 21
194.476539
 31
0.0
  0
LINE
  5
2F5
  8
1
 10
486.88182
 20
239.382483
 30
0.0
 11
488.454398
 21
239.688147
 31
0.0
  0
LINE
  5
2F6
  8
1
 10
488.454398
 20
239.688147
 30
0.0
 11
491.790501
 21
244.634031
 31
0.0
  0
LINE
  5
2F7
  8
1
 10
497.242238
 20
194.476539
 30
0.0
 11
502.188122
 21
191.140436
 31
0.0
  0
ARC
  5
2F8
  8
1
 10
518.985183
 20
216.042638
 30
0.0
 40
30.037658
 50
235.999505
 51
280.999505
  0
ARC
  5
2F9
  8
1
 10
516.692702
 20
227.836971
 30
0.0
 40
30.037658
 50
100.999506
 51
145.999505
  0
LINE
  5
2FA
  8
1
 10
490.1295
 20
222.673845
 30
0.0
 11
486.88182
 21
239.382483
 31
0.0
  0
LINE
  5
2FB
  8
1
 10
504.889012
 20
228.602653
 30
0.0
 11
503.933554
 21
233.518289
 31
0.0
  0
ARC
  5
2FC
  8
1
 10
501.940429
 20
228.029533
 30
0.0
 40
3.003766
 50
280.999505
 51
10.999505
  0
ARC
  5
2FD
  8
1
 10
505.37915
 20
210.338034
 30
0.0
 40
3.003766
 50
10.999505
 51
100.999506
  0
LINE
  5
2FE
  8
1
 10
510.961053
 20
257.322714
 30
0.0
 11
531.264584
 21
261.269139
 31
0.0
  0
LINE
  5
2FF
  8
1
 10
489.384899
 20
970.607497
 30
0.0
 11
504.092882
 21
955.899513
 31
0.0
  0
LINE
  5
300
  8
1
 10
479.454677
 20
998.945573
 30
0.0
 11
491.490581
 21
1010.981477
 31
0.0
  0
LINE
  5
301
  8
1
 10
505.366805
 20
985.776411
 30
0.0
 11
525.191811
 21
1005.601417
 31
0.0
  0
LINE
  5
302
  8
1
 10
496.870516
 20
994.271987
 30
0.0
 11
500.411311
 21
997.812782
 31
0.0
  0
ARC
  5
303
  8
1
 10
520.943132
 20
1009.848671
 30
0.0
 40
6.007532
 50
315.0
 51
135.000001
  0
ARC
  5
304
  8
1
 10
501.11932
 20
990.024859
 30
0.0
 40
6.007532
 50
135.000001
 51
315.0
  0
LINE
  5
305
  8
1
 10
499.986514
 20
1019.47741
 30
0.0
 11
508.907243
 21
1010.556681
 31
0.0
  0
LINE
  5
306
  8
1
 10
491.490581
 20
1010.981477
 30
0.0
 11
500.411311
 21
1002.060748
 31
0.0
  0
LINE
  5
307
  8
1
 10
479.454677
 20
998.945573
 30
0.0
 11
480.587468
 21
997.812782
 31
0.0
  0
LINE
  5
308
  8
1
 10
512.022418
 20
1031.513314
 30
0.0
 11
513.155209
 21
1030.380523
 31
0.0
  0
LINE
  5
309
  8
1
 10
513.155209
 20
1030.380523
 30
0.0
 11
519.121058
 21
1030.380523
 31
0.0
  0
LINE
  5
30A
  8
1
 10
480.587468
 20
997.812782
 30
0.0
 11
480.587468
 21
991.846933
 31
0.0
  0
ARC
  5
30B
  8
1
 10
510.625126
 20
991.846933
 30
0.0
 40
30.037658
 50
180.0
 51
225.0
  0
ARC
  5
30C
  8
1
 10
519.121058
 20
1000.342866
 30
0.0
 40
30.037658
 50
45.000001
 51
90.0
  0
LINE
  5
30D
  8
1
 10
499.986514
 20
1019.47741
 30
0.0
 11
512.022418
 21
1031.513314
 31
0.0
  0
LINE
  5
30E
  8
1
 10
513.15521
 20
1010.556681
 30
0.0
 11
516.69614
 21
1014.097611
 31
0.0
  0
ARC
  5
30F
  8
1
 10
511.031226
 20
1012.680664
 30
0.0
 40
3.003766
 50
225.0
 51
315.0
  0
ARC
  5
310
  8
1
 10
498.287327
 20
999.936765
 30
0.0
 40
3.003766
 50
315.0
 51
45.000001
  0
LINE
  5
311
  8
1
 10
540.360566
 20
1021.583021
 30
0.0
 11
555.068478
 21
1006.875109
 31
0.0
  0
LINE
  5
312
  8
1
 10
585.785727
 20
1031.371356
 30
0.0
 11
621.864559
 21
1031.371356
 31
0.0
  0
LINE
  5
313
  8
1
 10
575.165812
 20
1026.972442
 30
0.0
 11
489.578281
 21
941.384912
 31
0.0
  0
LINE
  5
314
  8
1
 10
485.179368
 20
930.764996
 30
0.0
 11
485.179368
 21
878.894288
 31
0.0
  0
LINE
  5
315
  8
1
 10
434.022462
 20
825.663715
 30
0.0
 11
483.713063
 21
875.354316
 31
0.0
  0
LINE
  5
316
  8
1
 10
429.623549
 20
446.500879
 30
0.0
 11
429.623549
 21
815.043799
 31
0.0
  0
LINE
  5
317
  8
1
 10
528.985044
 20
272.996895
 30
0.0
 11
542.693419
 21
202.470165
 31
0.0
  0
LINE
  5
318
  8
1
 10
557.436335
 20
190.316936
 30
0.0
 11
589.824391
 21
190.316936
 31
0.0
  0
ARC
  5
319
  8
1
 10
444.642378
 20
815.043799
 30
0.0
 40
15.018829
 50
135.0
 51
180.0
  0
ARC
  5
31A
  8
1
 10
480.173091
 20
878.894288
 30
0.0
 40
5.006276
 50
315.0
 51
0.0
  0
ARC
  5
31B
  8
1
 10
500.198197
 20
930.764996
 30
0.0
 40
15.018829
 50
135.0
 51
180.0
  0
ARC
  5
31C
  8
1
 10
585.785727
 20
1016.352527
 30
0.0
 40
15.018829
 50
90.0
 51
135.0
  0
ARC
  5
31D
  8
1
 10
444.642378
 20
446.500879
 30
0.0
 40
15.018829
 50
180.0
 51
235.0
  0
ARC
  5
31E
  8
1
 10
502.832146
 20
381.309825
 30
0.0
 40
9.311674
 50
10.999505
 51
55.0
  0
ARC
  5
31F
  8
1
 10
557.436335
 20
205.335765
 30
0.0
 40
15.018829
 50
190.999505
 51
270.0
  0
LINE
  5
320
  8
1
 10
1268.281566
 20
335.859199
 30
0.0
 11
1127.138216
 21
194.71585
 31
0.0
  0
LINE
  5
321
  8
1
 10
1116.518301
 20
190.316936
 30
0.0
 11
1080.439469
 21
190.316936
 31
0.0
  0
LINE
  5
322
  8
1
 10
1272.680479
 20
346.479115
 30
0.0
 11
1272.680479
 21
875.209177
 31
0.0
  0
LINE
  5
323
  8
1
 10
1268.281566
 20
885.829093
 30
0.0
 11
1127.138216
 21
1026.972442
 31
0.0
  0
LINE
  5
324
  8
1
 10
1116.518301
 20
1031.371356
 30
0.0
 11
1080.439469
 21
1031.371356
 31
0.0
  0
ARC
  5
325
  8
1
 10
1257.66165
 20
875.209177
 30
0.0
 40
15.018829
 50
0.0
 51
45.0
  0
ARC
  5
326
  8
1
 10
1257.66165
 20
346.479115
 30
0.0
 40
15.018829
 50
315.0
 51
0.0
  0
ARC
  5
327
  8
1
 10
1116.518301
 20
205.335765
 30
0.0
 40
15.018829
 50
270.0
 51
315.0
  0
ARC
  5
328
  8
1
 10
1116.518301
 20
1016.352527
 30
0.0
 40
15.018829
 50
45.0
 51
90.0
  0
LINE
  5
329
  8
1
 10
1161.943534
 20
1021.583092
 30
0.0
 11
1147.23555
 21
1006.875109
 31
0.0
  0
LINE
  5
32A
  8
1
 10
1190.28161
 20
1031.513314
 30
0.0
 11
1202.317514
 21
1019.47741
 31
0.0
  0
LINE
  5
32B
  8
1
 10
1177.112448
 20
1005.601186
 30
0.0
 11
1196.937454
 21
985.77618
 31
0.0
  0
LINE
  5
32C
  8
1
 10
1185.608024
 20
1014.097475
 30
0.0
 11
1189.148819
 21
1010.556681
 31
0.0
  0
ARC
  5
32D
  8
1
 10
1201.184708
 20
990.024859
 30
0.0
 40
6.007532
 50
225.0
 51
45.000001
  0
ARC
  5
32E
  8
1
 10
1181.360896
 20
1009.848671
 30
0.0
 40
6.007532
 50
45.000001
 51
225.0
  0
LINE
  5
32F
  8
1
 10
1210.813447
 20
1010.981477
 30
0.0
 11
1201.892718
 21
1002.060748
 31
0.0
  0
LINE
  5
330
  8
1
 10
1202.317514
 20
1019.47741
 30
0.0
 11
1193.396785
 21
1010.556681
 31
0.0
  0
LINE
  5
331
  8
1
 10
1190.28161
 20
1031.513314
 30
0.0
 11
1189.148819
 21
1030.380523
 31
0.0
  0
LINE
  5
332
  8
1
 10
1222.849351
 20
998.945573
 30
0.0
 11
1221.71656
 21
997.812782
 31
0.0
  0
LINE
  5
333
  8
1
 10
1221.71656
 20
997.812782
 30
0.0
 11
1221.71656
 21
991.846933
 31
0.0
  0
LINE
  5
334
  8
1
 10
1189.148819
 20
1030.380523
 30
0.0
 11
1183.18297
 21
1030.380523
 31
0.0
  0
ARC
  5
335
  8
1
 10
1183.18297
 20
1000.342866
 30
0.0
 40
30.037658
 50
90.0
 51
135.0
  0
ARC
  5
336
  8
1
 10
1191.678903
 20
991.846933
 30
0.0
 40
30.037658
 50
315.000001
 51
0.0
  0
LINE
  5
337
  8
1
 10
1210.813447
 20
1010.981477
 30
0.0
 11
1222.849351
 21
998.945573
 31
0.0
  0
LINE
  5
338
  8
1
 10
1201.892718
 20
997.812782
 30
0.0
 11
1205.433648
 21
994.271851
 31
0.0
  0
ARC
  5
339
  8
1
 10
1204.016701
 20
999.936765
 30
0.0
 40
3.003766
 50
135.0
 51
225.0
  0
ARC
  5
33A
  8
1
 10
1191.272802
 20
1012.680664
 30
0.0
 40
3.003766
 50
225.0
 51
315.000001
  0
LINE
  5
33B
  8
1
 10
1212.919058
 20
970.607425
 30
0.0
 11
1198.211146
 21
955.899513
 31
0.0
  0
LINE
  5
33C
  8
1
 10
1212.919129
 20
251.080795
 30
0.0
 11
1198.211146
 21
265.788779
 31
0.0
  0
LINE
  5
33D
  8
1
 10
1222.849351
 20
222.742719
 30
0.0
 11
1210.813447
 21
210.706815
 31
0.0
  0
LINE
  5
33E
  8
1
 10
1196.937223
 20
235.911881
 30
0.0
 11
1177.112217
 21
216.086875
 31
0.0
  0
LINE
  5
33F
  8
1
 10
1205.433512
 20
227.416305
 30
0.0
 11
1201.892718
 21
223.87551
 31
0.0
  0
ARC
  5
340
  8
1
 10
1181.360896
 20
211.839621
 30
0.0
 40
6.007532
 50
135.0
 51
315.000001
  0
ARC
  5
341
  8
1
 10
1201.184708
 20
231.663433
 30
0.0
 40
6.007532
 50
315.000001
 51
135.0
  0
LINE
  5
342
  8
1
 10
1202.317514
 20
202.210882
 30
0.0
 11
1193.396785
 21
211.131611
 31
0.0
  0
LINE
  5
343
  8
1
 10
1210.813447
 20
210.706815
 30
0.0
 11
1201.892718
 21
219.627544
 31
0.0
  0
LINE
  5
344
  8
1
 10
1222.849351
 20
222.742719
 30
0.0
 11
1221.71656
 21
223.87551
 31
0.0
  0
LINE
  5
345
  8
1
 10
1190.28161
 20
190.174978
 30
0.0
 11
1189.148819
 21
191.307769
 31
0.0
  0
LINE
  5
346
  8
1
 10
1189.148819
 20
191.307769
 30
0.0
 11
1183.18297
 21
191.307769
 31
0.0
  0
LINE
  5
347
  8
1
 10
1221.71656
 20
223.87551
 30
0.0
 11
1221.71656
 21
229.841359
 31
0.0
  0
ARC
  5
348
  8
1
 10
1191.678903
 20
229.841359
 30
0.0
 40
30.037658
 50
0.0
 51
45.0
  0
ARC
  5
349
  8
1
 10
1183.18297
 20
221.345426
 30
0.0
 40
30.037658
 50
225.000001
 51
270.0
  0
LINE
  5
34A
  8
1
 10
1202.317514
 20
202.210882
 30
0.0
 11
1190.28161
 21
190.174978
 31
0.0
  0
LINE
  5
34B
  8
1
 10
1189.148819
 20
211.131611
 30
0.0
 11
1185.607888
 21
207.590681
 31
0.0
  0
ARC
  5
34C
  8
1
 10
1191.272802
 20
209.007628
 30
0.0
 40
3.003766
 50
45.0
 51
135.0
  0
ARC
  5
34D
  8
1
 10
1204.016701
 20
221.751527
 30
0.0
 40
3.003766
 50
135.0
 51
225.000001
  0
LINE
  5
34E
  8
1
 10
1161.943462
 20
200.105271
 30
0.0
 11
1147.23555
 21
214.813183
 31
0.0
  0
LINE
  5
34F
  8
1
 10
385.568318
 20
135.247897
 30
0.0
 11
1316.73571
 21
135.247897
 31
0.0
  0
LINE
  5
350
  8
1
 10
385.568318
 20
1086.440395
 30
0.0
 11
1316.73571
 21
1086.440395
 31
0.0
  0
LINE
  5
351
  8
1
 10
1326.748263
 20
145.26045
 30
0.0
 11
1326.748263
 21
1076.427842
 31
0.0
  0
LINE
  5
352
  8
1
 10
375.555765
 20
145.26045
 30
0.0
 11
375.555765
 21
1076.427842
 31
0.0
  0
ARC
  5
353
  8
1
 10
1316.73571
 20
1076.427842
 30
0.0
 40
10.012553
 50
0.0
 51
90.0
  0
ARC
  5
354
  8
1
 10
385.568318
 20
1076.427842
 30
0.0
 40
10.012553
 50
90.0
 51
180.0
  0
ARC
  5
355
  8
1
 10
385.568318
 20
145.26045
 30
0.0
 40
10.012553
 50
180.0
 51
270.0
  0
ARC
  5
356
  8
1
 10
1316.73571
 20
145.26045
 30
0.0
 40
10.012553
 50
270.0
 51
0.0
  0
LINE
  5
357
  8
1
  6
DASHDOT
 10
1378.945714
 20
610.844146
 30
0.0
 11
323.358314
 21
610.844146
 31
0.0
  0
LINE
  5
358
  8
1
 10
508.173103
 20
388.937502
 30
0.0
 11
436.027932
 21
434.198175
 31
0.0
  0
LINE
  5
359
  8
1
 10
528.985044
 20
272.996895
 30
0.0
 11
511.972754
 21
383.086498
 31
0.0
  0
LINE
  5
35A
  8
1
 10
1080.439469
 20
190.316936
 30
0.0
 11
589.824391
 21
190.316936
 31
0.0
  0
LINE
  5
35B
  8
1
 10
1080.439469
 20
1031.371356
 30
0.0
 11
621.864559
 21
1031.371356
 31
0.0
  0
LINE
  5
35C
  8
1
  6
DASHDOT
 10
864.819677
 20
-286.889292
 30
0.0
 11
864.819677
 21
-667.524934
 31
0.0
  0
LINE
  5
35D
  8
1
 10
427.851575
 20
352.520294
 30
0.0
 11
438.233459
 21
352.520291
 31
0.0
  0
LINE
  5
35E
  8
1
 10
451.463784
 20
345.149838
 30
0.0
 11
451.463784
 21
359.89075
 31
0.0
  0
LINE
  5
35F
  8
1
 10
459.473826
 20
345.149838
 30
0.0
 11
459.473826
 21
359.89075
 31
0.0
  0
LINE
  5
360
  8
1
 10
450.462529
 20
344.57283
 30
0.0
 11
450.462529
 21
360.467758
 31
0.0
  0
LINE
  5
361
  8
1
 10
451.463784
 20
359.278767
 30
0.0
 11
448.913531
 21
359.278767
 31
0.0
  0
LINE
  5
362
  8
1
  6
DASHED
 10
441.95186
 20
359.278767
 30
0.0
 11
439.448722
 21
359.278767
 31
0.0
  0
LINE
  5
363
  8
1
 10
451.463784
 20
345.761821
 30
0.0
 11
448.913531
 21
345.761821
 31
0.0
  0
LINE
  5
364
  8
1
  6
DASHED
 10
441.95186
 20
345.761821
 30
0.0
 11
439.448722
 21
345.761821
 31
0.0
  0
LINE
  5
365
  8
1
 10
459.039095
 20
360.643727
 30
0.0
 11
451.898515
 21
360.643727
 31
0.0
  0
LINE
  5
366
  8
1
 10
459.039095
 20
344.396861
 30
0.0
 11
451.898515
 21
344.396861
 31
0.0
  0
LINE
  5
367
  8
1
 10
450.462529
 20
360.467758
 30
0.0
 11
448.913531
 21
360.467758
 31
0.0
  0
LINE
  5
368
  8
1
  6
DASHED
 10
448.913531
 20
360.467758
 30
0.0
 11
441.95186
 21
360.467758
 31
0.0
  0
LINE
  5
369
  8
1
 10
450.462529
 20
344.57283
 30
0.0
 11
448.913531
 21
344.57283
 31
0.0
  0
LINE
  5
36A
  8
1
  6
DASHED
 10
448.913531
 20
344.57283
 30
0.0
 11
441.95186
 21
344.57283
 31
0.0
  0
LINE
  5
36B
  8
1
 10
451.463784
 20
359.89075
 30
0.0
 11
451.898515
 21
360.643727
 31
0.0
  0
LINE
  5
36C
  8
1
 10
459.473826
 20
359.89075
 30
0.0
 11
459.039095
 21
360.643727
 31
0.0
  0
LINE
  5
36D
  8
1
 10
451.463784
 20
345.149838
 30
0.0
 11
451.898515
 21
344.396861
 31
0.0
  0
LINE
  5
36E
  8
1
 10
459.473826
 20
345.149838
 30
0.0
 11
459.039095
 21
344.396861
 31
0.0
  0
LINE
  5
36F
  8
1
 10
430.890936
 20
360.029705
 30
0.0
 11
430.890936
 21
345.010881
 31
0.0
  0
LINE
  5
370
  8
1
 10
448.913531
 20
363.033474
 30
0.0
 11
448.913531
 21
342.007114
 31
0.0
  0
LINE
  5
371
  8
1
 10
448.412904
 20
363.534102
 30
0.0
 11
437.092226
 21
363.534102
 31
0.0
  0
LINE
  5
372
  8
1
 10
448.913531
 20
363.033474
 30
0.0
 11
448.412904
 21
363.534102
 31
0.0
  0
LINE
  5
373
  8
1
 10
448.913531
 20
342.007114
 30
0.0
 11
448.412904
 21
341.506486
 31
0.0
  0
ARC
  5
374
  8
1
 10
429.387725
 20
335.11181
 30
0.0
 40
10.012553
 50
39.692408
 51
81.365386
  0
ARC
  5
375
  8
1
 10
429.387725
 20
369.928777
 30
0.0
 40
10.012553
 50
278.634614
 51
320.307592
  0
LINE
  5
376
  8
1
  6
DASHED
 10
436.444956
 20
348.765587
 30
0.0
 11
436.444956
 21
356.275001
 31
0.0
  0
LINE
  5
377
  8
1
  6
DASHED
 10
441.95186
 20
344.560315
 30
0.0
 11
441.95186
 21
345.761821
 31
0.0
  0
LINE
  5
378
  8
1
  6
DASHED
 10
439.448722
 20
359.278767
 30
0.0
 11
436.444956
 21
356.275001
 31
0.0
  0
LINE
  5
379
  8
1
  6
DASHED
 10
436.444956
 20
348.765587
 30
0.0
 11
439.448722
 21
345.761821
 31
0.0
  0
LINE
  5
37A
  8
1
  6
DASHED
 10
441.95186
 20
359.278767
 30
0.0
 11
441.95186
 21
360.480273
 31
0.0
  0
LINE
  5
37B
  8
1
 10
448.412904
 20
341.506486
 30
0.0
 11
437.092226
 21
341.506486
 31
0.0
  0
ARC
  5
37C
  8
1
 10
445.576045
 20
358.027198
 30
0.0
 40
9.178204
 50
143.130249
 51
216.869751
  0
ARC
  5
37D
  8
1
 10
445.576045
 20
347.01339
 30
0.0
 40
9.178204
 50
143.130249
 51
216.869751
  0
ARC
  5
37E
  8
1
 10
440.932979
 20
358.027198
 30
0.0
 40
7.980552
 50
316.366687
 51
43.633313
  0
ARC
  5
37F
  8
1
 10
440.932979
 20
347.01339
 30
0.0
 40
7.980552
 50
316.366687
 51
43.633313
  0
LINE
  5
380
  8
1
 10
446.709069
 20
352.520294
 30
0.0
 11
438.233463
 21
352.520296
 31
0.0
  0
LINE
  5
381
  8
1
 10
446.709077
 20
352.520291
 30
0.0
 11
452.882226
 21
352.520292
 31
0.0
  0
ARC
  5
382
  8
1
 10
457.980521
 20
356.582009
 30
0.0
 40
6.518447
 50
141.456313
 51
218.543687
  0
ARC
  5
383
  8
1
 10
457.980515
 20
348.458577
 30
0.0
 40
6.518442
 50
141.456297
 51
218.543703
  0
ARC
  5
384
  8
1
 10
452.957099
 20
356.58201
 30
0.0
 40
6.518438
 50
321.456253
 51
38.543747
  0
ARC
  5
385
  8
1
 10
452.957103
 20
348.458577
 30
0.0
 40
6.518435
 50
321.456241
 51
38.543759
  0
LINE
  5
386
  8
1
 10
458.055382
 20
352.520293
 30
0.0
 11
452.882222
 21
352.520293
 31
0.0
  0
LINE
  5
387
  8
1
  6
DASHDOT
 10
458.05539
 20
352.520284
 30
0.0
 11
516.696191
 21
352.520284
 31
0.0
  0
LINE
  5
388
  8
1
 10
459.473826
 20
347.764321
 30
0.0
 11
517.431136
 21
347.764322
 31
0.0
  0
LINE
  5
389
  8
1
 10
459.473826
 20
357.276246
 30
0.0
 11
515.961246
 21
357.276247
 31
0.0
  0
LINE
  5
38A
  8
1
 10
492.854372
 20
392.74361
 30
0.0
 11
437.785333
 21
392.74361
 31
0.0
  0
LINE
  5
38B
  8
1
 10
437.785333
 20
366.007056
 30
0.0
 11
437.785333
 21
392.74361
 31
0.0
  0
LINE
  5
38C
  8
1
 10
437.785333
 20
322.655742
 30
0.0
 11
437.785333
 21
336.995241
 31
0.0
  0
LINE
  5
38D
  8
1
 10
492.854372
 20
322.655742
 30
0.0
 11
437.785333
 21
322.655742
 31
0.0
  0
LINE
  5
38E
  8
1
 10
492.854372
 20
322.655742
 30
0.0
 11
492.854372
 21
347.764322
 31
0.0
  0
LINE
  5
38F
  8
1
 10
492.854372
 20
357.276247
 30
0.0
 11
492.854372
 21
392.74361
 31
0.0
  0
LINE
  5
390
  8
1
  6
DASHDOT
 10
386.003613
 20
910.318341
 30
0.0
 11
511.396891
 21
910.318341
 31
0.0
  0
LINE
  5
391
  8
1
 10
483.604689
 20
930.764179
 30
0.0
 11
485.179368
 21
930.764179
 31
0.0
  0
LINE
  5
392
  8
1
 10
482.603433
 20
886.408801
 30
0.0
 11
482.603433
 21
929.762924
 31
0.0
  0
LINE
  5
393
  8
1
 10
482.603433
 20
926.869335
 30
0.0
 11
429.80986
 21
926.341399
 31
0.0
  0
ARC
  5
394
  8
1
 10
483.604689
 20
929.762924
 30
0.0
 40
1.001255
 50
90.0
 51
180.0
  0
LINE
  5
395
  8
1
 10
483.604689
 20
885.407546
 30
0.0
 11
485.070106
 21
885.407546
 31
0.0
  0
ARC
  5
396
  8
1
 10
483.604689
 20
886.408801
 30
0.0
 40
1.001255
 50
180.0
 51
270.0
  0
LINE
  5
397
  8
1
 10
429.80986
 20
894.295283
 30
0.0
 11
482.603433
 21
893.767348
 31
0.0
  0
LINE
  5
398
  8
1
  6
DASHDOT
 10
-574.349951
 20
251.383084
 30
0.0
 11
-559.331122
 21
251.383084
 31
0.0
  0
LINE
  5
399
  8
1
  6
DASHDOT
 10
-574.349951
 20
251.383084
 30
0.0
 11
-574.349951
 21
236.364255
 31
0.0
  0
LINE
  5
39A
  8
1
  6
DASHDOT
 10
-574.349951
 20
211.332874
 30
0.0
 11
-559.331122
 21
211.332874
 31
0.0
  0
LINE
  5
39B
  8
1
  6
DASHDOT
 10
-494.24953
 20
251.383084
 30
0.0
 11
-494.24953
 21
236.364255
 31
0.0
  0
LINE
  5
39C
  8
1
  6
DASHDOT
 10
-554.324845
 20
251.383084
 30
0.0
 11
-549.318569
 21
251.383084
 31
0.0
  0
LINE
  5
39D
  8
1
  6
DASHDOT
 10
-554.324845
 20
211.332874
 30
0.0
 11
-549.318569
 21
211.332874
 31
0.0
  0
LINE
  5
39E
  8
1
  6
DASHDOT
 10
-544.312293
 20
251.383084
 30
0.0
 11
-529.293464
 21
251.383084
 31
0.0
  0
LINE
  5
39F
  8
1
  6
DASHDOT
 10
-544.312293
 20
211.332874
 30
0.0
 11
-529.293464
 21
211.332874
 31
0.0
  0
LINE
  5
3A0
  8
1
  6
DASHDOT
 10
-524.287188
 20
251.383084
 30
0.0
 11
-519.280911
 21
251.383084
 31
0.0
  0
LINE
  5
3A1
  8
1
  6
DASHDOT
 10
-524.287188
 20
211.332874
 30
0.0
 11
-519.280911
 21
211.332874
 31
0.0
  0
LINE
  5
3A2
  8
1
  6
DASHDOT
 10
-514.274635
 20
251.383084
 30
0.0
 11
-494.24953
 21
251.383084
 31
0.0
  0
LINE
  5
3A3
  8
1
  6
DASHDOT
 10
-514.274635
 20
211.332874
 30
0.0
 11
-494.24953
 21
211.332874
 31
0.0
  0
LINE
  5
3A4
  8
1
  6
DASHDOT
 10
-494.24953
 20
231.357979
 30
0.0
 11
-494.24953
 21
226.351703
 31
0.0
  0
LINE
  5
3A5
  8
1
  6
DASHDOT
 10
-574.349951
 20
231.357979
 30
0.0
 11
-574.349951
 21
226.351703
 31
0.0
  0
LINE
  5
3A6
  8
1
  6
DASHDOT
 10
-574.349951
 20
221.345426
 30
0.0
 11
-574.349951
 21
211.332874
 31
0.0
  0
LINE
  5
3A7
  8
1
  6
DASHDOT
 10
-494.24953
 20
221.345426
 30
0.0
 11
-494.24953
 21
211.332874
 31
0.0
  0
LINE
  5
3A8
  8
1
 10
-605.132649
 20
-475.565656
 30
0.0
 11
-594.118841
 21
-469.206831
 31
0.0
  0
LINE
  5
3A9
  8
1
 10
-594.118841
 20
-469.206831
 30
0.0
 11
-583.105034
 21
-475.565656
 31
0.0
  0
LINE
  5
3AA
  8
1
 10
-583.105034
 20
-488.283305
 30
0.0
 11
-583.105034
 21
-475.565656
 31
0.0
  0
LINE
  5
3AB
  8
1
 10
-594.118841
 20
-494.64213
 30
0.0
 11
-583.105034
 21
-488.283305
 31
0.0
  0
LINE
  5
3AC
  8
1
 10
-605.132649
 20
-488.283305
 30
0.0
 11
-594.118841
 21
-494.64213
 31
0.0
  0
CIRCLE
  5
3AD
  8
1
 10
-594.118841
 20
-481.924481
 30
0.0
 40
4.505649
  0
LINE
  5
3AE
  8
1
  6
DASHDOT
 10
-572.373154
 20
-481.924481
 30
0.0
 11
-615.864529
 21
-481.924481
 31
0.0
  0
LINE
  5
3AF
  8
1
  6
DASHDOT
 10
-594.118841
 20
-460.178793
 30
0.0
 11
-594.118841
 21
-503.670168
 31
0.0
  0
LINE
  5
3B0
  8
1
 10
-605.132649
 20
-488.283305
 30
0.0
 11
-605.132649
 21
-475.565656
 31
0.0
  0
LINE
  5
3B1
  8
1
  6
DIVIDE
 10
-514.681675
 20
-456.924481
 30
0.0
 11
-564.419161
 21
-456.924481
 31
0.0
  0
LINE
  5
3B2
  8
1
 10
-539.550418
 20
-441.316456
 30
0.0
 11
-553.067364
 21
-449.120468
 31
0.0
  0
LINE
  5
3B3
  8
1
 10
-526.033472
 20
-449.120468
 30
0.0
 11
-539.550418
 21
-441.316456
 31
0.0
  0
CIRCLE
  5
3B4
  8
1
 10
-539.550418
 20
-456.924481
 30
0.0
 40
7.959979
  0
LINE
  5
3B5
  8
1
 10
-539.550418
 20
-472.532505
 30
0.0
 11
-553.067364
 21
-464.728493
 31
0.0
  0
LINE
  5
3B6
  8
1
 10
-526.033472
 20
-464.728493
 30
0.0
 11
-539.550418
 21
-472.532505
 31
0.0
  0
LINE
  5
3B7
  8
1
 10
-526.033472
 20
-464.728493
 30
0.0
 11
-526.033472
 21
-449.120468
 31
0.0
  0
LINE
  5
3B8
  8
1
 10
-553.067364
 20
-464.728493
 30
0.0
 11
-553.067364
 21
-449.120468
 31
0.0
  0
LINE
  5
3B9
  8
1
  6
DASHDOT
 10
-539.550418
 20
-514.796461
 30
0.0
 11
-539.550418
 21
-432.055737
 31
0.0
  0
LINE
  5
3BA
  8
1
 10
-1126.786633
 20
-503.782636
 30
0.0
 11
-1166.836844
 21
-503.782636
 31
0.0
  0
LINE
  5
3BB
  8
1
 10
-1169.84061
 20
-500.77887
 30
0.0
 11
-1169.84061
 21
-448.713597
 31
0.0
  0
LINE
  5
3BC
  8
1
 10
-1123.782868
 20
-500.77887
 30
0.0
 11
-1123.782868
 21
-448.713597
 31
0.0
  0
ARC
  5
3BD
  8
1
 10
-1166.836844
 20
-500.77887
 30
0.0
 40
3.003766
 50
180.0
 51
270.0
  0
ARC
  5
3BE
  8
1
 10
-1126.786633
 20
-500.77887
 30
0.0
 40
3.003766
 50
270.0
 51
0.0
  0
LINE
  5
3BF
  8
1
 10
-1126.786633
 20
-445.709831
 30
0.0
 11
-1166.836844
 21
-445.709831
 31
0.0
  0
ARC
  5
3C0
  8
1
 10
-506.368671
 20
-443.70732
 30
0.0
 40
200.251052
 50
270.0
 51
276.280768
  0
LINE
  5
3C1
  8
1
 10
-437.923014
 20
-603.908162
 30
0.0
 11
-445.933056
 21
-603.908162
 31
0.0
  0
LINE
  5
3C2
  8
1
 10
-387.860251
 20
-616.924481
 30
0.0
 11
-378.848953
 21
-616.924481
 31
0.0
  0
LINE
  5
3C3
  8
1
 10
-376.846443
 20
-621.810688
 30
0.0
 11
-376.846443
 21
-616.924481
 31
0.0
  0
LINE
  5
3C4
  8
1
 10
-376.846443
 20
-621.810688
 30
0.0
 11
-380.851464
 21
-625.815709
 31
0.0
  0
ARC
  5
3C5
  8
1
 10
-593.999067
 20
352.489048
 30
0.0
 40
1001.255261
 50
276.280768
 51
282.291204
  0
LINE
  5
3C6
  8
1
 10
-437.923014
 20
-616.924481
 30
0.0
 11
-435.920503
 21
-616.924481
 31
0.0
  0
ARC
  5
3C7
  8
1
 10
-1198.516712
 20
-443.70732
 30
0.0
 40
200.251052
 50
263.719232
 51
270.0
  0
LINE
  5
3C8
  8
1
 10
-1266.96237
 20
-603.908162
 30
0.0
 11
-1258.952328
 21
-603.908162
 31
0.0
  0
LINE
  5
3C9
  8
1
 10
-1317.025133
 20
-616.924481
 30
0.0
 11
-1326.03643
 21
-616.924481
 31
0.0
  0
LINE
  5
3CA
  8
1
 10
-1328.038941
 20
-621.810688
 30
0.0
 11
-1328.038941
 21
-616.924481
 31
0.0
  0
LINE
  5
3CB
  8
1
 10
-1328.038941
 20
-621.810688
 30
0.0
 11
-1324.03392
 21
-625.815709
 31
0.0
  0
ARC
  5
3CC
  8
1
 10
-1110.886317
 20
352.489048
 30
0.0
 40
1001.255261
 50
257.708796
 51
263.719232
  0
LINE
  5
3CD
  8
1
 10
-1196.577666
 20
-594.09586
 30
0.0
 11
-1209.507585
 21
-594.09586
 31
0.0
  0
LINE
  5
3CE
  8
1
 10
-1197.710457
 20
-592.493852
 30
0.0
 11
-1199.83444
 21
-592.493852
 31
0.0
  0
LINE
  5
3CF
  8
1
 10
-1206.914384
 20
-582.4813
 30
0.0
 11
-1216.118311
 21
-582.4813
 31
0.0
  0
LINE
  5
3D0
  8
1
 10
-1207.715389
 20
-583.614091
 30
0.0
 11
-1216.919316
 21
-583.614091
 31
0.0
  0
LINE
  5
3D1
  8
1
 10
-1206.914384
 20
-582.4813
 30
0.0
 11
-1199.83444
 21
-592.493852
 31
0.0
  0
LINE
  5
3D2
  8
1
 10
-1207.715389
 20
-583.614091
 30
0.0
 11
-1206.914384
 21
-582.4813
 31
0.0
  0
LINE
  5
3D3
  8
1
 10
-1207.715389
 20
-583.614091
 30
0.0
 11
-1200.303658
 21
-594.09586
 31
0.0
  0
LINE
  5
3D4
  8
1
 10
-1216.919316
 20
-583.614091
 30
0.0
 11
-1209.507585
 21
-594.09586
 31
0.0
  0
LINE
  5
3D5
  8
1
 10
-1216.919316
 20
-583.614091
 30
0.0
 11
-1216.118311
 21
-582.4813
 31
0.0
  0
LINE
  5
3D6
  8
1
 10
-1248.686053
 20
-594.09586
 30
0.0
 11
-1248.686053
 21
-562.055692
 31
0.0
  0
LINE
  5
3D7
  8
1
 10
-1196.577666
 20
-594.09586
 30
0.0
 11
-1196.577666
 21
-561.39212
 31
0.0
  0
LINE
  5
3D8
  8
1
 10
-1197.710457
 20
-592.493852
 30
0.0
 11
-1197.710457
 21
-562.055692
 31
0.0
  0
LINE
  5
3D9
  8
1
 10
-1217.109503
 20
-594.09586
 30
0.0
 11
-1256.928976
 21
-594.09586
 31
0.0
  0
LINE
  5
3DA
  8
1
 10
-1198.70165
 20
-558.388354
 30
0.0
 11
-1198.70165
 21
-468.338199
 31
0.0
  0
LINE
  5
3DB
  8
1
 10
-1199.834441
 20
-559.051926
 30
0.0
 11
-1199.834441
 21
-474.946483
 31
0.0
  0
LINE
  5
3DC
  8
1
 10
-1199.834441
 20
-559.051926
 30
0.0
 11
-1197.710457
 21
-562.055692
 31
0.0
  0
LINE
  5
3DD
  8
1
 10
-1198.70165
 20
-558.388354
 30
0.0
 11
-1196.577666
 21
-561.39212
 31
0.0
  0
LINE
  5
3DE
  8
1
 10
-1199.834441
 20
-559.051926
 30
0.0
 11
-1250.810036
 21
-559.051926
 31
0.0
  0
LINE
  5
3DF
  8
1
 10
-1197.710457
 20
-562.055692
 30
0.0
 11
-1248.686053
 21
-562.055692
 31
0.0
  0
LINE
  5
3E0
  8
1
 10
-1250.810036
 20
-559.051926
 30
0.0
 11
-1250.810036
 21
-481.95527
 31
0.0
  0
LINE
  5
3E1
  8
1
 10
-1250.810036
 20
-559.051926
 30
0.0
 11
-1248.686053
 21
-562.055692
 31
0.0
  0
LINE
  5
3E2
  8
1
 10
-1271.468019
 20
-594.095861
 30
0.0
 11
-1110.914128
 21
-594.095861
 31
0.0
  0
CIRCLE
  5
3E3
  8
1
 10
-1146.811739
 20
-396.848574
 30
0.0
 40
14.518201
  0
LINE
  5
3E4
  8
1
 10
-1176.80119
 20
-594.095861
 30
0.0
 11
-1176.80119
 21
-356.598113
 31
0.0
  0
LINE
  5
3E5
  8
1
 10
-1116.635812
 20
-594.095861
 30
0.0
 11
-1116.635812
 21
-356.598113
 31
0.0
  0
LINE
  5
3E6
  8
1
 10
-1060.250527
 20
-594.095861
 30
0.0
 11
-1060.250527
 21
-356.598113
 31
0.0
  0
LINE
  5
3E7
  8
1
 10
-682.522366
 20
-594.095861
 30
0.0
 11
-682.522366
 21
-361.103761
 31
0.0
  0
LINE
  5
3E8
  8
1
 10
-628.378135
 20
-594.095861
 30
0.0
 11
-628.378135
 21
-361.103761
 31
0.0
  0
LINE
  5
3E9
  8
1
 10
-1116.635812
 20
-594.095861
 30
0.0
 11
-614.847267
 21
-594.095861
 31
0.0
  0
LINE
  5
3EA
  8
1
 10
-1272.969902
 20
-616.924481
 30
0.0
 11
-1272.969902
 21
-364.407904
 31
0.0
  0
LINE
  5
3EB
  8
1
 10
-431.915482
 20
-616.924481
 30
0.0
 11
-431.915482
 21
-364.407904
 31
0.0
  0
LINE
  5
3EC
  8
1
 10
-376.846443
 20
-616.924481
 30
0.0
 11
-1328.038941
 21
-616.924481
 31
0.0
  0
LINE
  5
3ED
  8
1
 10
-439.725273
 20
-356.598113
 30
0.0
 11
-1265.160111
 21
-356.598113
 31
0.0
  0
LINE
  5
3EE
  8
1
 10
-431.915482
 20
-603.908162
 30
0.0
 11
-1272.969902
 21
-603.908162
 31
0.0
  0
LINE
  5
3EF
  8
1
 10
-508.449676
 20
-594.095861
 30
0.0
 11
-495.519757
 21
-594.095861
 31
0.0
  0
LINE
  5
3F0
  8
1
 10
-507.316885
 20
-592.493853
 30
0.0
 11
-505.192902
 21
-592.493853
 31
0.0
  0
LINE
  5
3F1
  8
1
 10
-498.112958
 20
-582.481301
 30
0.0
 11
-488.909031
 21
-582.481301
 31
0.0
  0
LINE
  5
3F2
  8
1
 10
-497.311954
 20
-583.614092
 30
0.0
 11
-488.108027
 21
-583.614092
 31
0.0
  0
LINE
  5
3F3
  8
1
 10
-498.112958
 20
-582.481301
 30
0.0
 11
-505.192902
 21
-592.493853
 31
0.0
  0
LINE
  5
3F4
  8
1
 10
-497.311954
 20
-583.614092
 30
0.0
 11
-498.112958
 21
-582.481301
 31
0.0
  0
LINE
  5
3F5
  8
1
 10
-497.311954
 20
-583.614092
 30
0.0
 11
-504.723684
 21
-594.095861
 31
0.0
  0
LINE
  5
3F6
  8
1
 10
-488.108027
 20
-583.614092
 30
0.0
 11
-495.519757
 21
-594.095861
 31
0.0
  0
LINE
  5
3F7
  8
1
 10
-488.108027
 20
-583.614092
 30
0.0
 11
-488.909031
 21
-582.481301
 31
0.0
  0
LINE
  5
3F8
  8
1
 10
-456.341289
 20
-594.095861
 30
0.0
 11
-456.341289
 21
-562.055693
 31
0.0
  0
LINE
  5
3F9
  8
1
 10
-508.449676
 20
-594.095861
 30
0.0
 11
-508.449676
 21
-561.39212
 31
0.0
  0
LINE
  5
3FA
  8
1
 10
-507.316885
 20
-592.493853
 30
0.0
 11
-507.316885
 21
-562.055693
 31
0.0
  0
LINE
  5
3FB
  8
1
 10
-487.917839
 20
-594.095861
 30
0.0
 11
-448.098366
 21
-594.095861
 31
0.0
  0
LINE
  5
3FC
  8
1
 10
-506.325693
 20
-558.388354
 30
0.0
 11
-506.325693
 21
-468.338199
 31
0.0
  0
LINE
  5
3FD
  8
1
 10
-505.192902
 20
-559.051927
 30
0.0
 11
-505.192902
 21
-474.946484
 31
0.0
  0
LINE
  5
3FE
  8
1
 10
-505.192902
 20
-559.051927
 30
0.0
 11
-507.316885
 21
-562.055693
 31
0.0
  0
LINE
  5
3FF
  8
1
 10
-506.325693
 20
-558.388354
 30
0.0
 11
-508.449676
 21
-561.39212
 31
0.0
  0
LINE
  5
400
  8
1
 10
-505.192902
 20
-559.051927
 30
0.0
 11
-454.217306
 21
-559.051927
 31
0.0
  0
LINE
  5
401
  8
1
 10
-507.316885
 20
-562.055693
 30
0.0
 11
-456.341289
 21
-562.055693
 31
0.0
  0
LINE
  5
402
  8
1
 10
-454.217306
 20
-559.051927
 30
0.0
 11
-456.341289
 21
-562.055693
 31
0.0
  0
ARC
  5
403
  8
1
 10
-1166.836844
 20
-448.713597
 30
0.0
 40
3.003766
 50
90.0
 51
180.0
  0
ARC
  5
404
  8
1
 10
-1126.786633
 20
-448.713597
 30
0.0
 40
3.003766
 50
0.0
 51
90.0
  0
CIRCLE
  5
405
  8
1
 10
-1146.811739
 20
-396.848574
 30
0.0
 40
19.495713
  0
LINE
  5
406
  8
1
 10
-431.915482
 20
-594.095861
 30
0.0
 11
-1270.527687
 21
-594.095861
 31
0.0
  0
LINE
  5
407
  8
1
 10
-506.368671
 20
-643.958373
 30
0.0
 11
-1198.516712
 21
-643.958373
 31
0.0
  0
ARC
  5
408
  8
1
 10
-1265.160111
 20
-364.407904
 30
0.0
 40
7.809791
 50
90.0
 51
180.0
  0
ARC
  5
409
  8
1
 10
-439.725273
 20
-364.407904
 30
0.0
 40
7.809791
 50
0.0
 51
90.0
  0
LINE
  5
40A
  8
1
  6
DASHDOT
 10
-1171.339153
 20
-396.848574
 30
0.0
 11
-1121.446142
 21
-396.848574
 31
0.0
  0
LINE
  5
40B
  8
1
  6
DASHDOT
 10
-1146.811739
 20
-421.59547
 30
0.0
 11
-1146.811739
 21
-367.985501
 31
0.0
  0
LINE
  5
40C
  8
1
  6
DASHDOT
 10
-1146.811739
 20
-439.854932
 30
0.0
 11
-1146.811739
 21
-512.443285
 31
0.0
  0
LINE
  5
40D
  8
1
  6
DASHDOT
 10
-1173.743875
 20
-474.746233
 30
0.0
 11
-1116.106139
 21
-474.746233
 31
0.0
  0
LINE
  5
40E
  8
1
  6
DASHDOT
 10
-581.959186
 20
-590.790675
 30
0.0
 11
-581.959186
 21
-512.372307
 31
0.0
  0
LINE
  5
40F
  8
1
  6
DASHDOT
 10
-542.010064
 20
-551.687093
 30
0.0
 11
-620.441858
 21
-551.687093
 31
0.0
  0
CIRCLE
  5
410
  8
1
 10
-581.959186
 20
-551.687093
 30
0.0
 40
19.524478
  0
LINE
  5
411
  8
1
 10
-1094.19308
 20
-589.089584
 30
0.0
 11
-1094.19308
 21
-569.064479
 31
0.0
  0
LINE
  5
412
  8
1
 10
-1100.342926
 20
-569.064479
 30
0.0
 11
-1088.043235
 21
-569.064479
 31
0.0
  0
LINE
  5
413
  8
1
 10
-1080.033192
 20
-594.095861
 30
0.0
 11
-1080.033192
 21
-567.061677
 31
0.0
  0
LINE
  5
414
  8
1
 10
-1106.22911
 20
-564.058203
 30
0.0
 11
-1082.157032
 21
-564.058203
 31
0.0
  0
POLYLINE
  5
415
  8
1
 66
     1
 10
0.0
 20
0.0
 30
0.0
 70
     8
  0
VERTEX
  5
416
  8
1
 10
-1080.033192
 20
-567.061968
 30
0.0
 70
    32
  0
VERTEX
  5
417
  8
1
 10
-1080.033569
 20
-567.005417
 30
0.0
 70
    32
  0
VERTEX
  5
418
  8
1
 10
-1080.034699
 20
-566.948845
 30
0.0
 70
    32
  0
VERTEX
  5
419
  8
1
 10
-1080.036586
 20
-566.892234
 30
0.0
 70
    32
  0
VERTEX
  5
41A
  8
1
 10
-1080.039234
 20
-566.835562
 30
0.0
 70
    32
  0
VERTEX
  5
41B
  8
1
 10
-1080.042651
 20
-566.778812
 30
0.0
 70
    32
  0
VERTEX
  5
41C
  8
1
 10
-1080.046843
 20
-566.721963
 30
0.0
 70
    32
  0
VERTEX
  5
41D
  8
1
 10
-1080.051823
 20
-566.664996
 30
0.0
 70
    32
  0
VERTEX
  5
41E
  8
1
 10
-1080.057601
 20
-566.607894
 30
0.0
 70
    32
  0
VERTEX
  5
41F
  8
1
 10
-1080.064193
 20
-566.550639
 30
0.0
 70
    32
  0
VERTEX
  5
420
  8
1
 10
-1080.071615
 20
-566.493214
 30
0.0
 70
    32
  0
VERTEX
  5
421
  8
1
 10
-1080.079885
 20
-566.435602
 30
0.0
 70
    32
  0
VERTEX
  5
422
  8
1
 10
-1080.089023
 20
-566.377789
 30
0.0
 70
    32
  0
VERTEX
  5
423
  8
1
 10
-1080.099053
 20
-566.319761
 30
0.0
 70
    32
  0
VERTEX
  5
424
  8
1
 10
-1080.109999
 20
-566.261504
 30
0.0
 70
    32
  0
VERTEX
  5
425
  8
1
 10
-1080.121887
 20
-566.203009
 30
0.0
 70
    32
  0
VERTEX
  5
426
  8
1
 10
-1080.134748
 20
-566.144266
 30
0.0
 70
    32
  0
VERTEX
  5
427
  8
1
 10
-1080.148611
 20
-566.085266
 30
0.0
 70
    32
  0
VERTEX
  5
428
  8
1
 10
-1080.163512
 20
-566.026006
 30
0.0
 70
    32
  0
VERTEX
  5
429
  8
1
 10
-1080.179485
 20
-565.966482
 30
0.0
 70
    32
  0
VERTEX
  5
42A
  8
1
 10
-1080.19657
 20
-565.906693
 30
0.0
 70
    32
  0
VERTEX
  5
42B
  8
1
 10
-1080.214807
 20
-565.846643
 30
0.0
 70
    32
  0
VERTEX
  5
42C
  8
1
 10
-1080.234238
 20
-565.786339
 30
0.0
 70
    32
  0
VERTEX
  5
42D
  8
1
 10
-1080.254909
 20
-565.72579
 30
0.0
 70
    32
  0
VERTEX
  5
42E
  8
1
 10
-1080.276867
 20
-565.665011
 30
0.0
 70
    32
  0
VERTEX
  5
42F
  8
1
 10
-1080.300162
 20
-565.60402
 30
0.0
 70
    32
  0
VERTEX
  5
430
  8
1
 10
-1080.324845
 20
-565.542843
 30
0.0
 70
    32
  0
VERTEX
  5
431
  8
1
 10
-1080.35097
 20
-565.48151
 30
0.0
 70
    32
  0
VERTEX
  5
432
  8
1
 10
-1080.37859
 20
-565.420055
 30
0.0
 70
    32
  0
VERTEX
  5
433
  8
1
 10
-1080.407764
 20
-565.358523
 30
0.0
 70
    32
  0
VERTEX
  5
434
  8
1
 10
-1080.438547
 20
-565.296964
 30
0.0
 70
    32
  0
VERTEX
  5
435
  8
1
 10
-1080.470999
 20
-565.235435
 30
0.0
 70
    32
  0
VERTEX
  5
436
  8
1
 10
-1080.505177
 20
-565.174004
 30
0.0
 70
    32
  0
VERTEX
  5
437
  8
1
 10
-1080.54114
 20
-565.112747
 30
0.0
 70
    32
  0
VERTEX
  5
438
  8
1
 10
-1080.578945
 20
-565.051749
 30
0.0
 70
    32
  0
VERTEX
  5
439
  8
1
 10
-1080.618647
 20
-564.991106
 30
0.0
 70
    32
  0
VERTEX
  5
43A
  8
1
 10
-1080.660301
 20
-564.930926
 30
0.0
 70
    32
  0
VERTEX
  5
43B
  8
1
 10
-1080.703957
 20
-564.871325
 30
0.0
 70
    32
  0
VERTEX
  5
43C
  8
1
 10
-1080.749659
 20
-564.812434
 30
0.0
 70
    32
  0
VERTEX
  5
43D
  8
1
 10
-1080.79745
 20
-564.754393
 30
0.0
 70
    32
  0
VERTEX
  5
43E
  8
1
 10
-1080.847364
 20
-564.697356
 30
0.0
 70
    32
  0
VERTEX
  5
43F
  8
1
 10
-1080.899426
 20
-564.641485
 30
0.0
 70
    32
  0
VERTEX
  5
440
  8
1
 10
-1080.953655
 20
-564.586957
 30
0.0
 70
    32
  0
VERTEX
  5
441
  8
1
 10
-1081.010057
 20
-564.533956
 30
0.0
 70
    32
  0
VERTEX
  5
442
  8
1
 10
-1081.068629
 20
-564.482677
 30
0.0
 70
    32
  0
VERTEX
  5
443
  8
1
 10
-1081.129353
 20
-564.433324
 30
0.0
 70
    32
  0
VERTEX
  5
444
  8
1
 10
-1081.192196
 20
-564.386106
 30
0.0
 70
    32
  0
VERTEX
  5
445
  8
1
 10
-1081.257112
 20
-564.341237
 30
0.0
 70
    32
  0
VERTEX
  5
446
  8
1
 10
-1081.324036
 20
-564.298933
 30
0.0
 70
    32
  0
VERTEX
  5
447
  8
1
 10
-1081.392888
 20
-564.25941
 30
0.0
 70
    32
  0
VERTEX
  5
448
  8
1
 10
-1081.463568
 20
-564.22288
 30
0.0
 70
    32
  0
VERTEX
  5
449
  8
1
 10
-1081.535959
 20
-564.18955
 30
0.0
 70
    32
  0
VERTEX
  5
44A
  8
1
 10
-1081.609926
 20
-564.159617
 30
0.0
 70
    32
  0
VERTEX
  5
44B
  8
1
 10
-1081.685318
 20
-564.133264
 30
0.0
 70
    32
  0
VERTEX
  5
44C
  8
1
 10
-1081.761965
 20
-564.110659
 30
0.0
 70
    32
  0
VERTEX
  5
44D
  8
1
 10
-1081.839683
 20
-564.091951
 30
0.0
 70
    32
  0
VERTEX
  5
44E
  8
1
 10
-1081.918276
 20
-564.077264
 30
0.0
 70
    32
  0
VERTEX
  5
44F
  8
1
 10
-1081.997535
 20
-564.066699
 30
0.0
 70
    32
  0
VERTEX
  5
450
  8
1
 10
-1082.077242
 20
-564.060331
 30
0.0
 70
    32
  0
VERTEX
  5
451
  8
1
 10
-1082.157176
 20
-564.058203
 30
0.0
 70
    32
  0
SEQEND
  5
452
  8
DEFPOINTS
  0
POLYLINE
  5
453
  8
1
 66
     1
 10
0.0
 20
0.0
 30
0.0
 70
     8
  0
VERTEX
  5
454
  8
1
 10
-1106.228985
 20
-564.058203
 30
0.0
 70
    32
  0
VERTEX
  5
455
  8
1
 10
-1106.308918
 20
-564.060331
 30
0.0
 70
    32
  0
VERTEX
  5
456
  8
1
 10
-1106.388626
 20
-564.066699
 30
0.0
 70
    32
  0
VERTEX
  5
457
  8
1
 10
-1106.467884
 20
-564.077264
 30
0.0
 70
    32
  0
VERTEX
  5
458
  8
1
 10
-1106.546477
 20
-564.091951
 30
0.0
 70
    32
  0
VERTEX
  5
459
  8
1
 10
-1106.624195
 20
-564.110659
 30
0.0
 70
    32
  0
VERTEX
  5
45A
  8
1
 10
-1106.700842
 20
-564.133264
 30
0.0
 70
    32
  0
VERTEX
  5
45B
  8
1
 10
-1106.776234
 20
-564.159617
 30
0.0
 70
    32
  0
VERTEX
  5
45C
  8
1
 10
-1106.850201
 20
-564.18955
 30
0.0
 70
    32
  0
VERTEX
  5
45D
  8
1
 10
-1106.922593
 20
-564.22288
 30
0.0
 70
    32
  0
VERTEX
  5
45E
  8
1
 10
-1106.993273
 20
-564.25941
 30
0.0
 70
    32
  0
VERTEX
  5
45F
  8
1
 10
-1107.062124
 20
-564.298933
 30
0.0
 70
    32
  0
VERTEX
  5
460
  8
1
 10
-1107.129048
 20
-564.341237
 30
0.0
 70
    32
  0
VERTEX
  5
461
  8
1
 10
-1107.193964
 20
-564.386106
 30
0.0
 70
    32
  0
VERTEX
  5
462
  8
1
 10
-1107.256807
 20
-564.433324
 30
0.0
 70
    32
  0
VERTEX
  5
463
  8
1
 10
-1107.317531
 20
-564.482677
 30
0.0
 70
    32
  0
VERTEX
  5
464
  8
1
 10
-1107.376103
 20
-564.533956
 30
0.0
 70
    32
  0
VERTEX
  5
465
  8
1
 10
-1107.432505
 20
-564.586957
 30
0.0
 70
    32
  0
VERTEX
  5
466
  8
1
 10
-1107.486734
 20
-564.641485
 30
0.0
 70
    32
  0
VERTEX
  5
467
  8
1
 10
-1107.538797
 20
-564.697356
 30
0.0
 70
    32
  0
VERTEX
  5
468
  8
1
 10
-1107.58871
 20
-564.754393
 30
0.0
 70
    32
  0
VERTEX
  5
469
  8
1
 10
-1107.636501
 20
-564.812434
 30
0.0
 70
    32
  0
VERTEX
  5
46A
  8
1
 10
-1107.682204
 20
-564.871325
 30
0.0
 70
    32
  0
VERTEX
  5
46B
  8
1
 10
-1107.725859
 20
-564.930926
 30
0.0
 70
    32
  0
VERTEX
  5
46C
  8
1
 10
-1107.767513
 20
-564.991106
 30
0.0
 70
    32
  0
VERTEX
  5
46D
  8
1
 10
-1107.807216
 20
-565.051749
 30
0.0
 70
    32
  0
VERTEX
  5
46E
  8
1
 10
-1107.845021
 20
-565.112747
 30
0.0
 70
    32
  0
VERTEX
  5
46F
  8
1
 10
-1107.880983
 20
-565.174004
 30
0.0
 70
    32
  0
VERTEX
  5
470
  8
1
 10
-1107.915162
 20
-565.235435
 30
0.0
 70
    32
  0
VERTEX
  5
471
  8
1
 10
-1107.947613
 20
-565.296964
 30
0.0
 70
    32
  0
VERTEX
  5
472
  8
1
 10
-1107.978396
 20
-565.358523
 30
0.0
 70
    32
  0
VERTEX
  5
473
  8
1
 10
-1108.00757
 20
-565.420055
 30
0.0
 70
    32
  0
VERTEX
  5
474
  8
1
 10
-1108.03519
 20
-565.48151
 30
0.0
 70
    32
  0
VERTEX
  5
475
  8
1
 10
-1108.061315
 20
-565.542843
 30
0.0
 70
    32
  0
VERTEX
  5
476
  8
1
 10
-1108.085998
 20
-565.60402
 30
0.0
 70
    32
  0
VERTEX
  5
477
  8
1
 10
-1108.109293
 20
-565.665011
 30
0.0
 70
    32
  0
VERTEX
  5
478
  8
1
 10
-1108.131251
 20
-565.72579
 30
0.0
 70
    32
  0
VERTEX
  5
479
  8
1
 10
-1108.151922
 20
-565.786339
 30
0.0
 70
    32
  0
VERTEX
  5
47A
  8
1
 10
-1108.171353
 20
-565.846643
 30
0.0
 70
    32
  0
VERTEX
  5
47B
  8
1
 10
-1108.18959
 20
-565.906693
 30
0.0
 70
    32
  0
VERTEX
  5
47C
  8
1
 10
-1108.206675
 20
-565.966482
 30
0.0
 70
    32
  0
VERTEX
  5
47D
  8
1
 10
-1108.222648
 20
-566.026006
 30
0.0
 70
    32
  0
VERTEX
  5
47E
  8
1
 10
-1108.237549
 20
-566.085266
 30
0.0
 70
    32
  0
VERTEX
  5
47F
  8
1
 10
-1108.251413
 20
-566.144266
 30
0.0
 70
    32
  0
VERTEX
  5
480
  8
1
 10
-1108.264273
 20
-566.203009
 30
0.0
 70
    32
  0
VERTEX
  5
481
  8
1
 10
-1108.276162
 20
-566.261504
 30
0.0
 70
    32
  0
VERTEX
  5
482
  8
1
 10
-1108.287107
 20
-566.319761
 30
0.0
 70
    32
  0
VERTEX
  5
483
  8
1
 10
-1108.297137
 20
-566.377789
 30
0.0
 70
    32
  0
VERTEX
  5
484
  8
1
 10
-1108.306275
 20
-566.435602
 30
0.0
 70
    32
  0
VERTEX
  5
485
  8
1
 10
-1108.314545
 20
-566.493214
 30
0.0
 70
    32
  0
VERTEX
  5
486
  8
1
 10
-1108.321967
 20
-566.550639
 30
0.0
 70
    32
  0
VERTEX
  5
487
  8
1
 10
-1108.328559
 20
-566.607894
 30
0.0
 70
    32
  0
VERTEX
  5
488
  8
1
 10
-1108.334338
 20
-566.664996
 30
0.0
 70
    32
  0
VERTEX
  5
489
  8
1
 10
-1108.339317
 20
-566.721963
 30
0.0
 70
    32
  0
VERTEX
  5
48A
  8
1
 10
-1108.34351
 20
-566.778812
 30
0.0
 70
    32
  0
VERTEX
  5
48B
  8
1
 10
-1108.346926
 20
-566.835562
 30
0.0
 70
    32
  0
VERTEX
  5
48C
  8
1
 10
-1108.349574
 20
-566.892234
 30
0.0
 70
    32
  0
VERTEX
  5
48D
  8
1
 10
-1108.351461
 20
-566.948845
 30
0.0
 70
    32
  0
VERTEX
  5
48E
  8
1
 10
-1108.352591
 20
-567.005417
 30
0.0
 70
    32
  0
VERTEX
  5
48F
  8
1
 10
-1108.352968
 20
-567.061968
 30
0.0
 70
    32
  0
SEQEND
  5
490
  8
DEFPOINTS
  0
LINE
  5
491
  8
1
 10
-1108.352968
 20
-594.095861
 30
0.0
 11
-1108.352968
 21
-567.061677
 31
0.0
  0
LINE
  5
492
  8
1
 10
-1085.039469
 20
-586.085819
 30
0.0
 11
-1085.039469
 21
-572.068245
 31
0.0
  0
LINE
  5
493
  8
1
 10
-1103.346692
 20
-586.085819
 30
0.0
 11
-1103.346692
 21
-572.068245
 31
0.0
  0
ARC
  5
494
  8
1
 10
-1100.342926
 20
-572.068245
 30
0.0
 40
3.003766
 50
90.0
 51
180.0
  0
ARC
  5
495
  8
1
 10
-1088.043235
 20
-572.068245
 30
0.0
 40
3.003766
 50
0.0
 51
90.0
  0
LINE
  5
496
  8
1
 10
-1100.342926
 20
-589.089584
 30
0.0
 11
-1088.043235
 21
-589.089584
 31
0.0
  0
ARC
  5
497
  8
1
 10
-1100.342926
 20
-586.085819
 30
0.0
 40
3.003766
 50
180.0
 51
270.0
  0
ARC
  5
498
  8
1
 10
-1088.043235
 20
-586.085819
 30
0.0
 40
3.003766
 50
270.0
 51
0.0
  0
LINE
  5
499
  8
1
 10
-1085.039469
 20
-579.077032
 30
0.0
 11
-1103.346692
 21
-579.077032
 31
0.0
  0
LINE
  5
49A
  8
1
  6
DIVIDE
 10
-1244.621173
 20
-454.782117
 30
0.0
 11
-1244.621252
 21
-408.98239
 31
0.0
  0
LINE
  5
49B
  8
1
  6
DIVIDE
 10
-1236.611331
 20
-454.782117
 30
0.0
 11
-1236.611252
 21
-408.98239
 31
0.0
  0
LINE
  5
49C
  8
1
 10
-1232.105482
 20
-454.782117
 30
0.0
 11
-1249.127022
 21
-454.782117
 31
0.0
  0
LINE
  5
49D
  8
1
 10
-1237.111759
 20
-454.782117
 30
0.0
 11
-1237.111759
 21
-464.79467
 31
0.0
  0
LINE
  5
49E
  8
1
 10
-1210.02956
 20
-465.334434
 30
0.0
 11
-1273.11186
 21
-465.334434
 31
0.0
  0
LINE
  5
49F
  8
1
 10
-1209.560342
 20
-471.942719
 30
0.0
 11
-1239.411328
 21
-471.942719
 31
0.0
  0
LINE
  5
4A0
  8
1
 10
-1240.544119
 20
-478.951558
 30
0.0
 11
-1240.544119
 21
-465.334434
 31
0.0
  0
LINE
  5
4A1
  8
1
 10
-1239.411328
 20
-478.951542
 30
0.0
 11
-1239.411328
 21
-471.942719
 31
0.0
  0
LINE
  5
4A2
  8
1
 10
-1252.580023
 20
-478.95157
 30
0.0
 11
-1252.580023
 21
-465.334434
 31
0.0
  0
LINE
  5
4A3
  8
1
 10
-1252.580023
 20
-471.942719
 30
0.0
 11
-1259.943165
 21
-471.942719
 31
0.0
  0
LINE
  5
4A4
  8
1
 10
-1261.075956
 20
-478.951564
 30
0.0
 11
-1261.075956
 21
-465.334434
 31
0.0
  0
LINE
  5
4A5
  8
1
 10
-1259.943165
 20
-478.951539
 30
0.0
 11
-1259.943165
 21
-471.942719
 31
0.0
  0
LINE
  5
4A6
  8
1
 10
-1262.067123
 20
-481.95527
 30
0.0
 11
-1270.987905
 21
-481.95527
 31
0.0
  0
LINE
  5
4A7
  8
1
 10
-1273.11186
 20
-478.951541
 30
0.0
 11
-1273.11186
 21
-465.334434
 31
0.0
  0
POLYLINE
  5
4A8
  8
1
 66
     1
 10
0.0
 20
0.0
 30
0.0
 70
     8
  0
VERTEX
  5
4A9
  8
1
 10
-1263.199939
 20
-481.95527
 30
0.0
 70
    32
  0
VERTEX
  5
4AA
  8
1
 10
-1263.120005
 20
-481.953142
 30
0.0
 70
    32
  0
VERTEX
  5
4AB
  8
1
 10
-1263.040298
 20
-481.946774
 30
0.0
 70
    32
  0
VERTEX
  5
4AC
  8
1
 10
-1262.961039
 20
-481.936209
 30
0.0
 70
    32
  0
VERTEX
  5
4AD
  8
1
 10
-1262.882447
 20
-481.921522
 30
0.0
 70
    32
  0
VERTEX
  5
4AE
  8
1
 10
-1262.804728
 20
-481.902814
 30
0.0
 70
    32
  0
VERTEX
  5
4AF
  8
1
 10
-1262.728081
 20
-481.880209
 30
0.0
 70
    32
  0
VERTEX
  5
4B0
  8
1
 10
-1262.65269
 20
-481.853856
 30
0.0
 70
    32
  0
VERTEX
  5
4B1
  8
1
 10
-1262.578722
 20
-481.823923
 30
0.0
 70
    32
  0
VERTEX
  5
4B2
  8
1
 10
-1262.506331
 20
-481.790593
 30
0.0
 70
    32
  0
VERTEX
  5
4B3
  8
1
 10
-1262.435651
 20
-481.754064
 30
0.0
 70
    32
  0
VERTEX
  5
4B4
  8
1
 10
-1262.366799
 20
-481.71454
 30
0.0
 70
    32
  0
VERTEX
  5
4B5
  8
1
 10
-1262.299875
 20
-481.672236
 30
0.0
 70
    32
  0
VERTEX
  5
4B6
  8
1
 10
-1262.234959
 20
-481.627367
 30
0.0
 70
    32
  0
VERTEX
  5
4B7
  8
1
 10
-1262.172116
 20
-481.580149
 30
0.0
 70
    32
  0
VERTEX
  5
4B8
  8
1
 10
-1262.111393
 20
-481.530796
 30
0.0
 70
    32
  0
VERTEX
  5
4B9
  8
1
 10
-1262.052821
 20
-481.479517
 30
0.0
 70
    32
  0
VERTEX
  5
4BA
  8
1
 10
-1261.996418
 20
-481.426517
 30
0.0
 70
    32
  0
VERTEX
  5
4BB
  8
1
 10
-1261.942189
 20
-481.371988
 30
0.0
 70
    32
  0
VERTEX
  5
4BC
  8
1
 10
-1261.890127
 20
-481.316117
 30
0.0
 70
    32
  0
VERTEX
  5
4BD
  8
1
 10
-1261.840214
 20
-481.25908
 30
0.0
 70
    32
  0
VERTEX
  5
4BE
  8
1
 10
-1261.792423
 20
-481.201039
 30
0.0
 70
    32
  0
VERTEX
  5
4BF
  8
1
 10
-1261.74672
 20
-481.142148
 30
0.0
 70
    32
  0
VERTEX
  5
4C0
  8
1
 10
-1261.703065
 20
-481.082547
 30
0.0
 70
    32
  0
VERTEX
  5
4C1
  8
1
 10
-1261.661411
 20
-481.022367
 30
0.0
 70
    32
  0
VERTEX
  5
4C2
  8
1
 10
-1261.621708
 20
-480.961724
 30
0.0
 70
    32
  0
VERTEX
  5
4C3
  8
1
 10
-1261.583903
 20
-480.900726
 30
0.0
 70
    32
  0
VERTEX
  5
4C4
  8
1
 10
-1261.54794
 20
-480.839469
 30
0.0
 70
    32
  0
VERTEX
  5
4C5
  8
1
 10
-1261.513762
 20
-480.778038
 30
0.0
 70
    32
  0
VERTEX
  5
4C6
  8
1
 10
-1261.481311
 20
-480.716509
 30
0.0
 70
    32
  0
VERTEX
  5
4C7
  8
1
 10
-1261.450527
 20
-480.65495
 30
0.0
 70
    32
  0
VERTEX
  5
4C8
  8
1
 10
-1261.421354
 20
-480.593418
 30
0.0
 70
    32
  0
VERTEX
  5
4C9
  8
1
 10
-1261.393733
 20
-480.531963
 30
0.0
 70
    32
  0
VERTEX
  5
4CA
  8
1
 10
-1261.367609
 20
-480.47063
 30
0.0
 70
    32
  0
VERTEX
  5
4CB
  8
1
 10
-1261.342926
 20
-480.409453
 30
0.0
 70
    32
  0
VERTEX
  5
4CC
  8
1
 10
-1261.319631
 20
-480.348462
 30
0.0
 70
    32
  0
VERTEX
  5
4CD
  8
1
 10
-1261.297673
 20
-480.287683
 30
0.0
 70
    32
  0
VERTEX
  5
4CE
  8
1
 10
-1261.277001
 20
-480.227134
 30
0.0
 70
    32
  0
VERTEX
  5
4CF
  8
1
 10
-1261.25757
 20
-480.16683
 30
0.0
 70
    32
  0
VERTEX
  5
4D0
  8
1
 10
-1261.239333
 20
-480.10678
 30
0.0
 70
    32
  0
VERTEX
  5
4D1
  8
1
 10
-1261.222249
 20
-480.046991
 30
0.0
 70
    32
  0
VERTEX
  5
4D2
  8
1
 10
-1261.206275
 20
-479.987467
 30
0.0
 70
    32
  0
VERTEX
  5
4D3
  8
1
 10
-1261.191375
 20
-479.928207
 30
0.0
 70
    32
  0
VERTEX
  5
4D4
  8
1
 10
-1261.177511
 20
-479.869207
 30
0.0
 70
    32
  0
VERTEX
  5
4D5
  8
1
 10
-1261.16465
 20
-479.810464
 30
0.0
 70
    32
  0
VERTEX
  5
4D6
  8
1
 10
-1261.152762
 20
-479.751969
 30
0.0
 70
    32
  0
VERTEX
  5
4D7
  8
1
 10
-1261.141816
 20
-479.693712
 30
0.0
 70
    32
  0
VERTEX
  5
4D8
  8
1
 10
-1261.131787
 20
-479.635684
 30
0.0
 70
    32
  0
VERTEX
  5
4D9
  8
1
 10
-1261.122648
 20
-479.577871
 30
0.0
 70
    32
  0
VERTEX
  5
4DA
  8
1
 10
-1261.114378
 20
-479.520259
 30
0.0
 70
    32
  0
VERTEX
  5
4DB
  8
1
 10
-1261.106956
 20
-479.462834
 30
0.0
 70
    32
  0
VERTEX
  5
4DC
  8
1
 10
-1261.100365
 20
-479.405579
 30
0.0
 70
    32
  0
VERTEX
  5
4DD
  8
1
 10
-1261.094586
 20
-479.348477
 30
0.0
 70
    32
  0
VERTEX
  5
4DE
  8
1
 10
-1261.089607
 20
-479.29151
 30
0.0
 70
    32
  0
VERTEX
  5
4DF
  8
1
 10
-1261.085414
 20
-479.234661
 30
0.0
 70
    32
  0
VERTEX
  5
4E0
  8
1
 10
-1261.081998
 20
-479.177911
 30
0.0
 70
    32
  0
VERTEX
  5
4E1
  8
1
 10
-1261.07935
 20
-479.121239
 30
0.0
 70
    32
  0
VERTEX
  5
4E2
  8
1
 10
-1261.077463
 20
-479.064628
 30
0.0
 70
    32
  0
VERTEX
  5
4E3
  8
1
 10
-1261.076332
 20
-479.008056
 30
0.0
 70
    32
  0
VERTEX
  5
4E4
  8
1
 10
-1261.075956
 20
-478.951505
 30
0.0
 70
    32
  0
SEQEND
  5
4E5
  8
DEFPOINTS
  0
POLYLINE
  5
4E6
  8
1
 66
     1
 10
0.0
 20
0.0
 30
0.0
 70
     8
  0
VERTEX
  5
4E7
  8
1
 10
-1262.067148
 20
-481.95527
 30
0.0
 70
    32
  0
VERTEX
  5
4E8
  8
1
 10
-1261.987214
 20
-481.953142
 30
0.0
 70
    32
  0
VERTEX
  5
4E9
  8
1
 10
-1261.907507
 20
-481.946774
 30
0.0
 70
    32
  0
VERTEX
  5
4EA
  8
1
 10
-1261.828248
 20
-481.936209
 30
0.0
 70
    32
  0
VERTEX
  5
4EB
  8
1
 10
-1261.749656
 20
-481.921522
 30
0.0
 70
    32
  0
VERTEX
  5
4EC
  8
1
 10
-1261.671937
 20
-481.902814
 30
0.0
 70
    32
  0
VERTEX
  5
4ED
  8
1
 10
-1261.59529
 20
-481.880209
 30
0.0
 70
    32
  0
VERTEX
  5
4EE
  8
1
 10
-1261.519899
 20
-481.853856
 30
0.0
 70
    32
  0
VERTEX
  5
4EF
  8
1
 10
-1261.445931
 20
-481.823923
 30
0.0
 70
    32
  0
VERTEX
  5
4F0
  8
1
 10
-1261.37354
 20
-481.790593
 30
0.0
 70
    32
  0
VERTEX
  5
4F1
  8
1
 10
-1261.30286
 20
-481.754064
 30
0.0
 70
    32
  0
VERTEX
  5
4F2
  8
1
 10
-1261.234008
 20
-481.71454
 30
0.0
 70
    32
  0
VERTEX
  5
4F3
  8
1
 10
-1261.167084
 20
-481.672236
 30
0.0
 70
    32
  0
VERTEX
  5
4F4
  8
1
 10
-1261.102168
 20
-481.627367
 30
0.0
 70
    32
  0
VERTEX
  5
4F5
  8
1
 10
-1261.039325
 20
-481.580149
 30
0.0
 70
    32
  0
VERTEX
  5
4F6
  8
1
 10
-1260.978602
 20
-481.530796
 30
0.0
 70
    32
  0
VERTEX
  5
4F7
  8
1
 10
-1260.92003
 20
-481.479517
 30
0.0
 70
    32
  0
VERTEX
  5
4F8
  8
1
 10
-1260.863627
 20
-481.426517
 30
0.0
 70
    32
  0
VERTEX
  5
4F9
  8
1
 10
-1260.809398
 20
-481.371988
 30
0.0
 70
    32
  0
VERTEX
  5
4FA
  8
1
 10
-1260.757336
 20
-481.316117
 30
0.0
 70
    32
  0
VERTEX
  5
4FB
  8
1
 10
-1260.707423
 20
-481.25908
 30
0.0
 70
    32
  0
VERTEX
  5
4FC
  8
1
 10
-1260.659632
 20
-481.201039
 30
0.0
 70
    32
  0
VERTEX
  5
4FD
  8
1
 10
-1260.613929
 20
-481.142148
 30
0.0
 70
    32
  0
VERTEX
  5
4FE
  8
1
 10
-1260.570273
 20
-481.082547
 30
0.0
 70
    32
  0
VERTEX
  5
4FF
  8
1
 10
-1260.52862
 20
-481.022367
 30
0.0
 70
    32
  0
VERTEX
  5
500
  8
1
 10
-1260.488917
 20
-480.961724
 30
0.0
 70
    32
  0
VERTEX
  5
501
  8
1
 10
-1260.451112
 20
-480.900726
 30
0.0
 70
    32
  0
VERTEX
  5
502
  8
1
 10
-1260.415149
 20
-480.839469
 30
0.0
 70
    32
  0
VERTEX
  5
503
  8
1
 10
-1260.380971
 20
-480.778038
 30
0.0
 70
    32
  0
VERTEX
  5
504
  8
1
 10
-1260.348519
 20
-480.716509
 30
0.0
 70
    32
  0
VERTEX
  5
505
  8
1
 10
-1260.317736
 20
-480.65495
 30
0.0
 70
    32
  0
VERTEX
  5
506
  8
1
 10
-1260.288563
 20
-480.593418
 30
0.0
 70
    32
  0
VERTEX
  5
507
  8
1
 10
-1260.260942
 20
-480.531963
 30
0.0
 70
    32
  0
VERTEX
  5
508
  8
1
 10
-1260.234818
 20
-480.47063
 30
0.0
 70
    32
  0
VERTEX
  5
509
  8
1
 10
-1260.210135
 20
-480.409453
 30
0.0
 70
    32
  0
VERTEX
  5
50A
  8
1
 10
-1260.18684
 20
-480.348462
 30
0.0
 70
    32
  0
VERTEX
  5
50B
  8
1
 10
-1260.164881
 20
-480.287683
 30
0.0
 70
    32
  0
VERTEX
  5
50C
  8
1
 10
-1260.14421
 20
-480.227134
 30
0.0
 70
    32
  0
VERTEX
  5
50D
  8
1
 10
-1260.124779
 20
-480.16683
 30
0.0
 70
    32
  0
VERTEX
  5
50E
  8
1
 10
-1260.106542
 20
-480.10678
 30
0.0
 70
    32
  0
VERTEX
  5
50F
  8
1
 10
-1260.089458
 20
-480.046991
 30
0.0
 70
    32
  0
VERTEX
  5
510
  8
1
 10
-1260.073484
 20
-479.987467
 30
0.0
 70
    32
  0
VERTEX
  5
511
  8
1
 10
-1260.058583
 20
-479.928207
 30
0.0
 70
    32
  0
VERTEX
  5
512
  8
1
 10
-1260.04472
 20
-479.869207
 30
0.0
 70
    32
  0
VERTEX
  5
513
  8
1
 10
-1260.031859
 20
-479.810464
 30
0.0
 70
    32
  0
VERTEX
  5
514
  8
1
 10
-1260.019971
 20
-479.751969
 30
0.0
 70
    32
  0
VERTEX
  5
515
  8
1
 10
-1260.009025
 20
-479.693712
 30
0.0
 70
    32
  0
VERTEX
  5
516
  8
1
 10
-1259.998996
 20
-479.635684
 30
0.0
 70
    32
  0
VERTEX
  5
517
  8
1
 10
-1259.989857
 20
-479.577871
 30
0.0
 70
    32
  0
VERTEX
  5
518
  8
1
 10
-1259.981587
 20
-479.520259
 30
0.0
 70
    32
  0
VERTEX
  5
519
  8
1
 10
-1259.974165
 20
-479.462834
 30
0.0
 70
    32
  0
VERTEX
  5
51A
  8
1
 10
-1259.967573
 20
-479.405579
 30
0.0
 70
    32
  0
VERTEX
  5
51B
  8
1
 10
-1259.961795
 20
-479.348477
 30
0.0
 70
    32
  0
VERTEX
  5
51C
  8
1
 10
-1259.956816
 20
-479.29151
 30
0.0
 70
    32
  0
VERTEX
  5
51D
  8
1
 10
-1259.952623
 20
-479.234661
 30
0.0
 70
    32
  0
VERTEX
  5
51E
  8
1
 10
-1259.949207
 20
-479.177911
 30
0.0
 70
    32
  0
VERTEX
  5
51F
  8
1
 10
-1259.946558
 20
-479.121239
 30
0.0
 70
    32
  0
VERTEX
  5
520
  8
1
 10
-1259.944672
 20
-479.064628
 30
0.0
 70
    32
  0
VERTEX
  5
521
  8
1
 10
-1259.943541
 20
-479.008056
 30
0.0
 70
    32
  0
VERTEX
  5
522
  8
1
 10
-1259.943165
 20
-478.951505
 30
0.0
 70
    32
  0
SEQEND
  5
523
  8
DEFPOINTS
  0
LINE
  5
524
  8
1
 10
-1241.535287
 20
-481.95527
 30
0.0
 11
-1250.456069
 21
-481.95527
 31
0.0
  0
LINE
  5
525
  8
1
 10
-1232.105482
 20
-484.419273
 30
0.0
 11
-1249.127022
 21
-484.419273
 31
0.0
  0
POLYLINE
  5
526
  8
1
 66
     1
 10
0.0
 20
0.0
 30
0.0
 70
     8
  0
VERTEX
  5
527
  8
1
 10
-1242.668102
 20
-481.95527
 30
0.0
 70
    32
  0
VERTEX
  5
528
  8
1
 10
-1242.588169
 20
-481.953142
 30
0.0
 70
    32
  0
VERTEX
  5
529
  8
1
 10
-1242.508461
 20
-481.946774
 30
0.0
 70
    32
  0
VERTEX
  5
52A
  8
1
 10
-1242.429203
 20
-481.936209
 30
0.0
 70
    32
  0
VERTEX
  5
52B
  8
1
 10
-1242.35061
 20
-481.921522
 30
0.0
 70
    32
  0
VERTEX
  5
52C
  8
1
 10
-1242.272892
 20
-481.902814
 30
0.0
 70
    32
  0
VERTEX
  5
52D
  8
1
 10
-1242.196245
 20
-481.880209
 30
0.0
 70
    32
  0
VERTEX
  5
52E
  8
1
 10
-1242.120853
 20
-481.853856
 30
0.0
 70
    32
  0
VERTEX
  5
52F
  8
1
 10
-1242.046885
 20
-481.823923
 30
0.0
 70
    32
  0
VERTEX
  5
530
  8
1
 10
-1241.974494
 20
-481.790593
 30
0.0
 70
    32
  0
VERTEX
  5
531
  8
1
 10
-1241.903814
 20
-481.754064
 30
0.0
 70
    32
  0
VERTEX
  5
532
  8
1
 10
-1241.834963
 20
-481.71454
 30
0.0
 70
    32
  0
VERTEX
  5
533
  8
1
 10
-1241.768038
 20
-481.672236
 30
0.0
 70
    32
  0
VERTEX
  5
534
  8
1
 10
-1241.703123
 20
-481.627367
 30
0.0
 70
    32
  0
VERTEX
  5
535
  8
1
 10
-1241.640279
 20
-481.580149
 30
0.0
 70
    32
  0
VERTEX
  5
536
  8
1
 10
-1241.579556
 20
-481.530796
 30
0.0
 70
    32
  0
VERTEX
  5
537
  8
1
 10
-1241.520984
 20
-481.479517
 30
0.0
 70
    32
  0
VERTEX
  5
538
  8
1
 10
-1241.464581
 20
-481.426517
 30
0.0
 70
    32
  0
VERTEX
  5
539
  8
1
 10
-1241.410352
 20
-481.371988
 30
0.0
 70
    32
  0
VERTEX
  5
53A
  8
1
 10
-1241.35829
 20
-481.316117
 30
0.0
 70
    32
  0
VERTEX
  5
53B
  8
1
 10
-1241.308377
 20
-481.25908
 30
0.0
 70
    32
  0
VERTEX
  5
53C
  8
1
 10
-1241.260586
 20
-481.201039
 30
0.0
 70
    32
  0
VERTEX
  5
53D
  8
1
 10
-1241.214883
 20
-481.142148
 30
0.0
 70
    32
  0
VERTEX
  5
53E
  8
1
 10
-1241.171228
 20
-481.082547
 30
0.0
 70
    32
  0
VERTEX
  5
53F
  8
1
 10
-1241.129574
 20
-481.022367
 30
0.0
 70
    32
  0
VERTEX
  5
540
  8
1
 10
-1241.089871
 20
-480.961724
 30
0.0
 70
    32
  0
VERTEX
  5
541
  8
1
 10
-1241.052066
 20
-480.900726
 30
0.0
 70
    32
  0
VERTEX
  5
542
  8
1
 10
-1241.016103
 20
-480.839469
 30
0.0
 70
    32
  0
VERTEX
  5
543
  8
1
 10
-1240.981925
 20
-480.778038
 30
0.0
 70
    32
  0
VERTEX
  5
544
  8
1
 10
-1240.949474
 20
-480.716509
 30
0.0
 70
    32
  0
VERTEX
  5
545
  8
1
 10
-1240.91869
 20
-480.65495
 30
0.0
 70
    32
  0
VERTEX
  5
546
  8
1
 10
-1240.889517
 20
-480.593418
 30
0.0
 70
    32
  0
VERTEX
  5
547
  8
1
 10
-1240.861896
 20
-480.531963
 30
0.0
 70
    32
  0
VERTEX
  5
548
  8
1
 10
-1240.835772
 20
-480.47063
 30
0.0
 70
    32
  0
VERTEX
  5
549
  8
1
 10
-1240.811089
 20
-480.409453
 30
0.0
 70
    32
  0
VERTEX
  5
54A
  8
1
 10
-1240.787794
 20
-480.348462
 30
0.0
 70
    32
  0
VERTEX
  5
54B
  8
1
 10
-1240.765836
 20
-480.287683
 30
0.0
 70
    32
  0
VERTEX
  5
54C
  8
1
 10
-1240.745165
 20
-480.227134
 30
0.0
 70
    32
  0
VERTEX
  5
54D
  8
1
 10
-1240.725733
 20
-480.16683
 30
0.0
 70
    32
  0
VERTEX
  5
54E
  8
1
 10
-1240.707497
 20
-480.10678
 30
0.0
 70
    32
  0
VERTEX
  5
54F
  8
1
 10
-1240.690412
 20
-480.046991
 30
0.0
 70
    32
  0
VERTEX
  5
550
  8
1
 10
-1240.674438
 20
-479.987467
 30
0.0
 70
    32
  0
VERTEX
  5
551
  8
1
 10
-1240.659538
 20
-479.928207
 30
0.0
 70
    32
  0
VERTEX
  5
552
  8
1
 10
-1240.645674
 20
-479.869207
 30
0.0
 70
    32
  0
VERTEX
  5
553
  8
1
 10
-1240.632814
 20
-479.810464
 30
0.0
 70
    32
  0
VERTEX
  5
554
  8
1
 10
-1240.620925
 20
-479.751969
 30
0.0
 70
    32
  0
VERTEX
  5
555
  8
1
 10
-1240.60998
 20
-479.693712
 30
0.0
 70
    32
  0
VERTEX
  5
556
  8
1
 10
-1240.59995
 20
-479.635684
 30
0.0
 70
    32
  0
VERTEX
  5
557
  8
1
 10
-1240.590811
 20
-479.577871
 30
0.0
 70
    32
  0
VERTEX
  5
558
  8
1
 10
-1240.582541
 20
-479.520259
 30
0.0
 70
    32
  0
VERTEX
  5
559
  8
1
 10
-1240.57512
 20
-479.462834
 30
0.0
 70
    32
  0
VERTEX
  5
55A
  8
1
 10
-1240.568528
 20
-479.405579
 30
0.0
 70
    32
  0
VERTEX
  5
55B
  8
1
 10
-1240.562749
 20
-479.348477
 30
0.0
 70
    32
  0
VERTEX
  5
55C
  8
1
 10
-1240.55777
 20
-479.29151
 30
0.0
 70
    32
  0
VERTEX
  5
55D
  8
1
 10
-1240.553577
 20
-479.234661
 30
0.0
 70
    32
  0
VERTEX
  5
55E
  8
1
 10
-1240.550161
 20
-479.177911
 30
0.0
 70
    32
  0
VERTEX
  5
55F
  8
1
 10
-1240.547513
 20
-479.121239
 30
0.0
 70
    32
  0
VERTEX
  5
560
  8
1
 10
-1240.545626
 20
-479.064628
 30
0.0
 70
    32
  0
VERTEX
  5
561
  8
1
 10
-1240.544495
 20
-479.008056
 30
0.0
 70
    32
  0
VERTEX
  5
562
  8
1
 10
-1240.544119
 20
-478.951505
 30
0.0
 70
    32
  0
SEQEND
  5
563
  8
DEFPOINTS
  0
POLYLINE
  5
564
  8
1
 66
     1
 10
0.0
 20
0.0
 30
0.0
 70
     8
  0
VERTEX
  5
565
  8
1
 10
-1241.535311
 20
-481.95527
 30
0.0
 70
    32
  0
VERTEX
  5
566
  8
1
 10
-1241.455378
 20
-481.953142
 30
0.0
 70
    32
  0
VERTEX
  5
567
  8
1
 10
-1241.37567
 20
-481.946774
 30
0.0
 70
    32
  0
VERTEX
  5
568
  8
1
 10
-1241.296412
 20
-481.936209
 30
0.0
 70
    32
  0
VERTEX
  5
569
  8
1
 10
-1241.217819
 20
-481.921522
 30
0.0
 70
    32
  0
VERTEX
  5
56A
  8
1
 10
-1241.140101
 20
-481.902814
 30
0.0
 70
    32
  0
VERTEX
  5
56B
  8
1
 10
-1241.063454
 20
-481.880209
 30
0.0
 70
    32
  0
VERTEX
  5
56C
  8
1
 10
-1240.988062
 20
-481.853856
 30
0.0
 70
    32
  0
VERTEX
  5
56D
  8
1
 10
-1240.914094
 20
-481.823923
 30
0.0
 70
    32
  0
VERTEX
  5
56E
  8
1
 10
-1240.841703
 20
-481.790593
 30
0.0
 70
    32
  0
VERTEX
  5
56F
  8
1
 10
-1240.771023
 20
-481.754064
 30
0.0
 70
    32
  0
VERTEX
  5
570
  8
1
 10
-1240.702172
 20
-481.71454
 30
0.0
 70
    32
  0
VERTEX
  5
571
  8
1
 10
-1240.635247
 20
-481.672236
 30
0.0
 70
    32
  0
VERTEX
  5
572
  8
1
 10
-1240.570332
 20
-481.627367
 30
0.0
 70
    32
  0
VERTEX
  5
573
  8
1
 10
-1240.507488
 20
-481.580149
 30
0.0
 70
    32
  0
VERTEX
  5
574
  8
1
 10
-1240.446765
 20
-481.530796
 30
0.0
 70
    32
  0
VERTEX
  5
575
  8
1
 10
-1240.388193
 20
-481.479517
 30
0.0
 70
    32
  0
VERTEX
  5
576
  8
1
 10
-1240.33179
 20
-481.426517
 30
0.0
 70
    32
  0
VERTEX
  5
577
  8
1
 10
-1240.277561
 20
-481.371988
 30
0.0
 70
    32
  0
VERTEX
  5
578
  8
1
 10
-1240.225499
 20
-481.316117
 30
0.0
 70
    32
  0
VERTEX
  5
579
  8
1
 10
-1240.175586
 20
-481.25908
 30
0.0
 70
    32
  0
VERTEX
  5
57A
  8
1
 10
-1240.127795
 20
-481.201039
 30
0.0
 70
    32
  0
VERTEX
  5
57B
  8
1
 10
-1240.082092
 20
-481.142148
 30
0.0
 70
    32
  0
VERTEX
  5
57C
  8
1
 10
-1240.038437
 20
-481.082547
 30
0.0
 70
    32
  0
VERTEX
  5
57D
  8
1
 10
-1239.996783
 20
-481.022367
 30
0.0
 70
    32
  0
VERTEX
  5
57E
  8
1
 10
-1239.95708
 20
-480.961724
 30
0.0
 70
    32
  0
VERTEX
  5
57F
  8
1
 10
-1239.919275
 20
-480.900726
 30
0.0
 70
    32
  0
VERTEX
  5
580
  8
1
 10
-1239.883312
 20
-480.839469
 30
0.0
 70
    32
  0
VERTEX
  5
581
  8
1
 10
-1239.849134
 20
-480.778038
 30
0.0
 70
    32
  0
VERTEX
  5
582
  8
1
 10
-1239.816683
 20
-480.716509
 30
0.0
 70
    32
  0
VERTEX
  5
583
  8
1
 10
-1239.785899
 20
-480.65495
 30
0.0
 70
    32
  0
VERTEX
  5
584
  8
1
 10
-1239.756726
 20
-480.593418
 30
0.0
 70
    32
  0
VERTEX
  5
585
  8
1
 10
-1239.729105
 20
-480.531963
 30
0.0
 70
    32
  0
VERTEX
  5
586
  8
1
 10
-1239.702981
 20
-480.47063
 30
0.0
 70
    32
  0
VERTEX
  5
587
  8
1
 10
-1239.678298
 20
-480.409453
 30
0.0
 70
    32
  0
VERTEX
  5
588
  8
1
 10
-1239.655003
 20
-480.348462
 30
0.0
 70
    32
  0
VERTEX
  5
589
  8
1
 10
-1239.633045
 20
-480.287683
 30
0.0
 70
    32
  0
VERTEX
  5
58A
  8
1
 10
-1239.612374
 20
-480.227134
 30
0.0
 70
    32
  0
VERTEX
  5
58B
  8
1
 10
-1239.592942
 20
-480.16683
 30
0.0
 70
    32
  0
VERTEX
  5
58C
  8
1
 10
-1239.574706
 20
-480.10678
 30
0.0
 70
    32
  0
VERTEX
  5
58D
  8
1
 10
-1239.557621
 20
-480.046991
 30
0.0
 70
    32
  0
VERTEX
  5
58E
  8
1
 10
-1239.541647
 20
-479.987467
 30
0.0
 70
    32
  0
VERTEX
  5
58F
  8
1
 10
-1239.526747
 20
-479.928207
 30
0.0
 70
    32
  0
VERTEX
  5
590
  8
1
 10
-1239.512883
 20
-479.869207
 30
0.0
 70
    32
  0
VERTEX
  5
591
  8
1
 10
-1239.500023
 20
-479.810464
 30
0.0
 70
    32
  0
VERTEX
  5
592
  8
1
 10
-1239.488134
 20
-479.751969
 30
0.0
 70
    32
  0
VERTEX
  5
593
  8
1
 10
-1239.477189
 20
-479.693712
 30
0.0
 70
    32
  0
VERTEX
  5
594
  8
1
 10
-1239.467159
 20
-479.635684
 30
0.0
 70
    32
  0
VERTEX
  5
595
  8
1
 10
-1239.45802
 20
-479.577871
 30
0.0
 70
    32
  0
VERTEX
  5
596
  8
1
 10
-1239.44975
 20
-479.520259
 30
0.0
 70
    32
  0
VERTEX
  5
597
  8
1
 10
-1239.442329
 20
-479.462834
 30
0.0
 70
    32
  0
VERTEX
  5
598
  8
1
 10
-1239.435737
 20
-479.405579
 30
0.0
 70
    32
  0
VERTEX
  5
599
  8
1
 10
-1239.429958
 20
-479.348477
 30
0.0
 70
    32
  0
VERTEX
  5
59A
  8
1
 10
-1239.424979
 20
-479.29151
 30
0.0
 70
    32
  0
VERTEX
  5
59B
  8
1
 10
-1239.420786
 20
-479.234661
 30
0.0
 70
    32
  0
VERTEX
  5
59C
  8
1
 10
-1239.41737
 20
-479.177911
 30
0.0
 70
    32
  0
VERTEX
  5
59D
  8
1
 10
-1239.414722
 20
-479.121239
 30
0.0
 70
    32
  0
VERTEX
  5
59E
  8
1
 10
-1239.412835
 20
-479.064628
 30
0.0
 70
    32
  0
VERTEX
  5
59F
  8
1
 10
-1239.411704
 20
-479.008056
 30
0.0
 70
    32
  0
VERTEX
  5
5A0
  8
1
 10
-1239.411328
 20
-478.951505
 30
0.0
 70
    32
  0
SEQEND
  5
5A1
  8
DEFPOINTS
  0
LINE
  5
5A2
  8
1
 10
-1237.111759
 20
-474.40672
 30
0.0
 11
-1237.111759
 21
-494.431825
 31
0.0
  0
LINE
  5
5A3
  8
1
 10
-1232.105482
 20
-474.40672
 30
0.0
 11
-1232.105482
 21
-494.431825
 31
0.0
  0
LINE
  5
5A4
  8
1
 10
-1244.120546
 20
-481.816009
 30
0.0
 11
-1244.120546
 21
-494.431825
 31
0.0
  0
POLYLINE
  5
5A5
  8
1
 66
     1
 10
0.0
 20
0.0
 30
0.0
 70
     8
  0
VERTEX
  5
5A6
  8
1
 10
-1252.580023
 20
-478.951505
 30
0.0
 70
    32
  0
VERTEX
  5
5A7
  8
1
 10
-1252.579647
 20
-479.008056
 30
0.0
 70
    32
  0
VERTEX
  5
5A8
  8
1
 10
-1252.578517
 20
-479.064628
 30
0.0
 70
    32
  0
VERTEX
  5
5A9
  8
1
 10
-1252.57663
 20
-479.121239
 30
0.0
 70
    32
  0
VERTEX
  5
5AA
  8
1
 10
-1252.573981
 20
-479.177911
 30
0.0
 70
    32
  0
VERTEX
  5
5AB
  8
1
 10
-1252.570565
 20
-479.234661
 30
0.0
 70
    32
  0
VERTEX
  5
5AC
  8
1
 10
-1252.566372
 20
-479.29151
 30
0.0
 70
    32
  0
VERTEX
  5
5AD
  8
1
 10
-1252.561393
 20
-479.348477
 30
0.0
 70
    32
  0
VERTEX
  5
5AE
  8
1
 10
-1252.555615
 20
-479.405579
 30
0.0
 70
    32
  0
VERTEX
  5
5AF
  8
1
 10
-1252.549023
 20
-479.462834
 30
0.0
 70
    32
  0
VERTEX
  5
5B0
  8
1
 10
-1252.541601
 20
-479.520259
 30
0.0
 70
    32
  0
VERTEX
  5
5B1
  8
1
 10
-1252.533331
 20
-479.577871
 30
0.0
 70
    32
  0
VERTEX
  5
5B2
  8
1
 10
-1252.524192
 20
-479.635684
 30
0.0
 70
    32
  0
VERTEX
  5
5B3
  8
1
 10
-1252.514163
 20
-479.693712
 30
0.0
 70
    32
  0
VERTEX
  5
5B4
  8
1
 10
-1252.503217
 20
-479.751969
 30
0.0
 70
    32
  0
VERTEX
  5
5B5
  8
1
 10
-1252.491329
 20
-479.810464
 30
0.0
 70
    32
  0
VERTEX
  5
5B6
  8
1
 10
-1252.478468
 20
-479.869207
 30
0.0
 70
    32
  0
VERTEX
  5
5B7
  8
1
 10
-1252.464605
 20
-479.928207
 30
0.0
 70
    32
  0
VERTEX
  5
5B8
  8
1
 10
-1252.449704
 20
-479.987467
 30
0.0
 70
    32
  0
VERTEX
  5
5B9
  8
1
 10
-1252.43373
 20
-480.046991
 30
0.0
 70
    32
  0
VERTEX
  5
5BA
  8
1
 10
-1252.416646
 20
-480.10678
 30
0.0
 70
    32
  0
VERTEX
  5
5BB
  8
1
 10
-1252.398409
 20
-480.16683
 30
0.0
 70
    32
  0
VERTEX
  5
5BC
  8
1
 10
-1252.378978
 20
-480.227134
 30
0.0
 70
    32
  0
VERTEX
  5
5BD
  8
1
 10
-1252.358307
 20
-480.287683
 30
0.0
 70
    32
  0
VERTEX
  5
5BE
  8
1
 10
-1252.336348
 20
-480.348462
 30
0.0
 70
    32
  0
VERTEX
  5
5BF
  8
1
 10
-1252.313053
 20
-480.409453
 30
0.0
 70
    32
  0
VERTEX
  5
5C0
  8
1
 10
-1252.28837
 20
-480.47063
 30
0.0
 70
    32
  0
VERTEX
  5
5C1
  8
1
 10
-1252.262246
 20
-480.531963
 30
0.0
 70
    32
  0
VERTEX
  5
5C2
  8
1
 10
-1252.234625
 20
-480.593418
 30
0.0
 70
    32
  0
VERTEX
  5
5C3
  8
1
 10
-1252.205452
 20
-480.65495
 30
0.0
 70
    32
  0
VERTEX
  5
5C4
  8
1
 10
-1252.174669
 20
-480.716509
 30
0.0
 70
    32
  0
VERTEX
  5
5C5
  8
1
 10
-1252.142217
 20
-480.778038
 30
0.0
 70
    32
  0
VERTEX
  5
5C6
  8
1
 10
-1252.108039
 20
-480.839469
 30
0.0
 70
    32
  0
VERTEX
  5
5C7
  8
1
 10
-1252.072076
 20
-480.900726
 30
0.0
 70
    32
  0
VERTEX
  5
5C8
  8
1
 10
-1252.034271
 20
-480.961724
 30
0.0
 70
    32
  0
VERTEX
  5
5C9
  8
1
 10
-1251.994568
 20
-481.022367
 30
0.0
 70
    32
  0
VERTEX
  5
5CA
  8
1
 10
-1251.952915
 20
-481.082547
 30
0.0
 70
    32
  0
VERTEX
  5
5CB
  8
1
 10
-1251.909259
 20
-481.142148
 30
0.0
 70
    32
  0
VERTEX
  5
5CC
  8
1
 10
-1251.863556
 20
-481.201039
 30
0.0
 70
    32
  0
VERTEX
  5
5CD
  8
1
 10
-1251.815766
 20
-481.25908
 30
0.0
 70
    32
  0
VERTEX
  5
5CE
  8
1
 10
-1251.765852
 20
-481.316117
 30
0.0
 70
    32
  0
VERTEX
  5
5CF
  8
1
 10
-1251.71379
 20
-481.371988
 30
0.0
 70
    32
  0
VERTEX
  5
5D0
  8
1
 10
-1251.659561
 20
-481.426517
 30
0.0
 70
    32
  0
VERTEX
  5
5D1
  8
1
 10
-1251.603158
 20
-481.479517
 30
0.0
 70
    32
  0
VERTEX
  5
5D2
  8
1
 10
-1251.544586
 20
-481.530796
 30
0.0
 70
    32
  0
VERTEX
  5
5D3
  8
1
 10
-1251.483863
 20
-481.580149
 30
0.0
 70
    32
  0
VERTEX
  5
5D4
  8
1
 10
-1251.42102
 20
-481.627367
 30
0.0
 70
    32
  0
VERTEX
  5
5D5
  8
1
 10
-1251.356104
 20
-481.672236
 30
0.0
 70
    32
  0
VERTEX
  5
5D6
  8
1
 10
-1251.28918
 20
-481.71454
 30
0.0
 70
    32
  0
VERTEX
  5
5D7
  8
1
 10
-1251.220328
 20
-481.754064
 30
0.0
 70
    32
  0
VERTEX
  5
5D8
  8
1
 10
-1251.149648
 20
-481.790593
 30
0.0
 70
    32
  0
VERTEX
  5
5D9
  8
1
 10
-1251.077257
 20
-481.823923
 30
0.0
 70
    32
  0
VERTEX
  5
5DA
  8
1
 10
-1251.003289
 20
-481.853856
 30
0.0
 70
    32
  0
VERTEX
  5
5DB
  8
1
 10
-1250.927898
 20
-481.880209
 30
0.0
 70
    32
  0
VERTEX
  5
5DC
  8
1
 10
-1250.851251
 20
-481.902814
 30
0.0
 70
    32
  0
VERTEX
  5
5DD
  8
1
 10
-1250.773532
 20
-481.921522
 30
0.0
 70
    32
  0
VERTEX
  5
5DE
  8
1
 10
-1250.69494
 20
-481.936209
 30
0.0
 70
    32
  0
VERTEX
  5
5DF
  8
1
 10
-1250.615681
 20
-481.946774
 30
0.0
 70
    32
  0
VERTEX
  5
5E0
  8
1
 10
-1250.535974
 20
-481.953142
 30
0.0
 70
    32
  0
VERTEX
  5
5E1
  8
1
 10
-1250.45604
 20
-481.95527
 30
0.0
 70
    32
  0
SEQEND
  5
5E2
  8
DEFPOINTS
  0
LINE
  5
5E3
  8
1
 10
-1249.126822
 20
-481.816009
 30
0.0
 11
-1249.126822
 21
-494.431725
 31
0.0
  0
LINE
  5
5E4
  8
1
 10
-1232.105482
 20
-494.431825
 30
0.0
 11
-1249.127022
 21
-494.431825
 31
0.0
  0
LINE
  5
5E5
  8
1
  6
DIVIDE
 10
-1244.621173
 20
-512.855022
 30
0.0
 11
-1244.621173
 21
-494.431825
 31
0.0
  0
LINE
  5
5E6
  8
1
  6
DIVIDE
 10
-1236.611131
 20
-512.855022
 30
0.0
 11
-1236.611131
 21
-494.431825
 31
0.0
  0
LINE
  5
5E7
  8
1
 10
-1198.70165
 20
-468.338199
 30
0.0
 11
-1207.905577
 21
-468.338199
 31
0.0
  0
LINE
  5
5E8
  8
1
 10
-1199.834441
 20
-474.946483
 30
0.0
 11
-1212.03207
 21
-474.946483
 31
0.0
  0
LINE
  5
5E9
  8
1
 10
-1209.560342
 20
-471.942719
 30
0.0
 11
-1207.436359
 21
-474.946483
 31
0.0
  0
LINE
  5
5EA
  8
1
 10
-1215.035836
 20
-471.942719
 30
0.0
 11
-1212.03207
 21
-474.946483
 31
0.0
  0
LINE
  5
5EB
  8
1
 10
-1232.105482
 20
-454.782117
 30
0.0
 11
-1232.105482
 21
-464.79467
 31
0.0
  0
LINE
  5
5EC
  8
1
 10
-1244.120546
 20
-454.782017
 30
0.0
 11
-1244.120546
 21
-464.79467
 31
0.0
  0
LINE
  5
5ED
  8
1
 10
-1249.126822
 20
-454.782117
 30
0.0
 11
-1249.126822
 21
-464.794569
 31
0.0
  0
LINE
  5
5EE
  8
1
 10
-1210.02956
 20
-465.334434
 30
0.0
 11
-1207.905577
 21
-468.338199
 31
0.0
  0
LINE
  5
5EF
  8
1
  6
DIVIDE
 10
-1236.611131
 20
-512.854922
 30
0.0
 11
-1244.621173
 21
-512.854922
 31
0.0
  0
POLYLINE
  5
5F0
  8
1
 66
     1
 10
0.0
 20
0.0
 30
0.0
 70
     8
  0
VERTEX
  5
5F1
  8
1
 10
-1273.11186
 20
-478.951505
 30
0.0
 70
    32
  0
VERTEX
  5
5F2
  8
1
 10
-1273.111484
 20
-479.008056
 30
0.0
 70
    32
  0
VERTEX
  5
5F3
  8
1
 10
-1273.110353
 20
-479.064628
 30
0.0
 70
    32
  0
VERTEX
  5
5F4
  8
1
 10
-1273.108466
 20
-479.121239
 30
0.0
 70
    32
  0
VERTEX
  5
5F5
  8
1
 10
-1273.105818
 20
-479.177911
 30
0.0
 70
    32
  0
VERTEX
  5
5F6
  8
1
 10
-1273.102402
 20
-479.234661
 30
0.0
 70
    32
  0
VERTEX
  5
5F7
  8
1
 10
-1273.098209
 20
-479.29151
 30
0.0
 70
    32
  0
VERTEX
  5
5F8
  8
1
 10
-1273.09323
 20
-479.348477
 30
0.0
 70
    32
  0
VERTEX
  5
5F9
  8
1
 10
-1273.087451
 20
-479.405579
 30
0.0
 70
    32
  0
VERTEX
  5
5FA
  8
1
 10
-1273.080859
 20
-479.462834
 30
0.0
 70
    32
  0
VERTEX
  5
5FB
  8
1
 10
-1273.073438
 20
-479.520259
 30
0.0
 70
    32
  0
VERTEX
  5
5FC
  8
1
 10
-1273.065168
 20
-479.577871
 30
0.0
 70
    32
  0
VERTEX
  5
5FD
  8
1
 10
-1273.056029
 20
-479.635684
 30
0.0
 70
    32
  0
VERTEX
  5
5FE
  8
1
 10
-1273.045999
 20
-479.693712
 30
0.0
 70
    32
  0
VERTEX
  5
5FF
  8
1
 10
-1273.035054
 20
-479.751969
 30
0.0
 70
    32
  0
VERTEX
  5
600
  8
1
 10
-1273.023165
 20
-479.810464
 30
0.0
 70
    32
  0
VERTEX
  5
601
  8
1
 10
-1273.010305
 20
-479.869207
 30
0.0
 70
    32
  0
VERTEX
  5
602
  8
1
 10
-1272.996441
 20
-479.928207
 30
0.0
 70
    32
  0
VERTEX
  5
603
  8
1
 10
-1272.981541
 20
-479.987467
 30
0.0
 70
    32
  0
VERTEX
  5
604
  8
1
 10
-1272.965567
 20
-480.046991
 30
0.0
 70
    32
  0
VERTEX
  5
605
  8
1
 10
-1272.948482
 20
-480.10678
 30
0.0
 70
    32
  0
VERTEX
  5
606
  8
1
 10
-1272.930246
 20
-480.16683
 30
0.0
 70
    32
  0
VERTEX
  5
607
  8
1
 10
-1272.910815
 20
-480.227134
 30
0.0
 70
    32
  0
VERTEX
  5
608
  8
1
 10
-1272.890143
 20
-480.287683
 30
0.0
 70
    32
  0
VERTEX
  5
609
  8
1
 10
-1272.868185
 20
-480.348462
 30
0.0
 70
    32
  0
VERTEX
  5
60A
  8
1
 10
-1272.84489
 20
-480.409453
 30
0.0
 70
    32
  0
VERTEX
  5
60B
  8
1
 10
-1272.820207
 20
-480.47063
 30
0.0
 70
    32
  0
VERTEX
  5
60C
  8
1
 10
-1272.794083
 20
-480.531963
 30
0.0
 70
    32
  0
VERTEX
  5
60D
  8
1
 10
-1272.766462
 20
-480.593418
 30
0.0
 70
    32
  0
VERTEX
  5
60E
  8
1
 10
-1272.737289
 20
-480.65495
 30
0.0
 70
    32
  0
VERTEX
  5
60F
  8
1
 10
-1272.706505
 20
-480.716509
 30
0.0
 70
    32
  0
VERTEX
  5
610
  8
1
 10
-1272.674054
 20
-480.778038
 30
0.0
 70
    32
  0
VERTEX
  5
611
  8
1
 10
-1272.639876
 20
-480.839469
 30
0.0
 70
    32
  0
VERTEX
  5
612
  8
1
 10
-1272.603913
 20
-480.900726
 30
0.0
 70
    32
  0
VERTEX
  5
613
  8
1
 10
-1272.566108
 20
-480.961724
 30
0.0
 70
    32
  0
VERTEX
  5
614
  8
1
 10
-1272.526405
 20
-481.022367
 30
0.0
 70
    32
  0
VERTEX
  5
615
  8
1
 10
-1272.484751
 20
-481.082547
 30
0.0
 70
    32
  0
VERTEX
  5
616
  8
1
 10
-1272.441096
 20
-481.142148
 30
0.0
 70
    32
  0
VERTEX
  5
617
  8
1
 10
-1272.395393
 20
-481.201039
 30
0.0
 70
    32
  0
VERTEX
  5
618
  8
1
 10
-1272.347602
 20
-481.25908
 30
0.0
 70
    32
  0
VERTEX
  5
619
  8
1
 10
-1272.297689
 20
-481.316117
 30
0.0
 70
    32
  0
VERTEX
  5
61A
  8
1
 10
-1272.245627
 20
-481.371988
 30
0.0
 70
    32
  0
VERTEX
  5
61B
  8
1
 10
-1272.191398
 20
-481.426517
 30
0.0
 70
    32
  0
VERTEX
  5
61C
  8
1
 10
-1272.134995
 20
-481.479517
 30
0.0
 70
    32
  0
VERTEX
  5
61D
  8
1
 10
-1272.076423
 20
-481.530796
 30
0.0
 70
    32
  0
VERTEX
  5
61E
  8
1
 10
-1272.0157
 20
-481.580149
 30
0.0
 70
    32
  0
VERTEX
  5
61F
  8
1
 10
-1271.952856
 20
-481.627367
 30
0.0
 70
    32
  0
VERTEX
  5
620
  8
1
 10
-1271.887941
 20
-481.672236
 30
0.0
 70
    32
  0
VERTEX
  5
621
  8
1
 10
-1271.821016
 20
-481.71454
 30
0.0
 70
    32
  0
VERTEX
  5
622
  8
1
 10
-1271.752165
 20
-481.754064
 30
0.0
 70
    32
  0
VERTEX
  5
623
  8
1
 10
-1271.681485
 20
-481.790593
 30
0.0
 70
    32
  0
VERTEX
  5
624
  8
1
 10
-1271.609094
 20
-481.823923
 30
0.0
 70
    32
  0
VERTEX
  5
625
  8
1
 10
-1271.535126
 20
-481.853856
 30
0.0
 70
    32
  0
VERTEX
  5
626
  8
1
 10
-1271.459734
 20
-481.880209
 30
0.0
 70
    32
  0
VERTEX
  5
627
  8
1
 10
-1271.383088
 20
-481.902814
 30
0.0
 70
    32
  0
VERTEX
  5
628
  8
1
 10
-1271.305369
 20
-481.921522
 30
0.0
 70
    32
  0
VERTEX
  5
629
  8
1
 10
-1271.226777
 20
-481.936209
 30
0.0
 70
    32
  0
VERTEX
  5
62A
  8
1
 10
-1271.147518
 20
-481.946774
 30
0.0
 70
    32
  0
VERTEX
  5
62B
  8
1
 10
-1271.06781
 20
-481.953142
 30
0.0
 70
    32
  0
VERTEX
  5
62C
  8
1
 10
-1270.987877
 20
-481.95527
 30
0.0
 70
    32
  0
SEQEND
  5
62D
  8
DEFPOINTS
  0
LINE
  5
62E
  8
1
  6
DIVIDE
 10
-450.661074
 20
-513.362425
 30
0.0
 11
-458.671116
 21
-513.362425
 31
0.0
  0
LINE
  5
62F
  8
1
 10
-494.997783
 20
-465.334435
 30
0.0
 11
-431.915482
 21
-465.334435
 31
0.0
  0
LINE
  5
630
  8
1
 10
-495.467
 20
-471.942719
 30
0.0
 11
-465.616014
 21
-471.942719
 31
0.0
  0
LINE
  5
631
  8
1
 10
-463.492055
 20
-481.955271
 30
0.0
 11
-454.571273
 21
-481.955271
 31
0.0
  0
LINE
  5
632
  8
1
 10
-445.084178
 20
-478.951539
 30
0.0
 11
-445.084178
 21
-471.942719
 31
0.0
  0
LINE
  5
633
  8
1
 10
-443.951387
 20
-478.951564
 30
0.0
 11
-443.951387
 21
-465.334435
 31
0.0
  0
LINE
  5
634
  8
1
 10
-452.447319
 20
-478.951571
 30
0.0
 11
-452.447319
 21
-465.334435
 31
0.0
  0
LINE
  5
635
  8
1
 10
-464.483223
 20
-478.951558
 30
0.0
 11
-464.483223
 21
-465.334435
 31
0.0
  0
LINE
  5
636
  8
1
 10
-465.616014
 20
-478.951543
 30
0.0
 11
-465.616014
 21
-471.942719
 31
0.0
  0
LINE
  5
637
  8
1
 10
-442.96022
 20
-481.955271
 30
0.0
 11
-434.039437
 21
-481.955271
 31
0.0
  0
LINE
  5
638
  8
1
 10
-452.447319
 20
-471.942719
 30
0.0
 11
-445.084178
 21
-471.942719
 31
0.0
  0
LINE
  5
639
  8
1
 10
-506.325693
 20
-468.338199
 30
0.0
 11
-497.121766
 21
-468.338199
 31
0.0
  0
LINE
  5
63A
  8
1
 10
-505.192902
 20
-474.946484
 30
0.0
 11
-492.995272
 21
-474.946484
 31
0.0
  0
LINE
  5
63B
  8
1
 10
-494.997783
 20
-465.334435
 30
0.0
 11
-497.121766
 21
-468.338199
 31
0.0
  0
LINE
  5
63C
  8
1
 10
-495.467
 20
-471.942719
 30
0.0
 11
-497.590983
 21
-474.946484
 31
0.0
  0
LINE
  5
63D
  8
1
 10
-454.217306
 20
-559.051927
 30
0.0
 11
-454.217306
 21
-513.362425
 31
0.0
  0
LINE
  5
63E
  8
1
 10
-489.991506
 20
-471.942719
 30
0.0
 11
-492.995272
 21
-474.946484
 31
0.0
  0
POLYLINE
  5
63F
  8
1
 66
     1
 10
0.0
 20
0.0
 30
0.0
 70
     8
  0
VERTEX
  5
640
  8
1
 10
-454.571302
 20
-481.955271
 30
0.0
 70
    32
  0
VERTEX
  5
641
  8
1
 10
-454.491369
 20
-481.953143
 30
0.0
 70
    32
  0
VERTEX
  5
642
  8
1
 10
-454.411661
 20
-481.946774
 30
0.0
 70
    32
  0
VERTEX
  5
643
  8
1
 10
-454.332403
 20
-481.93621
 30
0.0
 70
    32
  0
VERTEX
  5
644
  8
1
 10
-454.25381
 20
-481.921523
 30
0.0
 70
    32
  0
VERTEX
  5
645
  8
1
 10
-454.176092
 20
-481.902814
 30
0.0
 70
    32
  0
VERTEX
  5
646
  8
1
 10
-454.099445
 20
-481.88021
 30
0.0
 70
    32
  0
VERTEX
  5
647
  8
1
 10
-454.024053
 20
-481.853857
 30
0.0
 70
    32
  0
VERTEX
  5
648
  8
1
 10
-453.950085
 20
-481.823924
 30
0.0
 70
    32
  0
VERTEX
  5
649
  8
1
 10
-453.877694
 20
-481.790594
 30
0.0
 70
    32
  0
VERTEX
  5
64A
  8
1
 10
-453.807014
 20
-481.754064
 30
0.0
 70
    32
  0
VERTEX
  5
64B
  8
1
 10
-453.738163
 20
-481.714541
 30
0.0
 70
    32
  0
VERTEX
  5
64C
  8
1
 10
-453.671238
 20
-481.672237
 30
0.0
 70
    32
  0
VERTEX
  5
64D
  8
1
 10
-453.606323
 20
-481.627367
 30
0.0
 70
    32
  0
VERTEX
  5
64E
  8
1
 10
-453.543479
 20
-481.580149
 30
0.0
 70
    32
  0
VERTEX
  5
64F
  8
1
 10
-453.482756
 20
-481.530796
 30
0.0
 70
    32
  0
VERTEX
  5
650
  8
1
 10
-453.424184
 20
-481.479518
 30
0.0
 70
    32
  0
VERTEX
  5
651
  8
1
 10
-453.367781
 20
-481.426517
 30
0.0
 70
    32
  0
VERTEX
  5
652
  8
1
 10
-453.313553
 20
-481.371989
 30
0.0
 70
    32
  0
VERTEX
  5
653
  8
1
 10
-453.26149
 20
-481.316118
 30
0.0
 70
    32
  0
VERTEX
  5
654
  8
1
 10
-453.211577
 20
-481.25908
 30
0.0
 70
    32
  0
VERTEX
  5
655
  8
1
 10
-453.163786
 20
-481.201039
 30
0.0
 70
    32
  0
VERTEX
  5
656
  8
1
 10
-453.118083
 20
-481.142148
 30
0.0
 70
    32
  0
VERTEX
  5
657
  8
1
 10
-453.074428
 20
-481.082548
 30
0.0
 70
    32
  0
VERTEX
  5
658
  8
1
 10
-453.032774
 20
-481.022367
 30
0.0
 70
    32
  0
VERTEX
  5
659
  8
1
 10
-452.993071
 20
-480.961725
 30
0.0
 70
    32
  0
VERTEX
  5
65A
  8
1
 10
-452.955266
 20
-480.900727
 30
0.0
 70
    32
  0
VERTEX
  5
65B
  8
1
 10
-452.919303
 20
-480.839469
 30
0.0
 70
    32
  0
VERTEX
  5
65C
  8
1
 10
-452.885125
 20
-480.778038
 30
0.0
 70
    32
  0
VERTEX
  5
65D
  8
1
 10
-452.852674
 20
-480.71651
 30
0.0
 70
    32
  0
VERTEX
  5
65E
  8
1
 10
-452.82189
 20
-480.65495
 30
0.0
 70
    32
  0
VERTEX
  5
65F
  8
1
 10
-452.792717
 20
-480.593418
 30
0.0
 70
    32
  0
VERTEX
  5
660
  8
1
 10
-452.765096
 20
-480.531964
 30
0.0
 70
    32
  0
VERTEX
  5
661
  8
1
 10
-452.738972
 20
-480.47063
 30
0.0
 70
    32
  0
VERTEX
  5
662
  8
1
 10
-452.714289
 20
-480.409453
 30
0.0
 70
    32
  0
VERTEX
  5
663
  8
1
 10
-452.690994
 20
-480.348463
 30
0.0
 70
    32
  0
VERTEX
  5
664
  8
1
 10
-452.669036
 20
-480.287684
 30
0.0
 70
    32
  0
VERTEX
  5
665
  8
1
 10
-452.648365
 20
-480.227135
 30
0.0
 70
    32
  0
VERTEX
  5
666
  8
1
 10
-452.628933
 20
-480.16683
 30
0.0
 70
    32
  0
VERTEX
  5
667
  8
1
 10
-452.610697
 20
-480.106781
 30
0.0
 70
    32
  0
VERTEX
  5
668
  8
1
 10
-452.593612
 20
-480.046992
 30
0.0
 70
    32
  0
VERTEX
  5
669
  8
1
 10
-452.577638
 20
-479.987468
 30
0.0
 70
    32
  0
VERTEX
  5
66A
  8
1
 10
-452.562738
 20
-479.928207
 30
0.0
 70
    32
  0
VERTEX
  5
66B
  8
1
 10
-452.548874
 20
-479.869208
 30
0.0
 70
    32
  0
VERTEX
  5
66C
  8
1
 10
-452.536014
 20
-479.810464
 30
0.0
 70
    32
  0
VERTEX
  5
66D
  8
1
 10
-452.524125
 20
-479.751969
 30
0.0
 70
    32
  0
VERTEX
  5
66E
  8
1
 10
-452.51318
 20
-479.693713
 30
0.0
 70
    32
  0
VERTEX
  5
66F
  8
1
 10
-452.50315
 20
-479.635685
 30
0.0
 70
    32
  0
VERTEX
  5
670
  8
1
 10
-452.494011
 20
-479.577872
 30
0.0
 70
    32
  0
VERTEX
  5
671
  8
1
 10
-452.485742
 20
-479.52026
 30
0.0
 70
    32
  0
VERTEX
  5
672
  8
1
 10
-452.47832
 20
-479.462834
 30
0.0
 70
    32
  0
VERTEX
  5
673
  8
1
 10
-452.471728
 20
-479.405579
 30
0.0
 70
    32
  0
VERTEX
  5
674
  8
1
 10
-452.465949
 20
-479.348477
 30
0.0
 70
    32
  0
VERTEX
  5
675
  8
1
 10
-452.46097
 20
-479.291511
 30
0.0
 70
    32
  0
VERTEX
  5
676
  8
1
 10
-452.456777
 20
-479.234662
 30
0.0
 70
    32
  0
VERTEX
  5
677
  8
1
 10
-452.453361
 20
-479.177911
 30
0.0
 70
    32
  0
VERTEX
  5
678
  8
1
 10
-452.450713
 20
-479.12124
 30
0.0
 70
    32
  0
VERTEX
  5
679
  8
1
 10
-452.448826
 20
-479.064628
 30
0.0
 70
    32
  0
VERTEX
  5
67A
  8
1
 10
-452.447696
 20
-479.008057
 30
0.0
 70
    32
  0
VERTEX
  5
67B
  8
1
 10
-452.447319
 20
-478.951505
 30
0.0
 70
    32
  0
SEQEND
  5
67C
  8
DEFPOINTS
  0
POLYLINE
  5
67D
  8
1
 66
     1
 10
0.0
 20
0.0
 30
0.0
 70
     8
  0
VERTEX
  5
67E
  8
1
 10
-443.951387
 20
-478.951505
 30
0.0
 70
    32
  0
VERTEX
  5
67F
  8
1
 10
-443.95101
 20
-479.008057
 30
0.0
 70
    32
  0
VERTEX
  5
680
  8
1
 10
-443.94988
 20
-479.064628
 30
0.0
 70
    32
  0
VERTEX
  5
681
  8
1
 10
-443.947993
 20
-479.12124
 30
0.0
 70
    32
  0
VERTEX
  5
682
  8
1
 10
-443.945345
 20
-479.177911
 30
0.0
 70
    32
  0
VERTEX
  5
683
  8
1
 10
-443.941928
 20
-479.234662
 30
0.0
 70
    32
  0
VERTEX
  5
684
  8
1
 10
-443.937736
 20
-479.291511
 30
0.0
 70
    32
  0
VERTEX
  5
685
  8
1
 10
-443.932756
 20
-479.348477
 30
0.0
 70
    32
  0
VERTEX
  5
686
  8
1
 10
-443.926978
 20
-479.405579
 30
0.0
 70
    32
  0
VERTEX
  5
687
  8
1
 10
-443.920386
 20
-479.462834
 30
0.0
 70
    32
  0
VERTEX
  5
688
  8
1
 10
-443.912964
 20
-479.52026
 30
0.0
 70
    32
  0
VERTEX
  5
689
  8
1
 10
-443.904694
 20
-479.577872
 30
0.0
 70
    32
  0
VERTEX
  5
68A
  8
1
 10
-443.895556
 20
-479.635685
 30
0.0
 70
    32
  0
VERTEX
  5
68B
  8
1
 10
-443.885526
 20
-479.693713
 30
0.0
 70
    32
  0
VERTEX
  5
68C
  8
1
 10
-443.87458
 20
-479.751969
 30
0.0
 70
    32
  0
VERTEX
  5
68D
  8
1
 10
-443.862692
 20
-479.810464
 30
0.0
 70
    32
  0
VERTEX
  5
68E
  8
1
 10
-443.849832
 20
-479.869208
 30
0.0
 70
    32
  0
VERTEX
  5
68F
  8
1
 10
-443.835968
 20
-479.928207
 30
0.0
 70
    32
  0
VERTEX
  5
690
  8
1
 10
-443.821067
 20
-479.987468
 30
0.0
 70
    32
  0
VERTEX
  5
691
  8
1
 10
-443.805094
 20
-480.046992
 30
0.0
 70
    32
  0
VERTEX
  5
692
  8
1
 10
-443.788009
 20
-480.106781
 30
0.0
 70
    32
  0
VERTEX
  5
693
  8
1
 10
-443.769772
 20
-480.16683
 30
0.0
 70
    32
  0
VERTEX
  5
694
  8
1
 10
-443.750341
 20
-480.227135
 30
0.0
 70
    32
  0
VERTEX
  5
695
  8
1
 10
-443.72967
 20
-480.287684
 30
0.0
 70
    32
  0
VERTEX
  5
696
  8
1
 10
-443.707712
 20
-480.348463
 30
0.0
 70
    32
  0
VERTEX
  5
697
  8
1
 10
-443.684417
 20
-480.409453
 30
0.0
 70
    32
  0
VERTEX
  5
698
  8
1
 10
-443.659734
 20
-480.47063
 30
0.0
 70
    32
  0
VERTEX
  5
699
  8
1
 10
-443.633609
 20
-480.531964
 30
0.0
 70
    32
  0
VERTEX
  5
69A
  8
1
 10
-443.605989
 20
-480.593418
 30
0.0
 70
    32
  0
VERTEX
  5
69B
  8
1
 10
-443.576815
 20
-480.65495
 30
0.0
 70
    32
  0
VERTEX
  5
69C
  8
1
 10
-443.546032
 20
-480.71651
 30
0.0
 70
    32
  0
VERTEX
  5
69D
  8
1
 10
-443.51358
 20
-480.778038
 30
0.0
 70
    32
  0
VERTEX
  5
69E
  8
1
 10
-443.479402
 20
-480.839469
 30
0.0
 70
    32
  0
VERTEX
  5
69F
  8
1
 10
-443.443439
 20
-480.900727
 30
0.0
 70
    32
  0
VERTEX
  5
6A0
  8
1
 10
-443.405634
 20
-480.961725
 30
0.0
 70
    32
  0
VERTEX
  5
6A1
  8
1
 10
-443.365932
 20
-481.022367
 30
0.0
 70
    32
  0
VERTEX
  5
6A2
  8
1
 10
-443.324278
 20
-481.082548
 30
0.0
 70
    32
  0
VERTEX
  5
6A3
  8
1
 10
-443.280623
 20
-481.142148
 30
0.0
 70
    32
  0
VERTEX
  5
6A4
  8
1
 10
-443.23492
 20
-481.201039
 30
0.0
 70
    32
  0
VERTEX
  5
6A5
  8
1
 10
-443.187129
 20
-481.25908
 30
0.0
 70
    32
  0
VERTEX
  5
6A6
  8
1
 10
-443.137215
 20
-481.316118
 30
0.0
 70
    32
  0
VERTEX
  5
6A7
  8
1
 10
-443.085153
 20
-481.371989
 30
0.0
 70
    32
  0
VERTEX
  5
6A8
  8
1
 10
-443.030924
 20
-481.426517
 30
0.0
 70
    32
  0
VERTEX
  5
6A9
  8
1
 10
-442.974522
 20
-481.479518
 30
0.0
 70
    32
  0
VERTEX
  5
6AA
  8
1
 10
-442.91595
 20
-481.530796
 30
0.0
 70
    32
  0
VERTEX
  5
6AB
  8
1
 10
-442.855226
 20
-481.580149
 30
0.0
 70
    32
  0
VERTEX
  5
6AC
  8
1
 10
-442.792383
 20
-481.627367
 30
0.0
 70
    32
  0
VERTEX
  5
6AD
  8
1
 10
-442.727467
 20
-481.672237
 30
0.0
 70
    32
  0
VERTEX
  5
6AE
  8
1
 10
-442.660543
 20
-481.714541
 30
0.0
 70
    32
  0
VERTEX
  5
6AF
  8
1
 10
-442.591691
 20
-481.754064
 30
0.0
 70
    32
  0
VERTEX
  5
6B0
  8
1
 10
-442.521011
 20
-481.790594
 30
0.0
 70
    32
  0
VERTEX
  5
6B1
  8
1
 10
-442.44862
 20
-481.823924
 30
0.0
 70
    32
  0
VERTEX
  5
6B2
  8
1
 10
-442.374653
 20
-481.853857
 30
0.0
 70
    32
  0
VERTEX
  5
6B3
  8
1
 10
-442.299261
 20
-481.88021
 30
0.0
 70
    32
  0
VERTEX
  5
6B4
  8
1
 10
-442.222614
 20
-481.902814
 30
0.0
 70
    32
  0
VERTEX
  5
6B5
  8
1
 10
-442.144896
 20
-481.921523
 30
0.0
 70
    32
  0
VERTEX
  5
6B6
  8
1
 10
-442.066303
 20
-481.93621
 30
0.0
 70
    32
  0
VERTEX
  5
6B7
  8
1
 10
-441.987044
 20
-481.946774
 30
0.0
 70
    32
  0
VERTEX
  5
6B8
  8
1
 10
-441.907337
 20
-481.953143
 30
0.0
 70
    32
  0
VERTEX
  5
6B9
  8
1
 10
-441.827403
 20
-481.955271
 30
0.0
 70
    32
  0
SEQEND
  5
6BA
  8
DEFPOINTS
  0
POLYLINE
  5
6BB
  8
1
 66
     1
 10
0.0
 20
0.0
 30
0.0
 70
     8
  0
VERTEX
  5
6BC
  8
1
 10
-464.483223
 20
-478.951505
 30
0.0
 70
    32
  0
VERTEX
  5
6BD
  8
1
 10
-464.482847
 20
-479.008057
 30
0.0
 70
    32
  0
VERTEX
  5
6BE
  8
1
 10
-464.481717
 20
-479.064628
 30
0.0
 70
    32
  0
VERTEX
  5
6BF
  8
1
 10
-464.47983
 20
-479.12124
 30
0.0
 70
    32
  0
VERTEX
  5
6C0
  8
1
 10
-464.477181
 20
-479.177911
 30
0.0
 70
    32
  0
VERTEX
  5
6C1
  8
1
 10
-464.473765
 20
-479.234662
 30
0.0
 70
    32
  0
VERTEX
  5
6C2
  8
1
 10
-464.469573
 20
-479.291511
 30
0.0
 70
    32
  0
VERTEX
  5
6C3
  8
1
 10
-464.464593
 20
-479.348477
 30
0.0
 70
    32
  0
VERTEX
  5
6C4
  8
1
 10
-464.458815
 20
-479.405579
 30
0.0
 70
    32
  0
VERTEX
  5
6C5
  8
1
 10
-464.452223
 20
-479.462834
 30
0.0
 70
    32
  0
VERTEX
  5
6C6
  8
1
 10
-464.444801
 20
-479.52026
 30
0.0
 70
    32
  0
VERTEX
  5
6C7
  8
1
 10
-464.436531
 20
-479.577872
 30
0.0
 70
    32
  0
VERTEX
  5
6C8
  8
1
 10
-464.427392
 20
-479.635685
 30
0.0
 70
    32
  0
VERTEX
  5
6C9
  8
1
 10
-464.417363
 20
-479.693713
 30
0.0
 70
    32
  0
VERTEX
  5
6CA
  8
1
 10
-464.406417
 20
-479.751969
 30
0.0
 70
    32
  0
VERTEX
  5
6CB
  8
1
 10
-464.394529
 20
-479.810464
 30
0.0
 70
    32
  0
VERTEX
  5
6CC
  8
1
 10
-464.381668
 20
-479.869208
 30
0.0
 70
    32
  0
VERTEX
  5
6CD
  8
1
 10
-464.367805
 20
-479.928207
 30
0.0
 70
    32
  0
VERTEX
  5
6CE
  8
1
 10
-464.352904
 20
-479.987468
 30
0.0
 70
    32
  0
VERTEX
  5
6CF
  8
1
 10
-464.33693
 20
-480.046992
 30
0.0
 70
    32
  0
VERTEX
  5
6D0
  8
1
 10
-464.319846
 20
-480.106781
 30
0.0
 70
    32
  0
VERTEX
  5
6D1
  8
1
 10
-464.301609
 20
-480.16683
 30
0.0
 70
    32
  0
VERTEX
  5
6D2
  8
1
 10
-464.282178
 20
-480.227135
 30
0.0
 70
    32
  0
VERTEX
  5
6D3
  8
1
 10
-464.261507
 20
-480.287684
 30
0.0
 70
    32
  0
VERTEX
  5
6D4
  8
1
 10
-464.239548
 20
-480.348463
 30
0.0
 70
    32
  0
VERTEX
  5
6D5
  8
1
 10
-464.216253
 20
-480.409453
 30
0.0
 70
    32
  0
VERTEX
  5
6D6
  8
1
 10
-464.19157
 20
-480.47063
 30
0.0
 70
    32
  0
VERTEX
  5
6D7
  8
1
 10
-464.165446
 20
-480.531964
 30
0.0
 70
    32
  0
VERTEX
  5
6D8
  8
1
 10
-464.137825
 20
-480.593418
 30
0.0
 70
    32
  0
VERTEX
  5
6D9
  8
1
 10
-464.108652
 20
-480.65495
 30
0.0
 70
    32
  0
VERTEX
  5
6DA
  8
1
 10
-464.077869
 20
-480.71651
 30
0.0
 70
    32
  0
VERTEX
  5
6DB
  8
1
 10
-464.045417
 20
-480.778038
 30
0.0
 70
    32
  0
VERTEX
  5
6DC
  8
1
 10
-464.011239
 20
-480.839469
 30
0.0
 70
    32
  0
VERTEX
  5
6DD
  8
1
 10
-463.975276
 20
-480.900727
 30
0.0
 70
    32
  0
VERTEX
  5
6DE
  8
1
 10
-463.937471
 20
-480.961725
 30
0.0
 70
    32
  0
VERTEX
  5
6DF
  8
1
 10
-463.897769
 20
-481.022367
 30
0.0
 70
    32
  0
VERTEX
  5
6E0
  8
1
 10
-463.856115
 20
-481.082548
 30
0.0
 70
    32
  0
VERTEX
  5
6E1
  8
1
 10
-463.812459
 20
-481.142148
 30
0.0
 70
    32
  0
VERTEX
  5
6E2
  8
1
 10
-463.766757
 20
-481.201039
 30
0.0
 70
    32
  0
VERTEX
  5
6E3
  8
1
 10
-463.718966
 20
-481.25908
 30
0.0
 70
    32
  0
VERTEX
  5
6E4
  8
1
 10
-463.669052
 20
-481.316118
 30
0.0
 70
    32
  0
VERTEX
  5
6E5
  8
1
 10
-463.61699
 20
-481.371989
 30
0.0
 70
    32
  0
VERTEX
  5
6E6
  8
1
 10
-463.562761
 20
-481.426517
 30
0.0
 70
    32
  0
VERTEX
  5
6E7
  8
1
 10
-463.506358
 20
-481.479518
 30
0.0
 70
    32
  0
VERTEX
  5
6E8
  8
1
 10
-463.447787
 20
-481.530796
 30
0.0
 70
    32
  0
VERTEX
  5
6E9
  8
1
 10
-463.387063
 20
-481.580149
 30
0.0
 70
    32
  0
VERTEX
  5
6EA
  8
1
 10
-463.32422
 20
-481.627367
 30
0.0
 70
    32
  0
VERTEX
  5
6EB
  8
1
 10
-463.259304
 20
-481.672237
 30
0.0
 70
    32
  0
VERTEX
  5
6EC
  8
1
 10
-463.19238
 20
-481.714541
 30
0.0
 70
    32
  0
VERTEX
  5
6ED
  8
1
 10
-463.123528
 20
-481.754064
 30
0.0
 70
    32
  0
VERTEX
  5
6EE
  8
1
 10
-463.052848
 20
-481.790594
 30
0.0
 70
    32
  0
VERTEX
  5
6EF
  8
1
 10
-462.980457
 20
-481.823924
 30
0.0
 70
    32
  0
VERTEX
  5
6F0
  8
1
 10
-462.906489
 20
-481.853857
 30
0.0
 70
    32
  0
VERTEX
  5
6F1
  8
1
 10
-462.831098
 20
-481.88021
 30
0.0
 70
    32
  0
VERTEX
  5
6F2
  8
1
 10
-462.754451
 20
-481.902814
 30
0.0
 70
    32
  0
VERTEX
  5
6F3
  8
1
 10
-462.676732
 20
-481.921523
 30
0.0
 70
    32
  0
VERTEX
  5
6F4
  8
1
 10
-462.59814
 20
-481.93621
 30
0.0
 70
    32
  0
VERTEX
  5
6F5
  8
1
 10
-462.518881
 20
-481.946774
 30
0.0
 70
    32
  0
VERTEX
  5
6F6
  8
1
 10
-462.439174
 20
-481.953143
 30
0.0
 70
    32
  0
VERTEX
  5
6F7
  8
1
 10
-462.35924
 20
-481.955271
 30
0.0
 70
    32
  0
SEQEND
  5
6F8
  8
DEFPOINTS
  0
POLYLINE
  5
6F9
  8
1
 66
     1
 10
0.0
 20
0.0
 30
0.0
 70
     8
  0
VERTEX
  5
6FA
  8
1
 10
-445.084178
 20
-478.951505
 30
0.0
 70
    32
  0
VERTEX
  5
6FB
  8
1
 10
-445.083801
 20
-479.008057
 30
0.0
 70
    32
  0
VERTEX
  5
6FC
  8
1
 10
-445.082671
 20
-479.064628
 30
0.0
 70
    32
  0
VERTEX
  5
6FD
  8
1
 10
-445.080784
 20
-479.12124
 30
0.0
 70
    32
  0
VERTEX
  5
6FE
  8
1
 10
-445.078136
 20
-479.177911
 30
0.0
 70
    32
  0
VERTEX
  5
6FF
  8
1
 10
-445.074719
 20
-479.234662
 30
0.0
 70
    32
  0
VERTEX
  5
700
  8
1
 10
-445.070527
 20
-479.291511
 30
0.0
 70
    32
  0
VERTEX
  5
701
  8
1
 10
-445.065547
 20
-479.348477
 30
0.0
 70
    32
  0
VERTEX
  5
702
  8
1
 10
-445.059769
 20
-479.405579
 30
0.0
 70
    32
  0
VERTEX
  5
703
  8
1
 10
-445.053177
 20
-479.462834
 30
0.0
 70
    32
  0
VERTEX
  5
704
  8
1
 10
-445.045755
 20
-479.52026
 30
0.0
 70
    32
  0
VERTEX
  5
705
  8
1
 10
-445.037485
 20
-479.577872
 30
0.0
 70
    32
  0
VERTEX
  5
706
  8
1
 10
-445.028347
 20
-479.635685
 30
0.0
 70
    32
  0
VERTEX
  5
707
  8
1
 10
-445.018317
 20
-479.693713
 30
0.0
 70
    32
  0
VERTEX
  5
708
  8
1
 10
-445.007371
 20
-479.751969
 30
0.0
 70
    32
  0
VERTEX
  5
709
  8
1
 10
-444.995483
 20
-479.810464
 30
0.0
 70
    32
  0
VERTEX
  5
70A
  8
1
 10
-444.982623
 20
-479.869208
 30
0.0
 70
    32
  0
VERTEX
  5
70B
  8
1
 10
-444.968759
 20
-479.928207
 30
0.0
 70
    32
  0
VERTEX
  5
70C
  8
1
 10
-444.953858
 20
-479.987468
 30
0.0
 70
    32
  0
VERTEX
  5
70D
  8
1
 10
-444.937885
 20
-480.046992
 30
0.0
 70
    32
  0
VERTEX
  5
70E
  8
1
 10
-444.9208
 20
-480.106781
 30
0.0
 70
    32
  0
VERTEX
  5
70F
  8
1
 10
-444.902563
 20
-480.16683
 30
0.0
 70
    32
  0
VERTEX
  5
710
  8
1
 10
-444.883132
 20
-480.227135
 30
0.0
 70
    32
  0
VERTEX
  5
711
  8
1
 10
-444.862461
 20
-480.287684
 30
0.0
 70
    32
  0
VERTEX
  5
712
  8
1
 10
-444.840503
 20
-480.348463
 30
0.0
 70
    32
  0
VERTEX
  5
713
  8
1
 10
-444.817208
 20
-480.409453
 30
0.0
 70
    32
  0
VERTEX
  5
714
  8
1
 10
-444.792525
 20
-480.47063
 30
0.0
 70
    32
  0
VERTEX
  5
715
  8
1
 10
-444.7664
 20
-480.531964
 30
0.0
 70
    32
  0
VERTEX
  5
716
  8
1
 10
-444.73878
 20
-480.593418
 30
0.0
 70
    32
  0
VERTEX
  5
717
  8
1
 10
-444.709606
 20
-480.65495
 30
0.0
 70
    32
  0
VERTEX
  5
718
  8
1
 10
-444.678823
 20
-480.71651
 30
0.0
 70
    32
  0
VERTEX
  5
719
  8
1
 10
-444.646371
 20
-480.778038
 30
0.0
 70
    32
  0
VERTEX
  5
71A
  8
1
 10
-444.612193
 20
-480.839469
 30
0.0
 70
    32
  0
VERTEX
  5
71B
  8
1
 10
-444.57623
 20
-480.900727
 30
0.0
 70
    32
  0
VERTEX
  5
71C
  8
1
 10
-444.538426
 20
-480.961725
 30
0.0
 70
    32
  0
VERTEX
  5
71D
  8
1
 10
-444.498723
 20
-481.022367
 30
0.0
 70
    32
  0
VERTEX
  5
71E
  8
1
 10
-444.457069
 20
-481.082548
 30
0.0
 70
    32
  0
VERTEX
  5
71F
  8
1
 10
-444.413414
 20
-481.142148
 30
0.0
 70
    32
  0
VERTEX
  5
720
  8
1
 10
-444.367711
 20
-481.201039
 30
0.0
 70
    32
  0
VERTEX
  5
721
  8
1
 10
-444.31992
 20
-481.25908
 30
0.0
 70
    32
  0
VERTEX
  5
722
  8
1
 10
-444.270007
 20
-481.316118
 30
0.0
 70
    32
  0
VERTEX
  5
723
  8
1
 10
-444.217944
 20
-481.371989
 30
0.0
 70
    32
  0
VERTEX
  5
724
  8
1
 10
-444.163715
 20
-481.426517
 30
0.0
 70
    32
  0
VERTEX
  5
725
  8
1
 10
-444.107313
 20
-481.479518
 30
0.0
 70
    32
  0
VERTEX
  5
726
  8
1
 10
-444.048741
 20
-481.530796
 30
0.0
 70
    32
  0
VERTEX
  5
727
  8
1
 10
-443.988017
 20
-481.580149
 30
0.0
 70
    32
  0
VERTEX
  5
728
  8
1
 10
-443.925174
 20
-481.627367
 30
0.0
 70
    32
  0
VERTEX
  5
729
  8
1
 10
-443.860258
 20
-481.672237
 30
0.0
 70
    32
  0
VERTEX
  5
72A
  8
1
 10
-443.793334
 20
-481.714541
 30
0.0
 70
    32
  0
VERTEX
  5
72B
  8
1
 10
-443.724482
 20
-481.754064
 30
0.0
 70
    32
  0
VERTEX
  5
72C
  8
1
 10
-443.653803
 20
-481.790594
 30
0.0
 70
    32
  0
VERTEX
  5
72D
  8
1
 10
-443.581411
 20
-481.823924
 30
0.0
 70
    32
  0
VERTEX
  5
72E
  8
1
 10
-443.507444
 20
-481.853857
 30
0.0
 70
    32
  0
VERTEX
  5
72F
  8
1
 10
-443.432052
 20
-481.88021
 30
0.0
 70
    32
  0
VERTEX
  5
730
  8
1
 10
-443.355405
 20
-481.902814
 30
0.0
 70
    32
  0
VERTEX
  5
731
  8
1
 10
-443.277687
 20
-481.921523
 30
0.0
 70
    32
  0
VERTEX
  5
732
  8
1
 10
-443.199094
 20
-481.93621
 30
0.0
 70
    32
  0
VERTEX
  5
733
  8
1
 10
-443.119836
 20
-481.946774
 30
0.0
 70
    32
  0
VERTEX
  5
734
  8
1
 10
-443.040128
 20
-481.953143
 30
0.0
 70
    32
  0
VERTEX
  5
735
  8
1
 10
-442.960194
 20
-481.955271
 30
0.0
 70
    32
  0
SEQEND
  5
736
  8
DEFPOINTS
  0
POLYLINE
  5
737
  8
1
 66
     1
 10
0.0
 20
0.0
 30
0.0
 70
     8
  0
VERTEX
  5
738
  8
1
 10
-465.616014
 20
-478.951505
 30
0.0
 70
    32
  0
VERTEX
  5
739
  8
1
 10
-465.615638
 20
-479.008057
 30
0.0
 70
    32
  0
VERTEX
  5
73A
  8
1
 10
-465.614508
 20
-479.064628
 30
0.0
 70
    32
  0
VERTEX
  5
73B
  8
1
 10
-465.612621
 20
-479.12124
 30
0.0
 70
    32
  0
VERTEX
  5
73C
  8
1
 10
-465.609972
 20
-479.177911
 30
0.0
 70
    32
  0
VERTEX
  5
73D
  8
1
 10
-465.606556
 20
-479.234662
 30
0.0
 70
    32
  0
VERTEX
  5
73E
  8
1
 10
-465.602364
 20
-479.291511
 30
0.0
 70
    32
  0
VERTEX
  5
73F
  8
1
 10
-465.597384
 20
-479.348477
 30
0.0
 70
    32
  0
VERTEX
  5
740
  8
1
 10
-465.591606
 20
-479.405579
 30
0.0
 70
    32
  0
VERTEX
  5
741
  8
1
 10
-465.585014
 20
-479.462834
 30
0.0
 70
    32
  0
VERTEX
  5
742
  8
1
 10
-465.577592
 20
-479.52026
 30
0.0
 70
    32
  0
VERTEX
  5
743
  8
1
 10
-465.569322
 20
-479.577872
 30
0.0
 70
    32
  0
VERTEX
  5
744
  8
1
 10
-465.560183
 20
-479.635685
 30
0.0
 70
    32
  0
VERTEX
  5
745
  8
1
 10
-465.550154
 20
-479.693713
 30
0.0
 70
    32
  0
VERTEX
  5
746
  8
1
 10
-465.539208
 20
-479.751969
 30
0.0
 70
    32
  0
VERTEX
  5
747
  8
1
 10
-465.52732
 20
-479.810464
 30
0.0
 70
    32
  0
VERTEX
  5
748
  8
1
 10
-465.514459
 20
-479.869208
 30
0.0
 70
    32
  0
VERTEX
  5
749
  8
1
 10
-465.500596
 20
-479.928207
 30
0.0
 70
    32
  0
VERTEX
  5
74A
  8
1
 10
-465.485695
 20
-479.987468
 30
0.0
 70
    32
  0
VERTEX
  5
74B
  8
1
 10
-465.469722
 20
-480.046992
 30
0.0
 70
    32
  0
VERTEX
  5
74C
  8
1
 10
-465.452637
 20
-480.106781
 30
0.0
 70
    32
  0
VERTEX
  5
74D
  8
1
 10
-465.4344
 20
-480.16683
 30
0.0
 70
    32
  0
VERTEX
  5
74E
  8
1
 10
-465.414969
 20
-480.227135
 30
0.0
 70
    32
  0
VERTEX
  5
74F
  8
1
 10
-465.394298
 20
-480.287684
 30
0.0
 70
    32
  0
VERTEX
  5
750
  8
1
 10
-465.372339
 20
-480.348463
 30
0.0
 70
    32
  0
VERTEX
  5
751
  8
1
 10
-465.349044
 20
-480.409453
 30
0.0
 70
    32
  0
VERTEX
  5
752
  8
1
 10
-465.324361
 20
-480.47063
 30
0.0
 70
    32
  0
VERTEX
  5
753
  8
1
 10
-465.298237
 20
-480.531964
 30
0.0
 70
    32
  0
VERTEX
  5
754
  8
1
 10
-465.270616
 20
-480.593418
 30
0.0
 70
    32
  0
VERTEX
  5
755
  8
1
 10
-465.241443
 20
-480.65495
 30
0.0
 70
    32
  0
VERTEX
  5
756
  8
1
 10
-465.21066
 20
-480.71651
 30
0.0
 70
    32
  0
VERTEX
  5
757
  8
1
 10
-465.178208
 20
-480.778038
 30
0.0
 70
    32
  0
VERTEX
  5
758
  8
1
 10
-465.14403
 20
-480.839469
 30
0.0
 70
    32
  0
VERTEX
  5
759
  8
1
 10
-465.108067
 20
-480.900727
 30
0.0
 70
    32
  0
VERTEX
  5
75A
  8
1
 10
-465.070262
 20
-480.961725
 30
0.0
 70
    32
  0
VERTEX
  5
75B
  8
1
 10
-465.03056
 20
-481.022367
 30
0.0
 70
    32
  0
VERTEX
  5
75C
  8
1
 10
-464.988906
 20
-481.082548
 30
0.0
 70
    32
  0
VERTEX
  5
75D
  8
1
 10
-464.94525
 20
-481.142148
 30
0.0
 70
    32
  0
VERTEX
  5
75E
  8
1
 10
-464.899548
 20
-481.201039
 30
0.0
 70
    32
  0
VERTEX
  5
75F
  8
1
 10
-464.851757
 20
-481.25908
 30
0.0
 70
    32
  0
VERTEX
  5
760
  8
1
 10
-464.801843
 20
-481.316118
 30
0.0
 70
    32
  0
VERTEX
  5
761
  8
1
 10
-464.749781
 20
-481.371989
 30
0.0
 70
    32
  0
VERTEX
  5
762
  8
1
 10
-464.695552
 20
-481.426517
 30
0.0
 70
    32
  0
VERTEX
  5
763
  8
1
 10
-464.639149
 20
-481.479518
 30
0.0
 70
    32
  0
VERTEX
  5
764
  8
1
 10
-464.580578
 20
-481.530796
 30
0.0
 70
    32
  0
VERTEX
  5
765
  8
1
 10
-464.519854
 20
-481.580149
 30
0.0
 70
    32
  0
VERTEX
  5
766
  8
1
 10
-464.457011
 20
-481.627367
 30
0.0
 70
    32
  0
VERTEX
  5
767
  8
1
 10
-464.392095
 20
-481.672237
 30
0.0
 70
    32
  0
VERTEX
  5
768
  8
1
 10
-464.325171
 20
-481.714541
 30
0.0
 70
    32
  0
VERTEX
  5
769
  8
1
 10
-464.256319
 20
-481.754064
 30
0.0
 70
    32
  0
VERTEX
  5
76A
  8
1
 10
-464.185639
 20
-481.790594
 30
0.0
 70
    32
  0
VERTEX
  5
76B
  8
1
 10
-464.113248
 20
-481.823924
 30
0.0
 70
    32
  0
VERTEX
  5
76C
  8
1
 10
-464.03928
 20
-481.853857
 30
0.0
 70
    32
  0
VERTEX
  5
76D
  8
1
 10
-463.963889
 20
-481.88021
 30
0.0
 70
    32
  0
VERTEX
  5
76E
  8
1
 10
-463.887242
 20
-481.902814
 30
0.0
 70
    32
  0
VERTEX
  5
76F
  8
1
 10
-463.809523
 20
-481.921523
 30
0.0
 70
    32
  0
VERTEX
  5
770
  8
1
 10
-463.730931
 20
-481.93621
 30
0.0
 70
    32
  0
VERTEX
  5
771
  8
1
 10
-463.651672
 20
-481.946774
 30
0.0
 70
    32
  0
VERTEX
  5
772
  8
1
 10
-463.571965
 20
-481.953143
 30
0.0
 70
    32
  0
VERTEX
  5
773
  8
1
 10
-463.492031
 20
-481.955271
 30
0.0
 70
    32
  0
SEQEND
  5
774
  8
DEFPOINTS
  0
LINE
  5
775
  8
1
 10
-458.170488
 20
-455.28942
 30
0.0
 11
-458.170488
 21
-465.302073
 31
0.0
  0
LINE
  5
776
  8
1
 10
-451.161701
 20
-455.28952
 30
0.0
 11
-451.161701
 21
-465.302073
 31
0.0
  0
LINE
  5
777
  8
1
 10
-446.155425
 20
-455.28952
 30
0.0
 11
-446.155425
 21
-465.302073
 31
0.0
  0
LINE
  5
778
  8
1
 10
-463.176764
 20
-455.28952
 30
0.0
 11
-463.176764
 21
-465.301973
 31
0.0
  0
LINE
  5
779
  8
1
 10
-446.155425
 20
-474.914123
 30
0.0
 11
-446.155425
 21
-494.939228
 31
0.0
  0
LINE
  5
77A
  8
1
 10
-451.161701
 20
-474.914123
 30
0.0
 11
-451.161701
 21
-494.939228
 31
0.0
  0
LINE
  5
77B
  8
1
 10
-458.170488
 20
-482.323412
 30
0.0
 11
-458.170488
 21
-494.939228
 31
0.0
  0
LINE
  5
77C
  8
1
 10
-463.176764
 20
-482.323412
 30
0.0
 11
-463.176764
 21
-494.939228
 31
0.0
  0
LINE
  5
77D
  8
1
 10
-446.155425
 20
-484.926676
 30
0.0
 11
-463.176965
 21
-484.926676
 31
0.0
  0
LINE
  5
77E
  8
1
  6
DIVIDE
 10
-450.661074
 20
-513.362425
 30
0.0
 11
-450.661074
 21
-494.939228
 31
0.0
  0
LINE
  5
77F
  8
1
  6
DIVIDE
 10
-458.671116
 20
-513.362425
 30
0.0
 11
-458.671116
 21
-494.939228
 31
0.0
  0
POLYLINE
  5
780
  8
1
 66
     1
 10
0.0
 20
0.0
 30
0.0
 70
     8
  0
VERTEX
  5
781
  8
1
 10
-434.039465
 20
-481.955271
 30
0.0
 70
    32
  0
VERTEX
  5
782
  8
1
 10
-433.959532
 20
-481.953143
 30
0.0
 70
    32
  0
VERTEX
  5
783
  8
1
 10
-433.879824
 20
-481.946774
 30
0.0
 70
    32
  0
VERTEX
  5
784
  8
1
 10
-433.800566
 20
-481.93621
 30
0.0
 70
    32
  0
VERTEX
  5
785
  8
1
 10
-433.721973
 20
-481.921523
 30
0.0
 70
    32
  0
VERTEX
  5
786
  8
1
 10
-433.644255
 20
-481.902814
 30
0.0
 70
    32
  0
VERTEX
  5
787
  8
1
 10
-433.567608
 20
-481.88021
 30
0.0
 70
    32
  0
VERTEX
  5
788
  8
1
 10
-433.492216
 20
-481.853857
 30
0.0
 70
    32
  0
VERTEX
  5
789
  8
1
 10
-433.418249
 20
-481.823924
 30
0.0
 70
    32
  0
VERTEX
  5
78A
  8
1
 10
-433.345857
 20
-481.790594
 30
0.0
 70
    32
  0
VERTEX
  5
78B
  8
1
 10
-433.275178
 20
-481.754064
 30
0.0
 70
    32
  0
VERTEX
  5
78C
  8
1
 10
-433.206326
 20
-481.714541
 30
0.0
 70
    32
  0
VERTEX
  5
78D
  8
1
 10
-433.139402
 20
-481.672237
 30
0.0
 70
    32
  0
VERTEX
  5
78E
  8
1
 10
-433.074486
 20
-481.627367
 30
0.0
 70
    32
  0
VERTEX
  5
78F
  8
1
 10
-433.011643
 20
-481.580149
 30
0.0
 70
    32
  0
VERTEX
  5
790
  8
1
 10
-432.950919
 20
-481.530796
 30
0.0
 70
    32
  0
VERTEX
  5
791
  8
1
 10
-432.892347
 20
-481.479518
 30
0.0
 70
    32
  0
VERTEX
  5
792
  8
1
 10
-432.835945
 20
-481.426517
 30
0.0
 70
    32
  0
VERTEX
  5
793
  8
1
 10
-432.781716
 20
-481.371989
 30
0.0
 70
    32
  0
VERTEX
  5
794
  8
1
 10
-432.729653
 20
-481.316118
 30
0.0
 70
    32
  0
VERTEX
  5
795
  8
1
 10
-432.67974
 20
-481.25908
 30
0.0
 70
    32
  0
VERTEX
  5
796
  8
1
 10
-432.631949
 20
-481.201039
 30
0.0
 70
    32
  0
VERTEX
  5
797
  8
1
 10
-432.586246
 20
-481.142148
 30
0.0
 70
    32
  0
VERTEX
  5
798
  8
1
 10
-432.542591
 20
-481.082548
 30
0.0
 70
    32
  0
VERTEX
  5
799
  8
1
 10
-432.500937
 20
-481.022367
 30
0.0
 70
    32
  0
VERTEX
  5
79A
  8
1
 10
-432.461234
 20
-480.961725
 30
0.0
 70
    32
  0
VERTEX
  5
79B
  8
1
 10
-432.42343
 20
-480.900727
 30
0.0
 70
    32
  0
VERTEX
  5
79C
  8
1
 10
-432.387467
 20
-480.839469
 30
0.0
 70
    32
  0
VERTEX
  5
79D
  8
1
 10
-432.353289
 20
-480.778038
 30
0.0
 70
    32
  0
VERTEX
  5
79E
  8
1
 10
-432.320837
 20
-480.71651
 30
0.0
 70
    32
  0
VERTEX
  5
79F
  8
1
 10
-432.290054
 20
-480.65495
 30
0.0
 70
    32
  0
VERTEX
  5
7A0
  8
1
 10
-432.26088
 20
-480.593418
 30
0.0
 70
    32
  0
VERTEX
  5
7A1
  8
1
 10
-432.23326
 20
-480.531964
 30
0.0
 70
    32
  0
VERTEX
  5
7A2
  8
1
 10
-432.207135
 20
-480.47063
 30
0.0
 70
    32
  0
VERTEX
  5
7A3
  8
1
 10
-432.182452
 20
-480.409453
 30
0.0
 70
    32
  0
VERTEX
  5
7A4
  8
1
 10
-432.159157
 20
-480.348463
 30
0.0
 70
    32
  0
VERTEX
  5
7A5
  8
1
 10
-432.137199
 20
-480.287684
 30
0.0
 70
    32
  0
VERTEX
  5
7A6
  8
1
 10
-432.116528
 20
-480.227135
 30
0.0
 70
    32
  0
VERTEX
  5
7A7
  8
1
 10
-432.097097
 20
-480.16683
 30
0.0
 70
    32
  0
VERTEX
  5
7A8
  8
1
 10
-432.07886
 20
-480.106781
 30
0.0
 70
    32
  0
VERTEX
  5
7A9
  8
1
 10
-432.061775
 20
-480.046992
 30
0.0
 70
    32
  0
VERTEX
  5
7AA
  8
1
 10
-432.045802
 20
-479.987468
 30
0.0
 70
    32
  0
VERTEX
  5
7AB
  8
1
 10
-432.030901
 20
-479.928207
 30
0.0
 70
    32
  0
VERTEX
  5
7AC
  8
1
 10
-432.017037
 20
-479.869208
 30
0.0
 70
    32
  0
VERTEX
  5
7AD
  8
1
 10
-432.004177
 20
-479.810464
 30
0.0
 70
    32
  0
VERTEX
  5
7AE
  8
1
 10
-431.992289
 20
-479.751969
 30
0.0
 70
    32
  0
VERTEX
  5
7AF
  8
1
 10
-431.981343
 20
-479.693713
 30
0.0
 70
    32
  0
VERTEX
  5
7B0
  8
1
 10
-431.971313
 20
-479.635685
 30
0.0
 70
    32
  0
VERTEX
  5
7B1
  8
1
 10
-431.962175
 20
-479.577872
 30
0.0
 70
    32
  0
VERTEX
  5
7B2
  8
1
 10
-431.953905
 20
-479.52026
 30
0.0
 70
    32
  0
VERTEX
  5
7B3
  8
1
 10
-431.946483
 20
-479.462834
 30
0.0
 70
    32
  0
VERTEX
  5
7B4
  8
1
 10
-431.939891
 20
-479.405579
 30
0.0
 70
    32
  0
VERTEX
  5
7B5
  8
1
 10
-431.934113
 20
-479.348477
 30
0.0
 70
    32
  0
VERTEX
  5
7B6
  8
1
 10
-431.929133
 20
-479.291511
 30
0.0
 70
    32
  0
VERTEX
  5
7B7
  8
1
 10
-431.924941
 20
-479.234662
 30
0.0
 70
    32
  0
VERTEX
  5
7B8
  8
1
 10
-431.921524
 20
-479.177911
 30
0.0
 70
    32
  0
VERTEX
  5
7B9
  8
1
 10
-431.918876
 20
-479.12124
 30
0.0
 70
    32
  0
VERTEX
  5
7BA
  8
1
 10
-431.916989
 20
-479.064628
 30
0.0
 70
    32
  0
VERTEX
  5
7BB
  8
1
 10
-431.915859
 20
-479.008057
 30
0.0
 70
    32
  0
VERTEX
  5
7BC
  8
1
 10
-431.915482
 20
-478.951505
 30
0.0
 70
    32
  0
SEQEND
  5
7BD
  8
DEFPOINTS
  0
LINE
  5
7BE
  8
1
 10
-446.155425
 20
-455.28952
 30
0.0
 11
-463.176965
 21
-455.28952
 31
0.0
  0
LINE
  5
7BF
  8
1
  6
DIVIDE
 10
-458.671116
 20
-455.28952
 30
0.0
 11
-458.671197
 21
-407.549532
 31
0.0
  0
LINE
  5
7C0
  8
1
  6
DIVIDE
 10
-450.661274
 20
-455.28952
 30
0.0
 11
-450.661193
 21
-407.549532
 31
0.0
  0
LINE
  5
7C1
  8
1
 10
-431.915482
 20
-473.945265
 30
0.0
 11
-431.915482
 21
-465.334435
 31
0.0
  0
LINE
  5
7C2
  8
1
 10
-446.155425
 20
-494.939228
 30
0.0
 11
-463.176764
 21
-494.939228
 31
0.0
  0
LINE
  5
7C3
  8
1
 10
444.292468
 20
-364.407904
 30
0.0
 11
444.292468
 21
-616.924481
 31
0.0
  0
LINE
  5
7C4
  8
1
 10
1285.346887
 20
-364.407904
 30
0.0
 11
1285.346887
 21
-616.924481
 31
0.0
  0
LINE
  5
7C5
  8
1
 10
389.223428
 20
-616.924481
 30
0.0
 11
1340.415926
 21
-616.924481
 31
0.0
  0
LINE
  5
7C6
  8
1
 10
444.292468
 20
-593.89561
 30
0.0
 11
1285.346887
 21
-593.89561
 31
0.0
  0
LINE
  5
7C7
  8
1
 10
444.292468
 20
-600.904396
 30
0.0
 11
1285.346887
 21
-600.904396
 31
0.0
  0
LINE
  5
7C8
  8
1
 10
527.094049
 20
-582.311559
 30
0.0
 11
517.890122
 21
-582.311559
 31
0.0
  0
LINE
  5
7C9
  8
1
 10
526.293045
 20
-583.44435
 30
0.0
 11
517.089118
 21
-583.44435
 31
0.0
  0
LINE
  5
7CA
  8
1
 10
527.094049
 20
-582.311559
 30
0.0
 11
534.173993
 21
-592.324111
 31
0.0
  0
LINE
  5
7CB
  8
1
 10
526.293045
 20
-583.44435
 30
0.0
 11
527.094049
 21
-582.311559
 31
0.0
  0
LINE
  5
7CC
  8
1
 10
526.293045
 20
-583.44435
 30
0.0
 11
533.704775
 21
-593.926119
 31
0.0
  0
LINE
  5
7CD
  8
1
 10
517.089118
 20
-583.44435
 30
0.0
 11
524.500848
 21
-593.926119
 31
0.0
  0
LINE
  5
7CE
  8
1
 10
517.089118
 20
-583.44435
 30
0.0
 11
517.890122
 21
-582.311559
 31
0.0
  0
LINE
  5
7CF
  8
1
 10
527.09405
 20
-582.311561
 30
0.0
 11
527.09405
 21
-561.885951
 31
0.0
  0
LINE
  5
7D0
  8
1
 10
562.272449
 20
-593.89561
 30
0.0
 11
562.272449
 21
-561.191869
 31
0.0
  0
LINE
  5
7D1
  8
1
 10
561.139658
 20
-592.293601
 30
0.0
 11
561.139658
 21
-561.855442
 31
0.0
  0
LINE
  5
7D2
  8
1
 10
562.272449
 20
-593.89561
 30
0.0
 11
523.868964
 21
-593.89561
 31
0.0
  0
LINE
  5
7D3
  8
1
 10
561.139658
 20
-592.293601
 30
0.0
 11
534.15242
 21
-592.293601
 31
0.0
  0
LINE
  5
7D4
  8
1
 10
560.148466
 20
-558.188103
 30
0.0
 11
560.148466
 21
-468.137948
 31
0.0
  0
LINE
  5
7D5
  8
1
 10
559.015675
 20
-558.851676
 30
0.0
 11
559.015675
 21
-474.746233
 31
0.0
  0
LINE
  5
7D6
  8
1
 10
559.015675
 20
-558.851676
 30
0.0
 11
561.139658
 21
-561.855442
 31
0.0
  0
LINE
  5
7D7
  8
1
 10
560.148466
 20
-558.188103
 30
0.0
 11
562.272449
 21
-561.191869
 31
0.0
  0
LINE
  5
7D8
  8
1
 10
559.015675
 20
-558.851676
 30
0.0
 11
524.970067
 21
-558.851676
 31
0.0
  0
LINE
  5
7D9
  8
1
 10
561.139658
 20
-561.855442
 30
0.0
 11
527.09405
 21
-561.855442
 31
0.0
  0
LINE
  5
7DA
  8
1
 10
524.970067
 20
-558.882186
 30
0.0
 11
524.970067
 21
-471.742468
 31
0.0
  0
LINE
  5
7DB
  8
1
 10
524.970067
 20
-558.882186
 30
0.0
 11
527.09405
 21
-561.885951
 31
0.0
  0
LINE
  5
7DC
  8
1
  6
DASHDOT
 10
903.868632
 20
-521.825308
 30
0.0
 11
903.868632
 21
-363.201581
 31
0.0
  0
LINE
  5
7DD
  8
1
  6
DASHDOT
 10
657.559838
 20
-539.17141
 30
0.0
 11
657.559838
 21
-380.03247
 31
0.0
  0
POLYLINE
  5
7DE
  8
1
 66
     1
 10
0.0
 20
0.0
 30
0.0
 70
     8
  0
VERTEX
  5
7DF
  8
1
 10
479.470027
 20
-585.402342
 30
0.0
 70
    32
  0
VERTEX
  5
7E0
  8
1
 10
481.47009
 20
-584.587683
 30
0.0
 70
    32
  0
VERTEX
  5
7E1
  8
1
 10
483.085265
 20
-582.594212
 30
0.0
 70
    32
  0
VERTEX
  5
7E2
  8
1
 10
484.216039
 20
-580.224205
 30
0.0
 70
    32
  0
VERTEX
  5
7E3
  8
1
 10
484.961021
 20
-577.978886
 30
0.0
 70
    32
  0
VERTEX
  5
7E4
  8
1
 10
485.448172
 20
-576.023308
 30
0.0
 70
    32
  0
VERTEX
  5
7E5
  8
1
 10
485.772113
 20
-574.360484
 30
0.0
 70
    32
  0
VERTEX
  5
7E6
  8
1
 10
485.992735
 20
-572.943519
 30
0.0
 70
    32
  0
VERTEX
  5
7E7
  8
1
 10
486.146422
 20
-571.719815
 30
0.0
 70
    32
  0
VERTEX
  5
7E8
  8
1
 10
486.255304
 20
-570.643938
 30
0.0
 70
    32
  0
VERTEX
  5
7E9
  8
1
 10
486.333061
 20
-569.679452
 30
0.0
 70
    32
  0
VERTEX
  5
7EA
  8
1
 10
486.388296
 20
-568.797603
 30
0.0
 70
    32
  0
VERTEX
  5
7EB
  8
1
 10
486.426478
 20
-567.975446
 30
0.0
 70
    32
  0
VERTEX
  5
7EC
  8
1
 10
486.451055
 20
-567.194163
 30
0.0
 70
    32
  0
VERTEX
  5
7ED
  8
1
 10
486.464098
 20
-566.437679
 30
0.0
 70
    32
  0
VERTEX
  5
7EE
  8
1
 10
486.466656
 20
-565.691544
 30
0.0
 70
    32
  0
VERTEX
  5
7EF
  8
1
 10
486.458932
 20
-564.941978
 30
0.0
 70
    32
  0
VERTEX
  5
7F0
  8
1
 10
486.440311
 20
-564.174978
 30
0.0
 70
    32
  0
VERTEX
  5
7F1
  8
1
 10
486.409265
 20
-563.37541
 30
0.0
 70
    32
  0
VERTEX
  5
7F2
  8
1
 10
486.363094
 20
-562.525982
 30
0.0
 70
    32
  0
VERTEX
  5
7F3
  8
1
 10
486.297444
 20
-561.606002
 30
0.0
 70
    32
  0
VERTEX
  5
7F4
  8
1
 10
486.205459
 20
-560.589852
 30
0.0
 70
    32
  0
VERTEX
  5
7F5
  8
1
 10
486.076311
 20
-559.445164
 30
0.0
 70
    32
  0
VERTEX
  5
7F6
  8
1
 10
485.892641
 20
-558.13107
 30
0.0
 70
    32
  0
VERTEX
  5
7F7
  8
1
 10
485.626116
 20
-556.59792
 30
0.0
 70
    32
  0
VERTEX
  5
7F8
  8
1
 10
485.229982
 20
-554.793087
 30
0.0
 70
    32
  0
VERTEX
  5
7F9
  8
1
 10
484.628229
 20
-552.685829
 30
0.0
 70
    32
  0
VERTEX
  5
7FA
  8
1
 10
483.70722
 20
-550.34055
 30
0.0
 70
    32
  0
VERTEX
  5
7FB
  8
1
 10
482.339094
 20
-548.07027
 30
0.0
 70
    32
  0
VERTEX
  5
7FC
  8
1
 10
480.499317
 20
-546.565797
 30
0.0
 70
    32
  0
VERTEX
  5
7FD
  8
1
 10
478.440738
 20
-546.565797
 30
0.0
 70
    32
  0
VERTEX
  5
7FE
  8
1
 10
476.600961
 20
-548.07027
 30
0.0
 70
    32
  0
VERTEX
  5
7FF
  8
1
 10
475.232835
 20
-550.34055
 30
0.0
 70
    32
  0
VERTEX
  5
800
  8
1
 10
474.311826
 20
-552.685829
 30
0.0
 70
    32
  0
VERTEX
  5
801
  8
1
 10
473.710073
 20
-554.793087
 30
0.0
 70
    32
  0
VERTEX
  5
802
  8
1
 10
473.313939
 20
-556.59792
 30
0.0
 70
    32
  0
VERTEX
  5
803
  8
1
 10
473.047414
 20
-558.13107
 30
0.0
 70
    32
  0
VERTEX
  5
804
  8
1
 10
472.863744
 20
-559.445164
 30
0.0
 70
    32
  0
VERTEX
  5
805
  8
1
 10
472.734596
 20
-560.589852
 30
0.0
 70
    32
  0
VERTEX
  5
806
  8
1
 10
472.642611
 20
-561.606002
 30
0.0
 70
    32
  0
VERTEX
  5
807
  8
1
 10
472.576961
 20
-562.525982
 30
0.0
 70
    32
  0
VERTEX
  5
808
  8
1
 10
472.53079
 20
-563.37541
 30
0.0
 70
    32
  0
VERTEX
  5
809
  8
1
 10
472.499744
 20
-564.174978
 30
0.0
 70
    32
  0
VERTEX
  5
80A
  8
1
 10
472.481123
 20
-564.941978
 30
0.0
 70
    32
  0
VERTEX
  5
80B
  8
1
 10
472.473399
 20
-565.691544
 30
0.0
 70
    32
  0
VERTEX
  5
80C
  8
1
 10
472.475957
 20
-566.437679
 30
0.0
 70
    32
  0
VERTEX
  5
80D
  8
1
 10
472.489
 20
-567.194163
 30
0.0
 70
    32
  0
VERTEX
  5
80E
  8
1
 10
472.513577
 20
-567.975446
 30
0.0
 70
    32
  0
VERTEX
  5
80F
  8
1
 10
472.551759
 20
-568.797603
 30
0.0
 70
    32
  0
VERTEX
  5
810
  8
1
 10
472.606994
 20
-569.679452
 30
0.0
 70
    32
  0
VERTEX
  5
811
  8
1
 10
472.684751
 20
-570.643938
 30
0.0
 70
    32
  0
VERTEX
  5
812
  8
1
 10
472.793633
 20
-571.719815
 30
0.0
 70
    32
  0
VERTEX
  5
813
  8
1
 10
472.94732
 20
-572.943519
 30
0.0
 70
    32
  0
VERTEX
  5
814
  8
1
 10
473.167942
 20
-574.360484
 30
0.0
 70
    32
  0
VERTEX
  5
815
  8
1
 10
473.491883
 20
-576.023308
 30
0.0
 70
    32
  0
VERTEX
  5
816
  8
1
 10
473.979034
 20
-577.978886
 30
0.0
 70
    32
  0
VERTEX
  5
817
  8
1
 10
474.724016
 20
-580.224205
 30
0.0
 70
    32
  0
VERTEX
  5
818
  8
1
 10
475.85479
 20
-582.594212
 30
0.0
 70
    32
  0
VERTEX
  5
819
  8
1
 10
477.469965
 20
-584.587683
 30
0.0
 70
    32
  0
VERTEX
  5
81A
  8
1
 10
479.470027
 20
-585.402342
 30
0.0
 70
    32
  0
SEQEND
  5
81B
  8
DEFPOINTS
  0
LINE
  5
81C
  8
1
  6
DASHDOT
 10
479.470027
 20
-592.435146
 30
0.0
 11
479.470027
 21
-529.499923
 31
0.0
  0
LINE
  5
81D
  8
1
  6
DASHDOT
 10
468.974669
 20
-565.877864
 30
0.0
 11
496.039012
 21
-565.877864
 31
0.0
  0
LINE
  5
81E
  8
1
  6
DASHDOT
 10
719.102555
 20
-466.250627
 30
0.0
 11
603.556974
 21
-466.250627
 31
0.0
  0
LINE
  5
81F
  8
1
 10
1173.434714
 20
-460.127907
 30
0.0
 11
1236.517015
 21
-460.127907
 31
0.0
  0
LINE
  5
820
  8
1
 10
1172.965497
 20
-466.736191
 30
0.0
 11
1202.816482
 21
-466.736191
 31
0.0
  0
LINE
  5
821
  8
1
 10
1204.940442
 20
-476.748743
 30
0.0
 11
1213.861224
 21
-476.748743
 31
0.0
  0
LINE
  5
822
  8
1
 10
1203.949273
 20
-473.74503
 30
0.0
 11
1203.949273
 21
-460.127907
 31
0.0
  0
LINE
  5
823
  8
1
 10
1202.816482
 20
-473.745015
 30
0.0
 11
1202.816482
 21
-466.736191
 31
0.0
  0
LINE
  5
824
  8
1
 10
1162.106804
 20
-463.131671
 30
0.0
 11
1171.310731
 21
-463.131671
 31
0.0
  0
LINE
  5
825
  8
1
 10
1163.239595
 20
-469.739956
 30
0.0
 11
1175.437225
 21
-469.739956
 31
0.0
  0
LINE
  5
826
  8
1
 10
1173.434714
 20
-460.127907
 30
0.0
 11
1171.310731
 21
-463.131671
 31
0.0
  0
LINE
  5
827
  8
1
 10
1172.965497
 20
-466.736191
 30
0.0
 11
1170.841514
 21
-469.739956
 31
0.0
  0
LINE
  5
828
  8
1
 10
1178.44099
 20
-466.736191
 30
0.0
 11
1175.437225
 21
-469.739956
 31
0.0
  0
POLYLINE
  5
829
  8
1
 66
     1
 10
0.0
 20
0.0
 30
0.0
 70
     8
  0
VERTEX
  5
82A
  8
1
 10
1203.949273
 20
-473.744977
 30
0.0
 70
    32
  0
VERTEX
  5
82B
  8
1
 10
1203.94965
 20
-473.801529
 30
0.0
 70
    32
  0
VERTEX
  5
82C
  8
1
 10
1203.95078
 20
-473.8581
 30
0.0
 70
    32
  0
VERTEX
  5
82D
  8
1
 10
1203.952667
 20
-473.914712
 30
0.0
 70
    32
  0
VERTEX
  5
82E
  8
1
 10
1203.955315
 20
-473.971383
 30
0.0
 70
    32
  0
VERTEX
  5
82F
  8
1
 10
1203.958732
 20
-474.028134
 30
0.0
 70
    32
  0
VERTEX
  5
830
  8
1
 10
1203.962924
 20
-474.084983
 30
0.0
 70
    32
  0
VERTEX
  5
831
  8
1
 10
1203.967904
 20
-474.141949
 30
0.0
 70
    32
  0
VERTEX
  5
832
  8
1
 10
1203.973682
 20
-474.199051
 30
0.0
 70
    32
  0
VERTEX
  5
833
  8
1
 10
1203.980274
 20
-474.256307
 30
0.0
 70
    32
  0
VERTEX
  5
834
  8
1
 10
1203.987696
 20
-474.313732
 30
0.0
 70
    32
  0
VERTEX
  5
835
  8
1
 10
1203.995966
 20
-474.371344
 30
0.0
 70
    32
  0
VERTEX
  5
836
  8
1
 10
1204.005104
 20
-474.429157
 30
0.0
 70
    32
  0
VERTEX
  5
837
  8
1
 10
1204.015134
 20
-474.487185
 30
0.0
 70
    32
  0
VERTEX
  5
838
  8
1
 10
1204.02608
 20
-474.545441
 30
0.0
 70
    32
  0
VERTEX
  5
839
  8
1
 10
1204.037968
 20
-474.603936
 30
0.0
 70
    32
  0
VERTEX
  5
83A
  8
1
 10
1204.050829
 20
-474.66268
 30
0.0
 70
    32
  0
VERTEX
  5
83B
  8
1
 10
1204.064692
 20
-474.721679
 30
0.0
 70
    32
  0
VERTEX
  5
83C
  8
1
 10
1204.079593
 20
-474.78094
 30
0.0
 70
    32
  0
VERTEX
  5
83D
  8
1
 10
1204.095566
 20
-474.840464
 30
0.0
 70
    32
  0
VERTEX
  5
83E
  8
1
 10
1204.112651
 20
-474.900253
 30
0.0
 70
    32
  0
VERTEX
  5
83F
  8
1
 10
1204.130888
 20
-474.960302
 30
0.0
 70
    32
  0
VERTEX
  5
840
  8
1
 10
1204.150319
 20
-475.020607
 30
0.0
 70
    32
  0
VERTEX
  5
841
  8
1
 10
1204.17099
 20
-475.081156
 30
0.0
 70
    32
  0
VERTEX
  5
842
  8
1
 10
1204.192948
 20
-475.141935
 30
0.0
 70
    32
  0
VERTEX
  5
843
  8
1
 10
1204.216243
 20
-475.202925
 30
0.0
 70
    32
  0
VERTEX
  5
844
  8
1
 10
1204.240926
 20
-475.264102
 30
0.0
 70
    32
  0
VERTEX
  5
845
  8
1
 10
1204.267051
 20
-475.325436
 30
0.0
 70
    32
  0
VERTEX
  5
846
  8
1
 10
1204.294671
 20
-475.38689
 30
0.0
 70
    32
  0
VERTEX
  5
847
  8
1
 10
1204.323845
 20
-475.448422
 30
0.0
 70
    32
  0
VERTEX
  5
848
  8
1
 10
1204.354628
 20
-475.509982
 30
0.0
 70
    32
  0
VERTEX
  5
849
  8
1
 10
1204.38708
 20
-475.571511
 30
0.0
 70
    32
  0
VERTEX
  5
84A
  8
1
 10
1204.421258
 20
-475.632941
 30
0.0
 70
    32
  0
VERTEX
  5
84B
  8
1
 10
1204.457221
 20
-475.694199
 30
0.0
 70
    32
  0
VERTEX
  5
84C
  8
1
 10
1204.495026
 20
-475.755197
 30
0.0
 70
    32
  0
VERTEX
  5
84D
  8
1
 10
1204.534728
 20
-475.815839
 30
0.0
 70
    32
  0
VERTEX
  5
84E
  8
1
 10
1204.576382
 20
-475.87602
 30
0.0
 70
    32
  0
VERTEX
  5
84F
  8
1
 10
1204.620038
 20
-475.93562
 30
0.0
 70
    32
  0
VERTEX
  5
850
  8
1
 10
1204.66574
 20
-475.994511
 30
0.0
 70
    32
  0
VERTEX
  5
851
  8
1
 10
1204.713531
 20
-476.052552
 30
0.0
 70
    32
  0
VERTEX
  5
852
  8
1
 10
1204.763445
 20
-476.10959
 30
0.0
 70
    32
  0
VERTEX
  5
853
  8
1
 10
1204.815507
 20
-476.165461
 30
0.0
 70
    32
  0
VERTEX
  5
854
  8
1
 10
1204.869736
 20
-476.219989
 30
0.0
 70
    32
  0
VERTEX
  5
855
  8
1
 10
1204.926138
 20
-476.27299
 30
0.0
 70
    32
  0
VERTEX
  5
856
  8
1
 10
1204.98471
 20
-476.324268
 30
0.0
 70
    32
  0
VERTEX
  5
857
  8
1
 10
1205.045434
 20
-476.373621
 30
0.0
 70
    32
  0
VERTEX
  5
858
  8
1
 10
1205.108277
 20
-476.420839
 30
0.0
 70
    32
  0
VERTEX
  5
859
  8
1
 10
1205.173193
 20
-476.465709
 30
0.0
 70
    32
  0
VERTEX
  5
85A
  8
1
 10
1205.240117
 20
-476.508013
 30
0.0
 70
    32
  0
VERTEX
  5
85B
  8
1
 10
1205.308969
 20
-476.547536
 30
0.0
 70
    32
  0
VERTEX
  5
85C
  8
1
 10
1205.379649
 20
-476.584066
 30
0.0
 70
    32
  0
VERTEX
  5
85D
  8
1
 10
1205.45204
 20
-476.617396
 30
0.0
 70
    32
  0
VERTEX
  5
85E
  8
1
 10
1205.526007
 20
-476.647329
 30
0.0
 70
    32
  0
VERTEX
  5
85F
  8
1
 10
1205.601399
 20
-476.673682
 30
0.0
 70
    32
  0
VERTEX
  5
860
  8
1
 10
1205.678046
 20
-476.696286
 30
0.0
 70
    32
  0
VERTEX
  5
861
  8
1
 10
1205.755764
 20
-476.714995
 30
0.0
 70
    32
  0
VERTEX
  5
862
  8
1
 10
1205.834357
 20
-476.729682
 30
0.0
 70
    32
  0
VERTEX
  5
863
  8
1
 10
1205.913616
 20
-476.740247
 30
0.0
 70
    32
  0
VERTEX
  5
864
  8
1
 10
1205.993323
 20
-476.746615
 30
0.0
 70
    32
  0
VERTEX
  5
865
  8
1
 10
1206.073257
 20
-476.748743
 30
0.0
 70
    32
  0
SEQEND
  5
866
  8
DEFPOINTS
  0
POLYLINE
  5
867
  8
1
 66
     1
 10
0.0
 20
0.0
 30
0.0
 70
     8
  0
VERTEX
  5
868
  8
1
 10
1202.816482
 20
-473.744977
 30
0.0
 70
    32
  0
VERTEX
  5
869
  8
1
 10
1202.816859
 20
-473.801529
 30
0.0
 70
    32
  0
VERTEX
  5
86A
  8
1
 10
1202.817989
 20
-473.8581
 30
0.0
 70
    32
  0
VERTEX
  5
86B
  8
1
 10
1202.819876
 20
-473.914712
 30
0.0
 70
    32
  0
VERTEX
  5
86C
  8
1
 10
1202.822524
 20
-473.971383
 30
0.0
 70
    32
  0
VERTEX
  5
86D
  8
1
 10
1202.825941
 20
-474.028134
 30
0.0
 70
    32
  0
VERTEX
  5
86E
  8
1
 10
1202.830133
 20
-474.084983
 30
0.0
 70
    32
  0
VERTEX
  5
86F
  8
1
 10
1202.835113
 20
-474.141949
 30
0.0
 70
    32
  0
VERTEX
  5
870
  8
1
 10
1202.840891
 20
-474.199051
 30
0.0
 70
    32
  0
VERTEX
  5
871
  8
1
 10
1202.847483
 20
-474.256307
 30
0.0
 70
    32
  0
VERTEX
  5
872
  8
1
 10
1202.854905
 20
-474.313732
 30
0.0
 70
    32
  0
VERTEX
  5
873
  8
1
 10
1202.863175
 20
-474.371344
 30
0.0
 70
    32
  0
VERTEX
  5
874
  8
1
 10
1202.872313
 20
-474.429157
 30
0.0
 70
    32
  0
VERTEX
  5
875
  8
1
 10
1202.882343
 20
-474.487185
 30
0.0
 70
    32
  0
VERTEX
  5
876
  8
1
 10
1202.893289
 20
-474.545441
 30
0.0
 70
    32
  0
VERTEX
  5
877
  8
1
 10
1202.905177
 20
-474.603936
 30
0.0
 70
    32
  0
VERTEX
  5
878
  8
1
 10
1202.918037
 20
-474.66268
 30
0.0
 70
    32
  0
VERTEX
  5
879
  8
1
 10
1202.931901
 20
-474.721679
 30
0.0
 70
    32
  0
VERTEX
  5
87A
  8
1
 10
1202.946802
 20
-474.78094
 30
0.0
 70
    32
  0
VERTEX
  5
87B
  8
1
 10
1202.962775
 20
-474.840464
 30
0.0
 70
    32
  0
VERTEX
  5
87C
  8
1
 10
1202.97986
 20
-474.900253
 30
0.0
 70
    32
  0
VERTEX
  5
87D
  8
1
 10
1202.998097
 20
-474.960302
 30
0.0
 70
    32
  0
VERTEX
  5
87E
  8
1
 10
1203.017528
 20
-475.020607
 30
0.0
 70
    32
  0
VERTEX
  5
87F
  8
1
 10
1203.038199
 20
-475.081156
 30
0.0
 70
    32
  0
VERTEX
  5
880
  8
1
 10
1203.060157
 20
-475.141935
 30
0.0
 70
    32
  0
VERTEX
  5
881
  8
1
 10
1203.083452
 20
-475.202925
 30
0.0
 70
    32
  0
VERTEX
  5
882
  8
1
 10
1203.108135
 20
-475.264102
 30
0.0
 70
    32
  0
VERTEX
  5
883
  8
1
 10
1203.13426
 20
-475.325436
 30
0.0
 70
    32
  0
VERTEX
  5
884
  8
1
 10
1203.16188
 20
-475.38689
 30
0.0
 70
    32
  0
VERTEX
  5
885
  8
1
 10
1203.191054
 20
-475.448422
 30
0.0
 70
    32
  0
VERTEX
  5
886
  8
1
 10
1203.221837
 20
-475.509982
 30
0.0
 70
    32
  0
VERTEX
  5
887
  8
1
 10
1203.254289
 20
-475.571511
 30
0.0
 70
    32
  0
VERTEX
  5
888
  8
1
 10
1203.288467
 20
-475.632941
 30
0.0
 70
    32
  0
VERTEX
  5
889
  8
1
 10
1203.32443
 20
-475.694199
 30
0.0
 70
    32
  0
VERTEX
  5
88A
  8
1
 10
1203.362235
 20
-475.755197
 30
0.0
 70
    32
  0
VERTEX
  5
88B
  8
1
 10
1203.401937
 20
-475.815839
 30
0.0
 70
    32
  0
VERTEX
  5
88C
  8
1
 10
1203.443591
 20
-475.87602
 30
0.0
 70
    32
  0
VERTEX
  5
88D
  8
1
 10
1203.487246
 20
-475.93562
 30
0.0
 70
    32
  0
VERTEX
  5
88E
  8
1
 10
1203.532949
 20
-475.994511
 30
0.0
 70
    32
  0
VERTEX
  5
88F
  8
1
 10
1203.58074
 20
-476.052552
 30
0.0
 70
    32
  0
VERTEX
  5
890
  8
1
 10
1203.630654
 20
-476.10959
 30
0.0
 70
    32
  0
VERTEX
  5
891
  8
1
 10
1203.682716
 20
-476.165461
 30
0.0
 70
    32
  0
VERTEX
  5
892
  8
1
 10
1203.736945
 20
-476.219989
 30
0.0
 70
    32
  0
VERTEX
  5
893
  8
1
 10
1203.793347
 20
-476.27299
 30
0.0
 70
    32
  0
VERTEX
  5
894
  8
1
 10
1203.851919
 20
-476.324268
 30
0.0
 70
    32
  0
VERTEX
  5
895
  8
1
 10
1203.912643
 20
-476.373621
 30
0.0
 70
    32
  0
VERTEX
  5
896
  8
1
 10
1203.975486
 20
-476.420839
 30
0.0
 70
    32
  0
VERTEX
  5
897
  8
1
 10
1204.040402
 20
-476.465709
 30
0.0
 70
    32
  0
VERTEX
  5
898
  8
1
 10
1204.107326
 20
-476.508013
 30
0.0
 70
    32
  0
VERTEX
  5
899
  8
1
 10
1204.176178
 20
-476.547536
 30
0.0
 70
    32
  0
VERTEX
  5
89A
  8
1
 10
1204.246858
 20
-476.584066
 30
0.0
 70
    32
  0
VERTEX
  5
89B
  8
1
 10
1204.319249
 20
-476.617396
 30
0.0
 70
    32
  0
VERTEX
  5
89C
  8
1
 10
1204.393216
 20
-476.647329
 30
0.0
 70
    32
  0
VERTEX
  5
89D
  8
1
 10
1204.468608
 20
-476.673682
 30
0.0
 70
    32
  0
VERTEX
  5
89E
  8
1
 10
1204.545255
 20
-476.696286
 30
0.0
 70
    32
  0
VERTEX
  5
89F
  8
1
 10
1204.622973
 20
-476.714995
 30
0.0
 70
    32
  0
VERTEX
  5
8A0
  8
1
 10
1204.701566
 20
-476.729682
 30
0.0
 70
    32
  0
VERTEX
  5
8A1
  8
1
 10
1204.780825
 20
-476.740247
 30
0.0
 70
    32
  0
VERTEX
  5
8A2
  8
1
 10
1204.860532
 20
-476.746615
 30
0.0
 70
    32
  0
VERTEX
  5
8A3
  8
1
 10
1204.940466
 20
-476.748743
 30
0.0
 70
    32
  0
SEQEND
  5
8A4
  8
DEFPOINTS
  0
LINE
  5
8A5
  8
1
 10
1236.517015
 20
-473.745014
 30
0.0
 11
1236.517015
 21
-460.127907
 31
0.0
  0
LINE
  5
8A6
  8
1
 10
1223.348319
 20
-473.745011
 30
0.0
 11
1223.348319
 21
-466.736191
 31
0.0
  0
LINE
  5
8A7
  8
1
 10
1224.48111
 20
-473.745037
 30
0.0
 11
1224.48111
 21
-460.127907
 31
0.0
  0
LINE
  5
8A8
  8
1
 10
1215.985178
 20
-473.745043
 30
0.0
 11
1215.985178
 21
-460.127907
 31
0.0
  0
LINE
  5
8A9
  8
1
 10
1215.985178
 20
-466.736191
 30
0.0
 11
1223.348319
 21
-466.736191
 31
0.0
  0
POLYLINE
  5
8AA
  8
1
 66
     1
 10
0.0
 20
0.0
 30
0.0
 70
     8
  0
VERTEX
  5
8AB
  8
1
 10
1224.48111
 20
-473.744977
 30
0.0
 70
    32
  0
VERTEX
  5
8AC
  8
1
 10
1224.481487
 20
-473.801529
 30
0.0
 70
    32
  0
VERTEX
  5
8AD
  8
1
 10
1224.482617
 20
-473.8581
 30
0.0
 70
    32
  0
VERTEX
  5
8AE
  8
1
 10
1224.484504
 20
-473.914712
 30
0.0
 70
    32
  0
VERTEX
  5
8AF
  8
1
 10
1224.487152
 20
-473.971383
 30
0.0
 70
    32
  0
VERTEX
  5
8B0
  8
1
 10
1224.490568
 20
-474.028134
 30
0.0
 70
    32
  0
VERTEX
  5
8B1
  8
1
 10
1224.494761
 20
-474.084983
 30
0.0
 70
    32
  0
VERTEX
  5
8B2
  8
1
 10
1224.49974
 20
-474.141949
 30
0.0
 70
    32
  0
VERTEX
  5
8B3
  8
1
 10
1224.505519
 20
-474.199051
 30
0.0
 70
    32
  0
VERTEX
  5
8B4
  8
1
 10
1224.512111
 20
-474.256307
 30
0.0
 70
    32
  0
VERTEX
  5
8B5
  8
1
 10
1224.519533
 20
-474.313732
 30
0.0
 70
    32
  0
VERTEX
  5
8B6
  8
1
 10
1224.527803
 20
-474.371344
 30
0.0
 70
    32
  0
VERTEX
  5
8B7
  8
1
 10
1224.536941
 20
-474.429157
 30
0.0
 70
    32
  0
VERTEX
  5
8B8
  8
1
 10
1224.546971
 20
-474.487185
 30
0.0
 70
    32
  0
VERTEX
  5
8B9
  8
1
 10
1224.557917
 20
-474.545441
 30
0.0
 70
    32
  0
VERTEX
  5
8BA
  8
1
 10
1224.569805
 20
-474.603936
 30
0.0
 70
    32
  0
VERTEX
  5
8BB
  8
1
 10
1224.582665
 20
-474.66268
 30
0.0
 70
    32
  0
VERTEX
  5
8BC
  8
1
 10
1224.596529
 20
-474.721679
 30
0.0
 70
    32
  0
VERTEX
  5
8BD
  8
1
 10
1224.61143
 20
-474.78094
 30
0.0
 70
    32
  0
VERTEX
  5
8BE
  8
1
 10
1224.627403
 20
-474.840464
 30
0.0
 70
    32
  0
VERTEX
  5
8BF
  8
1
 10
1224.644488
 20
-474.900253
 30
0.0
 70
    32
  0
VERTEX
  5
8C0
  8
1
 10
1224.662725
 20
-474.960302
 30
0.0
 70
    32
  0
VERTEX
  5
8C1
  8
1
 10
1224.682156
 20
-475.020607
 30
0.0
 70
    32
  0
VERTEX
  5
8C2
  8
1
 10
1224.702827
 20
-475.081156
 30
0.0
 70
    32
  0
VERTEX
  5
8C3
  8
1
 10
1224.724785
 20
-475.141935
 30
0.0
 70
    32
  0
VERTEX
  5
8C4
  8
1
 10
1224.74808
 20
-475.202925
 30
0.0
 70
    32
  0
VERTEX
  5
8C5
  8
1
 10
1224.772763
 20
-475.264102
 30
0.0
 70
    32
  0
VERTEX
  5
8C6
  8
1
 10
1224.798888
 20
-475.325436
 30
0.0
 70
    32
  0
VERTEX
  5
8C7
  8
1
 10
1224.826508
 20
-475.38689
 30
0.0
 70
    32
  0
VERTEX
  5
8C8
  8
1
 10
1224.855682
 20
-475.448422
 30
0.0
 70
    32
  0
VERTEX
  5
8C9
  8
1
 10
1224.886465
 20
-475.509982
 30
0.0
 70
    32
  0
VERTEX
  5
8CA
  8
1
 10
1224.918917
 20
-475.571511
 30
0.0
 70
    32
  0
VERTEX
  5
8CB
  8
1
 10
1224.953095
 20
-475.632941
 30
0.0
 70
    32
  0
VERTEX
  5
8CC
  8
1
 10
1224.989057
 20
-475.694199
 30
0.0
 70
    32
  0
VERTEX
  5
8CD
  8
1
 10
1225.026862
 20
-475.755197
 30
0.0
 70
    32
  0
VERTEX
  5
8CE
  8
1
 10
1225.066565
 20
-475.815839
 30
0.0
 70
    32
  0
VERTEX
  5
8CF
  8
1
 10
1225.108219
 20
-475.87602
 30
0.0
 70
    32
  0
VERTEX
  5
8D0
  8
1
 10
1225.151874
 20
-475.93562
 30
0.0
 70
    32
  0
VERTEX
  5
8D1
  8
1
 10
1225.197577
 20
-475.994511
 30
0.0
 70
    32
  0
VERTEX
  5
8D2
  8
1
 10
1225.245368
 20
-476.052552
 30
0.0
 70
    32
  0
VERTEX
  5
8D3
  8
1
 10
1225.295281
 20
-476.10959
 30
0.0
 70
    32
  0
VERTEX
  5
8D4
  8
1
 10
1225.347344
 20
-476.165461
 30
0.0
 70
    32
  0
VERTEX
  5
8D5
  8
1
 10
1225.401573
 20
-476.219989
 30
0.0
 70
    32
  0
VERTEX
  5
8D6
  8
1
 10
1225.457975
 20
-476.27299
 30
0.0
 70
    32
  0
VERTEX
  5
8D7
  8
1
 10
1225.516547
 20
-476.324268
 30
0.0
 70
    32
  0
VERTEX
  5
8D8
  8
1
 10
1225.577271
 20
-476.373621
 30
0.0
 70
    32
  0
VERTEX
  5
8D9
  8
1
 10
1225.640114
 20
-476.420839
 30
0.0
 70
    32
  0
VERTEX
  5
8DA
  8
1
 10
1225.70503
 20
-476.465709
 30
0.0
 70
    32
  0
VERTEX
  5
8DB
  8
1
 10
1225.771954
 20
-476.508013
 30
0.0
 70
    32
  0
VERTEX
  5
8DC
  8
1
 10
1225.840805
 20
-476.547536
 30
0.0
 70
    32
  0
VERTEX
  5
8DD
  8
1
 10
1225.911485
 20
-476.584066
 30
0.0
 70
    32
  0
VERTEX
  5
8DE
  8
1
 10
1225.983877
 20
-476.617396
 30
0.0
 70
    32
  0
VERTEX
  5
8DF
  8
1
 10
1226.057844
 20
-476.647329
 30
0.0
 70
    32
  0
VERTEX
  5
8E0
  8
1
 10
1226.133236
 20
-476.673682
 30
0.0
 70
    32
  0
VERTEX
  5
8E1
  8
1
 10
1226.209883
 20
-476.696286
 30
0.0
 70
    32
  0
VERTEX
  5
8E2
  8
1
 10
1226.287601
 20
-476.714995
 30
0.0
 70
    32
  0
VERTEX
  5
8E3
  8
1
 10
1226.366194
 20
-476.729682
 30
0.0
 70
    32
  0
VERTEX
  5
8E4
  8
1
 10
1226.445452
 20
-476.740247
 30
0.0
 70
    32
  0
VERTEX
  5
8E5
  8
1
 10
1226.52516
 20
-476.746615
 30
0.0
 70
    32
  0
VERTEX
  5
8E6
  8
1
 10
1226.605093
 20
-476.748743
 30
0.0
 70
    32
  0
SEQEND
  5
8E7
  8
DEFPOINTS
  0
POLYLINE
  5
8E8
  8
1
 66
     1
 10
0.0
 20
0.0
 30
0.0
 70
     8
  0
VERTEX
  5
8E9
  8
1
 10
1223.348319
 20
-473.744977
 30
0.0
 70
    32
  0
VERTEX
  5
8EA
  8
1
 10
1223.348696
 20
-473.801529
 30
0.0
 70
    32
  0
VERTEX
  5
8EB
  8
1
 10
1223.349826
 20
-473.8581
 30
0.0
 70
    32
  0
VERTEX
  5
8EC
  8
1
 10
1223.351713
 20
-473.914712
 30
0.0
 70
    32
  0
VERTEX
  5
8ED
  8
1
 10
1223.354361
 20
-473.971383
 30
0.0
 70
    32
  0
VERTEX
  5
8EE
  8
1
 10
1223.357777
 20
-474.028134
 30
0.0
 70
    32
  0
VERTEX
  5
8EF
  8
1
 10
1223.36197
 20
-474.084983
 30
0.0
 70
    32
  0
VERTEX
  5
8F0
  8
1
 10
1223.366949
 20
-474.141949
 30
0.0
 70
    32
  0
VERTEX
  5
8F1
  8
1
 10
1223.372728
 20
-474.199051
 30
0.0
 70
    32
  0
VERTEX
  5
8F2
  8
1
 10
1223.37932
 20
-474.256307
 30
0.0
 70
    32
  0
VERTEX
  5
8F3
  8
1
 10
1223.386742
 20
-474.313732
 30
0.0
 70
    32
  0
VERTEX
  5
8F4
  8
1
 10
1223.395012
 20
-474.371344
 30
0.0
 70
    32
  0
VERTEX
  5
8F5
  8
1
 10
1223.40415
 20
-474.429157
 30
0.0
 70
    32
  0
VERTEX
  5
8F6
  8
1
 10
1223.41418
 20
-474.487185
 30
0.0
 70
    32
  0
VERTEX
  5
8F7
  8
1
 10
1223.425125
 20
-474.545441
 30
0.0
 70
    32
  0
VERTEX
  5
8F8
  8
1
 10
1223.437014
 20
-474.603936
 30
0.0
 70
    32
  0
VERTEX
  5
8F9
  8
1
 10
1223.449874
 20
-474.66268
 30
0.0
 70
    32
  0
VERTEX
  5
8FA
  8
1
 10
1223.463738
 20
-474.721679
 30
0.0
 70
    32
  0
VERTEX
  5
8FB
  8
1
 10
1223.478639
 20
-474.78094
 30
0.0
 70
    32
  0
VERTEX
  5
8FC
  8
1
 10
1223.494612
 20
-474.840464
 30
0.0
 70
    32
  0
VERTEX
  5
8FD
  8
1
 10
1223.511697
 20
-474.900253
 30
0.0
 70
    32
  0
VERTEX
  5
8FE
  8
1
 10
1223.529933
 20
-474.960302
 30
0.0
 70
    32
  0
VERTEX
  5
8FF
  8
1
 10
1223.549365
 20
-475.020607
 30
0.0
 70
    32
  0
VERTEX
  5
900
  8
1
 10
1223.570036
 20
-475.081156
 30
0.0
 70
    32
  0
VERTEX
  5
901
  8
1
 10
1223.591994
 20
-475.141935
 30
0.0
 70
    32
  0
VERTEX
  5
902
  8
1
 10
1223.615289
 20
-475.202925
 30
0.0
 70
    32
  0
VERTEX
  5
903
  8
1
 10
1223.639972
 20
-475.264102
 30
0.0
 70
    32
  0
VERTEX
  5
904
  8
1
 10
1223.666097
 20
-475.325436
 30
0.0
 70
    32
  0
VERTEX
  5
905
  8
1
 10
1223.693717
 20
-475.38689
 30
0.0
 70
    32
  0
VERTEX
  5
906
  8
1
 10
1223.722891
 20
-475.448422
 30
0.0
 70
    32
  0
VERTEX
  5
907
  8
1
 10
1223.753674
 20
-475.509982
 30
0.0
 70
    32
  0
VERTEX
  5
908
  8
1
 10
1223.786125
 20
-475.571511
 30
0.0
 70
    32
  0
VERTEX
  5
909
  8
1
 10
1223.820304
 20
-475.632941
 30
0.0
 70
    32
  0
VERTEX
  5
90A
  8
1
 10
1223.856266
 20
-475.694199
 30
0.0
 70
    32
  0
VERTEX
  5
90B
  8
1
 10
1223.894071
 20
-475.755197
 30
0.0
 70
    32
  0
VERTEX
  5
90C
  8
1
 10
1223.933774
 20
-475.815839
 30
0.0
 70
    32
  0
VERTEX
  5
90D
  8
1
 10
1223.975428
 20
-475.87602
 30
0.0
 70
    32
  0
VERTEX
  5
90E
  8
1
 10
1224.019083
 20
-475.93562
 30
0.0
 70
    32
  0
VERTEX
  5
90F
  8
1
 10
1224.064786
 20
-475.994511
 30
0.0
 70
    32
  0
VERTEX
  5
910
  8
1
 10
1224.112577
 20
-476.052552
 30
0.0
 70
    32
  0
VERTEX
  5
911
  8
1
 10
1224.16249
 20
-476.10959
 30
0.0
 70
    32
  0
VERTEX
  5
912
  8
1
 10
1224.214553
 20
-476.165461
 30
0.0
 70
    32
  0
VERTEX
  5
913
  8
1
 10
1224.268782
 20
-476.219989
 30
0.0
 70
    32
  0
VERTEX
  5
914
  8
1
 10
1224.325184
 20
-476.27299
 30
0.0
 70
    32
  0
VERTEX
  5
915
  8
1
 10
1224.383756
 20
-476.324268
 30
0.0
 70
    32
  0
VERTEX
  5
916
  8
1
 10
1224.44448
 20
-476.373621
 30
0.0
 70
    32
  0
VERTEX
  5
917
  8
1
 10
1224.507323
 20
-476.420839
 30
0.0
 70
    32
  0
VERTEX
  5
918
  8
1
 10
1224.572239
 20
-476.465709
 30
0.0
 70
    32
  0
VERTEX
  5
919
  8
1
 10
1224.639163
 20
-476.508013
 30
0.0
 70
    32
  0
VERTEX
  5
91A
  8
1
 10
1224.708014
 20
-476.547536
 30
0.0
 70
    32
  0
VERTEX
  5
91B
  8
1
 10
1224.778694
 20
-476.584066
 30
0.0
 70
    32
  0
VERTEX
  5
91C
  8
1
 10
1224.851086
 20
-476.617396
 30
0.0
 70
    32
  0
VERTEX
  5
91D
  8
1
 10
1224.925053
 20
-476.647329
 30
0.0
 70
    32
  0
VERTEX
  5
91E
  8
1
 10
1225.000445
 20
-476.673682
 30
0.0
 70
    32
  0
VERTEX
  5
91F
  8
1
 10
1225.077092
 20
-476.696286
 30
0.0
 70
    32
  0
VERTEX
  5
920
  8
1
 10
1225.15481
 20
-476.714995
 30
0.0
 70
    32
  0
VERTEX
  5
921
  8
1
 10
1225.233403
 20
-476.729682
 30
0.0
 70
    32
  0
VERTEX
  5
922
  8
1
 10
1225.312661
 20
-476.740247
 30
0.0
 70
    32
  0
VERTEX
  5
923
  8
1
 10
1225.392369
 20
-476.746615
 30
0.0
 70
    32
  0
VERTEX
  5
924
  8
1
 10
1225.472302
 20
-476.748743
 30
0.0
 70
    32
  0
SEQEND
  5
925
  8
DEFPOINTS
  0
LINE
  5
926
  8
1
 10
1225.472277
 20
-476.748743
 30
0.0
 11
1234.393059
 21
-476.748743
 31
0.0
  0
POLYLINE
  5
927
  8
1
 66
     1
 10
0.0
 20
0.0
 30
0.0
 70
     8
  0
VERTEX
  5
928
  8
1
 10
1234.393031
 20
-476.748743
 30
0.0
 70
    32
  0
VERTEX
  5
929
  8
1
 10
1234.472965
 20
-476.746615
 30
0.0
 70
    32
  0
VERTEX
  5
92A
  8
1
 10
1234.552672
 20
-476.740247
 30
0.0
 70
    32
  0
VERTEX
  5
92B
  8
1
 10
1234.631931
 20
-476.729682
 30
0.0
 70
    32
  0
VERTEX
  5
92C
  8
1
 10
1234.710524
 20
-476.714995
 30
0.0
 70
    32
  0
VERTEX
  5
92D
  8
1
 10
1234.788242
 20
-476.696286
 30
0.0
 70
    32
  0
VERTEX
  5
92E
  8
1
 10
1234.864889
 20
-476.673682
 30
0.0
 70
    32
  0
VERTEX
  5
92F
  8
1
 10
1234.940281
 20
-476.647329
 30
0.0
 70
    32
  0
VERTEX
  5
930
  8
1
 10
1235.014248
 20
-476.617396
 30
0.0
 70
    32
  0
VERTEX
  5
931
  8
1
 10
1235.086639
 20
-476.584066
 30
0.0
 70
    32
  0
VERTEX
  5
932
  8
1
 10
1235.157319
 20
-476.547536
 30
0.0
 70
    32
  0
VERTEX
  5
933
  8
1
 10
1235.226171
 20
-476.508013
 30
0.0
 70
    32
  0
VERTEX
  5
934
  8
1
 10
1235.293095
 20
-476.465709
 30
0.0
 70
    32
  0
VERTEX
  5
935
  8
1
 10
1235.358011
 20
-476.420839
 30
0.0
 70
    32
  0
VERTEX
  5
936
  8
1
 10
1235.420854
 20
-476.373621
 30
0.0
 70
    32
  0
VERTEX
  5
937
  8
1
 10
1235.481578
 20
-476.324268
 30
0.0
 70
    32
  0
VERTEX
  5
938
  8
1
 10
1235.54015
 20
-476.27299
 30
0.0
 70
    32
  0
VERTEX
  5
939
  8
1
 10
1235.596552
 20
-476.219989
 30
0.0
 70
    32
  0
VERTEX
  5
93A
  8
1
 10
1235.650781
 20
-476.165461
 30
0.0
 70
    32
  0
VERTEX
  5
93B
  8
1
 10
1235.702843
 20
-476.10959
 30
0.0
 70
    32
  0
VERTEX
  5
93C
  8
1
 10
1235.752757
 20
-476.052552
 30
0.0
 70
    32
  0
VERTEX
  5
93D
  8
1
 10
1235.800548
 20
-475.994511
 30
0.0
 70
    32
  0
VERTEX
  5
93E
  8
1
 10
1235.84625
 20
-475.93562
 30
0.0
 70
    32
  0
VERTEX
  5
93F
  8
1
 10
1235.889906
 20
-475.87602
 30
0.0
 70
    32
  0
VERTEX
  5
940
  8
1
 10
1235.93156
 20
-475.815839
 30
0.0
 70
    32
  0
VERTEX
  5
941
  8
1
 10
1235.971262
 20
-475.755197
 30
0.0
 70
    32
  0
VERTEX
  5
942
  8
1
 10
1236.009067
 20
-475.694199
 30
0.0
 70
    32
  0
VERTEX
  5
943
  8
1
 10
1236.04503
 20
-475.632941
 30
0.0
 70
    32
  0
VERTEX
  5
944
  8
1
 10
1236.079208
 20
-475.571511
 30
0.0
 70
    32
  0
VERTEX
  5
945
  8
1
 10
1236.11166
 20
-475.509982
 30
0.0
 70
    32
  0
VERTEX
  5
946
  8
1
 10
1236.142443
 20
-475.448422
 30
0.0
 70
    32
  0
VERTEX
  5
947
  8
1
 10
1236.171617
 20
-475.38689
 30
0.0
 70
    32
  0
VERTEX
  5
948
  8
1
 10
1236.199237
 20
-475.325436
 30
0.0
 70
    32
  0
VERTEX
  5
949
  8
1
 10
1236.225362
 20
-475.264102
 30
0.0
 70
    32
  0
VERTEX
  5
94A
  8
1
 10
1236.250045
 20
-475.202925
 30
0.0
 70
    32
  0
VERTEX
  5
94B
  8
1
 10
1236.27334
 20
-475.141935
 30
0.0
 70
    32
  0
VERTEX
  5
94C
  8
1
 10
1236.295298
 20
-475.081156
 30
0.0
 70
    32
  0
VERTEX
  5
94D
  8
1
 10
1236.315969
 20
-475.020607
 30
0.0
 70
    32
  0
VERTEX
  5
94E
  8
1
 10
1236.3354
 20
-474.960302
 30
0.0
 70
    32
  0
VERTEX
  5
94F
  8
1
 10
1236.353637
 20
-474.900253
 30
0.0
 70
    32
  0
VERTEX
  5
950
  8
1
 10
1236.370722
 20
-474.840464
 30
0.0
 70
    32
  0
VERTEX
  5
951
  8
1
 10
1236.386695
 20
-474.78094
 30
0.0
 70
    32
  0
VERTEX
  5
952
  8
1
 10
1236.401596
 20
-474.721679
 30
0.0
 70
    32
  0
VERTEX
  5
953
  8
1
 10
1236.415459
 20
-474.66268
 30
0.0
 70
    32
  0
VERTEX
  5
954
  8
1
 10
1236.42832
 20
-474.603936
 30
0.0
 70
    32
  0
VERTEX
  5
955
  8
1
 10
1236.440208
 20
-474.545441
 30
0.0
 70
    32
  0
VERTEX
  5
956
  8
1
 10
1236.451154
 20
-474.487185
 30
0.0
 70
    32
  0
VERTEX
  5
957
  8
1
 10
1236.461184
 20
-474.429157
 30
0.0
 70
    32
  0
VERTEX
  5
958
  8
1
 10
1236.470322
 20
-474.371344
 30
0.0
 70
    32
  0
VERTEX
  5
959
  8
1
 10
1236.478592
 20
-474.313732
 30
0.0
 70
    32
  0
VERTEX
  5
95A
  8
1
 10
1236.486014
 20
-474.256307
 30
0.0
 70
    32
  0
VERTEX
  5
95B
  8
1
 10
1236.492606
 20
-474.199051
 30
0.0
 70
    32
  0
VERTEX
  5
95C
  8
1
 10
1236.498384
 20
-474.141949
 30
0.0
 70
    32
  0
VERTEX
  5
95D
  8
1
 10
1236.503364
 20
-474.084983
 30
0.0
 70
    32
  0
VERTEX
  5
95E
  8
1
 10
1236.507556
 20
-474.028134
 30
0.0
 70
    32
  0
VERTEX
  5
95F
  8
1
 10
1236.510973
 20
-473.971383
 30
0.0
 70
    32
  0
VERTEX
  5
960
  8
1
 10
1236.513621
 20
-473.914712
 30
0.0
 70
    32
  0
VERTEX
  5
961
  8
1
 10
1236.515508
 20
-473.8581
 30
0.0
 70
    32
  0
VERTEX
  5
962
  8
1
 10
1236.516638
 20
-473.801529
 30
0.0
 70
    32
  0
VERTEX
  5
963
  8
1
 10
1236.517015
 20
-473.744977
 30
0.0
 70
    32
  0
SEQEND
  5
964
  8
DEFPOINTS
  0
POLYLINE
  5
965
  8
1
 66
     1
 10
0.0
 20
0.0
 30
0.0
 70
     8
  0
VERTEX
  5
966
  8
1
 10
1213.861195
 20
-476.748743
 30
0.0
 70
    32
  0
VERTEX
  5
967
  8
1
 10
1213.941128
 20
-476.746615
 30
0.0
 70
    32
  0
VERTEX
  5
968
  8
1
 10
1214.020836
 20
-476.740247
 30
0.0
 70
    32
  0
VERTEX
  5
969
  8
1
 10
1214.100094
 20
-476.729682
 30
0.0
 70
    32
  0
VERTEX
  5
96A
  8
1
 10
1214.178687
 20
-476.714995
 30
0.0
 70
    32
  0
VERTEX
  5
96B
  8
1
 10
1214.256405
 20
-476.696286
 30
0.0
 70
    32
  0
VERTEX
  5
96C
  8
1
 10
1214.333052
 20
-476.673682
 30
0.0
 70
    32
  0
VERTEX
  5
96D
  8
1
 10
1214.408444
 20
-476.647329
 30
0.0
 70
    32
  0
VERTEX
  5
96E
  8
1
 10
1214.482411
 20
-476.617396
 30
0.0
 70
    32
  0
VERTEX
  5
96F
  8
1
 10
1214.554803
 20
-476.584066
 30
0.0
 70
    32
  0
VERTEX
  5
970
  8
1
 10
1214.625483
 20
-476.547536
 30
0.0
 70
    32
  0
VERTEX
  5
971
  8
1
 10
1214.694334
 20
-476.508013
 30
0.0
 70
    32
  0
VERTEX
  5
972
  8
1
 10
1214.761258
 20
-476.465709
 30
0.0
 70
    32
  0
VERTEX
  5
973
  8
1
 10
1214.826174
 20
-476.420839
 30
0.0
 70
    32
  0
VERTEX
  5
974
  8
1
 10
1214.889017
 20
-476.373621
 30
0.0
 70
    32
  0
VERTEX
  5
975
  8
1
 10
1214.949741
 20
-476.324268
 30
0.0
 70
    32
  0
VERTEX
  5
976
  8
1
 10
1215.008313
 20
-476.27299
 30
0.0
 70
    32
  0
VERTEX
  5
977
  8
1
 10
1215.064715
 20
-476.219989
 30
0.0
 70
    32
  0
VERTEX
  5
978
  8
1
 10
1215.118944
 20
-476.165461
 30
0.0
 70
    32
  0
VERTEX
  5
979
  8
1
 10
1215.171007
 20
-476.10959
 30
0.0
 70
    32
  0
VERTEX
  5
97A
  8
1
 10
1215.22092
 20
-476.052552
 30
0.0
 70
    32
  0
VERTEX
  5
97B
  8
1
 10
1215.268711
 20
-475.994511
 30
0.0
 70
    32
  0
VERTEX
  5
97C
  8
1
 10
1215.314414
 20
-475.93562
 30
0.0
 70
    32
  0
VERTEX
  5
97D
  8
1
 10
1215.358069
 20
-475.87602
 30
0.0
 70
    32
  0
VERTEX
  5
97E
  8
1
 10
1215.399723
 20
-475.815839
 30
0.0
 70
    32
  0
VERTEX
  5
97F
  8
1
 10
1215.439426
 20
-475.755197
 30
0.0
 70
    32
  0
VERTEX
  5
980
  8
1
 10
1215.477231
 20
-475.694199
 30
0.0
 70
    32
  0
VERTEX
  5
981
  8
1
 10
1215.513193
 20
-475.632941
 30
0.0
 70
    32
  0
VERTEX
  5
982
  8
1
 10
1215.547371
 20
-475.571511
 30
0.0
 70
    32
  0
VERTEX
  5
983
  8
1
 10
1215.579823
 20
-475.509982
 30
0.0
 70
    32
  0
VERTEX
  5
984
  8
1
 10
1215.610606
 20
-475.448422
 30
0.0
 70
    32
  0
VERTEX
  5
985
  8
1
 10
1215.63978
 20
-475.38689
 30
0.0
 70
    32
  0
VERTEX
  5
986
  8
1
 10
1215.6674
 20
-475.325436
 30
0.0
 70
    32
  0
VERTEX
  5
987
  8
1
 10
1215.693525
 20
-475.264102
 30
0.0
 70
    32
  0
VERTEX
  5
988
  8
1
 10
1215.718208
 20
-475.202925
 30
0.0
 70
    32
  0
VERTEX
  5
989
  8
1
 10
1215.741503
 20
-475.141935
 30
0.0
 70
    32
  0
VERTEX
  5
98A
  8
1
 10
1215.763461
 20
-475.081156
 30
0.0
 70
    32
  0
VERTEX
  5
98B
  8
1
 10
1215.784132
 20
-475.020607
 30
0.0
 70
    32
  0
VERTEX
  5
98C
  8
1
 10
1215.803563
 20
-474.960302
 30
0.0
 70
    32
  0
VERTEX
  5
98D
  8
1
 10
1215.8218
 20
-474.900253
 30
0.0
 70
    32
  0
VERTEX
  5
98E
  8
1
 10
1215.838885
 20
-474.840464
 30
0.0
 70
    32
  0
VERTEX
  5
98F
  8
1
 10
1215.854858
 20
-474.78094
 30
0.0
 70
    32
  0
VERTEX
  5
990
  8
1
 10
1215.869759
 20
-474.721679
 30
0.0
 70
    32
  0
VERTEX
  5
991
  8
1
 10
1215.883623
 20
-474.66268
 30
0.0
 70
    32
  0
VERTEX
  5
992
  8
1
 10
1215.896483
 20
-474.603936
 30
0.0
 70
    32
  0
VERTEX
  5
993
  8
1
 10
1215.908371
 20
-474.545441
 30
0.0
 70
    32
  0
VERTEX
  5
994
  8
1
 10
1215.919317
 20
-474.487185
 30
0.0
 70
    32
  0
VERTEX
  5
995
  8
1
 10
1215.929347
 20
-474.429157
 30
0.0
 70
    32
  0
VERTEX
  5
996
  8
1
 10
1215.938485
 20
-474.371344
 30
0.0
 70
    32
  0
VERTEX
  5
997
  8
1
 10
1215.946755
 20
-474.313732
 30
0.0
 70
    32
  0
VERTEX
  5
998
  8
1
 10
1215.954177
 20
-474.256307
 30
0.0
 70
    32
  0
VERTEX
  5
999
  8
1
 10
1215.960769
 20
-474.199051
 30
0.0
 70
    32
  0
VERTEX
  5
99A
  8
1
 10
1215.966548
 20
-474.141949
 30
0.0
 70
    32
  0
VERTEX
  5
99B
  8
1
 10
1215.971527
 20
-474.084983
 30
0.0
 70
    32
  0
VERTEX
  5
99C
  8
1
 10
1215.97572
 20
-474.028134
 30
0.0
 70
    32
  0
VERTEX
  5
99D
  8
1
 10
1215.979136
 20
-473.971383
 30
0.0
 70
    32
  0
VERTEX
  5
99E
  8
1
 10
1215.981784
 20
-473.914712
 30
0.0
 70
    32
  0
VERTEX
  5
99F
  8
1
 10
1215.983671
 20
-473.8581
 30
0.0
 70
    32
  0
VERTEX
  5
9A0
  8
1
 10
1215.984801
 20
-473.801529
 30
0.0
 70
    32
  0
VERTEX
  5
9A1
  8
1
 10
1215.985178
 20
-473.744977
 30
0.0
 70
    32
  0
SEQEND
  5
9A2
  8
DEFPOINTS
  0
LINE
  5
9A3
  8
1
 10
1129.80954
 20
-593.89561
 30
0.0
 11
1129.80954
 21
-356.598113
 31
0.0
  0
LINE
  5
9A4
  8
1
 10
548.820556
 20
-465.134184
 30
0.0
 11
500.22446
 21
-465.134184
 31
0.0
  0
LINE
  5
9A5
  8
1
 10
549.289773
 20
-471.742468
 30
0.0
 11
514.610053
 21
-471.742468
 31
0.0
  0
LINE
  5
9A6
  8
1
 10
560.148466
 20
-468.137948
 30
0.0
 11
550.944539
 21
-468.137948
 31
0.0
  0
LINE
  5
9A7
  8
1
 10
559.015675
 20
-474.746233
 30
0.0
 11
546.818045
 21
-474.746233
 31
0.0
  0
LINE
  5
9A8
  8
1
 10
549.289773
 20
-471.742468
 30
0.0
 11
551.413756
 21
-474.746233
 31
0.0
  0
LINE
  5
9A9
  8
1
 10
543.814279
 20
-471.742468
 30
0.0
 11
546.818045
 21
-474.746233
 31
0.0
  0
LINE
  5
9AA
  8
1
 10
548.820556
 20
-465.134184
 30
0.0
 11
550.944539
 21
-468.137948
 31
0.0
  0
LINE
  5
9AB
  8
1
 10
513.477262
 20
-478.895509
 30
0.0
 11
513.477262
 21
-465.134184
 31
0.0
  0
LINE
  5
9AC
  8
1
 10
514.610053
 20
-478.895494
 30
0.0
 11
514.610053
 21
-471.886671
 31
0.0
  0
POLYLINE
  5
9AD
  8
1
 66
     1
 10
0.0
 20
0.0
 30
0.0
 70
     8
  0
VERTEX
  5
9AE
  8
1
 10
512.486069
 20
-481.899222
 30
0.0
 70
    32
  0
VERTEX
  5
9AF
  8
1
 10
512.566003
 20
-481.897094
 30
0.0
 70
    32
  0
VERTEX
  5
9B0
  8
1
 10
512.64571
 20
-481.890726
 30
0.0
 70
    32
  0
VERTEX
  5
9B1
  8
1
 10
512.724969
 20
-481.880161
 30
0.0
 70
    32
  0
VERTEX
  5
9B2
  8
1
 10
512.803562
 20
-481.865474
 30
0.0
 70
    32
  0
VERTEX
  5
9B3
  8
1
 10
512.88128
 20
-481.846766
 30
0.0
 70
    32
  0
VERTEX
  5
9B4
  8
1
 10
512.957927
 20
-481.824161
 30
0.0
 70
    32
  0
VERTEX
  5
9B5
  8
1
 10
513.033319
 20
-481.797808
 30
0.0
 70
    32
  0
VERTEX
  5
9B6
  8
1
 10
513.107286
 20
-481.767875
 30
0.0
 70
    32
  0
VERTEX
  5
9B7
  8
1
 10
513.179677
 20
-481.734545
 30
0.0
 70
    32
  0
VERTEX
  5
9B8
  8
1
 10
513.250357
 20
-481.698015
 30
0.0
 70
    32
  0
VERTEX
  5
9B9
  8
1
 10
513.319209
 20
-481.658492
 30
0.0
 70
    32
  0
VERTEX
  5
9BA
  8
1
 10
513.386133
 20
-481.616188
 30
0.0
 70
    32
  0
VERTEX
  5
9BB
  8
1
 10
513.451049
 20
-481.571318
 30
0.0
 70
    32
  0
VERTEX
  5
9BC
  8
1
 10
513.513892
 20
-481.5241
 30
0.0
 70
    32
  0
VERTEX
  5
9BD
  8
1
 10
513.574616
 20
-481.474747
 30
0.0
 70
    32
  0
VERTEX
  5
9BE
  8
1
 10
513.633188
 20
-481.423469
 30
0.0
 70
    32
  0
VERTEX
  5
9BF
  8
1
 10
513.68959
 20
-481.370468
 30
0.0
 70
    32
  0
VERTEX
  5
9C0
  8
1
 10
513.743819
 20
-481.31594
 30
0.0
 70
    32
  0
VERTEX
  5
9C1
  8
1
 10
513.795881
 20
-481.260069
 30
0.0
 70
    32
  0
VERTEX
  5
9C2
  8
1
 10
513.845795
 20
-481.203031
 30
0.0
 70
    32
  0
VERTEX
  5
9C3
  8
1
 10
513.893586
 20
-481.144991
 30
0.0
 70
    32
  0
VERTEX
  5
9C4
  8
1
 10
513.939289
 20
-481.0861
 30
0.0
 70
    32
  0
VERTEX
  5
9C5
  8
1
 10
513.982944
 20
-481.026499
 30
0.0
 70
    32
  0
VERTEX
  5
9C6
  8
1
 10
514.024598
 20
-480.966319
 30
0.0
 70
    32
  0
VERTEX
  5
9C7
  8
1
 10
514.0643
 20
-480.905676
 30
0.0
 70
    32
  0
VERTEX
  5
9C8
  8
1
 10
514.102105
 20
-480.844678
 30
0.0
 70
    32
  0
VERTEX
  5
9C9
  8
1
 10
514.138068
 20
-480.783421
 30
0.0
 70
    32
  0
VERTEX
  5
9CA
  8
1
 10
514.172246
 20
-480.72199
 30
0.0
 70
    32
  0
VERTEX
  5
9CB
  8
1
 10
514.204698
 20
-480.660461
 30
0.0
 70
    32
  0
VERTEX
  5
9CC
  8
1
 10
514.235481
 20
-480.598902
 30
0.0
 70
    32
  0
VERTEX
  5
9CD
  8
1
 10
514.264655
 20
-480.53737
 30
0.0
 70
    32
  0
VERTEX
  5
9CE
  8
1
 10
514.292275
 20
-480.475915
 30
0.0
 70
    32
  0
VERTEX
  5
9CF
  8
1
 10
514.3184
 20
-480.414581
 30
0.0
 70
    32
  0
VERTEX
  5
9D0
  8
1
 10
514.343083
 20
-480.353404
 30
0.0
 70
    32
  0
VERTEX
  5
9D1
  8
1
 10
514.366378
 20
-480.292414
 30
0.0
 70
    32
  0
VERTEX
  5
9D2
  8
1
 10
514.388336
 20
-480.231635
 30
0.0
 70
    32
  0
VERTEX
  5
9D3
  8
1
 10
514.409007
 20
-480.171086
 30
0.0
 70
    32
  0
VERTEX
  5
9D4
  8
1
 10
514.428438
 20
-480.110782
 30
0.0
 70
    32
  0
VERTEX
  5
9D5
  8
1
 10
514.446675
 20
-480.050732
 30
0.0
 70
    32
  0
VERTEX
  5
9D6
  8
1
 10
514.46376
 20
-479.990943
 30
0.0
 70
    32
  0
VERTEX
  5
9D7
  8
1
 10
514.479733
 20
-479.931419
 30
0.0
 70
    32
  0
VERTEX
  5
9D8
  8
1
 10
514.494634
 20
-479.872158
 30
0.0
 70
    32
  0
VERTEX
  5
9D9
  8
1
 10
514.508498
 20
-479.813159
 30
0.0
 70
    32
  0
VERTEX
  5
9DA
  8
1
 10
514.521358
 20
-479.754416
 30
0.0
 70
    32
  0
VERTEX
  5
9DB
  8
1
 10
514.533246
 20
-479.69592
 30
0.0
 70
    32
  0
VERTEX
  5
9DC
  8
1
 10
514.544192
 20
-479.637664
 30
0.0
 70
    32
  0
VERTEX
  5
9DD
  8
1
 10
514.554222
 20
-479.579636
 30
0.0
 70
    32
  0
VERTEX
  5
9DE
  8
1
 10
514.56336
 20
-479.521823
 30
0.0
 70
    32
  0
VERTEX
  5
9DF
  8
1
 10
514.57163
 20
-479.464211
 30
0.0
 70
    32
  0
VERTEX
  5
9E0
  8
1
 10
514.579052
 20
-479.406786
 30
0.0
 70
    32
  0
VERTEX
  5
9E1
  8
1
 10
514.585644
 20
-479.34953
 30
0.0
 70
    32
  0
VERTEX
  5
9E2
  8
1
 10
514.591422
 20
-479.292428
 30
0.0
 70
    32
  0
VERTEX
  5
9E3
  8
1
 10
514.596402
 20
-479.235462
 30
0.0
 70
    32
  0
VERTEX
  5
9E4
  8
1
 10
514.600594
 20
-479.178613
 30
0.0
 70
    32
  0
VERTEX
  5
9E5
  8
1
 10
514.604011
 20
-479.121862
 30
0.0
 70
    32
  0
VERTEX
  5
9E6
  8
1
 10
514.606659
 20
-479.065191
 30
0.0
 70
    32
  0
VERTEX
  5
9E7
  8
1
 10
514.608546
 20
-479.00858
 30
0.0
 70
    32
  0
VERTEX
  5
9E8
  8
1
 10
514.609676
 20
-478.952008
 30
0.0
 70
    32
  0
VERTEX
  5
9E9
  8
1
 10
514.610053
 20
-478.895456
 30
0.0
 70
    32
  0
SEQEND
  5
9EA
  8
DEFPOINTS
  0
POLYLINE
  5
9EB
  8
1
 66
     1
 10
0.0
 20
0.0
 30
0.0
 70
     8
  0
VERTEX
  5
9EC
  8
1
 10
511.353278
 20
-481.899222
 30
0.0
 70
    32
  0
VERTEX
  5
9ED
  8
1
 10
511.433212
 20
-481.897094
 30
0.0
 70
    32
  0
VERTEX
  5
9EE
  8
1
 10
511.512919
 20
-481.890726
 30
0.0
 70
    32
  0
VERTEX
  5
9EF
  8
1
 10
511.592178
 20
-481.880161
 30
0.0
 70
    32
  0
VERTEX
  5
9F0
  8
1
 10
511.670771
 20
-481.865474
 30
0.0
 70
    32
  0
VERTEX
  5
9F1
  8
1
 10
511.748489
 20
-481.846766
 30
0.0
 70
    32
  0
VERTEX
  5
9F2
  8
1
 10
511.825136
 20
-481.824161
 30
0.0
 70
    32
  0
VERTEX
  5
9F3
  8
1
 10
511.900528
 20
-481.797808
 30
0.0
 70
    32
  0
VERTEX
  5
9F4
  8
1
 10
511.974495
 20
-481.767875
 30
0.0
 70
    32
  0
VERTEX
  5
9F5
  8
1
 10
512.046886
 20
-481.734545
 30
0.0
 70
    32
  0
VERTEX
  5
9F6
  8
1
 10
512.117566
 20
-481.698015
 30
0.0
 70
    32
  0
VERTEX
  5
9F7
  8
1
 10
512.186418
 20
-481.658492
 30
0.0
 70
    32
  0
VERTEX
  5
9F8
  8
1
 10
512.253342
 20
-481.616188
 30
0.0
 70
    32
  0
VERTEX
  5
9F9
  8
1
 10
512.318258
 20
-481.571318
 30
0.0
 70
    32
  0
VERTEX
  5
9FA
  8
1
 10
512.381101
 20
-481.5241
 30
0.0
 70
    32
  0
VERTEX
  5
9FB
  8
1
 10
512.441825
 20
-481.474747
 30
0.0
 70
    32
  0
VERTEX
  5
9FC
  8
1
 10
512.500397
 20
-481.423469
 30
0.0
 70
    32
  0
VERTEX
  5
9FD
  8
1
 10
512.556799
 20
-481.370468
 30
0.0
 70
    32
  0
VERTEX
  5
9FE
  8
1
 10
512.611028
 20
-481.31594
 30
0.0
 70
    32
  0
VERTEX
  5
9FF
  8
1
 10
512.66309
 20
-481.260069
 30
0.0
 70
    32
  0
VERTEX
  5
A00
  8
1
 10
512.713004
 20
-481.203031
 30
0.0
 70
    32
  0
VERTEX
  5
A01
  8
1
 10
512.760795
 20
-481.144991
 30
0.0
 70
    32
  0
VERTEX
  5
A02
  8
1
 10
512.806497
 20
-481.0861
 30
0.0
 70
    32
  0
VERTEX
  5
A03
  8
1
 10
512.850153
 20
-481.026499
 30
0.0
 70
    32
  0
VERTEX
  5
A04
  8
1
 10
512.891807
 20
-480.966319
 30
0.0
 70
    32
  0
VERTEX
  5
A05
  8
1
 10
512.931509
 20
-480.905676
 30
0.0
 70
    32
  0
VERTEX
  5
A06
  8
1
 10
512.969314
 20
-480.844678
 30
0.0
 70
    32
  0
VERTEX
  5
A07
  8
1
 10
513.005277
 20
-480.783421
 30
0.0
 70
    32
  0
VERTEX
  5
A08
  8
1
 10
513.039455
 20
-480.72199
 30
0.0
 70
    32
  0
VERTEX
  5
A09
  8
1
 10
513.071907
 20
-480.660461
 30
0.0
 70
    32
  0
VERTEX
  5
A0A
  8
1
 10
513.10269
 20
-480.598902
 30
0.0
 70
    32
  0
VERTEX
  5
A0B
  8
1
 10
513.131864
 20
-480.53737
 30
0.0
 70
    32
  0
VERTEX
  5
A0C
  8
1
 10
513.159484
 20
-480.475915
 30
0.0
 70
    32
  0
VERTEX
  5
A0D
  8
1
 10
513.185609
 20
-480.414581
 30
0.0
 70
    32
  0
VERTEX
  5
A0E
  8
1
 10
513.210292
 20
-480.353404
 30
0.0
 70
    32
  0
VERTEX
  5
A0F
  8
1
 10
513.233587
 20
-480.292414
 30
0.0
 70
    32
  0
VERTEX
  5
A10
  8
1
 10
513.255545
 20
-480.231635
 30
0.0
 70
    32
  0
VERTEX
  5
A11
  8
1
 10
513.276216
 20
-480.171086
 30
0.0
 70
    32
  0
VERTEX
  5
A12
  8
1
 10
513.295647
 20
-480.110782
 30
0.0
 70
    32
  0
VERTEX
  5
A13
  8
1
 10
513.313884
 20
-480.050732
 30
0.0
 70
    32
  0
VERTEX
  5
A14
  8
1
 10
513.330969
 20
-479.990943
 30
0.0
 70
    32
  0
VERTEX
  5
A15
  8
1
 10
513.346942
 20
-479.931419
 30
0.0
 70
    32
  0
VERTEX
  5
A16
  8
1
 10
513.361843
 20
-479.872158
 30
0.0
 70
    32
  0
VERTEX
  5
A17
  8
1
 10
513.375706
 20
-479.813159
 30
0.0
 70
    32
  0
VERTEX
  5
A18
  8
1
 10
513.388567
 20
-479.754416
 30
0.0
 70
    32
  0
VERTEX
  5
A19
  8
1
 10
513.400455
 20
-479.69592
 30
0.0
 70
    32
  0
VERTEX
  5
A1A
  8
1
 10
513.411401
 20
-479.637664
 30
0.0
 70
    32
  0
VERTEX
  5
A1B
  8
1
 10
513.421431
 20
-479.579636
 30
0.0
 70
    32
  0
VERTEX
  5
A1C
  8
1
 10
513.430569
 20
-479.521823
 30
0.0
 70
    32
  0
VERTEX
  5
A1D
  8
1
 10
513.438839
 20
-479.464211
 30
0.0
 70
    32
  0
VERTEX
  5
A1E
  8
1
 10
513.446261
 20
-479.406786
 30
0.0
 70
    32
  0
VERTEX
  5
A1F
  8
1
 10
513.452853
 20
-479.34953
 30
0.0
 70
    32
  0
VERTEX
  5
A20
  8
1
 10
513.458631
 20
-479.292428
 30
0.0
 70
    32
  0
VERTEX
  5
A21
  8
1
 10
513.463611
 20
-479.235462
 30
0.0
 70
    32
  0
VERTEX
  5
A22
  8
1
 10
513.467803
 20
-479.178613
 30
0.0
 70
    32
  0
VERTEX
  5
A23
  8
1
 10
513.47122
 20
-479.121862
 30
0.0
 70
    32
  0
VERTEX
  5
A24
  8
1
 10
513.473868
 20
-479.065191
 30
0.0
 70
    32
  0
VERTEX
  5
A25
  8
1
 10
513.475755
 20
-479.00858
 30
0.0
 70
    32
  0
VERTEX
  5
A26
  8
1
 10
513.476885
 20
-478.952008
 30
0.0
 70
    32
  0
VERTEX
  5
A27
  8
1
 10
513.477262
 20
-478.895456
 30
0.0
 70
    32
  0
SEQEND
  5
A28
  8
DEFPOINTS
  0
POLYLINE
  5
A29
  8
1
 66
     1
 10
0.0
 20
0.0
 30
0.0
 70
     8
  0
VERTEX
  5
A2A
  8
1
 10
508.959912
 20
-478.853993
 30
0.0
 70
    32
  0
VERTEX
  5
A2B
  8
1
 10
508.960288
 20
-478.910545
 30
0.0
 70
    32
  0
VERTEX
  5
A2C
  8
1
 10
508.961418
 20
-478.967116
 30
0.0
 70
    32
  0
VERTEX
  5
A2D
  8
1
 10
508.963305
 20
-479.023728
 30
0.0
 70
    32
  0
VERTEX
  5
A2E
  8
1
 10
508.965954
 20
-479.080399
 30
0.0
 70
    32
  0
VERTEX
  5
A2F
  8
1
 10
508.96937
 20
-479.13715
 30
0.0
 70
    32
  0
VERTEX
  5
A30
  8
1
 10
508.973562
 20
-479.193999
 30
0.0
 70
    32
  0
VERTEX
  5
A31
  8
1
 10
508.978542
 20
-479.250965
 30
0.0
 70
    32
  0
VERTEX
  5
A32
  8
1
 10
508.98432
 20
-479.308067
 30
0.0
 70
    32
  0
VERTEX
  5
A33
  8
1
 10
508.990912
 20
-479.365322
 30
0.0
 70
    32
  0
VERTEX
  5
A34
  8
1
 10
508.998334
 20
-479.422748
 30
0.0
 70
    32
  0
VERTEX
  5
A35
  8
1
 10
509.006604
 20
-479.48036
 30
0.0
 70
    32
  0
VERTEX
  5
A36
  8
1
 10
509.015743
 20
-479.538173
 30
0.0
 70
    32
  0
VERTEX
  5
A37
  8
1
 10
509.025772
 20
-479.596201
 30
0.0
 70
    32
  0
VERTEX
  5
A38
  8
1
 10
509.036718
 20
-479.654457
 30
0.0
 70
    32
  0
VERTEX
  5
A39
  8
1
 10
509.048606
 20
-479.712952
 30
0.0
 70
    32
  0
VERTEX
  5
A3A
  8
1
 10
509.061467
 20
-479.771696
 30
0.0
 70
    32
  0
VERTEX
  5
A3B
  8
1
 10
509.07533
 20
-479.830695
 30
0.0
 70
    32
  0
VERTEX
  5
A3C
  8
1
 10
509.090231
 20
-479.889956
 30
0.0
 70
    32
  0
VERTEX
  5
A3D
  8
1
 10
509.106205
 20
-479.94948
 30
0.0
 70
    32
  0
VERTEX
  5
A3E
  8
1
 10
509.123289
 20
-480.009269
 30
0.0
 70
    32
  0
VERTEX
  5
A3F
  8
1
 10
509.141526
 20
-480.069318
 30
0.0
 70
    32
  0
VERTEX
  5
A40
  8
1
 10
509.160957
 20
-480.129623
 30
0.0
 70
    32
  0
VERTEX
  5
A41
  8
1
 10
509.181628
 20
-480.190172
 30
0.0
 70
    32
  0
VERTEX
  5
A42
  8
1
 10
509.203587
 20
-480.250951
 30
0.0
 70
    32
  0
VERTEX
  5
A43
  8
1
 10
509.226882
 20
-480.311941
 30
0.0
 70
    32
  0
VERTEX
  5
A44
  8
1
 10
509.251565
 20
-480.373118
 30
0.0
 70
    32
  0
VERTEX
  5
A45
  8
1
 10
509.277689
 20
-480.434452
 30
0.0
 70
    32
  0
VERTEX
  5
A46
  8
1
 10
509.30531
 20
-480.495906
 30
0.0
 70
    32
  0
VERTEX
  5
A47
  8
1
 10
509.334483
 20
-480.557438
 30
0.0
 70
    32
  0
VERTEX
  5
A48
  8
1
 10
509.365266
 20
-480.618998
 30
0.0
 70
    32
  0
VERTEX
  5
A49
  8
1
 10
509.397718
 20
-480.680526
 30
0.0
 70
    32
  0
VERTEX
  5
A4A
  8
1
 10
509.431896
 20
-480.741957
 30
0.0
 70
    32
  0
VERTEX
  5
A4B
  8
1
 10
509.467859
 20
-480.803215
 30
0.0
 70
    32
  0
VERTEX
  5
A4C
  8
1
 10
509.505664
 20
-480.864213
 30
0.0
 70
    32
  0
VERTEX
  5
A4D
  8
1
 10
509.545366
 20
-480.924855
 30
0.0
 70
    32
  0
VERTEX
  5
A4E
  8
1
 10
509.58702
 20
-480.985036
 30
0.0
 70
    32
  0
VERTEX
  5
A4F
  8
1
 10
509.630676
 20
-481.044636
 30
0.0
 70
    32
  0
VERTEX
  5
A50
  8
1
 10
509.676378
 20
-481.103527
 30
0.0
 70
    32
  0
VERTEX
  5
A51
  8
1
 10
509.724169
 20
-481.161568
 30
0.0
 70
    32
  0
VERTEX
  5
A52
  8
1
 10
509.774083
 20
-481.218606
 30
0.0
 70
    32
  0
VERTEX
  5
A53
  8
1
 10
509.826145
 20
-481.274477
 30
0.0
 70
    32
  0
VERTEX
  5
A54
  8
1
 10
509.880374
 20
-481.329005
 30
0.0
 70
    32
  0
VERTEX
  5
A55
  8
1
 10
509.936777
 20
-481.382006
 30
0.0
 70
    32
  0
VERTEX
  5
A56
  8
1
 10
509.995348
 20
-481.433284
 30
0.0
 70
    32
  0
VERTEX
  5
A57
  8
1
 10
510.056072
 20
-481.482637
 30
0.0
 70
    32
  0
VERTEX
  5
A58
  8
1
 10
510.118915
 20
-481.529855
 30
0.0
 70
    32
  0
VERTEX
  5
A59
  8
1
 10
510.183831
 20
-481.574724
 30
0.0
 70
    32
  0
VERTEX
  5
A5A
  8
1
 10
510.250755
 20
-481.617029
 30
0.0
 70
    32
  0
VERTEX
  5
A5B
  8
1
 10
510.319607
 20
-481.656552
 30
0.0
 70
    32
  0
VERTEX
  5
A5C
  8
1
 10
510.390287
 20
-481.693082
 30
0.0
 70
    32
  0
VERTEX
  5
A5D
  8
1
 10
510.462678
 20
-481.726412
 30
0.0
 70
    32
  0
VERTEX
  5
A5E
  8
1
 10
510.536646
 20
-481.756345
 30
0.0
 70
    32
  0
VERTEX
  5
A5F
  8
1
 10
510.612037
 20
-481.782698
 30
0.0
 70
    32
  0
VERTEX
  5
A60
  8
1
 10
510.688684
 20
-481.805302
 30
0.0
 70
    32
  0
VERTEX
  5
A61
  8
1
 10
510.766403
 20
-481.824011
 30
0.0
 70
    32
  0
VERTEX
  5
A62
  8
1
 10
510.844995
 20
-481.838698
 30
0.0
 70
    32
  0
VERTEX
  5
A63
  8
1
 10
510.924254
 20
-481.849262
 30
0.0
 70
    32
  0
VERTEX
  5
A64
  8
1
 10
511.003961
 20
-481.855631
 30
0.0
 70
    32
  0
VERTEX
  5
A65
  8
1
 10
511.083895
 20
-481.857759
 30
0.0
 70
    32
  0
SEQEND
  5
A66
  8
DEFPOINTS
  0
LINE
  5
A67
  8
1
 10
513.03682
 20
-481.857759
 30
0.0
 11
511.083866
 21
-481.857759
 31
0.0
  0
LINE
  5
A68
  8
1
 10
508.959912
 20
-478.854059
 30
0.0
 11
508.959912
 21
-465.134184
 31
0.0
  0
LINE
  5
A69
  8
1
 10
504.760414
 20
-478.956791
 30
0.0
 11
504.760414
 21
-465.134184
 31
0.0
  0
LINE
  5
A6A
  8
1
 10
505.893205
 20
-478.956766
 30
0.0
 11
505.893205
 21
-471.947946
 31
0.0
  0
LINE
  5
A6B
  8
1
 10
508.959912
 20
-471.947946
 30
0.0
 11
505.893205
 21
-471.947946
 31
0.0
  0
POLYLINE
  5
A6C
  8
1
 66
     1
 10
0.0
 20
0.0
 30
0.0
 70
     8
  0
VERTEX
  5
A6D
  8
1
 10
503.769222
 20
-481.960498
 30
0.0
 70
    32
  0
VERTEX
  5
A6E
  8
1
 10
503.849156
 20
-481.95837
 30
0.0
 70
    32
  0
VERTEX
  5
A6F
  8
1
 10
503.928863
 20
-481.952001
 30
0.0
 70
    32
  0
VERTEX
  5
A70
  8
1
 10
504.008122
 20
-481.941437
 30
0.0
 70
    32
  0
VERTEX
  5
A71
  8
1
 10
504.086714
 20
-481.92675
 30
0.0
 70
    32
  0
VERTEX
  5
A72
  8
1
 10
504.164433
 20
-481.908041
 30
0.0
 70
    32
  0
VERTEX
  5
A73
  8
1
 10
504.24108
 20
-481.885437
 30
0.0
 70
    32
  0
VERTEX
  5
A74
  8
1
 10
504.316471
 20
-481.859084
 30
0.0
 70
    32
  0
VERTEX
  5
A75
  8
1
 10
504.390439
 20
-481.829151
 30
0.0
 70
    32
  0
VERTEX
  5
A76
  8
1
 10
504.46283
 20
-481.795821
 30
0.0
 70
    32
  0
VERTEX
  5
A77
  8
1
 10
504.53351
 20
-481.759291
 30
0.0
 70
    32
  0
VERTEX
  5
A78
  8
1
 10
504.602362
 20
-481.719768
 30
0.0
 70
    32
  0
VERTEX
  5
A79
  8
1
 10
504.669286
 20
-481.677464
 30
0.0
 70
    32
  0
VERTEX
  5
A7A
  8
1
 10
504.734202
 20
-481.632594
 30
0.0
 70
    32
  0
VERTEX
  5
A7B
  8
1
 10
504.797045
 20
-481.585376
 30
0.0
 70
    32
  0
VERTEX
  5
A7C
  8
1
 10
504.857769
 20
-481.536023
 30
0.0
 70
    32
  0
VERTEX
  5
A7D
  8
1
 10
504.91634
 20
-481.484745
 30
0.0
 70
    32
  0
VERTEX
  5
A7E
  8
1
 10
504.972743
 20
-481.431744
 30
0.0
 70
    32
  0
VERTEX
  5
A7F
  8
1
 10
505.026972
 20
-481.377216
 30
0.0
 70
    32
  0
VERTEX
  5
A80
  8
1
 10
505.079034
 20
-481.321345
 30
0.0
 70
    32
  0
VERTEX
  5
A81
  8
1
 10
505.128948
 20
-481.264307
 30
0.0
 70
    32
  0
VERTEX
  5
A82
  8
1
 10
505.176739
 20
-481.206266
 30
0.0
 70
    32
  0
VERTEX
  5
A83
  8
1
 10
505.222441
 20
-481.147375
 30
0.0
 70
    32
  0
VERTEX
  5
A84
  8
1
 10
505.266097
 20
-481.087775
 30
0.0
 70
    32
  0
VERTEX
  5
A85
  8
1
 10
505.307751
 20
-481.027594
 30
0.0
 70
    32
  0
VERTEX
  5
A86
  8
1
 10
505.347453
 20
-480.966952
 30
0.0
 70
    32
  0
VERTEX
  5
A87
  8
1
 10
505.385258
 20
-480.905954
 30
0.0
 70
    32
  0
VERTEX
  5
A88
  8
1
 10
505.421221
 20
-480.844696
 30
0.0
 70
    32
  0
VERTEX
  5
A89
  8
1
 10
505.455399
 20
-480.783265
 30
0.0
 70
    32
  0
VERTEX
  5
A8A
  8
1
 10
505.487851
 20
-480.721737
 30
0.0
 70
    32
  0
VERTEX
  5
A8B
  8
1
 10
505.518634
 20
-480.660177
 30
0.0
 70
    32
  0
VERTEX
  5
A8C
  8
1
 10
505.547807
 20
-480.598645
 30
0.0
 70
    32
  0
VERTEX
  5
A8D
  8
1
 10
505.575428
 20
-480.537191
 30
0.0
 70
    32
  0
VERTEX
  5
A8E
  8
1
 10
505.601552
 20
-480.475857
 30
0.0
 70
    32
  0
VERTEX
  5
A8F
  8
1
 10
505.626235
 20
-480.41468
 30
0.0
 70
    32
  0
VERTEX
  5
A90
  8
1
 10
505.64953
 20
-480.35369
 30
0.0
 70
    32
  0
VERTEX
  5
A91
  8
1
 10
505.671489
 20
-480.292911
 30
0.0
 70
    32
  0
VERTEX
  5
A92
  8
1
 10
505.69216
 20
-480.232362
 30
0.0
 70
    32
  0
VERTEX
  5
A93
  8
1
 10
505.711591
 20
-480.172057
 30
0.0
 70
    32
  0
VERTEX
  5
A94
  8
1
 10
505.729828
 20
-480.112008
 30
0.0
 70
    32
  0
VERTEX
  5
A95
  8
1
 10
505.746912
 20
-480.052219
 30
0.0
 70
    32
  0
VERTEX
  5
A96
  8
1
 10
505.762886
 20
-479.992695
 30
0.0
 70
    32
  0
VERTEX
  5
A97
  8
1
 10
505.777787
 20
-479.933434
 30
0.0
 70
    32
  0
VERTEX
  5
A98
  8
1
 10
505.79165
 20
-479.874435
 30
0.0
 70
    32
  0
VERTEX
  5
A99
  8
1
 10
505.804511
 20
-479.815691
 30
0.0
 70
    32
  0
VERTEX
  5
A9A
  8
1
 10
505.816399
 20
-479.757196
 30
0.0
 70
    32
  0
VERTEX
  5
A9B
  8
1
 10
505.827345
 20
-479.69894
 30
0.0
 70
    32
  0
VERTEX
  5
A9C
  8
1
 10
505.837374
 20
-479.640912
 30
0.0
 70
    32
  0
VERTEX
  5
A9D
  8
1
 10
505.846513
 20
-479.583099
 30
0.0
 70
    32
  0
VERTEX
  5
A9E
  8
1
 10
505.854783
 20
-479.525487
 30
0.0
 70
    32
  0
VERTEX
  5
A9F
  8
1
 10
505.862205
 20
-479.468061
 30
0.0
 70
    32
  0
VERTEX
  5
AA0
  8
1
 10
505.868797
 20
-479.410806
 30
0.0
 70
    32
  0
VERTEX
  5
AA1
  8
1
 10
505.874575
 20
-479.353704
 30
0.0
 70
    32
  0
VERTEX
  5
AA2
  8
1
 10
505.879555
 20
-479.296738
 30
0.0
 70
    32
  0
VERTEX
  5
AA3
  8
1
 10
505.883747
 20
-479.239889
 30
0.0
 70
    32
  0
VERTEX
  5
AA4
  8
1
 10
505.887163
 20
-479.183138
 30
0.0
 70
    32
  0
VERTEX
  5
AA5
  8
1
 10
505.889812
 20
-479.126467
 30
0.0
 70
    32
  0
VERTEX
  5
AA6
  8
1
 10
505.891699
 20
-479.069855
 30
0.0
 70
    32
  0
VERTEX
  5
AA7
  8
1
 10
505.892829
 20
-479.013284
 30
0.0
 70
    32
  0
VERTEX
  5
AA8
  8
1
 10
505.893205
 20
-478.956732
 30
0.0
 70
    32
  0
SEQEND
  5
AA9
  8
DEFPOINTS
  0
POLYLINE
  5
AAA
  8
1
 66
     1
 10
0.0
 20
0.0
 30
0.0
 70
     8
  0
VERTEX
  5
AAB
  8
1
 10
502.636431
 20
-481.960498
 30
0.0
 70
    32
  0
VERTEX
  5
AAC
  8
1
 10
502.716365
 20
-481.95837
 30
0.0
 70
    32
  0
VERTEX
  5
AAD
  8
1
 10
502.796072
 20
-481.952001
 30
0.0
 70
    32
  0
VERTEX
  5
AAE
  8
1
 10
502.875331
 20
-481.941437
 30
0.0
 70
    32
  0
VERTEX
  5
AAF
  8
1
 10
502.953923
 20
-481.92675
 30
0.0
 70
    32
  0
VERTEX
  5
AB0
  8
1
 10
503.031642
 20
-481.908041
 30
0.0
 70
    32
  0
VERTEX
  5
AB1
  8
1
 10
503.108289
 20
-481.885437
 30
0.0
 70
    32
  0
VERTEX
  5
AB2
  8
1
 10
503.18368
 20
-481.859084
 30
0.0
 70
    32
  0
VERTEX
  5
AB3
  8
1
 10
503.257648
 20
-481.829151
 30
0.0
 70
    32
  0
VERTEX
  5
AB4
  8
1
 10
503.330039
 20
-481.795821
 30
0.0
 70
    32
  0
VERTEX
  5
AB5
  8
1
 10
503.400719
 20
-481.759291
 30
0.0
 70
    32
  0
VERTEX
  5
AB6
  8
1
 10
503.469571
 20
-481.719768
 30
0.0
 70
    32
  0
VERTEX
  5
AB7
  8
1
 10
503.536495
 20
-481.677464
 30
0.0
 70
    32
  0
VERTEX
  5
AB8
  8
1
 10
503.601411
 20
-481.632594
 30
0.0
 70
    32
  0
VERTEX
  5
AB9
  8
1
 10
503.664254
 20
-481.585376
 30
0.0
 70
    32
  0
VERTEX
  5
ABA
  8
1
 10
503.724978
 20
-481.536023
 30
0.0
 70
    32
  0
VERTEX
  5
ABB
  8
1
 10
503.783549
 20
-481.484745
 30
0.0
 70
    32
  0
VERTEX
  5
ABC
  8
1
 10
503.839952
 20
-481.431744
 30
0.0
 70
    32
  0
VERTEX
  5
ABD
  8
1
 10
503.894181
 20
-481.377216
 30
0.0
 70
    32
  0
VERTEX
  5
ABE
  8
1
 10
503.946243
 20
-481.321345
 30
0.0
 70
    32
  0
VERTEX
  5
ABF
  8
1
 10
503.996157
 20
-481.264307
 30
0.0
 70
    32
  0
VERTEX
  5
AC0
  8
1
 10
504.043948
 20
-481.206266
 30
0.0
 70
    32
  0
VERTEX
  5
AC1
  8
1
 10
504.08965
 20
-481.147375
 30
0.0
 70
    32
  0
VERTEX
  5
AC2
  8
1
 10
504.133306
 20
-481.087775
 30
0.0
 70
    32
  0
VERTEX
  5
AC3
  8
1
 10
504.17496
 20
-481.027594
 30
0.0
 70
    32
  0
VERTEX
  5
AC4
  8
1
 10
504.214662
 20
-480.966952
 30
0.0
 70
    32
  0
VERTEX
  5
AC5
  8
1
 10
504.252467
 20
-480.905954
 30
0.0
 70
    32
  0
VERTEX
  5
AC6
  8
1
 10
504.28843
 20
-480.844696
 30
0.0
 70
    32
  0
VERTEX
  5
AC7
  8
1
 10
504.322608
 20
-480.783265
 30
0.0
 70
    32
  0
VERTEX
  5
AC8
  8
1
 10
504.35506
 20
-480.721737
 30
0.0
 70
    32
  0
VERTEX
  5
AC9
  8
1
 10
504.385843
 20
-480.660177
 30
0.0
 70
    32
  0
VERTEX
  5
ACA
  8
1
 10
504.415016
 20
-480.598645
 30
0.0
 70
    32
  0
VERTEX
  5
ACB
  8
1
 10
504.442637
 20
-480.537191
 30
0.0
 70
    32
  0
VERTEX
  5
ACC
  8
1
 10
504.468761
 20
-480.475857
 30
0.0
 70
    32
  0
VERTEX
  5
ACD
  8
1
 10
504.493444
 20
-480.41468
 30
0.0
 70
    32
  0
VERTEX
  5
ACE
  8
1
 10
504.516739
 20
-480.35369
 30
0.0
 70
    32
  0
VERTEX
  5
ACF
  8
1
 10
504.538698
 20
-480.292911
 30
0.0
 70
    32
  0
VERTEX
  5
AD0
  8
1
 10
504.559369
 20
-480.232362
 30
0.0
 70
    32
  0
VERTEX
  5
AD1
  8
1
 10
504.5788
 20
-480.172057
 30
0.0
 70
    32
  0
VERTEX
  5
AD2
  8
1
 10
504.597037
 20
-480.112008
 30
0.0
 70
    32
  0
VERTEX
  5
AD3
  8
1
 10
504.614121
 20
-480.052219
 30
0.0
 70
    32
  0
VERTEX
  5
AD4
  8
1
 10
504.630095
 20
-479.992695
 30
0.0
 70
    32
  0
VERTEX
  5
AD5
  8
1
 10
504.644996
 20
-479.933434
 30
0.0
 70
    32
  0
VERTEX
  5
AD6
  8
1
 10
504.658859
 20
-479.874435
 30
0.0
 70
    32
  0
VERTEX
  5
AD7
  8
1
 10
504.67172
 20
-479.815691
 30
0.0
 70
    32
  0
VERTEX
  5
AD8
  8
1
 10
504.683608
 20
-479.757196
 30
0.0
 70
    32
  0
VERTEX
  5
AD9
  8
1
 10
504.694554
 20
-479.69894
 30
0.0
 70
    32
  0
VERTEX
  5
ADA
  8
1
 10
504.704583
 20
-479.640912
 30
0.0
 70
    32
  0
VERTEX
  5
ADB
  8
1
 10
504.713722
 20
-479.583099
 30
0.0
 70
    32
  0
VERTEX
  5
ADC
  8
1
 10
504.721992
 20
-479.525487
 30
0.0
 70
    32
  0
VERTEX
  5
ADD
  8
1
 10
504.729414
 20
-479.468061
 30
0.0
 70
    32
  0
VERTEX
  5
ADE
  8
1
 10
504.736006
 20
-479.410806
 30
0.0
 70
    32
  0
VERTEX
  5
ADF
  8
1
 10
504.741784
 20
-479.353704
 30
0.0
 70
    32
  0
VERTEX
  5
AE0
  8
1
 10
504.746764
 20
-479.296738
 30
0.0
 70
    32
  0
VERTEX
  5
AE1
  8
1
 10
504.750956
 20
-479.239889
 30
0.0
 70
    32
  0
VERTEX
  5
AE2
  8
1
 10
504.754372
 20
-479.183138
 30
0.0
 70
    32
  0
VERTEX
  5
AE3
  8
1
 10
504.757021
 20
-479.126467
 30
0.0
 70
    32
  0
VERTEX
  5
AE4
  8
1
 10
504.758908
 20
-479.069855
 30
0.0
 70
    32
  0
VERTEX
  5
AE5
  8
1
 10
504.760038
 20
-479.013284
 30
0.0
 70
    32
  0
VERTEX
  5
AE6
  8
1
 10
504.760414
 20
-478.956732
 30
0.0
 70
    32
  0
SEQEND
  5
AE7
  8
DEFPOINTS
  0
LINE
  5
AE8
  8
1
 10
500.22446
 20
-478.956769
 30
0.0
 11
500.22446
 21
-465.134184
 31
0.0
  0
POLYLINE
  5
AE9
  8
1
 66
     1
 10
0.0
 20
0.0
 30
0.0
 70
     8
  0
VERTEX
  5
AEA
  8
1
 10
500.22446
 20
-478.956732
 30
0.0
 70
    32
  0
VERTEX
  5
AEB
  8
1
 10
500.224836
 20
-479.013284
 30
0.0
 70
    32
  0
VERTEX
  5
AEC
  8
1
 10
500.225967
 20
-479.069855
 30
0.0
 70
    32
  0
VERTEX
  5
AED
  8
1
 10
500.227854
 20
-479.126467
 30
0.0
 70
    32
  0
VERTEX
  5
AEE
  8
1
 10
500.230502
 20
-479.183138
 30
0.0
 70
    32
  0
VERTEX
  5
AEF
  8
1
 10
500.233918
 20
-479.239889
 30
0.0
 70
    32
  0
VERTEX
  5
AF0
  8
1
 10
500.238111
 20
-479.296738
 30
0.0
 70
    32
  0
VERTEX
  5
AF1
  8
1
 10
500.24309
 20
-479.353704
 30
0.0
 70
    32
  0
VERTEX
  5
AF2
  8
1
 10
500.248869
 20
-479.410806
 30
0.0
 70
    32
  0
VERTEX
  5
AF3
  8
1
 10
500.255461
 20
-479.468061
 30
0.0
 70
    32
  0
VERTEX
  5
AF4
  8
1
 10
500.262882
 20
-479.525487
 30
0.0
 70
    32
  0
VERTEX
  5
AF5
  8
1
 10
500.271152
 20
-479.583099
 30
0.0
 70
    32
  0
VERTEX
  5
AF6
  8
1
 10
500.280291
 20
-479.640912
 30
0.0
 70
    32
  0
VERTEX
  5
AF7
  8
1
 10
500.290321
 20
-479.69894
 30
0.0
 70
    32
  0
VERTEX
  5
AF8
  8
1
 10
500.301266
 20
-479.757196
 30
0.0
 70
    32
  0
VERTEX
  5
AF9
  8
1
 10
500.313155
 20
-479.815691
 30
0.0
 70
    32
  0
VERTEX
  5
AFA
  8
1
 10
500.326015
 20
-479.874435
 30
0.0
 70
    32
  0
VERTEX
  5
AFB
  8
1
 10
500.339879
 20
-479.933434
 30
0.0
 70
    32
  0
VERTEX
  5
AFC
  8
1
 10
500.354779
 20
-479.992695
 30
0.0
 70
    32
  0
VERTEX
  5
AFD
  8
1
 10
500.370753
 20
-480.052219
 30
0.0
 70
    32
  0
VERTEX
  5
AFE
  8
1
 10
500.387838
 20
-480.112008
 30
0.0
 70
    32
  0
VERTEX
  5
AFF
  8
1
 10
500.406074
 20
-480.172057
 30
0.0
 70
    32
  0
VERTEX
  5
B00
  8
1
 10
500.425506
 20
-480.232362
 30
0.0
 70
    32
  0
VERTEX
  5
B01
  8
1
 10
500.446177
 20
-480.292911
 30
0.0
 70
    32
  0
VERTEX
  5
B02
  8
1
 10
500.468135
 20
-480.35369
 30
0.0
 70
    32
  0
VERTEX
  5
B03
  8
1
 10
500.49143
 20
-480.41468
 30
0.0
 70
    32
  0
VERTEX
  5
B04
  8
1
 10
500.516113
 20
-480.475857
 30
0.0
 70
    32
  0
VERTEX
  5
B05
  8
1
 10
500.542237
 20
-480.537191
 30
0.0
 70
    32
  0
VERTEX
  5
B06
  8
1
 10
500.569858
 20
-480.598645
 30
0.0
 70
    32
  0
VERTEX
  5
B07
  8
1
 10
500.599031
 20
-480.660177
 30
0.0
 70
    32
  0
VERTEX
  5
B08
  8
1
 10
500.629815
 20
-480.721737
 30
0.0
 70
    32
  0
VERTEX
  5
B09
  8
1
 10
500.662266
 20
-480.783265
 30
0.0
 70
    32
  0
VERTEX
  5
B0A
  8
1
 10
500.696444
 20
-480.844696
 30
0.0
 70
    32
  0
VERTEX
  5
B0B
  8
1
 10
500.732407
 20
-480.905954
 30
0.0
 70
    32
  0
VERTEX
  5
B0C
  8
1
 10
500.770212
 20
-480.966952
 30
0.0
 70
    32
  0
VERTEX
  5
B0D
  8
1
 10
500.809915
 20
-481.027594
 30
0.0
 70
    32
  0
VERTEX
  5
B0E
  8
1
 10
500.851569
 20
-481.087775
 30
0.0
 70
    32
  0
VERTEX
  5
B0F
  8
1
 10
500.895224
 20
-481.147375
 30
0.0
 70
    32
  0
VERTEX
  5
B10
  8
1
 10
500.940927
 20
-481.206266
 30
0.0
 70
    32
  0
VERTEX
  5
B11
  8
1
 10
500.988718
 20
-481.264307
 30
0.0
 70
    32
  0
VERTEX
  5
B12
  8
1
 10
501.038631
 20
-481.321345
 30
0.0
 70
    32
  0
VERTEX
  5
B13
  8
1
 10
501.090693
 20
-481.377216
 30
0.0
 70
    32
  0
VERTEX
  5
B14
  8
1
 10
501.144922
 20
-481.431744
 30
0.0
 70
    32
  0
VERTEX
  5
B15
  8
1
 10
501.201325
 20
-481.484745
 30
0.0
 70
    32
  0
VERTEX
  5
B16
  8
1
 10
501.259897
 20
-481.536023
 30
0.0
 70
    32
  0
VERTEX
  5
B17
  8
1
 10
501.32062
 20
-481.585376
 30
0.0
 70
    32
  0
VERTEX
  5
B18
  8
1
 10
501.383464
 20
-481.632594
 30
0.0
 70
    32
  0
VERTEX
  5
B19
  8
1
 10
501.448379
 20
-481.677464
 30
0.0
 70
    32
  0
VERTEX
  5
B1A
  8
1
 10
501.515304
 20
-481.719768
 30
0.0
 70
    32
  0
VERTEX
  5
B1B
  8
1
 10
501.584155
 20
-481.759291
 30
0.0
 70
    32
  0
VERTEX
  5
B1C
  8
1
 10
501.654835
 20
-481.795821
 30
0.0
 70
    32
  0
VERTEX
  5
B1D
  8
1
 10
501.727226
 20
-481.829151
 30
0.0
 70
    32
  0
VERTEX
  5
B1E
  8
1
 10
501.801194
 20
-481.859084
 30
0.0
 70
    32
  0
VERTEX
  5
B1F
  8
1
 10
501.876586
 20
-481.885437
 30
0.0
 70
    32
  0
VERTEX
  5
B20
  8
1
 10
501.953233
 20
-481.908041
 30
0.0
 70
    32
  0
VERTEX
  5
B21
  8
1
 10
502.030951
 20
-481.92675
 30
0.0
 70
    32
  0
VERTEX
  5
B22
  8
1
 10
502.109544
 20
-481.941437
 30
0.0
 70
    32
  0
VERTEX
  5
B23
  8
1
 10
502.188802
 20
-481.952001
 30
0.0
 70
    32
  0
VERTEX
  5
B24
  8
1
 10
502.26851
 20
-481.95837
 30
0.0
 70
    32
  0
VERTEX
  5
B25
  8
1
 10
502.348443
 20
-481.960498
 30
0.0
 70
    32
  0
SEQEND
  5
B26
  8
DEFPOINTS
  0
LINE
  5
B27
  8
1
 10
502.636458
 20
-481.960498
 30
0.0
 11
502.348415
 21
-481.960498
 31
0.0
  0
LINE
  5
B28
  8
1
 10
472.875358
 20
-471.992781
 30
0.0
 11
497.271114
 21
-471.992781
 31
0.0
  0
LINE
  5
B29
  8
1
 10
472.875358
 20
-481.504706
 30
0.0
 11
497.023015
 21
-481.504706
 31
0.0
  0
POLYLINE
  5
B2A
  8
1
 66
     1
 10
0.0
 20
0.0
 30
0.0
 70
     4
  0
VERTEX
  5
B2B
  8
1
 10
542.683288
 20
-453.087645
 30
0.0
 70
     8
  0
VERTEX
  5
B2C
  8
1
 10
542.898752
 20
-453.305387
 30
0.0
 70
     8
  0
VERTEX
  5
B2D
  8
1
 10
543.144611
 20
-453.554406
 30
0.0
 70
     8
  0
VERTEX
  5
B2E
  8
1
 10
543.415954
 20
-453.830053
 30
0.0
 70
     8
  0
VERTEX
  5
B2F
  8
1
 10
543.707869
 20
-454.127679
 30
0.0
 70
     8
  0
VERTEX
  5
B30
  8
1
 10
544.015447
 20
-454.442633
 30
0.0
 70
     8
  0
VERTEX
  5
B31
  8
1
 10
544.333775
 20
-454.770268
 30
0.0
 70
     8
  0
VERTEX
  5
B32
  8
1
 10
544.657942
 20
-455.105932
 30
0.0
 70
     8
  0
VERTEX
  5
B33
  8
1
 10
544.98259
 20
-455.446074
 30
0.0
 70
     8
  0
VERTEX
  5
B34
  8
1
 10
545.300566
 20
-455.791517
 30
0.0
 70
     8
  0
VERTEX
  5
B35
  8
1
 10
545.604271
 20
-456.144184
 30
0.0
 70
     8
  0
VERTEX
  5
B36
  8
1
 10
545.886105
 20
-456.505996
 30
0.0
 70
     8
  0
VERTEX
  5
B37
  8
1
 10
546.138468
 20
-456.878874
 30
0.0
 70
     8
  0
VERTEX
  5
B38
  8
1
 10
546.35376
 20
-457.264739
 30
0.0
 70
     8
  0
VERTEX
  5
B39
  8
1
 10
546.524381
 20
-457.665512
 30
0.0
 70
     8
  0
VERTEX
  5
B3A
  8
1
 10
546.642731
 20
-458.083115
 30
0.0
 70
     8
  0
VERTEX
  5
B3B
  8
1
 10
546.703363
 20
-458.518095
 30
0.0
 70
     8
  0
VERTEX
  5
B3C
  8
1
 10
546.709447
 20
-458.965498
 30
0.0
 70
     8
  0
VERTEX
  5
B3D
  8
1
 10
546.666304
 20
-459.418998
 30
0.0
 70
     8
  0
VERTEX
  5
B3E
  8
1
 10
546.579254
 20
-459.872267
 30
0.0
 70
     8
  0
VERTEX
  5
B3F
  8
1
 10
546.453621
 20
-460.318978
 30
0.0
 70
     8
  0
VERTEX
  5
B40
  8
1
 10
546.294726
 20
-460.752805
 30
0.0
 70
     8
  0
VERTEX
  5
B41
  8
1
 10
546.10789
 20
-461.16742
 30
0.0
 70
     8
  0
VERTEX
  5
B42
  8
1
 10
545.898435
 20
-461.556495
 30
0.0
 70
     8
  0
VERTEX
  5
B43
  8
1
 10
545.671907
 20
-461.914781
 30
0.0
 70
     8
  0
VERTEX
  5
B44
  8
1
 10
545.434747
 20
-462.241328
 30
0.0
 70
     8
  0
VERTEX
  5
B45
  8
1
 10
545.193619
 20
-462.536265
 30
0.0
 70
     8
  0
VERTEX
  5
B46
  8
1
 10
544.955189
 20
-462.799721
 30
0.0
 70
     8
  0
VERTEX
  5
B47
  8
1
 10
544.726122
 20
-463.031822
 30
0.0
 70
     8
  0
VERTEX
  5
B48
  8
1
 10
544.513082
 20
-463.232698
 30
0.0
 70
     8
  0
VERTEX
  5
B49
  8
1
 10
544.322735
 20
-463.402476
 30
0.0
 70
     8
  0
VERTEX
  5
B4A
  8
1
 10
544.161745
 20
-463.541284
 30
0.0
 70
     8
  0
VERTEX
  5
B4B
  8
1
 10
542.074148
 20
-452.473022
 30
0.0
 70
    16
  0
VERTEX
  5
B4C
  8
1
 10
542.074148
 20
-452.473022
 30
0.0
 70
    16
  0
VERTEX
  5
B4D
  8
1
 10
544.648038
 20
-455.069867
 30
0.0
 70
    16
  0
VERTEX
  5
B4E
  8
1
 10
547.281352
 20
-457.883106
 30
0.0
 70
    16
  0
VERTEX
  5
B4F
  8
1
 10
546.082938
 20
-461.896402
 30
0.0
 70
    16
  0
VERTEX
  5
B50
  8
1
 10
543.777506
 20
-463.870261
 30
0.0
 70
    16
  0
VERTEX
  5
B51
  8
1
 10
543.777506
 20
-463.870261
 30
0.0
 70
    16
  0
SEQEND
  5
B52
  8
DEFPOINTS
  0
LINE
  5
B53
  8
1
 10
474.677617
 20
-442.205437
 30
0.0
 11
470.325104
 21
-442.205437
 31
0.0
  0
LINE
  5
B54
  8
1
 10
488.695191
 20
-440.603429
 30
0.0
 11
485.282324
 21
-440.603429
 31
0.0
  0
LINE
  5
B55
  8
1
 10
471.673852
 20
-440.590913
 30
0.0
 11
470.325104
 21
-440.590913
 31
0.0
  0
LINE
  5
B56
  8
1
 10
474.677617
 20
-441.312013
 30
0.0
 11
476.680128
 21
-437.843563
 31
0.0
  0
LINE
  5
B57
  8
1
 10
485.691425
 20
-441.312013
 30
0.0
 11
483.688915
 21
-437.843563
 31
0.0
  0
LINE
  5
B58
  8
1
 10
483.688915
 20
-437.843563
 30
0.0
 11
476.680128
 21
-437.843563
 31
0.0
  0
LINE
  5
B59
  8
1
 10
470.325104
 20
-438.701044
 30
0.0
 11
467.733398
 21
-436.109338
 31
0.0
  0
LINE
  5
B5A
  8
1
 10
452.552823
 20
-436.109338
 30
0.0
 11
467.733398
 21
-436.109338
 31
0.0
  0
ARC
  5
B5B
  8
1
 10
444.855845
 20
-429.705609
 30
0.0
 40
10.012553
 50
266.774426
 51
320.240246
  0
LINE
  5
B5C
  8
1
 10
488.695191
 20
-443.757383
 30
0.0
 11
539.762403
 21
-443.757383
 31
0.0
  0
LINE
  5
B5D
  8
1
  6
DIVIDE
 10
730.651472
 20
-387.637026
 30
0.0
 11
1077.085793
 21
-387.637026
 31
0.0
  0
LINE
  5
B5E
  8
1
  6
DIVIDE
 10
1077.085793
 20
-492.768828
 30
0.0
 11
1077.085793
 21
-387.637026
 31
0.0
  0
LINE
  5
B5F
  8
1
  6
DIVIDE
 10
730.651472
 20
-492.768828
 30
0.0
 11
730.651472
 21
-387.637026
 31
0.0
  0
LINE
  5
B60
  8
1
  6
DIVIDE
 10
615.00649
 20
-413.684726
 30
0.0
 11
700.113187
 21
-413.684726
 31
0.0
  0
LINE
  5
B61
  8
1
 10
452.102259
 20
-356.598113
 30
0.0
 11
1277.537096
 21
-356.598113
 31
0.0
  0
ARC
  5
B62
  8
1
 10
452.102259
 20
-364.407904
 30
0.0
 40
7.809791
 50
90.0
 51
180.0
  0
ARC
  5
B63
  8
1
 10
1277.537096
 20
-364.407904
 30
0.0
 40
7.809791
 50
0.0
 51
90.0
  0
ARC
  5
B64
  8
1
 10
452.102259
 20
-364.407904
 30
0.0
 40
7.809791
 50
90.0
 51
180.0
  0
LINE
  5
B65
  8
1
  6
DASHDOT
 10
1098.483309
 20
-440.202927
 30
0.0
 11
715.691935
 21
-440.202927
 31
0.0
  0
POLYLINE
  5
B66
  8
1
 66
     1
 10
0.0
 20
0.0
 30
0.0
 70
     4
  0
VERTEX
  5
B67
  8
1
 10
543.087604
 20
-437.443301
 30
0.0
 70
     8
  0
VERTEX
  5
B68
  8
1
 10
542.528387
 20
-438.671206
 30
0.0
 70
     8
  0
VERTEX
  5
B69
  8
1
 10
541.936671
 20
-440.034889
 30
0.0
 70
     8
  0
VERTEX
  5
B6A
  8
1
 10
541.351149
 20
-441.485425
 30
0.0
 70
     8
  0
VERTEX
  5
B6B
  8
1
 10
540.810515
 20
-442.973884
 30
0.0
 70
     8
  0
VERTEX
  5
B6C
  8
1
 10
540.35346
 20
-444.451341
 30
0.0
 70
     8
  0
VERTEX
  5
B6D
  8
1
 10
540.018677
 20
-445.868867
 30
0.0
 70
     8
  0
VERTEX
  5
B6E
  8
1
 10
539.844859
 20
-447.177534
 30
0.0
 70
     8
  0
VERTEX
  5
B6F
  8
1
 10
539.858221
 20
-448.338278
 30
0.0
 70
     8
  0
VERTEX
  5
B70
  8
1
 10
540.035061
 20
-449.351478
 30
0.0
 70
     8
  0
VERTEX
  5
B71
  8
1
 10
540.3392
 20
-450.227378
 30
0.0
 70
     8
  0
VERTEX
  5
B72
  8
1
 10
540.734461
 20
-450.976218
 30
0.0
 70
     8
  0
VERTEX
  5
B73
  8
1
 10
541.184663
 20
-451.608241
 30
0.0
 70
     8
  0
VERTEX
  5
B74
  8
1
 10
541.653628
 20
-452.133689
 30
0.0
 70
     8
  0
VERTEX
  5
B75
  8
1
 10
542.105176
 20
-452.562804
 30
0.0
 70
     8
  0
VERTEX
  5
B76
  8
1
 10
542.50313
 20
-452.905829
 30
0.0
 70
     8
  0
VERTEX
  5
B77
  8
1
 10
544.747722
 20
-433.908007
 30
0.0
 70
    16
  0
VERTEX
  5
B78
  8
1
 10
544.747722
 20
-433.908007
 30
0.0
 70
    16
  0
VERTEX
  5
B79
  8
1
 10
537.715179
 20
-448.86058
 30
0.0
 70
    16
  0
VERTEX
  5
B7A
  8
1
 10
543.46072
 20
-453.714879
 30
0.0
 70
    16
  0
VERTEX
  5
B7B
  8
1
 10
543.46072
 20
-453.714879
 30
0.0
 70
    16
  0
SEQEND
  5
B7C
  8
DEFPOINTS
  0
LINE
  5
B7D
  8
1
  6
DASHDOT
 10
-338.293393
 20
610.844146
 30
0.0
 11
-1393.880793
 21
610.844146
 31
0.0
  0
LINE
  5
B7E
  8
1
  6
DASHDOT
 10
-866.087093
 20
102.85809
 30
0.0
 11
-866.087093
 21
1116.97183
 31
0.0
  0
TEXT
  8
3
  40
100
  5
BD2
  72
0
  71
0
 10
62.5168
 20
-1068.96
 30
0.000000
  1

  0
TEXT
  8
3
  40
100
  5
BD3
  72
0
  71
0
 10
62.5168
 20
-1198.96
 30
0.000000
  1
GBF6_1
  0
TEXT
  8
3
  40
100
  5
BD4
  72
0
  71
0
 10
62.5168
 20
-1328.96
 30
0.000000
  1
FXYF32KVE
  0
TEXT
  8
3
  40
100
  5
BD5
  72
0
  71
0
 10
62.5168
 20
-1458.96
 30
0.000000
  1
FXYF40KVE
  0
TEXT
  8
3
  40
100
  5
BD6
  72
0
  71
0
 10
62.5168
 20
-1588.96
 30
0.000000
  1
FXYF50KVE
  0
TEXT
  8
3
  40
100
  5
BD7
  72
0
  71
0
 10
62.5168
 20
-1718.96
 30
0.000000
  1
FXYF63KVE
  0
ENDSEC
  0
EOF
