  0
SECTION
  2
HEADER
  9
$ACADVER
  1
AC1009
  9
$DWGCODEPAGE
  3
dos932
  9
$INSBASE
 10
0.0
 20
0.0
 30
0.0
  9
$EXTMIN
 10
-4816.132619
 20
-2219.761815
 30
0.0
  9
$EXTMAX
 10
2655.282667
 20
2526.781313
 30
0.0
  9
$LIMMIN
 10
0.0
 20
0.0
  9
$LIMMAX
 10
420.0
 20
296.987823
  9
$ORTHOMODE
 70
     0
  9
$REGENMODE
 70
     1
  9
$FILLMODE
 70
     1
  9
$QTEXTMODE
 70
     0
  9
$MIRRTEXT
 70
     0
  9
$DRAGMODE
 70
     2
  9
$LTSCALE
 40
1.0
  9
$OSMODE
 70
     0
  9
$ATTMODE
 70
     1
  9
$TEXTSIZE
 40
0.2
  9
$TRACEWID
 40
0.05
  9
$TEXTSTYLE
  7
STANDARD
  9
$CLAYER
  8
0
  9
$CELTYPE
  6
BYLAYER
  9
$CECOLOR
 62
   256
  9
$DIMSCALE
 40
1.0
  9
$DIMASZ
 40
0.18
  9
$DIMEXO
 40
3.0
  9
$DIMDLI
 40
0.38
  9
$DIMRND
 40
0.0
  9
$DIMDLE
 40
0.0
  9
$DIMEXE
 40
5.0
  9
$DIMTP
 40
0.0
  9
$DIMTM
 40
0.0
  9
$DIMTXT
 40
0.18
  9
$DIMCEN
 40
0.09
  9
$DIMTSZ
 40
0.0
  9
$DIMTOL
 70
     0
  9
$DIMLIM
 70
     0
  9
$DIMTIH
 70
     1
  9
$DIMTOH
 70
     1
  9
$DIMSE1
 70
     0
  9
$DIMSE2
 70
     0
  9
$DIMTAD
 70
     1
  9
$DIMZIN
 70
     0
  9
$DIMBLK
  1

  9
$DIMASO
 70
     1
  9
$DIMSHO
 70
     0
  9
$DIMPOST
  1

  9
$DIMAPOST
  1

  9
$DIMALT
 70
     0
  9
$DIMALTD
 70
     2
  9
$DIMALTF
 40
25.4
  9
$DIMLFAC
 40
1.0
  9
$DIMTOFL
 70
     0
  9
$DIMTVP
 40
1.0
  9
$DIMTIX
 70
     0
  9
$DIMSOXD
 70
     0
  9
$DIMSAH
 70
     0
  9
$DIMBLK1
  1

  9
$DIMBLK2
  1

  9
$DIMSTYLE
  2
STANDARD
  9
$DIMCLRD
 70
     0
  9
$DIMCLRE
 70
     0
  9
$DIMCLRT
 70
     0
  9
$DIMTFAC
 40
1.0
  9
$DIMGAP
 40
0.09
  9
$LUNITS
 70
     2
  9
$LUPREC
 70
     4
  9
$SKETCHINC
 40
0.1
  9
$FILLETRAD
 40
0.05
  9
$AUNITS
 70
     0
  9
$AUPREC
 70
     0
  9
$MENU
  1
acad
  9
$ELEVATION
 40
0.0
  9
$PELEVATION
 40
0.0
  9
$THICKNESS
 40
0.0
  9
$LIMCHECK
 70
     0
  9
$BLIPMODE
 70
     1
  9
$CHAMFERA
 40
0.0
  9
$CHAMFERB
 40
0.0
  9
$SKPOLY
 70
     0
  9
$TDCREATE
 40
0.0
  9
$TDUPDATE
 40
0.0
  9
$TDINDWG
 40
0.0
  9
$TDUSRTIMER
 40
0.0
  9
$USRTIMER
 70
     1
  9
$ANGBASE
 50
0.0
  9
$ANGDIR
 70
     0
  9
$PDMODE
 70
     0
  9
$PDSIZE
 40
0.0
  9
$PLINEWID
 40
0.0
  9
$COORDS
 70
     0
  9
$SPLFRAME
 70
     0
  9
$SPLINETYPE
 70
     6
  9
$SPLINESEGS
 70
     8
  9
$ATTDIA
 70
     1
  9
$ATTREQ
 70
     1
  9
$HANDLING
 70
     1
  9
$HANDSEED
  5
557
  9
$SURFTAB1
 70
     6
  9
$SURFTAB2
 70
     6
  9
$SURFTYPE
 70
     6
  9
$SURFU
 70
     6
  9
$SURFV
 70
     6
  9
$UCSNAME
  2

  9
$UCSORG
 10
0.0
 20
0.0
 30
0.0
  9
$UCSXDIR
 10
1.0
 20
0.0
 30
0.0
  9
$UCSYDIR
 10
0.0
 20
1.0
 30
0.0
  9
$PUCSNAME
  2

  9
$PUCSORG
 10
0.0
 20
0.0
 30
0.0
  9
$PUCSXDIR
 10
1.0
 20
0.0
 30
0.0
  9
$PUCSYDIR
 10
0.0
 20
1.0
 30
0.0
  9
$USERI1
 70
     0
  9
$USERI2
 70
     0
  9
$USERI3
 70
     0
  9
$USERI4
 70
     0
  9
$USERI5
 70
     0
  9
$USERR1
 40
0.0
  9
$USERR2
 40
0.0
  9
$USERR3
 40
0.0
  9
$USERR4
 40
0.0
  9
$USERR5
 40
0.0
  9
$WORLDVIEW
 70
     1
  9
$SHADEDGE
 70
     3
  9
$SHADEDIF
 70
    70
  9
$TILEMODE
 70
     1
  9
$MAXACTVP
 70
    16
  9
$PINSBASE
 10
0.0
 20
0.0
 30
0.0
  9
$PLIMCHECK
 70
     0
  9
$PEXTMIN
 10
1.000000E+020
 20
1.000000E+020
 30
1.000000E+020
  9
$PEXTMAX
 10
-1.000000E+020
 20
-1.000000E+020
 30
-1.000000E+020
  9
$PLIMMIN
 10
0.0
 20
0.0
  9
$PLIMMAX
 10
12.0
 20
9.0
  9
$UNITMODE
 70
     0
  9
$VISRETAIN
 70
     0
  9
$PLINEGEN
 70
     0
  9
$PSLTSCALE
 70
     1
  9
$TREEDEPTH
 70
  3020
  0
ENDSEC
  0
SECTION
  2
TABLES
  0
TABLE
  2
VPORT
 70
     2
  0
VPORT
  2
*ACTIVE
 70
     0
 10
0.0
 20
0.0
 11
1.0
 21
1.0
 12
1022.300505
 22
-100.818107
 13
0.0
 23
0.0
 14
1.0
 24
1.0
 15
0.0
 25
0.0
 16
0.0
 26
0.0
 36
1.0
 17
0.0
 27
0.0
 37
0.0
 40
6102.685801
 41
1.938119
 42
50.0
 43
0.0
 44
0.0
 50
0.0
 51
0.0
 71
     0
 72
   100
 73
     1
 74
     1
 75
     0
 76
     0
 77
     0
 78
     0
  0
ENDTAB
  0
TABLE
  2
LTYPE
 70
     5
  0
LTYPE
  2
CONTINUOUS
 70
    64
  3
Solid line
 72
    65
 73
     0
 40
0.0
  0
LTYPE
  2
DASHDOT
 70
    64
  3
__ . __ . __ . __ . __ . __ . __ . __ . __ . __
 72
    65
 73
     4
 40
1.0
 49
0.5
 49
-0.25
 49
0.0
 49
-0.25
  0
LTYPE
  2
DIVIDE
 70
    64
  3
__ . . __ . . __ . . __ . . __ . . __ . . __
 72
    65
 73
     6
 40
1.25
 49
0.5
 49
-0.25
 49
0.0
 49
-0.25
 49
0.0
 49
-0.25
  0
LTYPE
  2
DASHED
 70
    64
  3
__ __ __ __ __ __ __ __ __ __ __ __ __ __ __
 72
    65
 73
     2
 40
0.75
 49
0.5
 49
-0.25
  0
LTYPE
  2
DOT
 70
    64
  3
...............................................
 72
    65
 73
     2
 40
0.25
 49
0.0
 49
-0.25
  0
ENDTAB
  0
TABLE
  2
LAYER
 70
     5
  0
LAYER
  2
0
 70
     0
 62
     7
  6
CONTINUOUS
  0
LAYER
  2
DEFPOINTS
 70
     0
 62
    -7
  6
CONTINUOUS
  0
LAYER
  2
1
 70
     0
 62
     7
  6
CONTINUOUS
  0
LAYER
  2
2
 70
     0
 62
     7
  6
CONTINUOUS
  0
LAYER
  2
3
 70
     0
 62
     7
  6
CONTINUOUS
  0
ENDTAB
  0
TABLE
  2
STYLE
 70
     3
  0
STYLE
  2
STANDARD
 70
    64
 40
100.0
 41
0.8
 50
0.0
 71
     0
 42
0.2
  3
txt
  4

  0
STYLE
  2
MONOTXT
 70
    64
 40
0.0
 41
0.5
 50
0.0
 71
     0
 42
4.191412
  3
monotxt
  4
BIGFONT
  0
STYLE
  2
VERTICAL
 70
    68
 40
0.0
 41
0.5
 50
0.0
 71
     0
 42
4.191412
  3
monotxt
  4
BIGFONT
  0
ENDTAB
  0
TABLE
  2
VIEW
 70
     0
  0
ENDTAB
  0
TABLE
  2
UCS
 70
     0
  0
ENDTAB
  0
TABLE
  2
APPID
 70
     1
  0
APPID
  2
ACAD
 70
     0
  0
ENDTAB
  0
TABLE
  2
DIMSTYLE
 70
     1
  0
DIMSTYLE
  2
STANDARD
 70
     0
  3

  4

  5

  6

  7

 40
1.0
 41
0.18
 42
0.0625
 43
0.38
 44
0.18
 45
0.0
 46
0.0
 47
0.0
 48
0.0
140
0.18
141
0.09
142
0.0
143
25.4
144
1.0
145
0.0
146
1.0
147
0.09
 71
     0
 72
     0
 73
     1
 74
     1
 75
     0
 76
     0
 77
     0
 78
     0
170
     0
171
     2
172
     0
173
     0
174
     0
175
     0
176
     0
177
     0
178
     0
  0
ENDTAB
  0
ENDSEC
  0
SECTION
  2
BLOCKS
  0
BLOCK
  5
516
  8
0
  2
$MODEL_SPACE
 70
     0
 10
0.0
 20
0.0
 30
0.0
  3
$MODEL_SPACE
  1

  0
ENDBLK
  5
517
  8
0
  0
BLOCK
  5
513
 67
     1
  8
0
  2
$PAPER_SPACE
 70
     0
 10
0.0
 20
0.0
 30
0.0
  3
$PAPER_SPACE
  1

  0
ENDBLK
  5
514
 67
     1
  8
0
  0
BLOCK
  5
2B
  8
1
  2
*U2
 70
    65
 10
0.0
 20
0.0
 30
0.0
  3
*U2
  1

  0
LINE
  5
2C
  8
1
 10
1659.461902
 20
-306.147859
 30
0.0
 11
1657.162903
 21
-306.147859
 31
0.0
  0
LINE
  5
2D
  8
1
 10
2219.844441
 20
-222.617535
 30
0.0
 11
2219.844441
 21
-325.203774
 31
0.0
  0
LINE
  5
2E
  8
1
 10
2237.334542
 20
-222.617535
 30
0.0
 11
2237.334542
 21
-325.536786
 31
0.0
  0
LINE
  5
2F
  8
1
 10
2310.792967
 20
-325.536786
 30
0.0
 11
2237.334542
 21
-325.536786
 31
0.0
  0
LINE
  5
30
  8
1
 10
2237.334542
 20
-325.203774
 30
0.0
 11
2219.844441
 21
-325.203774
 31
0.0
  0
LINE
  5
31
  8
1
 10
2198.85632
 20
-232.094371
 30
0.0
 11
2198.85632
 21
-250.471571
 31
0.0
  0
LINE
  5
32
  8
1
 10
2212.848401
 20
-231.096336
 30
0.0
 11
2212.848401
 21
-298.843194
 31
0.0
  0
LINE
  5
33
  8
1
 10
2214.84587
 20
-281.162001
 30
0.0
 11
2219.844441
 21
-281.162001
 31
0.0
  0
LINE
  5
34
  8
1
 10
2214.84587
 20
-271.167657
 30
0.0
 11
2219.844441
 21
-271.167657
 31
0.0
  0
LINE
  5
35
  8
1
 10
1739.616237
 20
-232.87393
 30
0.0
 11
1739.616237
 21
-240.747874
 31
0.0
  0
LINE
  5
36
  8
1
 10
1754.607752
 20
-232.87393
 30
0.0
 11
1754.607752
 21
-240.747874
 31
0.0
  0
LINE
  5
37
  8
1
 10
1185.42989
 20
-222.617535
 30
0.0
 11
2310.792967
 21
-222.617535
 31
0.0
  0
LINE
  5
38
  8
1
 10
1185.42989
 20
-337.630041
 30
0.0
 11
2310.792967
 21
-337.630041
 31
0.0
  0
LINE
  5
39
  8
1
 10
1276.378416
 20
-324.78791
 30
0.0
 11
2219.844441
 21
-324.78791
 31
0.0
  0
LINE
  5
3A
  8
1
 10
1276.378416
 20
-306.147859
 30
0.0
 11
2219.844441
 21
-306.147859
 31
0.0
  0
LINE
  5
3B
  8
1
 10
2199.855754
 20
-298.843194
 30
0.0
 11
2212.848401
 21
-298.843194
 31
0.0
  0
LINE
  5
3C
  8
1
 10
2199.855754
 20
-280.367051
 30
0.0
 11
2212.848401
 21
-280.367051
 31
0.0
  0
LINE
  5
3D
  8
1
 10
2199.855754
 20
-273.657448
 30
0.0
 11
2212.848401
 21
-273.657448
 31
0.0
  0
LINE
  5
3E
  8
1
 10
2199.855754
 20
-256.282082
 30
0.0
 11
2212.848401
 21
-256.282082
 31
0.0
  0
LINE
  5
3F
  8
1
 10
2199.855754
 20
-251.470305
 30
0.0
 11
2212.848401
 21
-251.470305
 31
0.0
  0
LINE
  5
40
  8
1
 10
2199.855754
 20
-231.096336
 30
0.0
 11
2212.848401
 21
-231.096336
 31
0.0
  0
LINE
  5
41
  8
1
 10
2198.85632
 20
-281.365785
 30
0.0
 11
2198.85632
 21
-297.844959
 31
0.0
  0
LINE
  5
42
  8
1
 10
2198.85632
 20
-257.280017
 30
0.0
 11
2198.85632
 21
-272.659513
 31
0.0
  0
ARC
  5
43
  8
1
 10
2199.855754
 20
-297.843759
 30
0.0
 40
0.999434
 50
180.0
 51
270.0
  0
ARC
  5
44
  8
1
 10
2199.855754
 20
-281.366485
 30
0.0
 40
0.999434
 50
90.0
 51
180.0
  0
ARC
  5
45
  8
1
 10
2199.855754
 20
-272.658014
 30
0.0
 40
0.999434
 50
180.0
 51
270.0
  0
ARC
  5
46
  8
1
 10
2199.855754
 20
-257.281516
 30
0.0
 40
0.999434
 50
90.0
 51
180.0
  0
ARC
  5
47
  8
1
 10
2199.855754
 20
-250.470871
 30
0.0
 40
0.999434
 50
180.0
 51
270.0
  0
ARC
  5
48
  8
1
 10
2199.855754
 20
-232.095771
 30
0.0
 40
0.999434
 50
90.0
 51
180.0
  0
ARC
  5
49
  8
1
 10
2214.84727
 20
-283.160869
 30
0.0
 40
1.998869
 50
90.0
 51
180.0
  0
ARC
  5
4A
  8
1
 10
2214.84727
 20
-269.168788
 30
0.0
 40
1.998869
 50
180.0
 51
270.0
  0
LINE
  5
4B
  8
1
 10
1740.115954
 20
-293.552488
 30
0.0
 11
1754.108035
 21
-293.552488
 31
0.0
  0
LINE
  5
4C
  8
1
 10
1754.607752
 20
-282.476257
 30
0.0
 11
1754.607752
 21
-293.052771
 31
0.0
  0
LINE
  5
4D
  8
1
 10
1739.616237
 20
-282.476257
 30
0.0
 11
1739.616237
 21
-293.052771
 31
0.0
  0
ARC
  5
4E
  8
1
 10
1754.108035
 20
-293.052771
 30
0.0
 40
0.499717
 50
270.0
 51
0.0
  0
ARC
  5
4F
  8
1
 10
1740.115954
 20
-293.052771
 30
0.0
 40
0.499717
 50
180.0
 51
270.0
  0
LINE
  5
50
  8
1
 10
1739.616237
 20
-258.057377
 30
0.0
 11
1739.616237
 21
-265.745926
 31
0.0
  0
LINE
  5
51
  8
1
 10
1754.607752
 20
-258.057377
 30
0.0
 11
1754.607752
 21
-265.745926
 31
0.0
  0
LINE
  5
52
  8
1
 10
1297.366537
 20
-297.112473
 30
0.0
 11
2198.85632
 21
-297.112473
 31
0.0
  0
LINE
  5
53
  8
1
 10
1297.366537
 20
-282.476257
 30
0.0
 11
2198.85632
 21
-282.476257
 31
0.0
  0
LINE
  5
54
  8
1
 10
1297.366537
 20
-271.928926
 30
0.0
 11
2198.85632
 21
-271.928926
 31
0.0
  0
LINE
  5
55
  8
1
 10
1297.366537
 20
-258.057377
 30
0.0
 11
1330.347871
 21
-258.057377
 31
0.0
  0
LINE
  5
56
  8
1
 10
1297.366537
 20
-249.743782
 30
0.0
 11
2198.85632
 21
-249.743782
 31
0.0
  0
LINE
  5
57
  8
1
 10
1297.366537
 20
-232.87393
 30
0.0
 11
2198.85632
 21
-232.87393
 31
0.0
  0
LINE
  5
58
  8
1
 10
2160.877815
 20
-249.743782
 30
0.0
 11
2160.877815
 21
-259.115178
 31
0.0
  0
LINE
  5
59
  8
1
 10
2158.878946
 20
-249.743782
 30
0.0
 11
2158.878946
 21
-259.115178
 31
0.0
  0
LINE
  5
5A
  8
1
 10
2165.874987
 20
-258.427068
 30
0.0
 11
2165.874987
 21
-256.711539
 31
0.0
  0
LINE
  5
5B
  8
1
 10
2153.881774
 20
-256.711539
 30
0.0
 11
2153.881774
 21
-258.427068
 31
0.0
  0
LINE
  5
5C
  8
1
 10
2160.877815
 20
-251.564952
 30
0.0
 11
2165.02097
 21
-255.123038
 31
0.0
  0
LINE
  5
5D
  8
1
 10
2158.878946
 20
-251.564952
 30
0.0
 11
2154.735791
 21
-255.123038
 31
0.0
  0
LINE
  5
5E
  8
1
 10
1276.378416
 20
-222.617535
 30
0.0
 11
1276.378416
 21
-325.203774
 31
0.0
  0
LINE
  5
5F
  8
1
 10
1258.888315
 20
-222.617535
 30
0.0
 11
1258.888315
 21
-325.536786
 31
0.0
  0
LINE
  5
60
  8
1
 10
1185.42989
 20
-325.536786
 30
0.0
 11
1258.888315
 21
-325.536786
 31
0.0
  0
LINE
  5
61
  8
1
 10
1258.888315
 20
-325.203774
 30
0.0
 11
1276.378416
 21
-325.203774
 31
0.0
  0
LINE
  5
62
  8
1
 10
2249.077896
 20
-266.370372
 30
0.0
 11
2249.077896
 21
-282.361322
 31
0.0
  0
LINE
  5
63
  8
1
 10
2299.049614
 20
-266.370372
 30
0.0
 11
2299.049614
 21
-282.361322
 31
0.0
  0
LINE
  5
64
  8
1
 10
2297.050745
 20
-284.360191
 30
0.0
 11
2251.076765
 21
-284.360191
 31
0.0
  0
LINE
  5
65
  8
1
 10
2297.050745
 20
-264.371504
 30
0.0
 11
2251.076765
 21
-264.371504
 31
0.0
  0
ARC
  5
66
  8
1
 10
2297.050745
 20
-282.361322
 30
0.0
 40
1.998869
 50
270.0
 51
0.0
  0
ARC
  5
67
  8
1
 10
2297.050745
 20
-266.370372
 30
0.0
 40
1.998869
 50
0.0
 51
90.0
  0
ARC
  5
68
  8
1
 10
2251.076765
 20
-282.361322
 30
0.0
 40
1.998869
 50
180.0
 51
270.0
  0
ARC
  5
69
  8
1
 10
2251.076765
 20
-266.370372
 30
0.0
 40
1.998869
 50
90.0
 51
180.0
  0
LINE
  5
6A
  8
1
 10
2280.809937
 20
-312.644183
 30
0.0
 11
2267.317573
 21
-312.644183
 31
0.0
  0
LINE
  5
6B
  8
1
 10
2280.809937
 20
-305.648142
 30
0.0
 11
2267.317573
 21
-305.648142
 31
0.0
  0
LINE
  5
6C
  8
1
 10
2281.309654
 20
-306.147859
 30
0.0
 11
2281.309654
 21
-312.144465
 31
0.0
  0
LINE
  5
6D
  8
1
 10
2266.817856
 20
-306.147859
 30
0.0
 11
2266.817856
 21
-312.144465
 31
0.0
  0
ARC
  5
6E
  8
1
 10
2280.809937
 20
-312.144465
 30
0.0
 40
0.499717
 50
270.0
 51
0.0
  0
ARC
  5
6F
  8
1
 10
2280.809937
 20
-306.147859
 30
0.0
 40
0.499717
 50
0.0
 51
90.0
  0
ARC
  5
70
  8
1
 10
2267.317573
 20
-306.147859
 30
0.0
 40
0.499717
 50
90.0
 51
180.0
  0
ARC
  5
71
  8
1
 10
2267.317573
 20
-312.144465
 30
0.0
 40
0.499717
 50
180.0
 51
270.0
  0
LINE
  5
72
  8
1
 10
1247.144961
 20
-266.370372
 30
0.0
 11
1247.144961
 21
-282.361322
 31
0.0
  0
LINE
  5
73
  8
1
 10
1199.172112
 20
-284.360191
 30
0.0
 11
1245.146092
 21
-284.360191
 31
0.0
  0
LINE
  5
74
  8
1
 10
1199.172112
 20
-264.371504
 30
0.0
 11
1245.146092
 21
-264.371504
 31
0.0
  0
ARC
  5
75
  8
1
 10
1245.146092
 20
-282.361322
 30
0.0
 40
1.998869
 50
270.0
 51
0.0
  0
ARC
  5
76
  8
1
 10
1245.146092
 20
-266.370372
 30
0.0
 40
1.998869
 50
0.0
 51
90.0
  0
LINE
  5
77
  8
1
 10
1215.41292
 20
-312.644183
 30
0.0
 11
1228.905284
 21
-312.644183
 31
0.0
  0
LINE
  5
78
  8
1
 10
1215.41292
 20
-305.648142
 30
0.0
 11
1228.905284
 21
-305.648142
 31
0.0
  0
LINE
  5
79
  8
1
 10
1229.405001
 20
-306.147859
 30
0.0
 11
1229.405001
 21
-312.144465
 31
0.0
  0
ARC
  5
7A
  8
1
 10
1228.905284
 20
-306.147859
 30
0.0
 40
0.499717
 50
0.0
 51
90.0
  0
ARC
  5
7B
  8
1
 10
1228.905284
 20
-312.144465
 30
0.0
 40
0.499717
 50
270.0
 51
0.0
  0
LINE
  5
7C
  8
1
 10
1185.42989
 20
-216.121212
 30
0.0
 11
2310.792967
 21
-216.121212
 31
0.0
  0
ARC
  5
7D
  8
1
 10
2159.87838
 20
-259.113679
 30
0.0
 40
0.999434
 50
180.0
 51
0.1135
  0
LINE
  5
7E
  8
1
 10
2158.878946
 20
-271.928926
 30
0.0
 11
2158.878946
 21
-282.476257
 31
0.0
  0
LINE
  5
7F
  8
1
 10
2160.877815
 20
-271.928926
 30
0.0
 11
2160.877815
 21
-282.476257
 31
0.0
  0
LINE
  5
80
  8
1
 10
2165.874987
 20
-258.057377
 30
0.0
 11
2198.85632
 21
-258.057377
 31
0.0
  0
LINE
  5
81
  8
1
 10
2123.898744
 20
-249.743782
 30
0.0
 11
2123.898744
 21
-259.115178
 31
0.0
  0
LINE
  5
82
  8
1
 10
2121.899875
 20
-249.743782
 30
0.0
 11
2121.899875
 21
-259.115178
 31
0.0
  0
LINE
  5
83
  8
1
 10
2128.895916
 20
-258.427068
 30
0.0
 11
2128.895916
 21
-256.711539
 31
0.0
  0
LINE
  5
84
  8
1
 10
2116.902703
 20
-256.711539
 30
0.0
 11
2116.902703
 21
-258.427068
 31
0.0
  0
LINE
  5
85
  8
1
 10
2123.898744
 20
-251.564952
 30
0.0
 11
2128.041899
 21
-255.123038
 31
0.0
  0
LINE
  5
86
  8
1
 10
2121.899875
 20
-251.564952
 30
0.0
 11
2117.75672
 21
-255.123038
 31
0.0
  0
ARC
  5
87
  8
1
 10
2122.89931
 20
-259.113679
 30
0.0
 40
0.999434
 50
180.0
 51
0.1135
  0
LINE
  5
88
  8
1
 10
2121.899875
 20
-271.928926
 30
0.0
 11
2121.899875
 21
-282.476257
 31
0.0
  0
LINE
  5
89
  8
1
 10
2123.898744
 20
-271.928926
 30
0.0
 11
2123.898744
 21
-282.476257
 31
0.0
  0
LINE
  5
8A
  8
1
 10
2086.919673
 20
-249.743782
 30
0.0
 11
2086.919673
 21
-259.115178
 31
0.0
  0
LINE
  5
8B
  8
1
 10
2084.920804
 20
-249.743782
 30
0.0
 11
2084.920804
 21
-259.115178
 31
0.0
  0
LINE
  5
8C
  8
1
 10
2091.916845
 20
-258.427068
 30
0.0
 11
2091.916845
 21
-256.711539
 31
0.0
  0
LINE
  5
8D
  8
1
 10
2079.923633
 20
-256.711539
 30
0.0
 11
2079.923633
 21
-258.427068
 31
0.0
  0
LINE
  5
8E
  8
1
 10
2086.919673
 20
-251.564952
 30
0.0
 11
2091.062828
 21
-255.123038
 31
0.0
  0
LINE
  5
8F
  8
1
 10
2084.920804
 20
-251.564952
 30
0.0
 11
2080.777649
 21
-255.123038
 31
0.0
  0
ARC
  5
90
  8
1
 10
2085.920239
 20
-259.113679
 30
0.0
 40
0.999434
 50
180.0
 51
0.1135
  0
LINE
  5
91
  8
1
 10
2084.920804
 20
-271.928926
 30
0.0
 11
2084.920804
 21
-282.476257
 31
0.0
  0
LINE
  5
92
  8
1
 10
2086.919673
 20
-271.928926
 30
0.0
 11
2086.919673
 21
-282.476257
 31
0.0
  0
LINE
  5
93
  8
1
 10
2049.940602
 20
-249.743782
 30
0.0
 11
2049.940602
 21
-259.115178
 31
0.0
  0
LINE
  5
94
  8
1
 10
2047.941733
 20
-249.743782
 30
0.0
 11
2047.941733
 21
-259.115178
 31
0.0
  0
LINE
  5
95
  8
1
 10
2054.937774
 20
-258.427068
 30
0.0
 11
2054.937774
 21
-256.711539
 31
0.0
  0
LINE
  5
96
  8
1
 10
2042.944562
 20
-256.711539
 30
0.0
 11
2042.944562
 21
-258.427068
 31
0.0
  0
LINE
  5
97
  8
1
 10
2049.940602
 20
-251.564952
 30
0.0
 11
2054.083757
 21
-255.123038
 31
0.0
  0
LINE
  5
98
  8
1
 10
2047.941733
 20
-251.564952
 30
0.0
 11
2043.798578
 21
-255.123038
 31
0.0
  0
ARC
  5
99
  8
1
 10
2048.941168
 20
-259.113679
 30
0.0
 40
0.999434
 50
180.0
 51
0.1135
  0
LINE
  5
9A
  8
1
 10
2047.941733
 20
-271.928926
 30
0.0
 11
2047.941733
 21
-282.476257
 31
0.0
  0
LINE
  5
9B
  8
1
 10
2049.940602
 20
-271.928926
 30
0.0
 11
2049.940602
 21
-282.476257
 31
0.0
  0
LINE
  5
9C
  8
1
 10
1928.009611
 20
-249.743782
 30
0.0
 11
1928.009611
 21
-259.115178
 31
0.0
  0
LINE
  5
9D
  8
1
 10
1926.010743
 20
-249.743782
 30
0.0
 11
1926.010743
 21
-259.115178
 31
0.0
  0
LINE
  5
9E
  8
1
 10
1933.006783
 20
-258.427068
 30
0.0
 11
1933.006783
 21
-256.711539
 31
0.0
  0
LINE
  5
9F
  8
1
 10
1921.013571
 20
-256.711539
 30
0.0
 11
1921.013571
 21
-258.427068
 31
0.0
  0
LINE
  5
A0
  8
1
 10
1928.009611
 20
-251.564952
 30
0.0
 11
1932.152767
 21
-255.123038
 31
0.0
  0
LINE
  5
A1
  8
1
 10
1926.010743
 20
-251.564952
 30
0.0
 11
1921.867588
 21
-255.123038
 31
0.0
  0
ARC
  5
A2
  8
1
 10
1927.010177
 20
-259.113679
 30
0.0
 40
0.999434
 50
180.0
 51
0.1135
  0
LINE
  5
A3
  8
1
 10
1926.010743
 20
-271.928926
 30
0.0
 11
1926.010743
 21
-282.476257
 31
0.0
  0
LINE
  5
A4
  8
1
 10
1928.009611
 20
-271.928926
 30
0.0
 11
1928.009611
 21
-282.476257
 31
0.0
  0
LINE
  5
A5
  8
1
 10
1891.030541
 20
-249.743782
 30
0.0
 11
1891.030541
 21
-259.115178
 31
0.0
  0
LINE
  5
A6
  8
1
 10
1889.031672
 20
-249.743782
 30
0.0
 11
1889.031672
 21
-259.115178
 31
0.0
  0
LINE
  5
A7
  8
1
 10
1896.027712
 20
-258.427068
 30
0.0
 11
1896.027712
 21
-256.711539
 31
0.0
  0
LINE
  5
A8
  8
1
 10
1884.0345
 20
-256.711539
 30
0.0
 11
1884.0345
 21
-258.427068
 31
0.0
  0
LINE
  5
A9
  8
1
 10
1891.030541
 20
-251.564952
 30
0.0
 11
1895.173696
 21
-255.123038
 31
0.0
  0
LINE
  5
AA
  8
1
 10
1889.031672
 20
-251.564952
 30
0.0
 11
1884.888517
 21
-255.123038
 31
0.0
  0
ARC
  5
AB
  8
1
 10
1890.031106
 20
-259.113679
 30
0.0
 40
0.999434
 50
180.0
 51
0.1135
  0
LINE
  5
AC
  8
1
 10
1889.031672
 20
-271.928926
 30
0.0
 11
1889.031672
 21
-282.476257
 31
0.0
  0
LINE
  5
AD
  8
1
 10
1891.030541
 20
-271.928926
 30
0.0
 11
1891.030541
 21
-282.476257
 31
0.0
  0
LINE
  5
AE
  8
1
 10
1854.05147
 20
-249.743782
 30
0.0
 11
1854.05147
 21
-259.115178
 31
0.0
  0
LINE
  5
AF
  8
1
 10
1852.052601
 20
-249.743782
 30
0.0
 11
1852.052601
 21
-259.115178
 31
0.0
  0
LINE
  5
B0
  8
1
 10
1859.048641
 20
-258.427068
 30
0.0
 11
1859.048641
 21
-256.711539
 31
0.0
  0
LINE
  5
B1
  8
1
 10
1847.055429
 20
-256.711539
 30
0.0
 11
1847.055429
 21
-258.427068
 31
0.0
  0
LINE
  5
B2
  8
1
 10
1854.05147
 20
-251.564952
 30
0.0
 11
1858.194625
 21
-255.123038
 31
0.0
  0
LINE
  5
B3
  8
1
 10
1852.052601
 20
-251.564952
 30
0.0
 11
1847.909446
 21
-255.123038
 31
0.0
  0
ARC
  5
B4
  8
1
 10
1853.052035
 20
-259.113679
 30
0.0
 40
0.999434
 50
180.0
 51
0.1135
  0
LINE
  5
B5
  8
1
 10
1852.052601
 20
-271.928926
 30
0.0
 11
1852.052601
 21
-282.476257
 31
0.0
  0
LINE
  5
B6
  8
1
 10
1854.05147
 20
-271.928926
 30
0.0
 11
1854.05147
 21
-282.476257
 31
0.0
  0
LINE
  5
B7
  8
1
 10
1817.072399
 20
-249.743782
 30
0.0
 11
1817.072399
 21
-259.115178
 31
0.0
  0
LINE
  5
B8
  8
1
 10
1815.07353
 20
-249.743782
 30
0.0
 11
1815.07353
 21
-259.115178
 31
0.0
  0
LINE
  5
B9
  8
1
 10
1822.06957
 20
-258.427068
 30
0.0
 11
1822.06957
 21
-256.711539
 31
0.0
  0
LINE
  5
BA
  8
1
 10
1810.076358
 20
-256.711539
 30
0.0
 11
1810.076358
 21
-258.427068
 31
0.0
  0
LINE
  5
BB
  8
1
 10
1817.072399
 20
-251.564952
 30
0.0
 11
1821.215554
 21
-255.123038
 31
0.0
  0
LINE
  5
BC
  8
1
 10
1815.07353
 20
-251.564952
 30
0.0
 11
1810.930375
 21
-255.123038
 31
0.0
  0
ARC
  5
BD
  8
1
 10
1816.072964
 20
-259.113679
 30
0.0
 40
0.999434
 50
180.0
 51
0.1135
  0
LINE
  5
BE
  8
1
 10
1815.07353
 20
-271.928926
 30
0.0
 11
1815.07353
 21
-282.476257
 31
0.0
  0
LINE
  5
BF
  8
1
 10
1817.072399
 20
-271.928926
 30
0.0
 11
1817.072399
 21
-282.476257
 31
0.0
  0
LINE
  5
C0
  8
1
 10
1933.006783
 20
-258.057377
 30
0.0
 11
2042.944562
 21
-258.057377
 31
0.0
  0
LINE
  5
C1
  8
1
 10
1335.345342
 20
-249.743782
 30
0.0
 11
1335.345342
 21
-259.115178
 31
0.0
  0
LINE
  5
C2
  8
1
 10
1337.343911
 20
-249.743782
 30
0.0
 11
1337.343911
 21
-259.115178
 31
0.0
  0
LINE
  5
C3
  8
1
 10
1330.347871
 20
-258.427068
 30
0.0
 11
1330.347871
 21
-256.711539
 31
0.0
  0
LINE
  5
C4
  8
1
 10
1342.341083
 20
-256.711539
 30
0.0
 11
1342.341083
 21
-258.427068
 31
0.0
  0
LINE
  5
C5
  8
1
 10
1335.345342
 20
-251.564952
 30
0.0
 11
1331.201887
 21
-255.123038
 31
0.0
  0
LINE
  5
C6
  8
1
 10
1337.343911
 20
-251.564952
 30
0.0
 11
1341.487066
 21
-255.123038
 31
0.0
  0
ARC
  5
C7
  8
1
 10
1336.344477
 20
-259.113679
 30
0.0
 40
0.999434
 50
179.8868
 51
0.0
  0
LINE
  5
C8
  8
1
 10
1337.343911
 20
-271.928926
 30
0.0
 11
1337.343911
 21
-282.476257
 31
0.0
  0
LINE
  5
C9
  8
1
 10
1335.345342
 20
-271.928926
 30
0.0
 11
1335.345342
 21
-282.476257
 31
0.0
  0
LINE
  5
CA
  8
1
 10
1372.324413
 20
-249.743782
 30
0.0
 11
1372.324413
 21
-259.115178
 31
0.0
  0
LINE
  5
CB
  8
1
 10
1374.322982
 20
-249.743782
 30
0.0
 11
1374.322982
 21
-259.115178
 31
0.0
  0
LINE
  5
CC
  8
1
 10
1367.326942
 20
-258.427068
 30
0.0
 11
1367.326942
 21
-256.711539
 31
0.0
  0
LINE
  5
CD
  8
1
 10
1379.320154
 20
-256.711539
 30
0.0
 11
1379.320154
 21
-258.427068
 31
0.0
  0
LINE
  5
CE
  8
1
 10
1372.324413
 20
-251.564952
 30
0.0
 11
1368.180958
 21
-255.123038
 31
0.0
  0
LINE
  5
CF
  8
1
 10
1374.322982
 20
-251.564952
 30
0.0
 11
1378.466137
 21
-255.123038
 31
0.0
  0
ARC
  5
D0
  8
1
 10
1373.323548
 20
-259.113679
 30
0.0
 40
0.999434
 50
179.8868
 51
0.0
  0
LINE
  5
D1
  8
1
 10
1374.322982
 20
-271.928926
 30
0.0
 11
1374.322982
 21
-282.476257
 31
0.0
  0
LINE
  5
D2
  8
1
 10
1372.324413
 20
-271.928926
 30
0.0
 11
1372.324413
 21
-282.476257
 31
0.0
  0
LINE
  5
D3
  8
1
 10
1409.303484
 20
-249.743782
 30
0.0
 11
1409.303484
 21
-259.115178
 31
0.0
  0
LINE
  5
D4
  8
1
 10
1411.302053
 20
-249.743782
 30
0.0
 11
1411.302053
 21
-259.115178
 31
0.0
  0
LINE
  5
D5
  8
1
 10
1404.306012
 20
-258.427068
 30
0.0
 11
1404.306012
 21
-256.711539
 31
0.0
  0
LINE
  5
D6
  8
1
 10
1416.299225
 20
-256.711539
 30
0.0
 11
1416.299225
 21
-258.427068
 31
0.0
  0
LINE
  5
D7
  8
1
 10
1409.303484
 20
-251.564952
 30
0.0
 11
1405.160029
 21
-255.123038
 31
0.0
  0
LINE
  5
D8
  8
1
 10
1411.302053
 20
-251.564952
 30
0.0
 11
1415.445208
 21
-255.123038
 31
0.0
  0
ARC
  5
D9
  8
1
 10
1410.302619
 20
-259.113679
 30
0.0
 40
0.999434
 50
179.8868
 51
0.0
  0
LINE
  5
DA
  8
1
 10
1411.302053
 20
-271.928926
 30
0.0
 11
1411.302053
 21
-282.476257
 31
0.0
  0
LINE
  5
DB
  8
1
 10
1409.303484
 20
-271.928926
 30
0.0
 11
1409.303484
 21
-282.476257
 31
0.0
  0
LINE
  5
DC
  8
1
 10
1446.282555
 20
-249.743782
 30
0.0
 11
1446.282555
 21
-259.115178
 31
0.0
  0
LINE
  5
DD
  8
1
 10
1448.281124
 20
-249.743782
 30
0.0
 11
1448.281124
 21
-259.115178
 31
0.0
  0
LINE
  5
DE
  8
1
 10
1441.285083
 20
-258.427068
 30
0.0
 11
1441.285083
 21
-256.711539
 31
0.0
  0
LINE
  5
DF
  8
1
 10
1453.278296
 20
-256.711539
 30
0.0
 11
1453.278296
 21
-258.427068
 31
0.0
  0
LINE
  5
E0
  8
1
 10
1446.282555
 20
-251.564952
 30
0.0
 11
1442.1391
 21
-255.123038
 31
0.0
  0
LINE
  5
E1
  8
1
 10
1448.281124
 20
-251.564952
 30
0.0
 11
1452.424279
 21
-255.123038
 31
0.0
  0
ARC
  5
E2
  8
1
 10
1447.281689
 20
-259.113679
 30
0.0
 40
0.999434
 50
179.8868
 51
0.0
  0
LINE
  5
E3
  8
1
 10
1448.281124
 20
-271.928926
 30
0.0
 11
1448.281124
 21
-282.476257
 31
0.0
  0
LINE
  5
E4
  8
1
 10
1446.282555
 20
-271.928926
 30
0.0
 11
1446.282555
 21
-282.476257
 31
0.0
  0
LINE
  5
E5
  8
1
 10
1543.227687
 20
-249.743782
 30
0.0
 11
1543.227687
 21
-259.115178
 31
0.0
  0
LINE
  5
E6
  8
1
 10
1545.226256
 20
-249.743782
 30
0.0
 11
1545.226256
 21
-259.115178
 31
0.0
  0
LINE
  5
E7
  8
1
 10
1538.230215
 20
-258.427068
 30
0.0
 11
1538.230215
 21
-256.711539
 31
0.0
  0
LINE
  5
E8
  8
1
 10
1550.223427
 20
-256.711539
 30
0.0
 11
1550.223427
 21
-258.427068
 31
0.0
  0
LINE
  5
E9
  8
1
 10
1543.227687
 20
-251.564952
 30
0.0
 11
1539.084232
 21
-255.123038
 31
0.0
  0
LINE
  5
EA
  8
1
 10
1545.226256
 20
-251.564952
 30
0.0
 11
1549.369411
 21
-255.123038
 31
0.0
  0
ARC
  5
EB
  8
1
 10
1544.226821
 20
-259.113679
 30
0.0
 40
0.999434
 50
179.8868
 51
0.0
  0
LINE
  5
EC
  8
1
 10
1545.226256
 20
-271.928926
 30
0.0
 11
1545.226256
 21
-282.476257
 31
0.0
  0
LINE
  5
ED
  8
1
 10
1543.227687
 20
-271.928926
 30
0.0
 11
1543.227687
 21
-282.476257
 31
0.0
  0
LINE
  5
EE
  8
1
 10
1580.206958
 20
-249.743782
 30
0.0
 11
1580.206958
 21
-259.115178
 31
0.0
  0
LINE
  5
EF
  8
1
 10
1582.205327
 20
-249.743782
 30
0.0
 11
1582.205327
 21
-259.115178
 31
0.0
  0
LINE
  5
F0
  8
1
 10
1575.209286
 20
-258.427068
 30
0.0
 11
1575.209286
 21
-256.711539
 31
0.0
  0
LINE
  5
F1
  8
1
 10
1587.202498
 20
-256.711539
 30
0.0
 11
1587.202498
 21
-258.427068
 31
0.0
  0
LINE
  5
F2
  8
1
 10
1580.206958
 20
-251.564952
 30
0.0
 11
1576.063303
 21
-255.123038
 31
0.0
  0
LINE
  5
F3
  8
1
 10
1582.205327
 20
-251.564952
 30
0.0
 11
1586.348482
 21
-255.123038
 31
0.0
  0
ARC
  5
F4
  8
1
 10
1581.205892
 20
-259.113679
 30
0.0
 40
0.999434
 50
179.8868
 51
0.0
  0
LINE
  5
F5
  8
1
 10
1582.205327
 20
-271.928926
 30
0.0
 11
1582.205327
 21
-282.476257
 31
0.0
  0
LINE
  5
F6
  8
1
 10
1580.206958
 20
-271.928926
 30
0.0
 11
1580.206958
 21
-282.476257
 31
0.0
  0
LINE
  5
F7
  8
1
 10
1617.186029
 20
-249.743782
 30
0.0
 11
1617.186029
 21
-259.115178
 31
0.0
  0
LINE
  5
F8
  8
1
 10
1619.184398
 20
-249.743782
 30
0.0
 11
1619.184398
 21
-259.115178
 31
0.0
  0
LINE
  5
F9
  8
1
 10
1612.188357
 20
-258.427068
 30
0.0
 11
1612.188357
 21
-256.711539
 31
0.0
  0
LINE
  5
FA
  8
1
 10
1624.181569
 20
-256.711539
 30
0.0
 11
1624.181569
 21
-258.427068
 31
0.0
  0
LINE
  5
FB
  8
1
 10
1617.186029
 20
-251.564952
 30
0.0
 11
1613.042374
 21
-255.123038
 31
0.0
  0
LINE
  5
FC
  8
1
 10
1619.184398
 20
-251.564952
 30
0.0
 11
1623.327553
 21
-255.123038
 31
0.0
  0
ARC
  5
FD
  8
1
 10
1618.184963
 20
-259.113679
 30
0.0
 40
0.999434
 50
179.8868
 51
0.0
  0
LINE
  5
FE
  8
1
 10
1619.184398
 20
-271.928926
 30
0.0
 11
1619.184398
 21
-282.476257
 31
0.0
  0
LINE
  5
FF
  8
1
 10
1617.186029
 20
-271.928926
 30
0.0
 11
1617.186029
 21
-282.476257
 31
0.0
  0
LINE
  5
100
  8
1
 10
1654.165099
 20
-249.743782
 30
0.0
 11
1654.165099
 21
-259.115178
 31
0.0
  0
LINE
  5
101
  8
1
 10
1656.163468
 20
-249.743782
 30
0.0
 11
1656.163468
 21
-259.115178
 31
0.0
  0
LINE
  5
102
  8
1
 10
1649.167428
 20
-258.427068
 30
0.0
 11
1649.167428
 21
-256.711539
 31
0.0
  0
LINE
  5
103
  8
1
 10
1661.16064
 20
-256.711539
 30
0.0
 11
1661.16064
 21
-258.427068
 31
0.0
  0
LINE
  5
104
  8
1
 10
1654.165099
 20
-251.564952
 30
0.0
 11
1650.021445
 21
-255.123038
 31
0.0
  0
LINE
  5
105
  8
1
 10
1656.163468
 20
-251.564952
 30
0.0
 11
1660.306624
 21
-255.123038
 31
0.0
  0
ARC
  5
106
  8
1
 10
1655.164034
 20
-259.113679
 30
0.0
 40
0.999434
 50
179.8868
 51
0.0
  0
LINE
  5
107
  8
1
 10
1656.163468
 20
-271.928926
 30
0.0
 11
1656.163468
 21
-282.476257
 31
0.0
  0
LINE
  5
108
  8
1
 10
1654.165099
 20
-271.928926
 30
0.0
 11
1654.165099
 21
-282.476257
 31
0.0
  0
LINE
  5
109
  8
1
 10
1661.16064
 20
-258.057377
 30
0.0
 11
1810.076358
 21
-258.057377
 31
0.0
  0
LINE
  5
10A
  8
1
 10
1453.278296
 20
-258.057377
 30
0.0
 11
1538.230215
 21
-258.057377
 31
0.0
  0
LINE
  5
10B
  8
1
 10
1297.366537
 20
-232.094371
 30
0.0
 11
1297.366537
 21
-250.471571
 31
0.0
  0
LINE
  5
10C
  8
1
 10
1283.374456
 20
-231.096336
 30
0.0
 11
1283.374456
 21
-298.843194
 31
0.0
  0
LINE
  5
10D
  8
1
 10
1281.377287
 20
-281.162001
 30
0.0
 11
1276.378416
 21
-281.162001
 31
0.0
  0
LINE
  5
10E
  8
1
 10
1281.377287
 20
-271.167657
 30
0.0
 11
1276.378416
 21
-271.167657
 31
0.0
  0
LINE
  5
10F
  8
1
 10
1296.367103
 20
-298.843194
 30
0.0
 11
1283.374456
 21
-298.843194
 31
0.0
  0
LINE
  5
110
  8
1
 10
1296.367103
 20
-280.367051
 30
0.0
 11
1283.374456
 21
-280.367051
 31
0.0
  0
LINE
  5
111
  8
1
 10
1296.367103
 20
-273.657448
 30
0.0
 11
1283.374456
 21
-273.657448
 31
0.0
  0
LINE
  5
112
  8
1
 10
1296.367103
 20
-256.282082
 30
0.0
 11
1283.374456
 21
-256.282082
 31
0.0
  0
LINE
  5
113
  8
1
 10
1296.367103
 20
-251.470305
 30
0.0
 11
1283.374456
 21
-251.470305
 31
0.0
  0
LINE
  5
114
  8
1
 10
1296.367103
 20
-231.096336
 30
0.0
 11
1283.374456
 21
-231.096336
 31
0.0
  0
LINE
  5
115
  8
1
 10
1297.366537
 20
-281.365785
 30
0.0
 11
1297.366537
 21
-297.844959
 31
0.0
  0
LINE
  5
116
  8
1
 10
1297.366537
 20
-257.280017
 30
0.0
 11
1297.366537
 21
-272.659513
 31
0.0
  0
ARC
  5
117
  8
1
 10
1296.367103
 20
-297.843759
 30
0.0
 40
0.999434
 50
270.0
 51
0.0
  0
ARC
  5
118
  8
1
 10
1296.367103
 20
-281.366485
 30
0.0
 40
0.999434
 50
0.0
 51
90.0
  0
ARC
  5
119
  8
1
 10
1296.367103
 20
-272.658014
 30
0.0
 40
0.999434
 50
270.0
 51
0.0
  0
ARC
  5
11A
  8
1
 10
1296.367103
 20
-257.281516
 30
0.0
 40
0.999434
 50
0.0
 51
90.0
  0
ARC
  5
11B
  8
1
 10
1296.367103
 20
-250.470871
 30
0.0
 40
0.999434
 50
270.0
 51
0.0
  0
ARC
  5
11C
  8
1
 10
1296.367103
 20
-232.095771
 30
0.0
 40
0.999434
 50
0.0
 51
90.0
  0
ARC
  5
11D
  8
1
 10
1281.375588
 20
-283.160869
 30
0.0
 40
1.998869
 50
0.0
 51
90.0
  0
ARC
  5
11E
  8
1
 10
1281.375588
 20
-269.168788
 30
0.0
 40
1.998869
 50
270.0
 51
0.0
  0
LINE
  5
11F
  8
1
 10
1740.115954
 20
-266.245643
 30
0.0
 11
1754.108035
 21
-266.245643
 31
0.0
  0
ARC
  5
120
  8
1
 10
1754.108035
 20
-265.745926
 30
0.0
 40
0.499717
 50
270.0
 51
0.0
  0
ARC
  5
121
  8
1
 10
1740.115954
 20
-265.745926
 30
0.0
 40
0.499717
 50
180.0
 51
270.0
  0
LINE
  5
122
  8
1
 10
1740.115954
 20
-241.247591
 30
0.0
 11
1754.108035
 21
-241.247591
 31
0.0
  0
ARC
  5
123
  8
1
 10
1740.115954
 20
-240.747874
 30
0.0
 40
0.499717
 50
180.0
 51
270.0
  0
ARC
  5
124
  8
1
 10
1754.108035
 20
-240.747874
 30
0.0
 40
0.499717
 50
270.0
 51
0.0
  0
LINE
  5
125
  8
1
 10
2280.060361
 20
-272.126115
 30
0.0
 11
2270.99859
 21
-280.364152
 31
0.0
  0
LINE
  5
126
  8
1
 10
2280.060361
 20
-265.372637
 30
0.0
 11
2263.569694
 21
-280.364152
 31
0.0
  0
LINE
  5
127
  8
1
 10
2280.060361
 20
-265.372637
 30
0.0
 11
2280.060361
 21
-280.364152
 31
0.0
  0
LINE
  5
128
  8
1
 10
2280.060361
 20
-280.364152
 30
0.0
 11
2263.569694
 21
-280.364152
 31
0.0
  0
LINE
  5
129
  8
1
 10
1258.888315
 20
-303.349443
 30
0.0
 11
1185.42989
 21
-303.349443
 31
0.0
  0
LINE
  5
12A
  8
1
 10
1258.888315
 20
-280.162566
 30
0.0
 11
1247.144961
 21
-280.162566
 31
0.0
  0
LINE
  5
12B
  8
1
 10
1258.888315
 20
-268.569028
 30
0.0
 11
1247.144961
 21
-268.569028
 31
0.0
  0
LINE
  5
12C
  8
1
 10
1258.888315
 20
-245.382251
 30
0.0
 11
1185.42989
 21
-245.382251
 31
0.0
  0
LINE
  5
12D
  8
1
 10
2237.584401
 20
-303.349443
 30
0.0
 11
2310.792967
 21
-303.349443
 31
0.0
  0
LINE
  5
12E
  8
1
 10
2299.049614
 20
-280.162566
 30
0.0
 11
2310.792967
 21
-280.162566
 31
0.0
  0
LINE
  5
12F
  8
1
 10
2237.334542
 20
-280.162566
 30
0.0
 11
2249.077896
 21
-280.162566
 31
0.0
  0
LINE
  5
130
  8
1
 10
2237.334542
 20
-268.569028
 30
0.0
 11
2249.077896
 21
-268.569028
 31
0.0
  0
LINE
  5
131
  8
1
 10
2299.049614
 20
-268.569028
 30
0.0
 11
2310.792967
 21
-268.569028
 31
0.0
  0
LINE
  5
132
  8
1
 10
2237.334542
 20
-245.382251
 30
0.0
 11
2310.792967
 21
-245.382251
 31
0.0
  0
LINE
  5
133
  8
1
 10
1342.341083
 20
-258.057377
 30
0.0
 11
1367.326942
 21
-258.057377
 31
0.0
  0
LINE
  5
134
  8
1
 10
1379.320154
 20
-258.057377
 30
0.0
 11
1404.306012
 21
-258.057377
 31
0.0
  0
LINE
  5
135
  8
1
 10
1416.299225
 20
-258.057377
 30
0.0
 11
1441.285083
 21
-258.057377
 31
0.0
  0
LINE
  5
136
  8
1
 10
1550.223427
 20
-258.057377
 30
0.0
 11
1575.209286
 21
-258.057377
 31
0.0
  0
LINE
  5
137
  8
1
 10
1587.202498
 20
-258.057377
 30
0.0
 11
1612.188357
 21
-258.057377
 31
0.0
  0
LINE
  5
138
  8
1
 10
1624.181569
 20
-258.057377
 30
0.0
 11
1649.167428
 21
-258.057377
 31
0.0
  0
LINE
  5
139
  8
1
 10
1822.06957
 20
-258.057377
 30
0.0
 11
1847.055429
 21
-258.057377
 31
0.0
  0
LINE
  5
13A
  8
1
 10
1859.048641
 20
-258.057377
 30
0.0
 11
1884.0345
 21
-258.057377
 31
0.0
  0
LINE
  5
13B
  8
1
 10
1896.027712
 20
-258.057377
 30
0.0
 11
1921.013571
 21
-258.057377
 31
0.0
  0
LINE
  5
13C
  8
1
 10
2054.937774
 20
-258.057377
 30
0.0
 11
2079.923633
 21
-258.057377
 31
0.0
  0
LINE
  5
13D
  8
1
 10
2091.916845
 20
-258.057377
 30
0.0
 11
2116.902703
 21
-258.057377
 31
0.0
  0
LINE
  5
13E
  8
1
 10
2128.895916
 20
-258.057377
 30
0.0
 11
2153.881774
 21
-258.057377
 31
0.0
  0
LINE
  5
13F
  8
1
 10
1197.173244
 20
-266.370372
 30
0.0
 11
1197.173244
 21
-282.361322
 31
0.0
  0
ARC
  5
140
  8
1
 10
1199.172112
 20
-282.361322
 30
0.0
 40
1.998869
 50
180.0
 51
270.0
  0
ARC
  5
141
  8
1
 10
1199.172112
 20
-266.370372
 30
0.0
 40
1.998869
 50
90.0
 51
180.0
  0
LINE
  5
142
  8
1
 10
1214.913203
 20
-306.147859
 30
0.0
 11
1214.913203
 21
-312.144465
 31
0.0
  0
ARC
  5
143
  8
1
 10
1215.41292
 20
-312.144465
 30
0.0
 40
0.499717
 50
180.0
 51
270.0
  0
ARC
  5
144
  8
1
 10
1215.41292
 20
-306.147859
 30
0.0
 40
0.499717
 50
90.0
 51
180.0
  0
LINE
  5
145
  8
1
 10
1197.173244
 20
-280.162566
 30
0.0
 11
1185.42989
 21
-280.162566
 31
0.0
  0
LINE
  5
146
  8
1
 10
1197.173244
 20
-268.569028
 30
0.0
 11
1185.42989
 21
-268.569028
 31
0.0
  0
ENDBLK
  5
147
  8
0
  0
BLOCK
  5
149
  8
1
  2
*U3
 70
    65
 10
0.0
 20
0.0
 30
0.0
  3
*U3
  1

  0
LINE
  5
14A
  8
1
 10
1185.42989
 20
83.13182
 30
0.0
 11
1627.179872
 21
83.13182
 31
0.0
  0
LINE
  5
14B
  8
1
 10
1185.42989
 20
95.125032
 30
0.0
 11
1627.179872
 21
95.125032
 31
0.0
  0
LINE
  5
14C
  8
1
 10
1627.179872
 20
83.13182
 30
0.0
 11
1869.042985
 21
83.13182
 31
0.0
  0
LINE
  5
14D
  8
1
 10
1627.67959
 20
95.125032
 30
0.0
 11
1868.543268
 21
95.125032
 31
0.0
  0
LINE
  5
14E
  8
1
 10
1185.42989
 20
352.87925
 30
0.0
 11
2310.792967
 21
352.87925
 31
0.0
  0
LINE
  5
14F
  8
1
 10
1685.047521
 20
119.111456
 30
0.0
 11
1685.047521
 21
95.125032
 31
0.0
  0
LINE
  5
150
  8
1
 10
1670.255593
 20
119.111456
 30
0.0
 11
1670.255593
 21
95.125032
 31
0.0
  0
LINE
  5
151
  8
1
 10
1263.286026
 20
119.111456
 30
0.0
 11
1263.286026
 21
95.125032
 31
0.0
  0
LINE
  5
152
  8
1
 10
1248.494297
 20
119.111456
 30
0.0
 11
1248.494297
 21
95.125032
 31
0.0
  0
LINE
  5
153
  8
1
 10
1185.42989
 20
346.982488
 30
0.0
 11
1748.111429
 21
346.982488
 31
0.0
  0
LINE
  5
154
  8
1
 10
1185.42989
 20
119.111456
 30
0.0
 11
2310.792967
 21
119.111456
 31
0.0
  0
LINE
  5
155
  8
1
 10
1185.42989
 20
143.097881
 30
0.0
 11
2310.792967
 21
143.097881
 31
0.0
  0
LINE
  5
156
  8
1
 10
1185.42989
 20
167.084305
 30
0.0
 11
2310.792967
 21
167.084305
 31
0.0
  0
LINE
  5
157
  8
1
 10
1185.42989
 20
191.070729
 30
0.0
 11
2310.792967
 21
191.070729
 31
0.0
  0
LINE
  5
158
  8
1
 10
1185.42989
 20
215.057154
 30
0.0
 11
2310.792967
 21
215.057154
 31
0.0
  0
LINE
  5
159
  8
1
 10
1185.42989
 20
239.043578
 30
0.0
 11
2310.792967
 21
239.043578
 31
0.0
  0
LINE
  5
15A
  8
1
 10
1185.42989
 20
263.030002
 30
0.0
 11
2310.792967
 21
263.030002
 31
0.0
  0
LINE
  5
15B
  8
1
 10
1185.42989
 20
287.016427
 30
0.0
 11
1748.111429
 21
287.016427
 31
0.0
  0
LINE
  5
15C
  8
1
 10
1185.42989
 20
311.002851
 30
0.0
 11
1748.111429
 21
311.002851
 31
0.0
  0
LINE
  5
15D
  8
1
 10
1185.42989
 20
334.989276
 30
0.0
 11
1748.111429
 21
334.989276
 31
0.0
  0
LINE
  5
15E
  8
1
 10
1373.823265
 20
95.125032
 30
0.0
 11
1373.823265
 21
346.982488
 31
0.0
  0
LINE
  5
15F
  8
1
 10
1559.718054
 20
95.125032
 30
0.0
 11
1559.718054
 21
346.982488
 31
0.0
  0
LINE
  5
160
  8
1
 10
1869.042985
 20
83.13182
 30
0.0
 11
2310.29325
 21
83.13182
 31
0.0
  0
LINE
  5
161
  8
1
 10
1869.542702
 20
95.125032
 30
0.0
 11
2310.29325
 21
95.125032
 31
0.0
  0
LINE
  5
162
  8
1
 10
2247.72856
 20
119.111456
 30
0.0
 11
2247.72856
 21
95.125032
 31
0.0
  0
LINE
  5
163
  8
1
 10
2232.937131
 20
119.111456
 30
0.0
 11
2232.937131
 21
95.125032
 31
0.0
  0
LINE
  5
164
  8
1
 10
1825.967264
 20
119.111456
 30
0.0
 11
1825.967264
 21
95.125032
 31
0.0
  0
LINE
  5
165
  8
1
 10
1811.175836
 20
119.111456
 30
0.0
 11
1811.175836
 21
95.125032
 31
0.0
  0
LINE
  5
166
  8
1
 10
1748.111429
 20
287.016427
 30
0.0
 11
2310.792967
 21
287.016427
 31
0.0
  0
LINE
  5
167
  8
1
 10
1748.111429
 20
311.002851
 30
0.0
 11
2310.792967
 21
311.002851
 31
0.0
  0
LINE
  5
168
  8
1
 10
1748.111429
 20
334.989276
 30
0.0
 11
2310.792967
 21
334.989276
 31
0.0
  0
LINE
  5
169
  8
1
 10
1748.111429
 20
346.982488
 30
0.0
 11
2310.792967
 21
346.982488
 31
0.0
  0
LINE
  5
16A
  8
1
 10
1936.504803
 20
95.125032
 30
0.0
 11
1936.504803
 21
346.982488
 31
0.0
  0
LINE
  5
16B
  8
1
 10
2122.399592
 20
95.125032
 30
0.0
 11
2122.399592
 21
346.982488
 31
0.0
  0
ENDBLK
  5
16C
  8
0
  0
BLOCK
  5
16E
  8
2
  2
*D4
 70
    65
 10
0.0
 20
0.0
 30
0.0
  3
*D4
  1

  0
POINT
  5
16F
  8
DEFPOINTS
 10
-421.447464
 20
977.442566
 30
0.0
  0
POINT
  5
170
  8
DEFPOINTS
 10
-354.485363
 20
970.979624
 30
0.0
  0
POINT
  5
171
  8
DEFPOINTS
 10
-237.161998
 20
882.567605
 30
0.0
  0
LINE
  5
172
  8
2
 10
-421.447464
 20
964.592565
 30
0.0
 11
-421.447464
 21
869.717604
 31
0.0
  0
LINE
  5
173
  8
2
 10
-354.485363
 20
958.129623
 30
0.0
 11
-354.485363
 21
869.717604
 31
0.0
  0
LINE
  5
174
  8
2
 10
-485.986847
 20
882.567605
 30
0.0
 11
-181.781353
 21
882.567605
 31
0.0
  0
LINE
  5
175
  8
2
 10
-464.473717
 20
874.980915
 30
0.0
 11
-421.447464
 21
882.567605
 31
0.0
  0
LINE
  5
176
  8
2
 10
-464.473717
 20
890.154294
 30
0.0
 11
-421.447464
 21
882.567605
 31
0.0
  0
LINE
  5
177
  8
2
 10
-311.459109
 20
890.154294
 30
0.0
 11
-354.485363
 21
882.567605
 31
0.0
  0
LINE
  5
178
  8
2
 10
-311.459109
 20
874.980915
 30
0.0
 11
-354.485363
 21
882.567605
 31
0.0
  0
TEXT
  5
179
  8
2
 10
-325.701355
 20
887.707581
 30
0.0
 40
71.959999
  1
６７
 41
0.9
  7
MONOTXT
  0
ENDBLK
  5
17A
  8
0
  0
BLOCK
  5
17C
  8
2
  2
*D5
 70
    65
 10
0.0
 20
0.0
 30
0.0
  3
*D5
  1

  0
POINT
  5
17D
  8
DEFPOINTS
 10
-502.401646
 20
1017.125406
 30
0.0
  0
POINT
  5
17E
  8
DEFPOINTS
 10
-354.485363
 20
970.979624
 30
0.0
  0
POINT
  5
17F
  8
DEFPOINTS
 10
-160.051304
 20
785.108255
 30
0.0
  0
LINE
  5
180
  8
2
 10
-502.401646
 20
1004.275406
 30
0.0
 11
-502.401646
 21
772.258255
 31
0.0
  0
LINE
  5
181
  8
2
 10
-354.485363
 20
958.129623
 30
0.0
 11
-354.485363
 21
772.258255
 31
0.0
  0
LINE
  5
182
  8
2
 10
-566.941029
 20
785.108255
 30
0.0
 11
-124.213359
 21
785.108255
 31
0.0
  0
LINE
  5
183
  8
2
 10
-545.427899
 20
777.521566
 30
0.0
 11
-502.401646
 21
785.108255
 31
0.0
  0
LINE
  5
184
  8
2
 10
-545.427899
 20
792.694944
 30
0.0
 11
-502.401646
 21
785.108255
 31
0.0
  0
LINE
  5
185
  8
2
 10
-311.459109
 20
792.694944
 30
0.0
 11
-354.485363
 21
785.108255
 31
0.0
  0
LINE
  5
186
  8
2
 10
-311.459109
 20
777.521566
 30
0.0
 11
-354.485363
 21
785.108255
 31
0.0
  0
TEXT
  5
187
  8
2
 10
-325.701355
 20
790.24823
 30
0.0
 40
71.959999
  1
１４８
 41
0.9
  7
MONOTXT
  0
ENDBLK
  5
188
  8
0
  0
BLOCK
  5
18A
  8
2
  2
*D6
 70
    65
 10
0.0
 20
0.0
 30
0.0
  3
*D6
  1

  0
POINT
  5
18B
  8
DEFPOINTS
 10
-355.484797
 20
87.629274
 30
0.0
  0
POINT
  5
18C
  8
DEFPOINTS
 10
-604.34415
 20
367.471092
 30
0.0
  0
POINT
  5
18D
  8
DEFPOINTS
 10
-66.383703
 20
239.631455
 30
0.0
  0
LINE
  5
18E
  8
2
 10
-342.634797
 20
87.629274
 30
0.0
 11
-53.533703
 21
87.629274
 31
0.0
  0
LINE
  5
18F
  8
2
 10
-591.494149
 20
367.471092
 30
0.0
 11
-53.533703
 21
367.471092
 31
0.0
  0
LINE
  5
190
  8
2
 10
-66.383703
 20
87.629274
 30
0.0
 11
-66.383703
 21
367.471092
 31
0.0
  0
LINE
  5
191
  8
2
 10
-73.970395
 20
130.655527
 30
0.0
 11
-66.383703
 21
87.629274
 31
0.0
  0
LINE
  5
192
  8
2
 10
-58.797016
 20
130.655528
 30
0.0
 11
-66.383703
 21
87.629274
 31
0.0
  0
LINE
  5
193
  8
2
 10
-58.797012
 20
324.444839
 30
0.0
 11
-66.383703
 21
367.471092
 31
0.0
  0
LINE
  5
194
  8
2
 10
-73.970391
 20
324.444838
 30
0.0
 11
-66.383703
 21
367.471092
 31
0.0
  0
TEXT
  5
195
  8
2
 10
-71.523697
 20
141.198181
 30
0.0
 40
71.959999
  1
２８０
 50
90.000003
 41
0.9
  7
MONOTXT
  0
ENDBLK
  5
196
  8
0
  0
BLOCK
  5
198
  8
2
  2
*D7
 70
    65
 10
0.0
 20
0.0
 30
0.0
  3
*D7
  1

  0
POINT
  5
199
  8
DEFPOINTS
 10
-490.408434
 20
177.283133
 30
0.0
  0
POINT
  5
19A
  8
DEFPOINTS
 10
-604.34415
 20
367.471092
 30
0.0
  0
POINT
  5
19B
  8
DEFPOINTS
 10
-417.527949
 20
208.713375
 30
0.0
  0
LINE
  5
19C
  8
2
 10
-477.558434
 20
177.283133
 30
0.0
 11
-404.677949
 21
177.283133
 31
0.0
  0
LINE
  5
19D
  8
2
 10
-591.494149
 20
367.471092
 30
0.0
 11
-404.677949
 21
367.471092
 31
0.0
  0
LINE
  5
19E
  8
2
 10
-417.527949
 20
177.283133
 30
0.0
 11
-417.527949
 21
367.471092
 31
0.0
  0
LINE
  5
19F
  8
2
 10
-425.114641
 20
220.309386
 30
0.0
 11
-417.527949
 21
177.283133
 31
0.0
  0
LINE
  5
1A0
  8
2
 10
-409.941262
 20
220.309386
 30
0.0
 11
-417.527949
 21
177.283133
 31
0.0
  0
LINE
  5
1A1
  8
2
 10
-409.941258
 20
324.444839
 30
0.0
 11
-417.527949
 21
367.471092
 31
0.0
  0
LINE
  5
1A2
  8
2
 10
-425.114637
 20
324.444838
 30
0.0
 11
-417.527949
 21
367.471092
 31
0.0
  0
TEXT
  5
1A3
  8
2
 10
-422.667938
 20
186.025116
 30
0.0
 40
71.959999
  1
１９０
 50
90.000003
 41
0.9
  7
MONOTXT
  0
ENDBLK
  5
1A4
  8
0
  0
BLOCK
  5
1A6
  8
2
  2
*D8
 70
    65
 10
0.0
 20
0.0
 30
0.0
  3
*D8
  1

  0
POINT
  5
1A7
  8
DEFPOINTS
 10
-1169.524274
 20
-1336.790346
 30
0.0
  0
POINT
  5
1A8
  8
DEFPOINTS
 10
-1169.524274
 20
-1236.846911
 30
0.0
  0
POINT
  5
1A9
  8
DEFPOINTS
 10
-1699.85831
 20
-1013.896136
 30
0.0
  0
LINE
  5
1AA
  8
2
 10
-1182.374275
 20
-1336.790346
 30
0.0
 11
-1712.708311
 21
-1336.790346
 31
0.0
  0
LINE
  5
1AB
  8
2
 10
-1182.374275
 20
-1236.846911
 30
0.0
 11
-1712.708311
 21
-1236.846911
 31
0.0
  0
LINE
  5
1AC
  8
2
 10
-1699.85831
 20
-1401.329729
 30
0.0
 11
-1699.85831
 21
-1006.574908
 31
0.0
  0
LINE
  5
1AD
  8
2
 10
-1692.271619
 20
-1379.816598
 30
0.0
 11
-1699.85831
 21
-1336.790346
 31
0.0
  0
LINE
  5
1AE
  8
2
 10
-1707.444998
 20
-1379.816599
 30
0.0
 11
-1699.85831
 21
-1336.790346
 31
0.0
  0
LINE
  5
1AF
  8
2
 10
-1707.445001
 20
-1193.820658
 30
0.0
 11
-1699.85831
 21
-1236.846911
 31
0.0
  0
LINE
  5
1B0
  8
2
 10
-1692.271623
 20
-1193.820657
 30
0.0
 11
-1699.85831
 21
-1236.846911
 31
0.0
  0
TEXT
  5
1B1
  8
2
 10
-1704.998291
 20
-1208.062866
 30
0.0
 40
71.959999
  1
１００
 50
90.000003
 41
0.9
  7
MONOTXT
  0
ENDBLK
  5
1B2
  8
0
  0
BLOCK
  5
1B4
  8
2
  2
*D9
 70
    65
 10
0.0
 20
0.0
 30
0.0
  3
*D9
  1

  0
POINT
  5
1B5
  8
DEFPOINTS
 10
-1463.85769
 20
-1212.860486
 30
0.0
  0
POINT
  5
1B6
  8
DEFPOINTS
 10
-355.484797
 20
-1212.860486
 30
0.0
  0
POINT
  5
1B7
  8
DEFPOINTS
 10
-614.133482
 20
-924.029856
 30
0.0
  0
LINE
  5
1B8
  8
2
 10
-1463.85769
 20
-1200.010486
 30
0.0
 11
-1463.85769
 21
-911.179856
 31
0.0
  0
LINE
  5
1B9
  8
2
 10
-355.484797
 20
-1200.010486
 30
0.0
 11
-355.484797
 21
-911.179856
 31
0.0
  0
LINE
  5
1BA
  8
2
 10
-1463.85769
 20
-924.029856
 30
0.0
 11
-355.484797
 21
-924.029856
 31
0.0
  0
LINE
  5
1BB
  8
2
 10
-1420.831437
 20
-916.443167
 30
0.0
 11
-1463.85769
 21
-924.029856
 31
0.0
  0
LINE
  5
1BC
  8
2
 10
-1420.831437
 20
-931.616545
 30
0.0
 11
-1463.85769
 21
-924.029856
 31
0.0
  0
LINE
  5
1BD
  8
2
 10
-398.51105
 20
-931.616545
 30
0.0
 11
-355.484797
 21
-924.029856
 31
0.0
  0
LINE
  5
1BE
  8
2
 10
-398.51105
 20
-916.443167
 30
0.0
 11
-355.484797
 21
-924.029856
 31
0.0
  0
TEXT
  5
1BF
  8
2
 10
-1024.807251
 20
-918.889832
 30
0.0
 40
71.959999
  1
１１１０
 41
0.9
  7
MONOTXT
  0
ENDBLK
  5
1C0
  8
0
  0
BLOCK
  5
1C2
  8
2
  2
*D10
 70
    65
 10
0.0
 20
0.0
 30
0.0
  3
*D10
  1

  0
POINT
  5
1C3
  8
DEFPOINTS
 10
-355.484797
 20
-1212.860486
 30
0.0
  0
POINT
  5
1C4
  8
DEFPOINTS
 10
-290.021847
 20
-1426.739437
 30
0.0
  0
POINT
  5
1C5
  8
DEFPOINTS
 10
-213.320486
 20
-924.029856
 30
0.0
  0
LINE
  5
1C6
  8
2
 10
-355.484797
 20
-1200.010486
 30
0.0
 11
-355.484797
 21
-911.179856
 31
0.0
  0
LINE
  5
1C7
  8
2
 10
-290.021847
 20
-1413.889437
 30
0.0
 11
-290.021847
 21
-911.179856
 31
0.0
  0
LINE
  5
1C8
  8
2
 10
-420.02418
 20
-924.029856
 30
0.0
 11
-117.317837
 21
-924.029856
 31
0.0
  0
LINE
  5
1C9
  8
2
 10
-398.51105
 20
-931.616545
 30
0.0
 11
-355.484797
 21
-924.029856
 31
0.0
  0
LINE
  5
1CA
  8
2
 10
-398.51105
 20
-916.443167
 30
0.0
 11
-355.484797
 21
-924.029856
 31
0.0
  0
LINE
  5
1CB
  8
2
 10
-246.995594
 20
-916.443167
 30
0.0
 11
-290.021847
 21
-924.029856
 31
0.0
  0
LINE
  5
1CC
  8
2
 10
-246.995594
 20
-931.616545
 30
0.0
 11
-290.021847
 21
-924.029856
 31
0.0
  0
TEXT
  5
1CD
  8
2
 10
-261.237854
 20
-918.889832
 30
0.0
 40
71.959999
  1
６５
 41
0.9
  7
MONOTXT
  0
ENDBLK
  5
1CE
  8
0
  0
BLOCK
  5
1D0
  8
2
  2
*D11
 70
    65
 10
0.0
 20
0.0
 30
0.0
  3
*D11
  1

  0
POINT
  5
1D1
  8
DEFPOINTS
 10
-1169.524274
 20
-1336.790346
 30
0.0
  0
POINT
  5
1D2
  8
DEFPOINTS
 10
-649.818413
 20
-1336.790346
 30
0.0
  0
POINT
  5
1D3
  8
DEFPOINTS
 10
-878.63492
 20
-1613.639557
 30
0.0
  0
LINE
  5
1D4
  8
2
 10
-1169.524274
 20
-1349.640346
 30
0.0
 11
-1169.524274
 21
-1626.489557
 31
0.0
  0
LINE
  5
1D5
  8
2
 10
-649.818413
 20
-1349.640346
 30
0.0
 11
-649.818413
 21
-1626.489557
 31
0.0
  0
LINE
  5
1D6
  8
2
 10
-1169.524274
 20
-1613.639557
 30
0.0
 11
-649.818413
 21
-1613.639557
 31
0.0
  0
LINE
  5
1D7
  8
2
 10
-1126.498021
 20
-1606.052868
 30
0.0
 11
-1169.524274
 21
-1613.639557
 31
0.0
  0
LINE
  5
1D8
  8
2
 10
-1126.498021
 20
-1621.226246
 30
0.0
 11
-1169.524274
 21
-1613.639557
 31
0.0
  0
LINE
  5
1D9
  8
2
 10
-692.844666
 20
-1621.226246
 30
0.0
 11
-649.818413
 21
-1613.639557
 31
0.0
  0
LINE
  5
1DA
  8
2
 10
-692.844666
 20
-1606.052868
 30
0.0
 11
-649.818413
 21
-1613.639557
 31
0.0
  0
TEXT
  5
1DB
  8
2
 10
-996.023315
 20
-1608.499512
 30
0.0
 40
71.959999
  1
５２０
 41
0.9
  7
MONOTXT
  0
ENDBLK
  5
1DC
  8
0
  0
BLOCK
  5
1DE
  8
2
  2
*D12
 70
    65
 10
0.0
 20
0.0
 30
0.0
  3
*D12
  1

  0
POINT
  5
1DF
  8
DEFPOINTS
 10
389.89454
 20
364.268804
 30
0.0
  0
POINT
  5
1E0
  8
DEFPOINTS
 10
605.772359
 20
408.243916
 30
0.0
  0
POINT
  5
1E1
  8
DEFPOINTS
 10
280.838363
 20
444.50323
 30
0.0
  0
LINE
  5
1E2
  8
2
 10
377.04454
 20
364.268804
 30
0.0
 11
267.988362
 21
364.268804
 31
0.0
  0
LINE
  5
1E3
  8
2
 10
592.922359
 20
408.243916
 30
0.0
 11
267.988362
 21
408.243916
 31
0.0
  0
LINE
  5
1E4
  8
2
 10
280.838363
 20
299.729421
 30
0.0
 11
280.838363
 21
580.947926
 31
0.0
  0
LINE
  5
1E5
  8
2
 10
288.425054
 20
321.242551
 30
0.0
 11
280.838363
 21
364.268804
 31
0.0
  0
LINE
  5
1E6
  8
2
 10
273.251675
 20
321.242551
 30
0.0
 11
280.838363
 21
364.268804
 31
0.0
  0
LINE
  5
1E7
  8
2
 10
273.251671
 20
451.270168
 30
0.0
 11
280.838363
 21
408.243916
 31
0.0
  0
LINE
  5
1E8
  8
2
 10
288.42505
 20
451.270169
 30
0.0
 11
280.838363
 21
408.243916
 31
0.0
  0
TEXT
  5
1E9
  8
2
 10
275.698364
 20
437.027924
 30
0.0
 40
71.959999
  1
４５
 50
90.000003
 41
0.9
  7
MONOTXT
  0
ENDBLK
  5
1EA
  8
0
  0
BLOCK
  5
1EC
  8
2
  2
*D13
 70
    65
 10
0.0
 20
0.0
 30
0.0
  3
*D13
  1

  0
POINT
  5
1ED
  8
DEFPOINTS
 10
389.89454
 20
-348.327887
 30
0.0
  0
POINT
  5
1EE
  8
DEFPOINTS
 10
389.89454
 20
364.268804
 30
0.0
  0
POINT
  5
1EF
  8
DEFPOINTS
 10
280.838363
 20
-9.335421
 30
0.0
  0
LINE
  5
1F0
  8
2
 10
377.04454
 20
-348.327887
 30
0.0
 11
267.988362
 21
-348.327887
 31
0.0
  0
LINE
  5
1F1
  8
2
 10
377.04454
 20
364.268804
 30
0.0
 11
267.988362
 21
364.268804
 31
0.0
  0
LINE
  5
1F2
  8
2
 10
280.838363
 20
-348.327887
 30
0.0
 11
280.838363
 21
364.268804
 31
0.0
  0
LINE
  5
1F3
  8
2
 10
273.251671
 20
-305.301634
 30
0.0
 11
280.838363
 21
-348.327887
 31
0.0
  0
LINE
  5
1F4
  8
2
 10
288.42505
 20
-305.301633
 30
0.0
 11
280.838363
 21
-348.327887
 31
0.0
  0
LINE
  5
1F5
  8
2
 10
288.425054
 20
321.242551
 30
0.0
 11
280.838363
 21
364.268804
 31
0.0
  0
LINE
  5
1F6
  8
2
 10
273.251675
 20
321.242551
 30
0.0
 11
280.838363
 21
364.268804
 31
0.0
  0
TEXT
  5
1F7
  8
2
 10
275.698364
 20
-78.381538
 30
0.0
 40
71.959999
  1
７１０
 50
90.000003
 41
0.9
  7
MONOTXT
  0
ENDBLK
  5
1F8
  8
0
  0
BLOCK
  5
1FA
  8
2
  2
*D14
 70
    65
 10
0.0
 20
0.0
 30
0.0
  3
*D14
  1

  0
POINT
  5
1FB
  8
DEFPOINTS
 10
605.772359
 20
-391.303564
 30
0.0
  0
POINT
  5
1FC
  8
DEFPOINTS
 10
389.89454
 20
-348.327887
 30
0.0
  0
POINT
  5
1FD
  8
DEFPOINTS
 10
280.838363
 20
-365.766458
 30
0.0
  0
LINE
  5
1FE
  8
2
 10
592.922359
 20
-391.303564
 30
0.0
 11
267.988362
 21
-391.303564
 31
0.0
  0
LINE
  5
1FF
  8
2
 10
377.04454
 20
-348.327887
 30
0.0
 11
267.988362
 21
-348.327887
 31
0.0
  0
LINE
  5
200
  8
2
 10
280.838363
 20
-481.294019
 30
0.0
 11
280.838363
 21
-283.788504
 31
0.0
  0
LINE
  5
201
  8
2
 10
288.425054
 20
-434.329816
 30
0.0
 11
280.838363
 21
-391.303564
 31
0.0
  0
LINE
  5
202
  8
2
 10
273.251675
 20
-434.329817
 30
0.0
 11
280.838363
 21
-391.303564
 31
0.0
  0
LINE
  5
203
  8
2
 10
273.251671
 20
-305.301634
 30
0.0
 11
280.838363
 21
-348.327887
 31
0.0
  0
LINE
  5
204
  8
2
 10
288.42505
 20
-305.301633
 30
0.0
 11
280.838363
 21
-348.327887
 31
0.0
  0
TEXT
  5
205
  8
2
 10
275.698364
 20
-452.51001
 30
0.0
 40
71.959999
  1
４５
 50
90.000003
 41
0.9
  7
MONOTXT
  0
ENDBLK
  5
206
  8
0
  0
BLOCK
  5
208
  8
2
  2
*D15
 70
    65
 10
0.0
 20
0.0
 30
0.0
  3
*D15
  1

  0
POINT
  5
209
  8
DEFPOINTS
 10
-569.363748
 20
1023.99212
 30
0.0
  0
POINT
  5
20A
  8
DEFPOINTS
 10
-354.485363
 20
970.979624
 30
0.0
  0
POINT
  5
20B
  8
DEFPOINTS
 10
-274.987827
 20
688.943401
 30
0.0
  0
LINE
  5
20C
  8
2
 10
-569.363748
 20
1011.14212
 30
0.0
 11
-569.363748
 21
676.093401
 31
0.0
  0
LINE
  5
20D
  8
2
 10
-354.485363
 20
958.129623
 30
0.0
 11
-354.485363
 21
676.093401
 31
0.0
  0
LINE
  5
20E
  8
2
 10
-569.363748
 20
688.943401
 30
0.0
 11
-354.485363
 21
688.943401
 31
0.0
  0
LINE
  5
20F
  8
2
 10
-526.337495
 20
696.530091
 30
0.0
 11
-569.363748
 21
688.943401
 31
0.0
  0
LINE
  5
210
  8
2
 10
-526.337495
 20
681.356712
 30
0.0
 11
-569.363748
 21
688.943401
 31
0.0
  0
LINE
  5
211
  8
2
 10
-397.511616
 20
681.356712
 30
0.0
 11
-354.485363
 21
688.943401
 31
0.0
  0
LINE
  5
212
  8
2
 10
-397.511616
 20
696.530091
 30
0.0
 11
-354.485363
 21
688.943401
 31
0.0
  0
TEXT
  5
213
  8
2
 10
-548.27655
 20
694.083374
 30
0.0
 40
71.959999
  1
２１５
 41
0.9
  7
MONOTXT
  0
ENDBLK
  5
214
  8
0
  0
BLOCK
  5
216
  8
2
  2
*D16
 70
    65
 10
0.0
 20
0.0
 30
0.0
  3
*D16
  1

  0
POINT
  5
217
  8
DEFPOINTS
 10
-405.456514
 20
134.602689
 30
0.0
  0
POINT
  5
218
  8
DEFPOINTS
 10
-604.34415
 20
367.471092
 30
0.0
  0
POINT
  5
219
  8
DEFPOINTS
 10
-165.294781
 20
220.83835
 30
0.0
  0
LINE
  5
21A
  8
2
 10
-392.606514
 20
134.602689
 30
0.0
 11
-152.44478
 21
134.602689
 31
0.0
  0
LINE
  5
21B
  8
2
 10
-591.494149
 20
367.471092
 30
0.0
 11
-152.44478
 21
367.471092
 31
0.0
  0
LINE
  5
21C
  8
2
 10
-165.294781
 20
134.602689
 30
0.0
 11
-165.294781
 21
367.471092
 31
0.0
  0
LINE
  5
21D
  8
2
 10
-172.881472
 20
177.628941
 30
0.0
 11
-165.294781
 21
134.602689
 31
0.0
  0
LINE
  5
21E
  8
2
 10
-157.708093
 20
177.628942
 30
0.0
 11
-165.294781
 21
134.602689
 31
0.0
  0
LINE
  5
21F
  8
2
 10
-157.708089
 20
324.444839
 30
0.0
 11
-165.294781
 21
367.471092
 31
0.0
  0
LINE
  5
220
  8
2
 10
-172.881468
 20
324.444838
 30
0.0
 11
-165.294781
 21
367.471092
 31
0.0
  0
TEXT
  5
221
  8
2
 10
-170.434784
 20
164.684891
 30
0.0
 40
71.959999
  1
２３０
 50
90.000003
 41
0.9
  7
MONOTXT
  0
ENDBLK
  5
222
  8
0
  0
BLOCK
  5
224
  8
2
  2
*D17
 70
    65
 10
0.0
 20
0.0
 30
0.0
  3
*D17
  1

  0
POINT
  5
225
  8
DEFPOINTS
 10
1128.462132
 20
386.460145
 30
0.0
  0
POINT
  5
226
  8
DEFPOINTS
 10
2367.760725
 20
386.460145
 30
0.0
  0
POINT
  5
227
  8
DEFPOINTS
 10
1970.526572
 20
525.14995
 30
0.0
  0
LINE
  5
228
  8
2
 10
1128.462132
 20
399.310145
 30
0.0
 11
1128.462132
 21
537.999951
 31
0.0
  0
LINE
  5
229
  8
2
 10
2367.760725
 20
399.310145
 30
0.0
 11
2367.760725
 21
537.999951
 31
0.0
  0
LINE
  5
22A
  8
2
 10
1128.462132
 20
525.14995
 30
0.0
 11
2367.760725
 21
525.14995
 31
0.0
  0
LINE
  5
22B
  8
2
 10
1171.488385
 20
532.73664
 30
0.0
 11
1128.462132
 21
525.14995
 31
0.0
  0
LINE
  5
22C
  8
2
 10
1171.488385
 20
517.563261
 30
0.0
 11
1128.462132
 21
525.14995
 31
0.0
  0
LINE
  5
22D
  8
2
 10
2324.734472
 20
517.563261
 30
0.0
 11
2367.760725
 21
525.14995
 31
0.0
  0
LINE
  5
22E
  8
2
 10
2324.734472
 20
532.73664
 30
0.0
 11
2367.760725
 21
525.14995
 31
0.0
  0
TEXT
  5
22F
  8
2
 10
1632.975464
 20
530.289978
 30
0.0
 40
71.959999
  1
１２４０
 41
0.9
  7
MONOTXT
  0
ENDBLK
  5
230
  8
0
  0
BLOCK
  5
232
  8
2
  2
*D18
 70
    65
 10
0.0
 20
0.0
 30
0.0
  3
*D18
  1

  0
POINT
  5
233
  8
DEFPOINTS
 10
1185.42989
 20
-388.101476
 30
0.0
  0
POINT
  5
234
  8
DEFPOINTS
 10
1185.42989
 20
411.446003
 30
0.0
  0
POINT
  5
235
  8
DEFPOINTS
 10
1010.425437
 20
328.222404
 30
0.0
  0
LINE
  5
236
  8
2
 10
1172.57989
 20
-388.101476
 30
0.0
 11
997.575437
 21
-388.101476
 31
0.0
  0
LINE
  5
237
  8
2
 10
1172.57989
 20
411.446003
 30
0.0
 11
997.575437
 21
411.446003
 31
0.0
  0
LINE
  5
238
  8
2
 10
1010.425437
 20
-388.101476
 30
0.0
 11
1010.425437
 21
411.446003
 31
0.0
  0
LINE
  5
239
  8
2
 10
1002.838746
 20
-345.075223
 30
0.0
 11
1010.425437
 21
-388.101476
 31
0.0
  0
LINE
  5
23A
  8
2
 10
1018.012125
 20
-345.075223
 30
0.0
 11
1010.425437
 21
-388.101476
 31
0.0
  0
LINE
  5
23B
  8
2
 10
1018.012129
 20
368.419751
 30
0.0
 11
1010.425437
 21
411.446003
 31
0.0
  0
LINE
  5
23C
  8
2
 10
1002.83875
 20
368.41975
 30
0.0
 11
1010.425437
 21
411.446003
 31
0.0
  0
TEXT
  5
23D
  8
2
 10
1005.285461
 20
-74.679733
 30
0.0
 40
71.959999
  1
８００
 50
90.000003
 41
0.9
  7
MONOTXT
  0
ENDBLK
  5
23E
  8
0
  0
BLOCK
  5
240
  8
2
  2
*D19
 70
    65
 10
0.0
 20
0.0
 30
0.0
  3
*D19
  1

  0
POINT
  5
241
  8
DEFPOINTS
 10
-1529.32064
 20
-1426.739437
 30
0.0
  0
POINT
  5
242
  8
DEFPOINTS
 10
-1463.85769
 20
-1212.860486
 30
0.0
  0
POINT
  5
243
  8
DEFPOINTS
 10
-1491.394644
 20
-924.029856
 30
0.0
  0
LINE
  5
244
  8
2
 10
-1529.32064
 20
-1413.889437
 30
0.0
 11
-1529.32064
 21
-911.179856
 31
0.0
  0
LINE
  5
245
  8
2
 10
-1463.85769
 20
-1200.010486
 30
0.0
 11
-1463.85769
 21
-911.179856
 31
0.0
  0
LINE
  5
246
  8
2
 10
-1704.292686
 20
-924.029856
 30
0.0
 11
-1399.318307
 21
-924.029856
 31
0.0
  0
LINE
  5
247
  8
2
 10
-1572.346893
 20
-931.616545
 30
0.0
 11
-1529.32064
 21
-924.029856
 31
0.0
  0
LINE
  5
248
  8
2
 10
-1572.346893
 20
-916.443167
 30
0.0
 11
-1529.32064
 21
-924.029856
 31
0.0
  0
LINE
  5
249
  8
2
 10
-1420.831437
 20
-916.443167
 30
0.0
 11
-1463.85769
 21
-924.029856
 31
0.0
  0
LINE
  5
24A
  8
2
 10
-1420.831437
 20
-931.616545
 30
0.0
 11
-1463.85769
 21
-924.029856
 31
0.0
  0
TEXT
  5
24B
  8
2
 10
-1675.508667
 20
-918.889832
 30
0.0
 40
71.959999
  1
６５
 41
0.9
  7
MONOTXT
  0
ENDBLK
  5
24C
  8
0
  0
BLOCK
  5
24E
  8
2
  2
*D20
 70
    65
 10
0.0
 20
0.0
 30
0.0
  3
*D20
  1

  0
POINT
  5
24F
  8
DEFPOINTS
 10
-1472.352882
 20
-1426.739437
 30
0.0
  0
POINT
  5
250
  8
DEFPOINTS
 10
-1225.723967
 20
-1286.818628
 30
0.0
  0
POINT
  5
251
  8
DEFPOINTS
 10
-1805.382438
 20
-1336.422685
 30
0.0
  0
LINE
  5
252
  8
2
 10
-1485.202882
 20
-1426.739437
 30
0.0
 11
-1818.232438
 21
-1426.739437
 31
0.0
  0
LINE
  5
253
  8
2
 10
-1238.573967
 20
-1286.818628
 30
0.0
 11
-1818.232438
 21
-1286.818628
 31
0.0
  0
LINE
  5
254
  8
2
 10
-1805.382438
 20
-1457.11091
 30
0.0
 11
-1805.382438
 21
-1056.546625
 31
0.0
  0
CIRCLE
  5
255
  8
2
 10
-1805.382438
 20
-1426.739437
 30
0.0
 40
5.14
  0
CIRCLE
  5
256
  8
2
 10
-1805.382438
 20
-1426.739437
 30
0.0
 40
3.084
  0
LINE
  5
257
  8
2
 10
-1812.969129
 20
-1243.792375
 30
0.0
 11
-1805.382438
 21
-1286.818628
 31
0.0
  0
LINE
  5
258
  8
2
 10
-1797.79575
 20
-1243.792375
 30
0.0
 11
-1805.382438
 21
-1286.818628
 31
0.0
  0
TEXT
  5
259
  8
2
 10
-1810.522461
 20
-1258.034668
 30
0.0
 40
71.959999
  1
１４０
 50
90.000003
 41
0.9
  7
MONOTXT
  0
ENDBLK
  5
25A
  8
0
  0
BLOCK
  5
25C
  8
2
  2
*D21
 70
    65
 10
0.0
 20
0.0
 30
0.0
  3
*D21
  1

  0
POINT
  5
25D
  8
DEFPOINTS
 10
-1504.334781
 20
-1446.728124
 30
0.0
  0
POINT
  5
25E
  8
DEFPOINTS
 10
-1472.352882
 20
-1426.739437
 30
0.0
  0
POINT
  5
25F
  8
DEFPOINTS
 10
-1805.382438
 20
-1336.422685
 30
0.0
  0
LINE
  5
260
  8
2
 10
-1517.184782
 20
-1446.728124
 30
0.0
 11
-1818.232438
 21
-1446.728124
 31
0.0
  0
LINE
  5
261
  8
2
 10
-1485.202882
 20
-1426.739437
 30
0.0
 11
-1818.232438
 21
-1426.739437
 31
0.0
  0
LINE
  5
262
  8
2
 10
-1805.382438
 20
-1619.432134
 30
0.0
 11
-1805.382438
 21
-1396.367964
 31
0.0
  0
LINE
  5
263
  8
2
 10
-1797.795747
 20
-1489.754377
 30
0.0
 11
-1805.382438
 21
-1446.728124
 31
0.0
  0
LINE
  5
264
  8
2
 10
-1812.969125
 20
-1489.754377
 30
0.0
 11
-1805.382438
 21
-1446.728124
 31
0.0
  0
CIRCLE
  5
265
  8
2
 10
-1805.382438
 20
-1426.739437
 30
0.0
 40
5.14
  0
CIRCLE
  5
266
  8
2
 10
-1805.382438
 20
-1426.739437
 30
0.0
 40
3.084
  0
TEXT
  5
267
  8
2
 10
-1810.522461
 20
-1590.648071
 30
0.0
 40
71.959999
  1
２０
 50
90.000003
 41
0.9
  7
MONOTXT
  0
ENDBLK
  5
268
  8
0
  0
BLOCK
  5
26A
  8
2
  2
*D22
 70
    65
 10
0.0
 20
0.0
 30
0.0
  3
*D22
  1

  0
POINT
  5
26B
  8
DEFPOINTS
 10
-290.021847
 20
-1426.739437
 30
0.0
  0
POINT
  5
26C
  8
DEFPOINTS
 10
-315.507423
 20
-1258.834466
 30
0.0
  0
POINT
  5
26D
  8
DEFPOINTS
 10
-123.75257
 20
-1320.253167
 30
0.0
  0
LINE
  5
26E
  8
2
 10
-277.171847
 20
-1426.739437
 30
0.0
 11
-110.90257
 21
-1426.739437
 31
0.0
  0
LINE
  5
26F
  8
2
 10
-302.657423
 20
-1258.834466
 30
0.0
 11
-110.90257
 21
-1258.834466
 31
0.0
  0
LINE
  5
270
  8
2
 10
-123.75257
 20
-1426.739437
 30
0.0
 11
-123.75257
 21
-1258.834466
 31
0.0
  0
LINE
  5
271
  8
2
 10
-131.339262
 20
-1383.713184
 30
0.0
 11
-123.75257
 21
-1426.739437
 31
0.0
  0
LINE
  5
272
  8
2
 10
-116.165883
 20
-1383.713184
 30
0.0
 11
-123.75257
 21
-1426.739437
 31
0.0
  0
LINE
  5
273
  8
2
 10
-116.165879
 20
-1301.860719
 30
0.0
 11
-123.75257
 21
-1258.834466
 31
0.0
  0
LINE
  5
274
  8
2
 10
-131.339258
 20
-1301.86072
 30
0.0
 11
-123.75257
 21
-1258.834466
 31
0.0
  0
TEXT
  5
275
  8
2
 10
-128.892563
 20
-1429.138916
 30
0.0
 40
71.959999
  1
１７０
 50
90.000003
 41
0.9
  7
MONOTXT
  0
ENDBLK
  5
276
  8
0
  0
BLOCK
  5
278
  8
2
  2
*D23
 70
    65
 10
0.0
 20
0.0
 30
0.0
  3
*D23
  1

  0
POINT
  5
279
  8
DEFPOINTS
 10
-290.021847
 20
-1426.739437
 30
0.0
  0
POINT
  5
27A
  8
DEFPOINTS
 10
-355.484797
 20
-1212.860486
 30
0.0
  0
POINT
  5
27B
  8
DEFPOINTS
 10
-5.946082
 20
-1327.182961
 30
0.0
  0
LINE
  5
27C
  8
2
 10
-277.171847
 20
-1426.739437
 30
0.0
 11
6.903918
 21
-1426.739437
 31
0.0
  0
LINE
  5
27D
  8
2
 10
-342.634797
 20
-1212.860486
 30
0.0
 11
6.903918
 21
-1212.860486
 31
0.0
  0
LINE
  5
27E
  8
2
 10
-5.946082
 20
-1426.739437
 30
0.0
 11
-5.946082
 21
-1212.860486
 31
0.0
  0
LINE
  5
27F
  8
2
 10
-13.532774
 20
-1383.713184
 30
0.0
 11
-5.946082
 21
-1426.739437
 31
0.0
  0
LINE
  5
280
  8
2
 10
1.640605
 20
-1383.713184
 30
0.0
 11
-5.946082
 21
-1426.739437
 31
0.0
  0
LINE
  5
281
  8
2
 10
1.640609
 20
-1255.886739
 30
0.0
 11
-5.946082
 21
-1212.860486
 31
0.0
  0
LINE
  5
282
  8
2
 10
-13.53277
 20
-1255.88674
 30
0.0
 11
-5.946082
 21
-1212.860486
 31
0.0
  0
TEXT
  5
283
  8
2
 10
-11.086079
 20
-1406.151978
 30
0.0
 40
71.959999
  1
２１５
 50
90.000003
 41
0.9
  7
MONOTXT
  0
ENDBLK
  5
284
  8
0
  0
BLOCK
  5
286
  8
2
  2
*D24
 70
    65
 10
0.0
 20
0.0
 30
0.0
  3
*D24
  1

  0
POINT
  5
287
  8
DEFPOINTS
 10
-1512.829973
 20
-138.317121
 30
0.0
  0
POINT
  5
288
  8
DEFPOINTS
 10
-1512.829973
 20
211.484901
 30
0.0
  0
POINT
  5
289
  8
DEFPOINTS
 10
-1668.280531
 20
0.735626
 30
0.0
  0
LINE
  5
28A
  8
2
 10
-1525.679974
 20
-138.317121
 30
0.0
 11
-1681.130531
 21
-138.317121
 31
0.0
  0
LINE
  5
28B
  8
2
 10
-1525.679974
 20
211.484901
 30
0.0
 11
-1681.130531
 21
211.484901
 31
0.0
  0
LINE
  5
28C
  8
2
 10
-1668.280531
 20
-138.317121
 30
0.0
 11
-1668.280531
 21
211.484901
 31
0.0
  0
LINE
  5
28D
  8
2
 10
-1675.867222
 20
-95.290869
 30
0.0
 11
-1668.280531
 21
-138.317121
 31
0.0
  0
LINE
  5
28E
  8
2
 10
-1660.693843
 20
-95.290868
 30
0.0
 11
-1668.280531
 21
-138.317121
 31
0.0
  0
LINE
  5
28F
  8
2
 10
-1660.69384
 20
168.458648
 30
0.0
 11
-1668.280531
 21
211.484901
 31
0.0
  0
LINE
  5
290
  8
2
 10
-1675.867218
 20
168.458647
 30
0.0
 11
-1668.280531
 21
211.484901
 31
0.0
  0
TEXT
  5
291
  8
2
 10
-1673.420532
 20
-49.768108
 30
0.0
 40
71.959999
  1
３５０
 50
90.000003
 41
0.9
  7
MONOTXT
  0
ENDBLK
  5
292
  8
0
  0
BLOCK
  5
294
  8
2
  2
*D25
 70
    65
 10
0.0
 20
0.0
 30
0.0
  3
*D25
  1

  0
POINT
  5
295
  8
DEFPOINTS
 10
-1512.829973
 20
211.484901
 30
0.0
  0
POINT
  5
296
  8
DEFPOINTS
 10
-1512.829973
 20
391.484901
 30
0.0
  0
POINT
  5
297
  8
DEFPOINTS
 10
-1668.280531
 20
372.410924
 30
0.0
  0
LINE
  5
298
  8
2
 10
-1525.679974
 20
211.484901
 30
0.0
 11
-1681.130531
 21
211.484901
 31
0.0
  0
LINE
  5
299
  8
2
 10
-1525.679974
 20
391.484901
 30
0.0
 11
-1681.130531
 21
391.484901
 31
0.0
  0
LINE
  5
29A
  8
2
 10
-1668.280531
 20
211.484901
 30
0.0
 11
-1668.280531
 21
391.484901
 31
0.0
  0
LINE
  5
29B
  8
2
 10
-1675.867222
 20
254.511154
 30
0.0
 11
-1668.280531
 21
211.484901
 31
0.0
  0
LINE
  5
29C
  8
2
 10
-1660.693843
 20
254.511154
 30
0.0
 11
-1668.280531
 21
211.484901
 31
0.0
  0
LINE
  5
29D
  8
2
 10
-1660.69384
 20
348.458648
 30
0.0
 11
-1668.280531
 21
391.484901
 31
0.0
  0
LINE
  5
29E
  8
2
 10
-1675.867218
 20
348.458647
 30
0.0
 11
-1668.280531
 21
391.484901
 31
0.0
  0
TEXT
  5
29F
  8
2
 10
-1673.420532
 20
215.132904
 30
0.0
 40
71.959999
  1
１８０
 50
90.000003
 41
0.9
  7
MONOTXT
  0
ENDBLK
  5
2A0
  8
0
  0
BLOCK
  5
2A2
  8
2
  2
*D26
 70
    65
 10
0.0
 20
0.0
 30
0.0
  3
*D26
  1

  0
POINT
  5
2A3
  8
DEFPOINTS
 10
-604.34415
 20
367.471092
 30
0.0
  0
POINT
  5
2A4
  8
DEFPOINTS
 10
-355.484797
 20
271.450962
 30
0.0
  0
POINT
  5
2A5
  8
DEFPOINTS
 10
-241.45631
 20
582.852893
 30
0.0
  0
LINE
  5
2A6
  8
2
 10
-604.34415
 20
380.321092
 30
0.0
 11
-604.34415
 21
595.702893
 31
0.0
  0
LINE
  5
2A7
  8
2
 10
-355.484797
 20
284.300962
 30
0.0
 11
-355.484797
 21
595.702893
 31
0.0
  0
LINE
  5
2A8
  8
2
 10
-604.34415
 20
582.852893
 30
0.0
 11
-355.484797
 21
582.852893
 31
0.0
  0
LINE
  5
2A9
  8
2
 10
-561.317897
 20
590.439582
 30
0.0
 11
-604.34415
 21
582.852893
 31
0.0
  0
LINE
  5
2AA
  8
2
 10
-561.317897
 20
575.266204
 30
0.0
 11
-604.34415
 21
582.852893
 31
0.0
  0
LINE
  5
2AB
  8
2
 10
-398.51105
 20
575.266204
 30
0.0
 11
-355.484797
 21
582.852893
 31
0.0
  0
LINE
  5
2AC
  8
2
 10
-398.51105
 20
590.439582
 30
0.0
 11
-355.484797
 21
582.852893
 31
0.0
  0
TEXT
  5
2AD
  8
2
 10
-566.266479
 20
587.99292
 30
0.0
 40
71.959999
  1
２５０
 41
0.9
  7
MONOTXT
  0
ENDBLK
  5
2AE
  8
0
  0
BLOCK
  5
2B0
  8
2
  2
*D27
 70
    65
 10
0.0
 20
0.0
 30
0.0
  3
*D27
  1

  0
POINT
  5
2B1
  8
DEFPOINTS
 10
-464.105221
 20
1044.936634
 30
0.0
  0
POINT
  5
2B2
  8
DEFPOINTS
 10
-290.021847
 20
1184.858574
 30
0.0
  0
POINT
  5
2B3
  8
DEFPOINTS
 10
-157.261923
 20
963.417683
 30
0.0
  0
LINE
  5
2B4
  8
2
 10
-451.255221
 20
1044.936634
 30
0.0
 11
-144.411922
 21
1044.936634
 31
0.0
  0
LINE
  5
2B5
  8
2
 10
-277.171847
 20
1184.858574
 30
0.0
 11
-144.411922
 21
1184.858574
 31
0.0
  0
LINE
  5
2B6
  8
2
 10
-157.261923
 20
980.397251
 30
0.0
 11
-157.261923
 21
1423.414086
 31
0.0
  0
LINE
  5
2B7
  8
2
 10
-149.675232
 20
1001.910381
 30
0.0
 11
-157.261923
 21
1044.936634
 31
0.0
  0
LINE
  5
2B8
  8
2
 10
-164.84861
 20
1001.910381
 30
0.0
 11
-157.261923
 21
1044.936634
 31
0.0
  0
LINE
  5
2B9
  8
2
 10
-164.848614
 20
1227.884827
 30
0.0
 11
-157.261923
 21
1184.858574
 31
0.0
  0
LINE
  5
2BA
  8
2
 10
-149.675235
 20
1227.884828
 30
0.0
 11
-157.261923
 21
1184.858574
 31
0.0
  0
TEXT
  5
2BB
  8
2
 10
-162.401932
 20
1221.926147
 30
0.0
 40
71.959999
  1
１４０
 50
90.000003
 41
0.9
  7
MONOTXT
  0
ENDBLK
  5
2BC
  8
0
  0
BLOCK
  5
2BE
  8
2
  2
*D28
 70
    65
 10
0.0
 20
0.0
 30
0.0
  3
*D28
  1

  0
POINT
  5
2BF
  8
DEFPOINTS
 10
-382.156502
 20
1014.953604
 30
0.0
  0
POINT
  5
2C0
  8
DEFPOINTS
 10
-290.021847
 20
1184.858574
 30
0.0
  0
POINT
  5
2C1
  8
DEFPOINTS
 10
-30.35598
 20
1191.84838
 30
0.0
  0
LINE
  5
2C2
  8
2
 10
-369.306501
 20
1014.953604
 30
0.0
 11
-17.505979
 21
1014.953604
 31
0.0
  0
LINE
  5
2C3
  8
2
 10
-277.171847
 20
1184.858574
 30
0.0
 11
-17.505979
 21
1184.858574
 31
0.0
  0
LINE
  5
2C4
  8
2
 10
-30.35598
 20
950.414221
 30
0.0
 11
-30.35598
 21
1418.091591
 31
0.0
  0
LINE
  5
2C5
  8
2
 10
-22.769289
 20
971.927351
 30
0.0
 11
-30.35598
 21
1014.953604
 31
0.0
  0
LINE
  5
2C6
  8
2
 10
-37.942667
 20
971.92735
 30
0.0
 11
-30.35598
 21
1014.953604
 31
0.0
  0
LINE
  5
2C7
  8
2
 10
-37.942671
 20
1227.884827
 30
0.0
 11
-30.35598
 21
1184.858574
 31
0.0
  0
LINE
  5
2C8
  8
2
 10
-22.769292
 20
1227.884828
 30
0.0
 11
-30.35598
 21
1184.858574
 31
0.0
  0
TEXT
  5
2C9
  8
2
 10
-35.495983
 20
1216.603638
 30
0.0
 40
71.959999
  1
１７０
 50
90.000003
 41
0.9
  7
MONOTXT
  0
ENDBLK
  5
2CA
  8
0
  0
BLOCK
  5
2CC
  8
2
  2
*D29
 70
    65
 10
0.0
 20
0.0
 30
0.0
  3
*D29
  1

  0
POINT
  5
2CD
  8
DEFPOINTS
 10
-1509.331953
 20
-368.085205
 30
0.0
  0
POINT
  5
2CE
  8
DEFPOINTS
 10
-1509.331953
 20
391.484901
 30
0.0
  0
POINT
  5
2CF
  8
DEFPOINTS
 10
-1857.531956
 20
-367.291488
 30
0.0
  0
LINE
  5
2D0
  8
2
 10
-1522.181953
 20
-368.085205
 30
0.0
 11
-1870.381956
 21
-368.085205
 31
0.0
  0
LINE
  5
2D1
  8
2
 10
-1522.181953
 20
391.484901
 30
0.0
 11
-1870.381956
 21
391.484901
 31
0.0
  0
LINE
  5
2D2
  8
2
 10
-1857.531956
 20
-368.085205
 30
0.0
 11
-1857.531956
 21
391.484901
 31
0.0
  0
LINE
  5
2D3
  8
2
 10
-1865.118647
 20
-325.058952
 30
0.0
 11
-1857.531956
 21
-368.085205
 31
0.0
  0
LINE
  5
2D4
  8
2
 10
-1849.945268
 20
-325.058951
 30
0.0
 11
-1857.531956
 21
-368.085205
 31
0.0
  0
LINE
  5
2D5
  8
2
 10
-1849.945265
 20
348.458648
 30
0.0
 11
-1857.531956
 21
391.484901
 31
0.0
  0
LINE
  5
2D6
  8
2
 10
-1865.118643
 20
348.458647
 30
0.0
 11
-1857.531956
 21
391.484901
 31
0.0
  0
TEXT
  5
2D7
  8
2
 10
-1862.671997
 20
-276.140137
 30
0.0
 40
71.959999
  1
７６０（天井開口部）
 50
90.000003
 41
0.9
  7
MONOTXT
  0
ENDBLK
  5
2D8
  8
0
  0
BLOCK
  5
2DA
  8
2
  2
*D30
 70
    65
 10
0.0
 20
0.0
 30
0.0
  3
*D30
  1

  0
POINT
  5
2DB
  8
DEFPOINTS
 10
-315.507423
 20
-223.269041
 30
0.0
  0
POINT
  5
2DC
  8
DEFPOINTS
 10
-310.010534
 20
-368.085205
 30
0.0
  0
POINT
  5
2DD
  8
DEFPOINTS
 10
-379.053239
 20
-581.761779
 30
0.0
  0
LINE
  5
2DE
  8
2
 10
-315.507423
 20
-236.119042
 30
0.0
 11
-315.507423
 21
-594.611779
 31
0.0
  0
LINE
  5
2DF
  8
2
 10
-310.010534
 20
-380.935205
 30
0.0
 11
-310.010534
 21
-594.611779
 31
0.0
  0
LINE
  5
2E0
  8
2
 10
-380.046806
 20
-581.761779
 30
0.0
 11
-194.874532
 21
-581.761779
 31
0.0
  0
LINE
  5
2E1
  8
2
 10
-358.533676
 20
-589.348468
 30
0.0
 11
-315.507423
 21
-581.761779
 31
0.0
  0
LINE
  5
2E2
  8
2
 10
-358.533676
 20
-574.17509
 30
0.0
 11
-315.507423
 21
-581.761779
 31
0.0
  0
LINE
  5
2E3
  8
2
 10
-266.984281
 20
-574.17509
 30
0.0
 11
-310.010534
 21
-581.761779
 31
0.0
  0
LINE
  5
2E4
  8
2
 10
-266.984281
 20
-589.348468
 30
0.0
 11
-310.010534
 21
-581.761779
 31
0.0
  0
TEXT
  5
2E5
  8
2
 10
-281.226532
 20
-576.621765
 30
0.0
 40
71.959999
  1
５
 41
0.9
  7
MONOTXT
  0
ENDBLK
  5
2E6
  8
0
  0
BLOCK
  5
2E8
  8
2
  2
*D31
 70
    65
 10
0.0
 20
0.0
 30
0.0
  3
*D31
  1

  0
POINT
  5
2E9
  8
DEFPOINTS
 10
-1509.331953
 20
-368.085205
 30
0.0
  0
POINT
  5
2EA
  8
DEFPOINTS
 10
-1503.835064
 20
-223.269041
 30
0.0
  0
POINT
  5
2EB
  8
DEFPOINTS
 10
-1536.840095
 20
-554.239147
 30
0.0
  0
LINE
  5
2EC
  8
2
 10
-1509.331953
 20
-380.935205
 30
0.0
 11
-1509.331953
 21
-567.089147
 31
0.0
  0
LINE
  5
2ED
  8
2
 10
-1503.835064
 20
-236.119042
 30
0.0
 11
-1503.835064
 21
-567.089147
 31
0.0
  0
LINE
  5
2EE
  8
2
 10
-1624.467955
 20
-554.239147
 30
0.0
 11
-1473.463591
 21
-554.239147
 31
0.0
  0
LINE
  5
2EF
  8
2
 10
-1555.017184
 20
-562.294686
 30
0.0
 11
-1509.331953
 21
-554.239147
 31
0.0
  0
LINE
  5
2F0
  8
2
 10
-1555.017184
 20
-546.183608
 30
0.0
 11
-1509.331953
 21
-554.239147
 31
0.0
  0
CIRCLE
  5
2F1
  8
2
 10
-1503.835064
 20
-554.239147
 30
0.0
 40
5.14
  0
CIRCLE
  5
2F2
  8
2
 10
-1503.835064
 20
-554.239147
 30
0.0
 40
3.084
  0
TEXT
  5
2F3
  8
2
 10
-1595.68396
 20
-549.099121
 30
0.0
 40
71.959999
  1
５
 41
0.9
  7
MONOTXT
  0
ENDBLK
  5
2F4
  8
0
  0
BLOCK
  5
2F6
  8
2
  2
*D32
 70
    65
 10
0.0
 20
0.0
 30
0.0
  3
*D32
  1

  0
POINT
  5
2F7
  8
DEFPOINTS
 10
-1503.835064
 20
-223.269041
 30
0.0
  0
POINT
  5
2F8
  8
DEFPOINTS
 10
-1482.846943
 20
-168.300152
 30
0.0
  0
POINT
  5
2F9
  8
DEFPOINTS
 10
-1410.771698
 20
-554.239147
 30
0.0
  0
LINE
  5
2FA
  8
2
 10
-1503.835064
 20
-236.119042
 30
0.0
 11
-1503.835064
 21
-567.089147
 31
0.0
  0
LINE
  5
2FB
  8
2
 10
-1482.846943
 20
-181.150152
 30
0.0
 11
-1482.846943
 21
-567.089147
 31
0.0
  0
LINE
  5
2FC
  8
2
 10
-1534.206534
 20
-554.239147
 30
0.0
 11
-1343.113605
 21
-554.239147
 31
0.0
  0
CIRCLE
  5
2FD
  8
2
 10
-1503.835064
 20
-554.239147
 30
0.0
 40
5.14
  0
CIRCLE
  5
2FE
  8
2
 10
-1503.835064
 20
-554.239147
 30
0.0
 40
3.084
  0
LINE
  5
2FF
  8
2
 10
-1439.82069
 20
-546.652458
 30
0.0
 11
-1482.846943
 21
-554.239147
 31
0.0
  0
LINE
  5
300
  8
2
 10
-1439.82069
 20
-561.825836
 30
0.0
 11
-1482.846943
 21
-554.239147
 31
0.0
  0
TEXT
  5
301
  8
2
 10
-1487.033569
 20
-549.099121
 30
0.0
 40
71.959999
  1
２０
 41
0.9
  7
MONOTXT
  0
ENDBLK
  5
302
  8
0
  0
BLOCK
  5
304
  8
2
  2
*D33
 70
    65
 10
0.0
 20
0.0
 30
0.0
  3
*D33
  1

  0
POINT
  5
305
  8
DEFPOINTS
 10
-355.484797
 20
-345.125799
 30
0.0
  0
POINT
  5
306
  8
DEFPOINTS
 10
-336.495544
 20
-168.300152
 30
0.0
  0
POINT
  5
307
  8
DEFPOINTS
 10
-470.891814
 20
-480.039807
 30
0.0
  0
LINE
  5
308
  8
2
 10
-355.484797
 20
-357.975799
 30
0.0
 11
-355.484797
 21
-492.889807
 31
0.0
  0
LINE
  5
309
  8
2
 10
-336.495544
 20
-181.150152
 30
0.0
 11
-336.495544
 21
-492.889807
 31
0.0
  0
LINE
  5
30A
  8
2
 10
-519.578989
 20
-480.039807
 30
0.0
 11
-271.956161
 21
-480.039807
 31
0.0
  0
LINE
  5
30B
  8
2
 10
-398.51105
 20
-487.626496
 30
0.0
 11
-355.484797
 21
-480.039807
 31
0.0
  0
LINE
  5
30C
  8
2
 10
-398.51105
 20
-472.453118
 30
0.0
 11
-355.484797
 21
-480.039807
 31
0.0
  0
LINE
  5
30D
  8
2
 10
-293.469291
 20
-472.453118
 30
0.0
 11
-336.495544
 21
-480.039807
 31
0.0
  0
LINE
  5
30E
  8
2
 10
-293.469291
 20
-487.626496
 30
0.0
 11
-336.495544
 21
-480.039807
 31
0.0
  0
TEXT
  5
30F
  8
2
 10
-490.794983
 20
-474.899811
 30
0.0
 40
71.959999
  1
２０
 41
0.9
  7
MONOTXT
  0
ENDBLK
  5
310
  8
0
  0
BLOCK
  5
312
  8
2
  2
*D34
 70
    65
 10
0.0
 20
0.0
 30
0.0
  3
*D34
  1

  0
POINT
  5
313
  8
DEFPOINTS
 10
-336.495544
 20
-168.300152
 30
0.0
  0
POINT
  5
314
  8
DEFPOINTS
 10
-315.507423
 20
-223.269041
 30
0.0
  0
POINT
  5
315
  8
DEFPOINTS
 10
-476.75385
 20
-581.761779
 30
0.0
  0
LINE
  5
316
  8
2
 10
-336.495544
 20
-181.150152
 30
0.0
 11
-336.495544
 21
-594.611779
 31
0.0
  0
LINE
  5
317
  8
2
 10
-315.507423
 20
-236.119042
 30
0.0
 11
-315.507423
 21
-594.611779
 31
0.0
  0
LINE
  5
318
  8
2
 10
-505.406097
 20
-581.761779
 30
0.0
 11
-250.96804
 21
-581.761779
 31
0.0
  0
LINE
  5
319
  8
2
 10
-379.521797
 20
-589.348468
 30
0.0
 11
-336.495544
 21
-581.761779
 31
0.0
  0
LINE
  5
31A
  8
2
 10
-379.521797
 20
-574.17509
 30
0.0
 11
-336.495544
 21
-581.761779
 31
0.0
  0
LINE
  5
31B
  8
2
 10
-272.48117
 20
-574.17509
 30
0.0
 11
-315.507423
 21
-581.761779
 31
0.0
  0
LINE
  5
31C
  8
2
 10
-272.48117
 20
-589.348468
 30
0.0
 11
-315.507423
 21
-581.761779
 31
0.0
  0
TEXT
  5
31D
  8
2
 10
-476.622101
 20
-576.621765
 30
0.0
 40
71.959999
  1
２０
 41
0.9
  7
MONOTXT
  0
ENDBLK
  5
31E
  8
0
  0
BLOCK
  5
320
  8
2
  2
*D35
 70
    65
 10
0.0
 20
0.0
 30
0.0
  3
*D35
  1

  0
POINT
  5
321
  8
DEFPOINTS
 10
-1509.331953
 20
-368.085205
 30
0.0
  0
POINT
  5
322
  8
DEFPOINTS
 10
-310.010534
 20
-368.085205
 30
0.0
  0
POINT
  5
323
  8
DEFPOINTS
 10
-715.34191
 20
-767.684001
 30
0.0
  0
LINE
  5
324
  8
2
 10
-1509.331953
 20
-380.935205
 30
0.0
 11
-1509.331953
 21
-780.534002
 31
0.0
  0
LINE
  5
325
  8
2
 10
-310.010534
 20
-380.935205
 30
0.0
 11
-310.010534
 21
-780.534002
 31
0.0
  0
LINE
  5
326
  8
2
 10
-1509.331953
 20
-767.684001
 30
0.0
 11
-310.010534
 21
-767.684001
 31
0.0
  0
LINE
  5
327
  8
2
 10
-1466.3057
 20
-760.097312
 30
0.0
 11
-1509.331953
 21
-767.684001
 31
0.0
  0
LINE
  5
328
  8
2
 10
-1466.3057
 20
-775.270691
 30
0.0
 11
-1509.331953
 21
-767.684001
 31
0.0
  0
LINE
  5
329
  8
2
 10
-353.036787
 20
-775.270691
 30
0.0
 11
-310.010534
 21
-767.684001
 31
0.0
  0
LINE
  5
32A
  8
2
 10
-353.036787
 20
-760.097312
 30
0.0
 11
-310.010534
 21
-767.684001
 31
0.0
  0
TEXT
  5
32B
  8
2
 10
-1226.295288
 20
-762.544006
 30
0.0
 40
71.959999
  1
１２００（天井開口部）
 41
0.9
  7
MONOTXT
  0
ENDBLK
  5
32C
  8
0
  0
BLOCK
  5
32E
  8
2
  2
*D36
 70
    65
 10
0.0
 20
0.0
 30
0.0
  3
*D36
  1

  0
POINT
  5
32F
  8
DEFPOINTS
 10
-1482.846943
 20
-168.300152
 30
0.0
  0
POINT
  5
330
  8
DEFPOINTS
 10
-336.495544
 20
-168.300152
 30
0.0
  0
POINT
  5
331
  8
DEFPOINTS
 10
-877.326358
 20
-673.726702
 30
0.0
  0
LINE
  5
332
  8
2
 10
-1482.846943
 20
-181.150152
 30
0.0
 11
-1482.846943
 21
-686.576702
 31
0.0
  0
LINE
  5
333
  8
2
 10
-336.495544
 20
-181.150152
 30
0.0
 11
-336.495544
 21
-686.576702
 31
0.0
  0
LINE
  5
334
  8
2
 10
-1482.846943
 20
-673.726702
 30
0.0
 11
-336.495544
 21
-673.726702
 31
0.0
  0
LINE
  5
335
  8
2
 10
-1439.82069
 20
-666.140012
 30
0.0
 11
-1482.846943
 21
-673.726702
 31
0.0
  0
LINE
  5
336
  8
2
 10
-1439.82069
 20
-681.313391
 30
0.0
 11
-1482.846943
 21
-673.726702
 31
0.0
  0
LINE
  5
337
  8
2
 10
-379.521797
 20
-681.313391
 30
0.0
 11
-336.495544
 21
-673.726702
 31
0.0
  0
LINE
  5
338
  8
2
 10
-379.521797
 20
-666.140012
 30
0.0
 11
-336.495544
 21
-673.726702
 31
0.0
  0
TEXT
  5
339
  8
2
 10
-1197.51123
 20
-668.586731
 30
0.0
 40
71.959999
  1
１１５０（吊り位置）
 41
0.9
  7
MONOTXT
  0
ENDBLK
  5
33A
  8
0
  0
ENDSEC
  0
SECTION
  2
ENTITIES
  0
INSERT
  5
33B
  8
1
  2
*U2
 10
0.0
 20
0.0
 30
0.0
  0
INSERT
  5
33C
  8
1
  2
*U3
 10
0.0
 20
0.0
 30
0.0
  0
DIMENSION
  5
33D
  8
2
 62
     7
  2
*D4
 10
-237.161998
 20
882.567605
 30
0.0
 11
-268.133356
 21
923.68758
 31
0.0
  1
６７
 13
-421.447464
 23
977.442566
 33
0.0
 14
-354.485363
 24
970.979624
 34
0.0
  0
DIMENSION
  5
33E
  8
2
 62
     7
  2
*D5
 10
-160.051304
 20
785.108255
 30
0.0
 11
-239.349356
 21
826.22823
 31
0.0
  1
１４８
 13
-502.401646
 23
1017.125406
 33
0.0
 14
-354.485363
 24
970.979624
 34
0.0
  0
DIMENSION
  5
33F
  8
2
 62
     7
  2
*D6
 10
-66.383703
 20
239.631455
 30
0.0
 11
-107.5037
 21
227.550178
 31
0.0
  1
２８０
 13
-355.484797
 23
87.629274
 33
0.0
 14
-604.34415
 24
367.471092
 34
0.0
 50
90.000003
  0
DIMENSION
  5
340
  8
2
 62
     7
  2
*D7
 10
-417.527949
 20
208.713375
 30
0.0
 11
-458.647942
 21
272.377113
 31
0.0
  1
１９０
 13
-490.408434
 23
177.283133
 33
0.0
 14
-604.34415
 24
367.471092
 34
0.0
 50
90.000003
  0
DIMENSION
  5
341
  8
2
 62
     7
  2
*D8
 10
-1699.85831
 20
-1013.896136
 30
0.0
 11
-1740.978294
 21
-1121.710869
 31
0.0
  1
１００
 13
-1169.524274
 23
-1336.790346
 33
0.0
 14
-1169.524274
 24
-1236.846911
 34
0.0
 50
90.000003
  0
DIMENSION
  5
342
  8
2
 62
     7
  2
*D9
 10
-614.133482
 20
-924.029856
 30
0.0
 11
-909.671252
 21
-882.909832
 31
0.0
  1
１１１０
 13
-1463.85769
 23
-1212.860486
 33
0.0
 14
-355.484797
 24
-1212.860486
 34
0.0
  0
DIMENSION
  5
343
  8
2
 62
     7
  2
*D10
 10
-213.320486
 20
-924.029856
 30
0.0
 11
-203.669855
 21
-882.909832
 31
0.0
  1
６５
 13
-355.484797
 23
-1212.860486
 33
0.0
 14
-290.021847
 24
-1426.739437
 34
0.0
  0
DIMENSION
  5
344
  8
2
 62
     7
  2
*D11
 10
-878.63492
 20
-1613.639557
 30
0.0
 11
-909.671317
 21
-1572.519512
 31
0.0
  1
５２０
 13
-1169.524274
 23
-1336.790346
 33
0.0
 14
-649.818413
 24
-1336.790346
 34
0.0
  0
DIMENSION
  5
345
  8
2
 62
     7
  2
*D12
 10
280.838363
 20
444.50323
 30
0.0
 11
239.718362
 21
494.595921
 31
0.0
  1
４５
 13
389.89454
 23
364.268804
 33
0.0
 14
605.772359
 24
408.243916
 34
0.0
 50
90.000003
  0
DIMENSION
  5
346
  8
2
 62
     7
  2
*D13
 10
280.838363
 20
-9.335421
 30
0.0
 11
239.718361
 21
7.970459
 31
0.0
  1
７１０
 13
389.89454
 23
-348.327887
 33
0.0
 14
389.89454
 24
364.268804
 34
0.0
 50
90.000003
  0
DIMENSION
  5
347
  8
2
 62
     7
  2
*D14
 10
280.838363
 20
-365.766458
 30
0.0
 11
239.718362
 21
-394.942012
 31
0.0
  1
４５
 13
605.772359
 23
-391.303564
 33
0.0
 14
389.89454
 24
-348.327887
 34
0.0
 50
90.000003
  0
DIMENSION
  5
348
  8
2
 62
     7
  2
*D15
 10
-274.987827
 20
688.943401
 30
0.0
 11
-461.924551
 21
730.063374
 31
0.0
  1
２１５
 13
-569.363748
 23
1023.99212
 33
0.0
 14
-354.485363
 24
970.979624
 34
0.0
  0
DIMENSION
  5
349
  8
2
 62
     7
  2
*D16
 10
-165.294781
 20
220.83835
 30
0.0
 11
-206.414787
 21
251.036888
 31
0.0
  1
２３０
 13
-405.456514
 23
134.602689
 33
0.0
 14
-604.34415
 24
367.471092
 34
0.0
 50
90.000003
  0
DIMENSION
  5
34A
  8
2
 62
     7
  2
*D17
 10
1970.526572
 20
525.14995
 30
0.0
 11
1748.111462
 21
566.269978
 31
0.0
  1
１２４０
 13
1128.462132
 23
386.460145
 33
0.0
 14
2367.760725
 24
386.460145
 34
0.0
  0
DIMENSION
  5
34B
  8
2
 62
     7
  2
*D18
 10
1010.425437
 20
328.222404
 30
0.0
 11
969.305458
 21
11.672264
 31
0.0
  1
８００
 13
1185.42989
 23
-388.101476
 33
0.0
 14
1185.42989
 24
411.446003
 34
0.0
 50
90.000003
  0
DIMENSION
  5
34C
  8
2
 62
     7
  2
*D19
 10
-1491.394644
 20
-924.029856
 30
0.0
 11
-1617.940668
 21
-882.909832
 31
0.0
  1
６５
 13
-1529.32064
 23
-1426.739437
 33
0.0
 14
-1463.85769
 24
-1212.860486
 34
0.0
  0
DIMENSION
  5
34D
  8
2
 62
     7
  2
*D20
 10
-1805.382438
 20
-1336.422685
 30
0.0
 11
-1846.502464
 21
-1171.682671
 31
0.0
  1
１４０
 13
-1472.352882
 23
-1426.739437
 33
0.0
 14
-1225.723967
 24
-1286.818628
 34
0.0
 50
90.000003
  0
DIMENSION
  5
34E
  8
2
 62
     7
  2
*D21
 10
-1805.382438
 20
-1336.422685
 30
0.0
 11
-1846.502463
 21
-1533.080074
 31
0.0
  1
２０
 13
-1504.334781
 23
-1446.728124
 33
0.0
 14
-1472.352882
 24
-1426.739437
 34
0.0
 50
90.000003
  0
DIMENSION
  5
34F
  8
2
 62
     7
  2
*D22
 10
-123.75257
 20
-1320.253167
 30
0.0
 11
-164.872566
 21
-1342.786919
 31
0.0
  1
１７０
 13
-290.021847
 23
-1426.739437
 33
0.0
 14
-315.507423
 24
-1258.834466
 34
0.0
 50
90.000003
  0
DIMENSION
  5
350
  8
2
 62
     7
  2
*D23
 10
-5.946082
 20
-1327.182961
 30
0.0
 11
-47.066082
 21
-1319.79998
 31
0.0
  1
２１５
 13
-290.021847
 23
-1426.739437
 33
0.0
 14
-355.484797
 24
-1212.860486
 34
0.0
 50
90.000003
  0
DIMENSION
  5
351
  8
2
 62
     7
  2
*D24
 10
-1668.280531
 20
0.735626
 30
0.0
 11
-1709.400536
 21
36.583889
 31
0.0
  1
３５０
 13
-1512.829973
 23
-138.317121
 33
0.0
 14
-1512.829973
 24
211.484901
 34
0.0
 50
90.000003
  0
DIMENSION
  5
352
  8
2
 62
     7
  2
*D25
 10
-1668.280531
 20
372.410924
 30
0.0
 11
-1709.400536
 21
301.484901
 31
0.0
  1
１８０
 13
-1512.829973
 23
211.484901
 33
0.0
 14
-1512.829973
 24
391.484901
 34
0.0
 50
90.000003
  0
DIMENSION
  5
353
  8
2
 62
     7
  2
*D26
 10
-241.45631
 20
582.852893
 30
0.0
 11
-479.914481
 21
623.972919
 31
0.0
  1
２５０
 13
-604.34415
 23
367.471092
 33
0.0
 14
-355.484797
 24
271.450962
 34
0.0
  0
DIMENSION
  5
354
  8
2
 62
     7
  2
*D27
 10
-157.261923
 20
963.417683
 30
0.0
 11
-198.381935
 21
1308.278145
 31
0.0
  1
１４０
 13
-464.105221
 23
1044.936634
 33
0.0
 14
-290.021847
 24
1184.858574
 34
0.0
 50
90.000003
  0
DIMENSION
  5
355
  8
2
 62
     7
  2
*D28
 10
-30.35598
 20
1191.84838
 30
0.0
 11
-71.475986
 21
1302.955635
 31
0.0
  1
１７０
 13
-382.156502
 23
1014.953604
 33
0.0
 14
-290.021847
 24
1184.858574
 34
0.0
 50
90.000003
  0
DIMENSION
  5
356
  8
2
 62
     7
  2
*D29
 10
-1857.531956
 20
-367.291488
 30
0.0
 11
-1898.652009
 21
11.699858
 31
0.0
  1
７６０（天井開口部）
 13
-1509.331953
 23
-368.085205
 33
0.0
 14
-1509.331953
 24
391.484901
 34
0.0
 50
90.000003
  0
DIMENSION
  5
357
  8
2
 62
     7
  2
*D30
 10
-379.053239
 20
-581.761779
 30
0.0
 11
-252.442532
 21
-540.641766
 31
0.0
  1
５
 13
-315.507423
 23
-223.269041
 33
0.0
 14
-310.010534
 24
-368.085205
 34
0.0
  0
DIMENSION
  5
358
  8
2
 62
     7
  2
*D31
 10
-1536.840095
 20
-554.239147
 30
0.0
 11
-1566.89996
 21
-513.119122
 31
0.0
  1
５
 13
-1509.331953
 23
-368.085205
 33
0.0
 14
-1503.835064
 24
-223.269041
 34
0.0
  0
DIMENSION
  5
359
  8
2
 62
     7
  2
*D32
 10
-1410.771698
 20
-554.239147
 30
0.0
 11
-1429.46557
 21
-513.119122
 31
0.0
  1
２０
 13
-1503.835064
 23
-223.269041
 33
0.0
 14
-1482.846943
 24
-168.300152
 34
0.0
  0
DIMENSION
  5
35A
  8
2
 62
     7
  2
*D33
 10
-470.891814
 20
-480.039807
 30
0.0
 11
-433.226984
 21
-438.919811
 31
0.0
  1
２０
 13
-355.484797
 23
-345.125799
 33
0.0
 14
-336.495544
 24
-168.300152
 34
0.0
  0
DIMENSION
  5
35B
  8
2
 62
     7
  2
*D34
 10
-476.75385
 20
-581.761779
 30
0.0
 11
-419.054102
 21
-540.641766
 31
0.0
  1
２０
 13
-336.495544
 23
-168.300152
 33
0.0
 14
-315.507423
 24
-223.269041
 34
0.0
  0
DIMENSION
  5
35C
  8
2
 62
     7
  2
*D35
 10
-715.34191
 20
-767.684001
 30
0.0
 11
-909.671292
 21
-726.564007
 31
0.0
  1
１２００（天井開口部）
 13
-1509.331953
 23
-368.085205
 33
0.0
 14
-310.010534
 24
-368.085205
 34
0.0
  0
DIMENSION
  5
35D
  8
2
 62
     7
  2
*D36
 10
-877.326358
 20
-673.726702
 30
0.0
 11
-909.671234
 21
-632.606731
 31
0.0
  1
１１５０（吊り位置）
 13
-1482.846943
 23
-168.300152
 33
0.0
 14
-336.495544
 24
-168.300152
 34
0.0
  0
LINE
  5
35E
  8
1
 10
-599.346778
 20
165.585153
 30
0.0
 11
-588.253257
 21
165.585153
 31
0.0
  0
LINE
  5
35F
  8
1
 10
-599.346778
 20
179.577234
 30
0.0
 11
-588.253257
 21
179.577234
 31
0.0
  0
ARC
  5
360
  8
1
 10
-588.253257
 20
167.584022
 30
0.0
 40
1.998869
 50
270.0
 51
314.427
  0
ARC
  5
361
  8
1
 10
-588.253257
 20
177.578366
 30
0.0
 40
1.998869
 50
45.573
 51
90.0
  0
LINE
  5
362
  8
1
 10
-599.346778
 20
1097.907786
 30
0.0
 11
-588.253257
 21
1097.907786
 31
0.0
  0
LINE
  5
363
  8
1
 10
-599.346778
 20
1083.915705
 30
0.0
 11
-588.253257
 21
1083.915705
 31
0.0
  0
LINE
  5
364
  8
1
 10
-586.254388
 20
1085.914574
 30
0.0
 11
-586.254388
 21
1095.908917
 31
0.0
  0
ARC
  5
365
  8
1
 10
-588.253257
 20
1095.908917
 30
0.0
 40
1.998869
 50
0.0
 51
90.0
  0
ARC
  5
366
  8
1
 10
-588.253257
 20
1085.914574
 30
0.0
 40
1.998869
 50
270.0002
 51
0.0
  0
LINE
  5
367
  8
1
 10
-502.401646
 20
182.280304
 30
0.0
 11
-502.401646
 21
71.034167
 31
0.0
  0
LINE
  5
368
  8
1
 10
-492.020122
 20
138.305193
 30
0.0
 11
-512.783271
 21
138.305193
 31
0.0
  0
LINE
  5
369
  8
1
 10
-516.243912
 20
151.29784
 30
0.0
 11
-516.243912
 21
138.305193
 31
0.0
  0
LINE
  5
36A
  8
1
 10
-488.55968
 20
151.29784
 30
0.0
 11
-488.55968
 21
138.305193
 31
0.0
  0
LINE
  5
36B
  8
1
 10
-509.322829
 20
138.305193
 30
0.0
 11
-509.322829
 21
151.29784
 31
0.0
  0
LINE
  5
36C
  8
1
 10
-495.480563
 20
138.305193
 30
0.0
 11
-495.480563
 21
151.29784
 31
0.0
  0
LINE
  5
36D
  8
1
 10
-486.910414
 20
151.29784
 30
0.0
 11
-517.892879
 21
151.29784
 31
0.0
  0
LINE
  5
36E
  8
1
 10
-486.910414
 20
171.286527
 30
0.0
 11
-486.910414
 21
151.29784
 31
0.0
  0
LINE
  5
36F
  8
1
 10
-517.892879
 20
171.286527
 30
0.0
 11
-517.892879
 21
151.29784
 31
0.0
  0
LINE
  5
370
  8
1
 10
-486.910414
 20
171.286527
 30
0.0
 11
-517.892879
 21
171.286527
 31
0.0
  0
LINE
  5
371
  8
1
 10
-490.408434
 20
177.283133
 30
0.0
 11
-514.394858
 21
177.283133
 31
0.0
  0
LINE
  5
372
  8
1
 10
-510.147262
 20
171.286527
 30
0.0
 11
-510.147262
 21
151.29784
 31
0.0
  0
LINE
  5
373
  8
1
 10
-494.65603
 20
171.286527
 30
0.0
 11
-494.65603
 21
151.29784
 31
0.0
  0
LINE
  5
374
  8
1
 10
-486.822164
 20
1044.936634
 30
0.0
 11
-494.611955
 21
1058.428998
 31
0.0
  0
LINE
  5
375
  8
1
 10
-510.191437
 20
1031.44427
 30
0.0
 11
-517.981529
 21
1044.936634
 31
0.0
  0
LINE
  5
376
  8
1
 10
-494.611955
 20
1058.428998
 30
0.0
 11
-510.191437
 21
1058.428998
 31
0.0
  0
LINE
  5
377
  8
1
 10
-494.611955
 20
1031.44427
 30
0.0
 11
-510.191437
 21
1031.44427
 31
0.0
  0
LINE
  5
378
  8
1
 10
-510.191437
 20
1058.428998
 30
0.0
 11
-517.981529
 21
1044.936634
 31
0.0
  0
LINE
  5
379
  8
1
 10
-486.822164
 20
1044.936634
 30
0.0
 11
-494.611955
 21
1031.44427
 31
0.0
  0
CIRCLE
  5
37A
  8
1
 10
-502.401646
 20
1044.936634
 30
0.0
 40
8.045447
  0
LINE
  5
37B
  8
1
 10
-569.363748
 20
244.34058
 30
0.0
 11
-569.363748
 21
71.034167
 31
0.0
  0
LINE
  5
37C
  8
1
 10
-562.020304
 20
214.35755
 30
0.0
 11
-576.707791
 21
214.35755
 31
0.0
  0
LINE
  5
37D
  8
1
 10
-579.158304
 20
223.352459
 30
0.0
 11
-579.158304
 21
214.35755
 31
0.0
  0
LINE
  5
37E
  8
1
 10
-559.569291
 20
223.352459
 30
0.0
 11
-559.569291
 21
214.35755
 31
0.0
  0
LINE
  5
37F
  8
1
 10
-564.466619
 20
223.352459
 30
0.0
 11
-564.466619
 21
214.35755
 31
0.0
  0
LINE
  5
380
  8
1
 10
-574.261176
 20
223.352459
 30
0.0
 11
-574.261176
 21
214.35755
 31
0.0
  0
LINE
  5
381
  8
1
 10
-556.669033
 20
223.352459
 30
0.0
 11
-582.058763
 21
223.352459
 31
0.0
  0
LINE
  5
382
  8
1
 10
-582.058763
 20
235.845388
 30
0.0
 11
-582.058763
 21
223.352459
 31
0.0
  0
LINE
  5
383
  8
1
 10
-556.669033
 20
235.845388
 30
0.0
 11
-556.669033
 21
223.352459
 31
0.0
  0
LINE
  5
384
  8
1
 10
-556.669033
 20
235.845388
 30
0.0
 11
-582.058763
 21
235.845388
 31
0.0
  0
LINE
  5
385
  8
1
 10
-561.86799
 20
241.342277
 30
0.0
 11
-576.859505
 21
241.342277
 31
0.0
  0
LINE
  5
386
  8
1
 10
-563.01654
 20
235.845388
 30
0.0
 11
-563.01654
 21
223.352459
 31
0.0
  0
LINE
  5
387
  8
1
 10
-575.711255
 20
235.845388
 30
0.0
 11
-575.711255
 21
223.352459
 31
0.0
  0
LINE
  5
388
  8
1
 10
-569.363748
 20
1021.99212
 30
0.0
 11
-569.363748
 21
1059.928449
 31
0.0
  0
LINE
  5
389
  8
1
 10
-556.669332
 20
1044.936634
 30
0.0
 11
-563.01654
 21
1055.930412
 31
0.0
  0
LINE
  5
38A
  8
1
 10
-575.711055
 20
1033.942856
 30
0.0
 11
-582.058263
 21
1044.936634
 31
0.0
  0
LINE
  5
38B
  8
1
 10
-563.01654
 20
1033.942856
 30
0.0
 11
-575.711055
 21
1033.942856
 31
0.0
  0
LINE
  5
38C
  8
1
 10
-563.01654
 20
1055.930412
 30
0.0
 11
-575.711055
 21
1055.930412
 31
0.0
  0
LINE
  5
38D
  8
1
 10
-563.01654
 20
1033.942856
 30
0.0
 11
-556.669332
 21
1044.936634
 31
0.0
  0
LINE
  5
38E
  8
1
 10
-582.058263
 20
1044.936634
 30
0.0
 11
-575.711055
 21
1055.930412
 31
0.0
  0
CIRCLE
  5
38F
  8
1
 10
-569.363748
 20
1044.936634
 30
0.0
 40
7.495758
  0
LINE
  5
390
  8
1
 10
-421.447464
 20
136.601557
 30
0.0
 11
-421.447464
 21
71.034167
 31
0.0
  0
LINE
  5
391
  8
1
 10
-405.456514
 20
134.602689
 30
0.0
 11
-437.438414
 21
134.602689
 31
0.0
  0
LINE
  5
392
  8
1
 10
-437.438414
 20
134.602689
 30
0.0
 11
-437.908148
 21
87.629274
 31
0.0
  0
LINE
  5
393
  8
1
 10
-405.456514
 20
134.602689
 30
0.0
 11
-404.98688
 21
87.629274
 31
0.0
  0
LINE
  5
394
  8
1
 10
-1463.85769
 20
-223.269041
 30
0.0
 11
-1503.835064
 21
-223.269041
 31
0.0
  0
LINE
  5
395
  8
1
 10
-1463.85769
 20
1016.953604
 30
0.0
 11
-1503.835064
 21
1016.953604
 31
0.0
  0
LINE
  5
396
  8
1
 10
-1463.85769
 20
-1258.834466
 30
0.0
 11
-1503.835064
 21
-1258.834466
 31
0.0
  0
LINE
  5
397
  8
1
 10
-1491.841852
 20
205.488295
 30
0.0
 11
-1503.835064
 21
205.488295
 31
0.0
  0
LINE
  5
398
  8
1
 10
-1491.841852
 20
217.481507
 30
0.0
 11
-1503.835064
 21
217.481507
 31
0.0
  0
LINE
  5
399
  8
1
 10
-1463.85769
 20
271.450962
 30
0.0
 11
-1503.835064
 21
271.450962
 31
0.0
  0
LINE
  5
39A
  8
1
 10
-1503.835064
 20
271.450962
 30
0.0
 11
-1503.835064
 21
217.481507
 31
0.0
  0
LINE
  5
39B
  8
1
 10
-1488.843549
 20
225.476982
 30
0.0
 11
-1488.843549
 21
220.47981
 31
0.0
  0
LINE
  5
39C
  8
1
 10
-1476.850337
 20
225.476982
 30
0.0
 11
-1476.850337
 21
197.49282
 31
0.0
  0
ARC
  5
39D
  8
1
 10
-1482.846943
 20
197.49282
 30
0.0
 40
5.996606
 50
180.0
 51
0.0
  0
ARC
  5
39E
  8
1
 10
-1482.846943
 20
225.476982
 30
0.0
 40
5.996606
 50
0.0
 51
180.0
  0
LINE
  5
39F
  8
1
 10
-1488.843549
 20
202.489992
 30
0.0
 11
-1488.843549
 21
197.49282
 31
0.0
  0
ARC
  5
3A0
  8
1
 10
-1491.841852
 20
220.47981
 30
0.0
 40
2.998303
 50
270.0
 51
0.0
  0
ARC
  5
3A1
  8
1
 10
-1491.841852
 20
202.489992
 30
0.0
 40
2.998303
 50
0.0
 51
90.0
  0
LINE
  5
3A2
  8
1
 10
-1503.835064
 20
205.488295
 30
0.0
 11
-1503.835064
 21
-132.320515
 31
0.0
  0
LINE
  5
3A3
  8
1
 10
-1491.841852
 20
-144.313728
 30
0.0
 11
-1503.835064
 21
-144.313728
 31
0.0
  0
LINE
  5
3A4
  8
1
 10
-1491.841852
 20
-132.320515
 30
0.0
 11
-1503.835064
 21
-132.320515
 31
0.0
  0
LINE
  5
3A5
  8
1
 10
-1488.843549
 20
-124.325041
 30
0.0
 11
-1488.843549
 21
-129.322212
 31
0.0
  0
LINE
  5
3A6
  8
1
 10
-1476.850337
 20
-124.325041
 30
0.0
 11
-1476.850337
 21
-152.309202
 31
0.0
  0
ARC
  5
3A7
  8
1
 10
-1482.846943
 20
-152.309202
 30
0.0
 40
5.996606
 50
180.0
 51
0.0
  0
ARC
  5
3A8
  8
1
 10
-1482.846943
 20
-124.325041
 30
0.0
 40
5.996606
 50
0.0
 51
180.0
  0
LINE
  5
3A9
  8
1
 10
-1488.843549
 20
-147.312031
 30
0.0
 11
-1488.843549
 21
-152.309202
 31
0.0
  0
ARC
  5
3AA
  8
1
 10
-1491.841852
 20
-129.322212
 30
0.0
 40
2.998303
 50
270.0
 51
0.0
  0
ARC
  5
3AB
  8
1
 10
-1491.841852
 20
-147.312031
 30
0.0
 40
2.998303
 50
0.0
 51
90.0
  0
LINE
  5
3AC
  8
1
 10
-1503.835064
 20
1016.953604
 30
0.0
 11
-1503.835064
 21
1032.944553
 31
0.0
  0
LINE
  5
3AD
  8
1
 10
-1503.835064
 20
-1274.825416
 30
0.0
 11
-1503.835064
 21
-1258.834466
 31
0.0
  0
LINE
  5
3AE
  8
1
 10
-355.484797
 20
271.450962
 30
0.0
 11
-355.484797
 21
87.629274
 31
0.0
  0
LINE
  5
3AF
  8
1
 10
-355.484797
 20
-223.269041
 30
0.0
 11
-315.507423
 21
-223.269041
 31
0.0
  0
LINE
  5
3B0
  8
1
 10
-354.485363
 20
1016.953604
 30
0.0
 11
-315.507423
 21
1016.953604
 31
0.0
  0
LINE
  5
3B1
  8
1
 10
-355.484797
 20
-1258.834466
 30
0.0
 11
-315.507423
 21
-1258.834466
 31
0.0
  0
LINE
  5
3B2
  8
1
 10
-327.500635
 20
205.488295
 30
0.0
 11
-315.507423
 21
205.488295
 31
0.0
  0
LINE
  5
3B3
  8
1
 10
-327.500635
 20
217.481507
 30
0.0
 11
-315.507423
 21
217.481507
 31
0.0
  0
LINE
  5
3B4
  8
1
 10
-355.484797
 20
271.450962
 30
0.0
 11
-315.507423
 21
271.450962
 31
0.0
  0
LINE
  5
3B5
  8
1
 10
-315.507423
 20
271.450962
 30
0.0
 11
-315.507423
 21
217.481507
 31
0.0
  0
LINE
  5
3B6
  8
1
 10
-330.498938
 20
225.476982
 30
0.0
 11
-330.498938
 21
220.47981
 31
0.0
  0
LINE
  5
3B7
  8
1
 10
-342.49215
 20
225.476982
 30
0.0
 11
-342.49215
 21
197.49282
 31
0.0
  0
ARC
  5
3B8
  8
1
 10
-336.495544
 20
197.49282
 30
0.0
 40
5.996606
 50
180.0
 51
0.0
  0
ARC
  5
3B9
  8
1
 10
-336.495544
 20
225.476982
 30
0.0
 40
5.996606
 50
0.0
 51
180.0
  0
LINE
  5
3BA
  8
1
 10
-330.498938
 20
202.489992
 30
0.0
 11
-330.498938
 21
197.49282
 31
0.0
  0
ARC
  5
3BB
  8
1
 10
-327.500635
 20
220.47981
 30
0.0
 40
2.998303
 50
180.0
 51
270.0
  0
ARC
  5
3BC
  8
1
 10
-327.500635
 20
202.489992
 30
0.0
 40
2.998303
 50
90.0
 51
180.0
  0
LINE
  5
3BD
  8
1
 10
-315.507423
 20
205.488295
 30
0.0
 11
-315.507423
 21
-132.320515
 31
0.0
  0
LINE
  5
3BE
  8
1
 10
-327.500635
 20
-144.313728
 30
0.0
 11
-315.507423
 21
-144.313728
 31
0.0
  0
LINE
  5
3BF
  8
1
 10
-327.500635
 20
-132.320515
 30
0.0
 11
-315.507423
 21
-132.320515
 31
0.0
  0
LINE
  5
3C0
  8
1
 10
-330.498938
 20
-124.325041
 30
0.0
 11
-330.498938
 21
-129.322212
 31
0.0
  0
LINE
  5
3C1
  8
1
 10
-342.49215
 20
-124.325041
 30
0.0
 11
-342.49215
 21
-152.309202
 31
0.0
  0
ARC
  5
3C2
  8
1
 10
-336.495544
 20
-152.309202
 30
0.0
 40
5.996606
 50
180.0
 51
0.0
  0
ARC
  5
3C3
  8
1
 10
-336.495544
 20
-124.325041
 30
0.0
 40
5.996606
 50
0.0
 51
180.0
  0
LINE
  5
3C4
  8
1
 10
-330.498938
 20
-147.312031
 30
0.0
 11
-330.498938
 21
-152.309202
 31
0.0
  0
ARC
  5
3C5
  8
1
 10
-327.500635
 20
-129.322212
 30
0.0
 40
2.998303
 50
180.0
 51
270.0
  0
ARC
  5
3C6
  8
1
 10
-327.500635
 20
-147.312031
 30
0.0
 40
2.998303
 50
90.0
 51
180.0
  0
LINE
  5
3C7
  8
1
 10
-315.507423
 20
1016.953604
 30
0.0
 11
-315.507423
 21
1032.944553
 31
0.0
  0
LINE
  5
3C8
  8
1
 10
-315.507423
 20
-1274.825416
 30
0.0
 11
-315.507423
 21
-1258.834466
 31
0.0
  0
LINE
  5
3C9
  8
1
 10
-484.911545
 20
138.305193
 30
0.0
 11
-484.911545
 21
87.629274
 31
0.0
  0
LINE
  5
3CA
  8
1
 10
-519.891747
 20
138.305193
 30
0.0
 11
-519.891747
 21
87.629274
 31
0.0
  0
LINE
  5
3CB
  8
1
 10
-551.873647
 20
179.377347
 30
0.0
 11
-551.873647
 21
87.629274
 31
0.0
  0
LINE
  5
3CC
  8
1
 10
-556.371101
 20
214.35755
 30
0.0
 11
-556.371101
 21
179.377347
 31
0.0
  0
LINE
  5
3CD
  8
1
 10
-582.356394
 20
214.35755
 30
0.0
 11
-582.356394
 21
179.377347
 31
0.0
  0
LINE
  5
3CE
  8
1
 10
-586.853849
 20
179.377347
 30
0.0
 11
-586.853849
 21
87.629274
 31
0.0
  0
LINE
  5
3CF
  8
1
 10
-484.911545
 20
138.305193
 30
0.0
 11
-519.891747
 21
138.305193
 31
0.0
  0
LINE
  5
3D0
  8
1
 10
-556.371101
 20
214.35755
 30
0.0
 11
-582.356394
 21
214.35755
 31
0.0
  0
LINE
  5
3D1
  8
1
 10
-551.873647
 20
179.377347
 30
0.0
 11
-586.853849
 21
179.377347
 31
0.0
  0
LINE
  5
3D2
  8
1
 10
-629.429852
 20
1146.880069
 30
0.0
 11
-660.312473
 21
1146.880069
 31
0.0
  0
LINE
  5
3D3
  8
1
 10
-629.429852
 20
1146.880069
 30
0.0
 11
-629.429852
 21
1148.479264
 31
0.0
  0
LINE
  5
3D4
  8
1
 10
-1463.85769
 20
-345.125799
 30
0.0
 11
-1463.85769
 21
367.470892
 31
0.0
  0
LINE
  5
3D5
  8
1
 10
-1458.860518
 20
367.470892
 30
0.0
 11
-1463.85769
 21
367.470892
 31
0.0
  0
LINE
  5
3D6
  8
1
 10
-604.34415
 20
87.629274
 30
0.0
 11
-604.34415
 21
367.470892
 31
0.0
  0
LINE
  5
3D7
  8
1
 10
-355.484797
 20
-345.125799
 30
0.0
 11
-355.484797
 21
87.629274
 31
0.0
  0
LINE
  5
3D8
  8
1
 10
-354.485363
 20
970.979624
 30
0.0
 11
-354.485363
 21
1184.858574
 31
0.0
  0
LINE
  5
3D9
  8
1
 10
-354.485363
 20
970.979624
 30
0.0
 11
-604.34415
 21
970.979624
 31
0.0
  0
LINE
  5
3DA
  8
1
 10
-382.156502
 20
1014.953604
 30
0.0
 11
-452.559056
 21
1014.953604
 31
0.0
  0
LINE
  5
3DB
  8
1
 10
-421.447464
 20
975.442566
 30
0.0
 11
-421.447464
 21
1038.138282
 31
0.0
  0
CIRCLE
  5
3DC
  8
1
 10
-421.447464
 20
1014.953604
 30
0.0
 40
16.490667
  0
LINE
  5
3DD
  8
1
 10
-502.401646
 20
1015.125406
 30
0.0
 11
-502.401646
 21
1064.925621
 31
0.0
  0
LINE
  5
3DE
  8
1
 10
-464.105221
 20
1044.936634
 30
0.0
 11
-538.697804
 21
1044.936634
 31
0.0
  0
LINE
  5
3DF
  8
1
 10
-604.34415
 20
970.979624
 30
0.0
 11
-604.34415
 21
1146.880069
 31
0.0
  0
CIRCLE
  5
3E0
  8
1
 10
-1432.875225
 20
1071.922493
 30
0.0
 40
19.988687
  0
LINE
  5
3E1
  8
1
 10
-1409.887935
 20
1071.922493
 30
0.0
 11
-1455.862215
 21
1071.922493
 31
0.0
  0
LINE
  5
3E2
  8
1
 10
-1432.875225
 20
1048.935503
 30
0.0
 11
-1432.875225
 21
1094.909783
 31
0.0
  0
LINE
  5
3E3
  8
1
 10
-609.341322
 20
970.979624
 30
0.0
 11
-1463.85769
 21
970.979624
 31
0.0
  0
LINE
  5
3E4
  8
1
 10
-354.485363
 20
1146.880069
 30
0.0
 11
-1463.85769
 21
1146.880069
 31
0.0
  0
LINE
  5
3E5
  8
1
 10
-609.341322
 20
970.979624
 30
0.0
 11
-604.34415
 21
970.979624
 31
0.0
  0
LINE
  5
3E6
  8
1
 10
-1463.85769
 20
970.979624
 30
0.0
 11
-1463.85769
 21
1184.858574
 31
0.0
  0
LINE
  5
3E7
  8
1
 10
-604.34415
 20
367.471092
 30
0.0
 11
-1458.860518
 21
367.470892
 31
0.0
  0
LINE
  5
3E8
  8
1
 10
-355.484797
 20
-345.125799
 30
0.0
 11
-1463.85779
 21
-345.125799
 31
0.0
  0
LINE
  5
3E9
  8
1
 10
-355.484797
 20
87.629274
 30
0.0
 11
-604.34415
 21
87.629274
 31
0.0
  0
LINE
  5
3EA
  8
1
 10
-1463.85769
 20
-1426.739437
 30
0.0
 11
-1463.85769
 21
-1212.860486
 31
0.0
  0
LINE
  5
3EB
  8
1
 10
-355.484797
 20
-1426.739437
 30
0.0
 11
-355.484797
 21
-1212.860486
 31
0.0
  0
LINE
  5
3EC
  8
1
 10
-355.484797
 20
-1388.760932
 30
0.0
 11
-1463.85769
 21
-1388.760932
 31
0.0
  0
LINE
  5
3ED
  8
1
 10
-355.484797
 20
-1212.860486
 30
0.0
 11
-1463.85769
 21
-1212.860486
 31
0.0
  0
LINE
  5
3EE
  8
1
 10
-599.346778
 20
131.604386
 30
0.0
 11
-599.346778
 21
213.558002
 31
0.0
  0
LINE
  5
3EF
  8
1
 10
-604.34415
 20
213.558002
 30
0.0
 11
-599.346778
 21
213.558002
 31
0.0
  0
LINE
  5
3F0
  8
1
 10
-604.34415
 20
131.604386
 30
0.0
 11
-599.346778
 21
131.604386
 31
0.0
  0
LINE
  5
3F1
  8
1
 10
-604.34415
 20
1115.897604
 30
0.0
 11
-599.346778
 21
1115.897604
 31
0.0
  0
LINE
  5
3F2
  8
1
 10
-604.34415
 20
1065.925887
 30
0.0
 11
-599.346778
 21
1065.925887
 31
0.0
  0
LINE
  5
3F3
  8
1
 10
-599.346778
 20
1065.925887
 30
0.0
 11
-599.346778
 21
1115.897604
 31
0.0
  0
LINE
  5
3F4
  8
1
 10
-1503.835064
 20
-144.313728
 30
0.0
 11
-1503.835064
 21
-223.269041
 31
0.0
  0
LINE
  5
3F5
  8
1
 10
-1472.352882
 20
1204.847261
 30
0.0
 11
-346.989605
 21
1204.847261
 31
0.0
  0
LINE
  5
3F6
  8
1
 10
-1472.352882
 20
1184.858574
 30
0.0
 11
-346.989605
 21
1184.858574
 31
0.0
  0
LINE
  5
3F7
  8
1
 10
-1463.85769
 20
1159.872716
 30
0.0
 11
-354.485363
 21
1159.872716
 31
0.0
  0
LINE
  5
3F8
  8
1
 10
-1472.352882
 20
1184.858574
 30
0.0
 11
-1472.352882
 21
1204.847261
 31
0.0
  0
LINE
  5
3F9
  8
1
 10
-1529.32064
 20
1184.858574
 30
0.0
 11
-1529.32064
 21
1190.823998
 31
0.0
  0
LINE
  5
3FA
  8
1
 10
-1504.334781
 20
1204.847261
 30
0.0
 11
-1472.352882
 21
1204.847261
 31
0.0
  0
ARC
  5
3FB
  8
1
 10
-1504.334781
 20
1174.864231
 30
0.0
 40
29.98303
 50
90.0
 51
145.2281
  0
ARC
  5
3FC
  8
1
 10
-1527.321771
 20
1190.823998
 30
0.0
 40
1.998869
 50
145.2281
 51
180.0
  0
LINE
  5
3FD
  8
1
 10
-1529.32064
 20
1184.858574
 30
0.0
 11
-1472.352882
 21
1184.858574
 31
0.0
  0
LINE
  5
3FE
  8
1
 10
-346.989605
 20
1184.858574
 30
0.0
 11
-346.989605
 21
1204.847261
 31
0.0
  0
LINE
  5
3FF
  8
1
 10
-290.021847
 20
1184.858574
 30
0.0
 11
-290.021847
 21
1190.823998
 31
0.0
  0
LINE
  5
400
  8
1
 10
-315.007706
 20
1204.847261
 30
0.0
 11
-346.989605
 21
1204.847261
 31
0.0
  0
ARC
  5
401
  8
1
 10
-315.007706
 20
1174.864231
 30
0.0
 40
29.98303
 50
34.7719
 51
90.0
  0
ARC
  5
402
  8
1
 10
-292.020716
 20
1190.823998
 30
0.0
 40
1.998869
 50
0.0
 51
34.7719
  0
LINE
  5
403
  8
1
 10
-290.021847
 20
1184.858574
 30
0.0
 11
-346.989605
 21
1184.858574
 31
0.0
  0
LINE
  5
404
  8
1
 10
-1472.352882
 20
-1446.728124
 30
0.0
 11
-346.989605
 21
-1446.728124
 31
0.0
  0
LINE
  5
405
  8
1
 10
-1472.352882
 20
-1426.739437
 30
0.0
 11
-290.021847
 21
-1426.739437
 31
0.0
  0
LINE
  5
406
  8
1
 10
-1463.85769
 20
-1401.753578
 30
0.0
 11
-355.484797
 21
-1401.753578
 31
0.0
  0
LINE
  5
407
  8
1
 10
-1472.352882
 20
-1426.739437
 30
0.0
 11
-1472.352882
 21
-1446.728124
 31
0.0
  0
LINE
  5
408
  8
1
 10
-1529.32064
 20
-1426.739437
 30
0.0
 11
-1529.32064
 21
-1432.704861
 31
0.0
  0
LINE
  5
409
  8
1
 10
-1504.334781
 20
-1446.728124
 30
0.0
 11
-1472.352882
 21
-1446.728124
 31
0.0
  0
ARC
  5
40A
  8
1
 10
-1504.334781
 20
-1416.745094
 30
0.0
 40
29.98303
 50
214.7719
 51
270.0
  0
ARC
  5
40B
  8
1
 10
-1527.321771
 20
-1432.704861
 30
0.0
 40
1.998869
 50
180.0
 51
214.7719
  0
LINE
  5
40C
  8
1
 10
-346.989605
 20
-1426.739437
 30
0.0
 11
-346.989605
 21
-1446.728124
 31
0.0
  0
LINE
  5
40D
  8
1
 10
-290.021847
 20
-1426.739437
 30
0.0
 11
-290.021847
 21
-1432.704861
 31
0.0
  0
LINE
  5
40E
  8
1
 10
-315.007706
 20
-1446.728124
 30
0.0
 11
-346.989605
 21
-1446.728124
 31
0.0
  0
ARC
  5
40F
  8
1
 10
-315.007706
 20
-1416.745094
 30
0.0
 40
29.98303
 50
270.0
 51
325.2281
  0
ARC
  5
410
  8
1
 10
-292.020716
 20
-1432.704861
 30
0.0
 40
1.998869
 50
325.2281
 51
0.0
  0
LINE
  5
411
  8
1
 10
-1472.352882
 20
-388.073892
 30
0.0
 11
-315.007506
 21
-388.073892
 31
0.0
  0
LINE
  5
412
  8
1
 10
-1472.352882
 20
411.473588
 30
0.0
 11
-346.989605
 21
411.473588
 31
0.0
  0
LINE
  5
413
  8
1
 10
-1529.32064
 20
386.487729
 30
0.0
 11
-1529.32064
 21
-363.088033
 31
0.0
  0
ARC
  5
414
  8
1
 10
-1504.334781
 20
-363.088033
 30
0.0
 40
24.985859
 50
180.0
 51
270.0
  0
LINE
  5
415
  8
1
 10
-1472.352882
 20
-388.073892
 30
0.0
 11
-1504.334781
 21
-388.073892
 31
0.0
  0
LINE
  5
416
  8
1
 10
-1472.352882
 20
-368.085205
 30
0.0
 11
-1474.851468
 21
-368.085205
 31
0.0
  0
ARC
  5
417
  8
1
 10
-1504.334781
 20
386.487729
 30
0.0
 40
24.985859
 50
90.0
 51
180.0
  0
LINE
  5
418
  8
1
 10
-1472.352882
 20
411.473588
 30
0.0
 11
-1504.334781
 21
411.473588
 31
0.0
  0
LINE
  5
419
  8
1
 10
-1472.352882
 20
391.484901
 30
0.0
 11
-1474.851468
 21
391.484901
 31
0.0
  0
LINE
  5
41A
  8
1
 10
-290.021847
 20
386.487729
 30
0.0
 11
-290.021847
 21
-363.088033
 31
0.0
  0
ARC
  5
41B
  8
1
 10
-315.007706
 20
-363.088033
 30
0.0
 40
24.985859
 50
270.0002
 51
0.0
  0
LINE
  5
41C
  8
1
 10
-346.989605
 20
-368.085205
 30
0.0
 11
-344.491019
 21
-368.085205
 31
0.0
  0
ARC
  5
41D
  8
1
 10
-315.007706
 20
386.487729
 30
0.0
 40
24.985859
 50
0.0
 51
90.0
  0
LINE
  5
41E
  8
1
 10
-346.989605
 20
411.473588
 30
0.0
 11
-315.007706
 21
411.473588
 31
0.0
  0
LINE
  5
41F
  8
1
 10
-346.989605
 20
391.484901
 30
0.0
 11
-344.491019
 21
391.484901
 31
0.0
  0
LINE
  5
420
  8
1
  6
DASHDOT
 10
-909.671343
 20
-438.045609
 30
0.0
 11
-909.671343
 21
461.445305
 31
0.0
  0
LINE
  5
421
  8
1
  6
DASHDOT
 10
-909.671343
 20
-1516.688528
 30
0.0
 11
-909.671343
 21
-1167.631684
 31
0.0
  0
LINE
  5
422
  8
1
  6
DASHDOT
 10
-909.671343
 20
901.019219
 30
0.0
 11
-909.671343
 21
1274.807666
 31
0.0
  0
LINE
  5
423
  8
1
  6
DIVIDE
 10
-310.010534
 20
391.484901
 30
0.0
 11
-1509.331953
 21
391.484901
 31
0.0
  0
LINE
  5
424
  8
1
  6
DIVIDE
 10
-310.010534
 20
-368.085205
 30
0.0
 11
-1509.331953
 21
-368.085205
 31
0.0
  0
LINE
  5
425
  8
1
  6
DIVIDE
 10
-310.010534
 20
-368.085205
 30
0.0
 11
-310.010534
 21
391.484901
 31
0.0
  0
LINE
  5
426
  8
1
  6
DIVIDE
 10
-1509.331953
 20
-368.085205
 30
0.0
 11
-1509.331953
 21
391.484901
 31
0.0
  0
LINE
  5
427
  8
1
 10
-1452.863912
 20
-138.317121
 30
0.0
 11
-1512.829973
 21
-138.317121
 31
0.0
  0
LINE
  5
428
  8
1
 10
-1482.846943
 20
-168.300152
 30
0.0
 11
-1482.846943
 21
-108.334091
 31
0.0
  0
LINE
  5
429
  8
1
 10
-1482.846943
 20
181.50187
 30
0.0
 11
-1482.846943
 21
241.467931
 31
0.0
  0
LINE
  5
42A
  8
1
 10
-1452.863912
 20
211.484901
 30
0.0
 11
-1512.829973
 21
211.484901
 31
0.0
  0
LINE
  5
42B
  8
1
 10
-336.495544
 20
181.50187
 30
0.0
 11
-336.495544
 21
241.467931
 31
0.0
  0
LINE
  5
42C
  8
1
 10
-366.478575
 20
211.484901
 30
0.0
 11
-295.959487
 21
211.484901
 31
0.0
  0
LINE
  5
42D
  8
1
 10
-336.495544
 20
-168.300152
 30
0.0
 11
-336.495544
 21
-108.334091
 31
0.0
  0
LINE
  5
42E
  8
1
 10
-366.478575
 20
-138.317121
 30
0.0
 11
-296.081418
 21
-138.317121
 31
0.0
  0
LINE
  5
42F
  8
1
 10
-576.859505
 20
241.342277
 30
0.0
 11
-582.058763
 21
235.845388
 31
0.0
  0
LINE
  5
430
  8
1
 10
-561.86799
 20
241.342277
 30
0.0
 11
-556.669033
 21
235.845388
 31
0.0
  0
LINE
  5
431
  8
1
 10
-514.394858
 20
177.283133
 30
0.0
 11
-517.892879
 21
171.286527
 31
0.0
  0
LINE
  5
432
  8
1
 10
-490.408434
 20
177.283133
 30
0.0
 11
-486.910414
 21
171.286527
 31
0.0
  0
LINE
  5
433
  8
1
 10
-1463.85769
 20
-1263.431864
 30
0.0
 11
-1499.237566
 21
-1263.431864
 31
0.0
  0
LINE
  5
434
  8
1
 10
-1499.237566
 20
-1274.825416
 30
0.0
 11
-1499.237566
 21
-1263.431864
 31
0.0
  0
LINE
  5
435
  8
1
 10
-1499.237566
 20
-1274.825416
 30
0.0
 11
-1503.835064
 21
-1274.825416
 31
0.0
  0
LINE
  5
436
  8
1
 10
-355.484797
 20
-1263.431864
 30
0.0
 11
-320.104921
 21
-1263.431864
 31
0.0
  0
LINE
  5
437
  8
1
 10
-320.104921
 20
-1274.825416
 30
0.0
 11
-320.104921
 21
-1263.431864
 31
0.0
  0
LINE
  5
438
  8
1
 10
-320.104921
 20
-1274.825416
 30
0.0
 11
-315.507423
 21
-1274.825416
 31
0.0
  0
LINE
  5
439
  8
1
 10
-1463.85769
 20
1021.551102
 30
0.0
 11
-1499.237566
 21
1021.551102
 31
0.0
  0
LINE
  5
43A
  8
1
 10
-1499.237566
 20
1021.551102
 30
0.0
 11
-1499.237566
 21
1032.944553
 31
0.0
  0
LINE
  5
43B
  8
1
 10
-1499.237566
 20
1032.944553
 30
0.0
 11
-1503.835064
 21
1032.944553
 31
0.0
  0
LINE
  5
43C
  8
1
 10
-354.485363
 20
1021.551102
 30
0.0
 11
-320.104921
 21
1021.551102
 31
0.0
  0
LINE
  5
43D
  8
1
 10
-320.104921
 20
1021.551102
 30
0.0
 11
-320.104921
 21
1032.944553
 31
0.0
  0
LINE
  5
43E
  8
1
 10
-320.104921
 20
1032.944553
 30
0.0
 11
-315.507423
 21
1032.944553
 31
0.0
  0
LINE
  5
43F
  8
1
  6
DASHDOT
 10
-649.818413
 20
-1236.846911
 30
0.0
 11
-1169.524274
 21
-1236.846911
 31
0.0
  0
LINE
  5
440
  8
1
  6
DASHDOT
 10
-649.818413
 20
-1336.790346
 30
0.0
 11
-1169.524274
 21
-1336.790346
 31
0.0
  0
LINE
  5
441
  8
1
  6
DASHDOT
 10
-1169.524274
 20
-1336.790346
 30
0.0
 11
-1169.524274
 21
-1236.846911
 31
0.0
  0
LINE
  5
442
  8
1
  6
DASHDOT
 10
-649.818413
 20
-1336.790346
 30
0.0
 11
-649.818413
 21
-1236.846911
 31
0.0
  0
LINE
  5
443
  8
1
  6
DASHDOT
 10
-596.449318
 20
-1286.818628
 30
0.0
 11
-1225.723967
 21
-1286.818628
 31
0.0
  0
LINE
  5
444
  8
1
 10
-1529.32064
 20
-1426.739437
 30
0.0
 11
-1472.352882
 21
-1426.739437
 31
0.0
  0
LINE
  5
445
  8
1
  6
DASHED
 10
-1482.846943
 20
-1292.881197
 30
0.0
 11
-1482.846943
 21
-1126.088097
 31
0.0
  0
LINE
  5
446
  8
1
 10
-1489.842983
 20
-1283.420551
 30
0.0
 11
-1489.842983
 21
-1263.431864
 31
0.0
  0
LINE
  5
447
  8
1
 10
-1475.850902
 20
-1283.420551
 30
0.0
 11
-1475.850902
 21
-1263.431864
 31
0.0
  0
LINE
  5
448
  8
1
 10
-1471.038526
 20
-1248.840123
 30
0.0
 11
-1494.65516
 21
-1248.840123
 31
0.0
  0
LINE
  5
449
  8
1
 10
-1471.038526
 20
-1273.426208
 30
0.0
 11
-1494.65516
 21
-1273.426208
 31
0.0
  0
LINE
  5
44A
  8
1
 10
-1475.850902
 20
-1283.420551
 30
0.0
 11
-1489.842983
 21
-1283.420551
 31
0.0
  0
LINE
  5
44B
  8
1
 10
-1494.65516
 20
-1273.426208
 30
0.0
 11
-1494.65516
 21
-1263.431864
 31
0.0
  0
LINE
  5
44C
  8
1
 10
-1471.038526
 20
-1273.426208
 30
0.0
 11
-1471.038526
 21
-1263.431864
 31
0.0
  0
LINE
  5
44D
  8
1
 10
-1494.65516
 20
-1258.834466
 30
0.0
 11
-1494.65516
 21
-1248.840123
 31
0.0
  0
LINE
  5
44E
  8
1
 10
-1489.842983
 20
-1258.834466
 30
0.0
 11
-1489.842983
 21
-1137.566301
 31
0.0
  0
LINE
  5
44F
  8
1
 10
-1471.038526
 20
-1258.834466
 30
0.0
 11
-1471.038526
 21
-1248.840123
 31
0.0
  0
LINE
  5
450
  8
1
 10
-1475.94325
 20
-1258.834466
 30
0.0
 11
-1475.94325
 21
-1137.566301
 31
0.0
  0
LINE
  5
451
  8
1
  6
DASHED
 10
-1482.846943
 20
-1292.881197
 30
0.0
 11
-1482.846943
 21
-1126.088097
 31
0.0
  0
LINE
  5
452
  8
1
 10
-1473.037395
 20
-1248.840123
 30
0.0
 11
-1492.656291
 21
-1248.840123
 31
0.0
  0
LINE
  5
453
  8
1
 10
-1477.849771
 20
-1283.420551
 30
0.0
 11
-1487.844114
 21
-1283.420551
 31
0.0
  0
LINE
  5
454
  8
1
 10
-1473.037395
 20
-1273.426208
 30
0.0
 11
-1492.656291
 21
-1273.426208
 31
0.0
  0
LINE
  5
455
  8
1
  6
DASHED
 10
-1482.846943
 20
-1292.881197
 30
0.0
 11
-1482.846943
 21
-1126.088097
 31
0.0
  0
LINE
  5
456
  8
1
 10
-1473.037395
 20
-1248.840123
 30
0.0
 11
-1492.656291
 21
-1248.840123
 31
0.0
  0
LINE
  5
457
  8
1
 10
-1477.849771
 20
-1283.420551
 30
0.0
 11
-1487.844114
 21
-1283.420551
 31
0.0
  0
LINE
  5
458
  8
1
 10
-1473.037395
 20
-1273.426208
 30
0.0
 11
-1492.656291
 21
-1273.426208
 31
0.0
  0
LINE
  5
459
  8
1
  6
DASHED
 10
-1482.846943
 20
-1292.881197
 30
0.0
 11
-1482.846943
 21
-1126.088097
 31
0.0
  0
LINE
  5
45A
  8
1
 10
-1473.037395
 20
-1248.840123
 30
0.0
 11
-1492.656291
 21
-1248.840123
 31
0.0
  0
LINE
  5
45B
  8
1
 10
-1477.849771
 20
-1283.420551
 30
0.0
 11
-1487.844114
 21
-1283.420551
 31
0.0
  0
LINE
  5
45C
  8
1
 10
-1473.037395
 20
-1273.426208
 30
0.0
 11
-1492.656291
 21
-1273.426208
 31
0.0
  0
LINE
  5
45D
  8
1
  6
DASHED
 10
-1482.846943
 20
-1292.881197
 30
0.0
 11
-1482.846943
 21
-1126.088097
 31
0.0
  0
LINE
  5
45E
  8
1
 10
-1473.037395
 20
-1248.840123
 30
0.0
 11
-1492.656291
 21
-1248.840123
 31
0.0
  0
LINE
  5
45F
  8
1
 10
-1477.849771
 20
-1283.420551
 30
0.0
 11
-1487.844114
 21
-1283.420551
 31
0.0
  0
LINE
  5
460
  8
1
 10
-1473.037395
 20
-1273.426208
 30
0.0
 11
-1492.656291
 21
-1273.426208
 31
0.0
  0
LINE
  5
461
  8
1
  6
DASHED
 10
-1482.846943
 20
-1292.881197
 30
0.0
 11
-1482.846943
 21
-1126.088097
 31
0.0
  0
LINE
  5
462
  8
1
 10
-1473.037395
 20
-1248.840123
 30
0.0
 11
-1492.656291
 21
-1248.840123
 31
0.0
  0
LINE
  5
463
  8
1
 10
-1477.849771
 20
-1283.420551
 30
0.0
 11
-1487.844114
 21
-1283.420551
 31
0.0
  0
LINE
  5
464
  8
1
 10
-1473.037395
 20
-1273.426208
 30
0.0
 11
-1492.656291
 21
-1273.426208
 31
0.0
  0
LINE
  5
465
  8
1
  6
DASHED
 10
-1482.846943
 20
-1292.881197
 30
0.0
 11
-1482.846943
 21
-1126.088097
 31
0.0
  0
LINE
  5
466
  8
1
 10
-1473.037395
 20
-1248.840123
 30
0.0
 11
-1492.656291
 21
-1248.840123
 31
0.0
  0
LINE
  5
467
  8
1
 10
-1477.849771
 20
-1283.420551
 30
0.0
 11
-1487.844114
 21
-1283.420551
 31
0.0
  0
LINE
  5
468
  8
1
 10
-1473.037395
 20
-1273.426208
 30
0.0
 11
-1492.656291
 21
-1273.426208
 31
0.0
  0
LINE
  5
469
  8
1
  6
DASHED
 10
-1482.846943
 20
-1292.881197
 30
0.0
 11
-1482.846943
 21
-1126.088097
 31
0.0
  0
LINE
  5
46A
  8
1
 10
-1473.037395
 20
-1248.840123
 30
0.0
 11
-1492.656291
 21
-1248.840123
 31
0.0
  0
LINE
  5
46B
  8
1
 10
-1477.849771
 20
-1283.420551
 30
0.0
 11
-1487.844114
 21
-1283.420551
 31
0.0
  0
LINE
  5
46C
  8
1
 10
-1473.037395
 20
-1273.426208
 30
0.0
 11
-1492.656291
 21
-1273.426208
 31
0.0
  0
LINE
  5
46D
  8
1
  6
DASHED
 10
-1482.846943
 20
-1292.881197
 30
0.0
 11
-1482.846943
 21
-1126.088097
 31
0.0
  0
LINE
  5
46E
  8
1
 10
-1473.037395
 20
-1248.840123
 30
0.0
 11
-1492.656291
 21
-1248.840123
 31
0.0
  0
LINE
  5
46F
  8
1
 10
-1477.849771
 20
-1283.420551
 30
0.0
 11
-1487.844114
 21
-1283.420551
 31
0.0
  0
LINE
  5
470
  8
1
 10
-1473.037395
 20
-1273.426208
 30
0.0
 11
-1492.656291
 21
-1273.426208
 31
0.0
  0
LINE
  5
471
  8
1
  6
DASHED
 10
-1482.846943
 20
-1292.881197
 30
0.0
 11
-1482.846943
 21
-1126.088097
 31
0.0
  0
LINE
  5
472
  8
1
 10
-1473.037395
 20
-1248.840123
 30
0.0
 11
-1492.656291
 21
-1248.840123
 31
0.0
  0
LINE
  5
473
  8
1
 10
-1477.849771
 20
-1283.420551
 30
0.0
 11
-1487.844114
 21
-1283.420551
 31
0.0
  0
LINE
  5
474
  8
1
 10
-1473.037395
 20
-1273.426208
 30
0.0
 11
-1492.656291
 21
-1273.426208
 31
0.0
  0
LINE
  5
475
  8
1
  6
DASHED
 10
-1482.846943
 20
-1292.881197
 30
0.0
 11
-1482.846943
 21
-1126.088097
 31
0.0
  0
LINE
  5
476
  8
1
 10
-1473.037395
 20
-1248.840123
 30
0.0
 11
-1492.656291
 21
-1248.840123
 31
0.0
  0
LINE
  5
477
  8
1
 10
-1477.849771
 20
-1283.420551
 30
0.0
 11
-1487.844114
 21
-1283.420551
 31
0.0
  0
LINE
  5
478
  8
1
 10
-1473.037395
 20
-1273.426208
 30
0.0
 11
-1492.656291
 21
-1273.426208
 31
0.0
  0
LINE
  5
479
  8
1
  6
DASHED
 10
-1482.846943
 20
-1292.881197
 30
0.0
 11
-1482.846943
 21
-1126.088097
 31
0.0
  0
LINE
  5
47A
  8
1
 10
-1473.037395
 20
-1248.840123
 30
0.0
 11
-1492.656291
 21
-1248.840123
 31
0.0
  0
LINE
  5
47B
  8
1
 10
-1477.849771
 20
-1283.420551
 30
0.0
 11
-1487.844114
 21
-1283.420551
 31
0.0
  0
LINE
  5
47C
  8
1
 10
-1473.037395
 20
-1273.426208
 30
0.0
 11
-1492.656291
 21
-1273.426208
 31
0.0
  0
LINE
  5
47D
  8
1
 10
-343.491585
 20
-1258.834466
 30
0.0
 11
-343.491585
 21
-1137.566301
 31
0.0
  0
LINE
  5
47E
  8
1
  6
DASHED
 10
-336.495544
 20
-1292.881197
 30
0.0
 11
-336.495544
 21
-1126.088097
 31
0.0
  0
LINE
  5
47F
  8
1
 10
-329.592052
 20
-1258.834466
 30
0.0
 11
-329.592052
 21
-1137.566301
 31
0.0
  0
LINE
  5
480
  8
1
 10
-348.303861
 20
-1258.834466
 30
0.0
 11
-348.303861
 21
-1248.840123
 31
0.0
  0
LINE
  5
481
  8
1
 10
-324.687327
 20
-1248.840123
 30
0.0
 11
-348.303861
 21
-1248.840123
 31
0.0
  0
LINE
  5
482
  8
1
 10
-324.687327
 20
-1258.834466
 30
0.0
 11
-324.687327
 21
-1248.840123
 31
0.0
  0
LINE
  5
483
  8
1
 10
-348.303861
 20
-1273.426208
 30
0.0
 11
-348.303861
 21
-1263.431864
 31
0.0
  0
LINE
  5
484
  8
1
 10
-343.491585
 20
-1283.420551
 30
0.0
 11
-343.491585
 21
-1263.431864
 31
0.0
  0
LINE
  5
485
  8
1
 10
-324.687327
 20
-1273.426208
 30
0.0
 11
-348.303861
 21
-1273.426208
 31
0.0
  0
LINE
  5
486
  8
1
 10
-329.499504
 20
-1283.420551
 30
0.0
 11
-329.499504
 21
-1263.431864
 31
0.0
  0
LINE
  5
487
  8
1
 10
-324.687327
 20
-1273.426208
 30
0.0
 11
-324.687327
 21
-1263.431864
 31
0.0
  0
LINE
  5
488
  8
1
 10
-329.499504
 20
-1283.420551
 30
0.0
 11
-343.491585
 21
-1283.420551
 31
0.0
  0
LINE
  5
489
  8
1
 10
-543.694975
 20
1044.936634
 30
0.0
 11
-601.998877
 21
1044.936634
 31
0.0
  0
LINE
  5
48A
  8
1
 10
-315.507423
 20
-144.313728
 30
0.0
 11
-315.507423
 21
-223.269041
 31
0.0
  0
LINE
  5
48B
  8
1
  6
DASHDOT
 10
-1529.32064
 20
11.699848
 30
0.0
 11
-270.939926
 21
11.699848
 31
0.0
  0
LINE
  5
48C
  8
1
  6
DASHDOT
 10
-1529.32064
 20
11.699848
 30
0.0
 11
-1550.849587
 21
11.699848
 31
0.0
  0
CIRCLE
  5
48D
  8
1
 10
509.826662
 20
169.379106
 30
0.0
 40
19.988687
  0
CIRCLE
  5
48E
  8
1
 10
509.826662
 20
169.379106
 30
0.0
 40
6.99604
  0
LINE
  5
48F
  8
1
 10
419.87757
 20
131.400601
 30
0.0
 11
435.86852
 21
131.400601
 31
0.0
  0
LINE
  5
490
  8
1
 10
419.87757
 20
131.400601
 30
0.0
 11
419.407836
 21
84.427187
 31
0.0
  0
LINE
  5
491
  8
1
  6
DASHDOT
 10
440.865692
 20
346.278986
 30
0.0
 11
440.865692
 21
300.305006
 31
0.0
  0
LINE
  5
492
  8
1
  6
DASHDOT
 10
480.843066
 20
346.278986
 30
0.0
 11
480.843066
 21
300.305006
 31
0.0
  0
LINE
  5
493
  8
1
  6
DASHDOT
 10
417.878702
 20
323.291996
 30
0.0
 11
503.830056
 21
323.291996
 31
0.0
  0
LINE
  5
494
  8
1
 10
465.85155
 20
-223.269041
 30
0.0
 11
435.86852
 21
-223.269041
 31
0.0
  0
LINE
  5
495
  8
1
 10
435.86852
 20
271.450962
 30
0.0
 11
435.86852
 21
-223.269041
 31
0.0
  0
CIRCLE
  5
496
  8
1
 10
460.854379
 20
-193.286011
 30
0.0
 40
4.997172
  0
LINE
  5
497
  8
1
 10
475.845894
 20
261.456618
 30
0.0
 11
475.845894
 21
67.708374
 31
0.0
  0
ARC
  5
498
  8
1
 10
465.85155
 20
-213.274698
 30
0.0
 40
9.994343
 50
270.0
 51
0.0
  0
LINE
  5
499
  8
1
 10
445.862864
 20
-144.313728
 30
0.0
 11
435.86852
 21
-144.313728
 31
0.0
  0
LINE
  5
49A
  8
1
 10
445.862864
 20
-132.320515
 30
0.0
 11
435.86852
 21
-132.320515
 31
0.0
  0
LINE
  5
49B
  8
1
 10
445.862864
 20
205.488295
 30
0.0
 11
435.86852
 21
205.488295
 31
0.0
  0
LINE
  5
49C
  8
1
 10
445.862864
 20
217.481507
 30
0.0
 11
435.86852
 21
217.481507
 31
0.0
  0
CIRCLE
  5
49D
  8
1
 10
460.854379
 20
78.560132
 30
0.0
 40
4.997172
  0
LINE
  5
49E
  8
1
 10
465.85155
 20
271.450962
 30
0.0
 11
435.86852
 21
271.450962
 31
0.0
  0
ARC
  5
49F
  8
1
 10
465.85155
 20
261.456618
 30
0.0
 40
9.994343
 50
0.0
 51
90.0
  0
LINE
  5
4A0
  8
1
 10
460.854379
 20
44.437145
 30
0.0
 11
460.854379
 21
12.739485
 31
0.0
  0
LINE
  5
4A1
  8
1
 10
472.918651
 20
-3.464444
 30
0.0
 11
463.781722
 21
5.672485
 31
0.0
  0
LINE
  5
4A2
  8
1
 10
463.781722
 20
51.504445
 30
0.0
 11
472.918651
 21
60.641374
 31
0.0
  0
LINE
  5
4A3
  8
1
 10
475.845894
 20
-10.531744
 30
0.0
 11
475.845894
 21
-213.274698
 31
0.0
  0
ARC
  5
4A4
  8
1
 10
465.85155
 20
-10.531744
 30
0.0
 40
9.994343
 50
0.0
 51
45.0
  0
ARC
  5
4A5
  8
1
 10
470.848722
 20
12.739485
 30
0.0
 40
9.994343
 50
180.0
 51
225.0
  0
ARC
  5
4A6
  8
1
 10
470.848722
 20
44.437145
 30
0.0
 40
9.994343
 50
135.0
 51
180.0
  0
ARC
  5
4A7
  8
1
 10
465.85155
 20
67.708374
 30
0.0
 40
9.994343
 50
315.0
 51
0.0
  0
LINE
  5
4A8
  8
1
 10
605.772359
 20
-348.327887
 30
0.0
 11
389.89454
 21
-348.327887
 31
0.0
  0
LINE
  5
4A9
  8
1
 10
389.89454
 20
-348.327887
 30
0.0
 11
389.89454
 21
364.268804
 31
0.0
  0
LINE
  5
4AA
  8
1
 10
565.794985
 20
-348.327887
 30
0.0
 11
565.794985
 21
364.268804
 31
0.0
  0
LINE
  5
4AB
  8
1
 10
535.811955
 20
84.427187
 30
0.0
 11
535.811955
 21
133.39947
 31
0.0
  0
CIRCLE
  5
4AC
  8
1
 10
440.865692
 20
323.291996
 30
0.0
 40
16.990384
  0
CIRCLE
  5
4AD
  8
1
 10
480.843066
 20
323.291996
 30
0.0
 40
16.990384
  0
LINE
  5
4AE
  8
1
 10
605.772359
 20
364.268804
 30
0.0
 11
389.89454
 21
364.268804
 31
0.0
  0
ARC
  5
4AF
  8
1
 10
509.826662
 20
169.379106
 30
0.0
 40
25.985293
 50
0.0
 51
22.6574
  0
ARC
  5
4B0
  8
1
 10
509.826662
 20
195.364399
 30
0.0
 40
15.99095
 50
22.5767
 51
157.4237
  0
ARC
  5
4B1
  8
1
 10
509.826662
 20
143.393613
 30
0.0
 40
15.99095
 50
202.5764
 51
337.4234
  0
LINE
  5
4B2
  8
1
 10
485.840737
 20
159.383563
 30
0.0
 11
495.066016
 21
137.243294
 31
0.0
  0
LINE
  5
4B3
  8
1
 10
533.813086
 20
159.384763
 30
0.0
 11
524.587408
 21
137.242794
 31
0.0
  0
LINE
  5
4B4
  8
1
 10
524.587608
 20
201.514718
 30
0.0
 11
533.812587
 21
179.374749
 31
0.0
  0
LINE
  5
4B5
  8
1
 10
495.066216
 20
201.515518
 30
0.0
 11
485.840237
 21
179.37325
 31
0.0
  0
ARC
  5
4B6
  8
1
 10
509.826662
 20
169.379106
 30
0.0
 40
25.985293
 50
157.3313
 51
180.0
  0
ARC
  5
4B7
  8
1
 10
509.826662
 20
169.379106
 30
0.0
 40
25.985293
 50
337.3397
 51
0.0
  0
ARC
  5
4B8
  8
1
 10
509.826662
 20
169.379106
 30
0.0
 40
25.985293
 50
180.0
 51
202.6592
  0
LINE
  5
4B9
  8
1
 10
535.811955
 20
84.427187
 30
0.0
 11
475.845894
 21
84.427187
 31
0.0
  0
LINE
  5
4BA
  8
1
 10
535.811955
 20
133.39947
 30
0.0
 11
565.794985
 21
133.39947
 31
0.0
  0
LINE
  5
4BB
  8
1
 10
435.86852
 20
84.427187
 30
0.0
 11
389.89454
 21
84.427187
 31
0.0
  0
LINE
  5
4BC
  8
1
 10
579.587279
 20
364.268804
 30
0.0
 11
579.587279
 21
-348.327887
 31
0.0
  0
LINE
  5
4BD
  8
1
 10
605.772359
 20
360.970671
 30
0.0
 11
605.772359
 21
359.77135
 31
0.0
  0
LINE
  5
4BE
  8
1
 10
605.772359
 20
-342.830998
 30
0.0
 11
605.772359
 21
-344.030519
 31
0.0
  0
LINE
  5
4BF
  8
1
 10
611.737783
 20
-391.303564
 30
0.0
 11
605.772359
 21
-391.303564
 31
0.0
  0
LINE
  5
4C0
  8
1
 10
625.761046
 20
-366.317705
 30
0.0
 11
625.761046
 21
383.313026
 31
0.0
  0
ARC
  5
4C1
  8
1
 10
595.778016
 20
-366.317705
 30
0.0
 40
29.98303
 50
304.7719
 51
0.0
  0
ARC
  5
4C2
  8
1
 10
611.737783
 20
-389.304695
 30
0.0
 40
1.998869
 50
270.0
 51
304.7719
  0
LINE
  5
4C3
  8
1
 10
611.737783
 20
408.243916
 30
0.0
 11
605.772359
 21
408.243916
 31
0.0
  0
ARC
  5
4C4
  8
1
 10
595.778016
 20
383.258057
 30
0.0
 40
29.98303
 50
0.0
 51
55.2281
  0
ARC
  5
4C5
  8
1
 10
611.737783
 20
406.245047
 30
0.0
 40
1.998869
 50
55.2281
 51
90.0
  0
LINE
  5
4C6
  8
1
 10
605.772359
 20
408.243916
 30
0.0
 11
605.772359
 21
-391.303564
 31
0.0
  0
LINE
  5
4C7
  8
1
 10
451.85947
 20
-150.310334
 30
0.0
 11
451.85947
 21
-217.277032
 31
0.0
  0
LINE
  5
4C8
  8
1
 10
451.85947
 20
199.491689
 30
0.0
 11
451.85947
 21
-126.323909
 31
0.0
  0
LINE
  5
4C9
  8
1
 10
451.85947
 20
265.458753
 30
0.0
 11
451.85947
 21
223.478113
 31
0.0
  0
LINE
  5
4CA
  8
1
 10
440.466018
 20
-144.313728
 30
0.0
 11
440.466018
 21
-132.320515
 31
0.0
  0
ARC
  5
4CB
  8
1
 10
445.862864
 20
-217.272435
 30
0.0
 40
5.996606
 50
270.0
 51
0.0
  0
ARC
  5
4CC
  8
1
 10
445.862864
 20
-150.310334
 30
0.0
 40
5.996606
 50
0.0
 51
90.0003
  0
ARC
  5
4CD
  8
1
 10
445.862864
 20
-126.323909
 30
0.0
 40
5.996606
 50
270.0
 51
0.0
  0
LINE
  5
4CE
  8
1
 10
440.466018
 20
205.488295
 30
0.0
 11
440.466018
 21
217.481507
 31
0.0
  0
ARC
  5
4CF
  8
1
 10
445.862864
 20
199.491689
 30
0.0
 40
5.996606
 50
0.0
 51
90.0003
  0
ARC
  5
4D0
  8
1
 10
445.862864
 20
223.478113
 30
0.0
 40
5.996606
 50
270.0
 51
0.0
  0
ARC
  5
4D1
  8
1
 10
445.862864
 20
265.454356
 30
0.0
 40
5.996606
 50
0.0
 51
90.0003
  0
LINE
  5
4D2
  8
2
 10
-549.01799
 20
241.342277
 30
0.0
 11
-505.850544
 21
241.342277
 31
0.0
  0
LINE
  5
4D3
  8
2
 10
-591.49415
 20
367.471092
 30
0.0
 11
-505.850544
 21
367.471092
 31
0.0
  0
LINE
  5
4D4
  8
2
 10
-518.700544
 20
241.342277
 30
0.0
 11
-518.700544
 21
367.471092
 31
0.0
  0
LINE
  5
4D5
  8
2
 10
-526.287235
 20
284.368529
 30
0.0
 11
-518.700544
 21
241.342277
 31
0.0
  0
LINE
  5
4D6
  8
2
 10
-511.113857
 20
284.368529
 30
0.0
 11
-518.700544
 21
241.342277
 31
0.0
  0
LINE
  5
4D7
  8
2
 10
-511.113853
 20
324.44484
 30
0.0
 11
-518.700544
 21
367.471092
 31
0.0
  0
LINE
  5
4D8
  8
2
 10
-526.287231
 20
324.44484
 30
0.0
 11
-518.700544
 21
367.471092
 31
0.0
  0
TEXT
  5
4D9
  8
2
 10
-523.842407
 20
239.643204
 30
0.0
 40
71.959999
  1
１２５
 50
90.000003
 41
0.45
  7
MONOTXT
  0
TEXT
  5
4DA
  8
2
 10
-1577.325928
 20
-138.451035
 30
0.0
 40
71.959999
  1
（吊り位置）
 50
90.000003
 41
0.6
  7
MONOTXT
  0
ARC
  5
4DB
  8
1
 10
2342.774866
 20
-363.115617
 30
0.0
 40
24.985859
 50
270.0002
 51
0.0
  0
LINE
  5
4DC
  8
1
 10
2310.792967
 20
-223.194808
 30
0.0
 11
2310.792967
 21
-325.536786
 31
0.0
  0
LINE
  5
4DD
  8
1
 10
2310.792967
 20
81.033107
 30
0.0
 11
2310.792967
 21
-215.280388
 31
0.0
  0
LINE
  5
4DE
  8
1
 10
1185.42989
 20
81.033107
 30
0.0
 11
1185.42989
 21
-215.280388
 31
0.0
  0
LINE
  5
4DF
  8
1
 10
2310.792967
 20
-338.129759
 30
0.0
 11
2310.792967
 21
-388.101476
 31
0.0
  0
LINE
  5
4E0
  8
1
 10
1185.42989
 20
-338.129759
 30
0.0
 11
1185.42989
 21
-388.101476
 31
0.0
  0
LINE
  5
4E1
  8
1
 10
2310.792967
 20
-388.101476
 30
0.0
 11
1185.42989
 21
-388.101476
 31
0.0
  0
LINE
  5
4E2
  8
1
 10
2310.792967
 20
411.446003
 30
0.0
 11
1185.42989
 21
411.446003
 31
0.0
  0
LINE
  5
4E3
  8
1
 10
2310.792967
 20
411.446003
 30
0.0
 11
2310.792967
 21
352.87925
 31
0.0
  0
LINE
  5
4E4
  8
1
 10
1185.42989
 20
411.446003
 30
0.0
 11
1185.42989
 21
352.87925
 31
0.0
  0
LINE
  5
4E5
  8
1
 10
2367.760725
 20
386.460145
 30
0.0
 11
2367.760725
 21
-363.115617
 31
0.0
  0
LINE
  5
4E6
  8
1
 10
2310.792967
 20
411.446003
 30
0.0
 11
2310.792967
 21
-388.101476
 31
0.0
  0
ARC
  5
4E7
  8
1
 10
2342.774866
 20
-363.115617
 30
0.0
 40
24.985859
 50
270.0
 51
0.0
  0
LINE
  5
4E8
  8
1
 10
2310.792967
 20
-388.101476
 30
0.0
 11
2342.774866
 21
-388.101476
 31
0.0
  0
ARC
  5
4E9
  8
1
 10
2342.774866
 20
386.460145
 30
0.0
 40
24.985859
 50
0.0
 51
90.0
  0
LINE
  5
4EA
  8
1
 10
2310.792967
 20
411.446003
 30
0.0
 11
2342.774866
 21
411.446003
 31
0.0
  0
LINE
  5
4EB
  8
1
 10
1128.462132
 20
386.460145
 30
0.0
 11
1128.462132
 21
-363.115617
 31
0.0
  0
LINE
  5
4EC
  8
1
 10
1185.42989
 20
411.446003
 30
0.0
 11
1185.42989
 21
-388.101476
 31
0.0
  0
ARC
  5
4ED
  8
1
 10
1153.447991
 20
-363.115617
 30
0.0
 40
24.985859
 50
180.0
 51
270.0
  0
LINE
  5
4EE
  8
1
 10
1185.42989
 20
-388.101476
 30
0.0
 11
1153.447991
 21
-388.101476
 31
0.0
  0
ARC
  5
4EF
  8
1
 10
1153.447991
 20
386.460145
 30
0.0
 40
24.985859
 50
90.0
 51
180.0
  0
LINE
  5
4F0
  8
1
 10
1185.42989
 20
411.446003
 30
0.0
 11
1153.447991
 21
411.446003
 31
0.0
  0
LINE
  5
4F1
  8
1
 10
1185.42989
 20
-223.194808
 30
0.0
 11
1185.42989
 21
-325.536786
 31
0.0
  0
LINE
  5
4F2
  8
1
  6
DASHDOT
 10
1748.111429
 20
-438.073193
 30
0.0
 11
1748.111429
 21
78.328138
 31
0.0
  0
LINE
  5
4F3
  8
1
 10
1748.111429
 20
352.87925
 30
0.0
 11
1748.111429
 21
83.13182
 31
0.0
  0
LINE
  5
4F4
  8
1
  6
DASHDOT
 10
1748.111429
 20
357.043394
 30
0.0
 11
1748.111429
 21
461.417721
 31
0.0
  0
LINE
  5
4F5
  8
1
  6
DASHDOT
 10
686.956646
 20
7.970459
 30
0.0
 11
343.253711
 21
7.970459
 31
0.0
  0
TEXT
  8
3
  40
100
  5
54E
  72
0
  71
0
 10
1354.20
 20
-916.428
 30
0.000000
  1

  0
TEXT
  8
3
  40
100
  5
54F
  72
0
  71
0
 10
1354.20
 20
-1046.43
 30
0.000000
  1

  0
TEXT
  8
3
  40
100
  5
550
  72
0
  71
0
 10
1354.20
 20
-1176.43
 30
0.000000
  1
GBK6_1
  0
TEXT
  8
3
  40
100
  5
551
  72
0
  71
0
 10
1354.20
 20
-1306.43
 30
0.000000
  1
FXYK25KV1
  0
TEXT
  8
3
  40
100
  5
552
  72
0
  71
0
 10
1354.20
 20
-1436.43
 30
0.000000
  1
FXYK32KV1
  0
TEXT
  8
3
  40
100
  5
553
  72
0
  71
0
 10
1354.20
 20
-1566.43
 30
0.000000
  1
FXYK40KV1
  0
TEXT
  8
3
  40
100
  5
554
  72
0
  71
0
 10
1354.20
 20
-1696.43
 30
0.000000
  1
FXYK25KVAL
  0
TEXT
  8
3
  40
100
  5
555
  72
0
  71
0
 10
1354.20
 20
-1826.43
 30
0.000000
  1
FXYK32KVAL
  0
TEXT
  8
3
  40
100
  5
556
  72
0
  71
0
 10
1354.20
 20
-1956.43
 30
0.000000
  1
FXYK40KVAL
  0
ENDSEC
  0
EOF
