  0
SECTION
  2
HEADER
  9
$ACADVER
  1
AC1009
  9
$DWGCODEPAGE
  3
dos932
  9
$INSBASE
 10
0.0
 20
0.0
 30
0.0
  9
$EXTMIN
 10
-6106.701567
 20
-2410.480993
 30
0.0
  9
$EXTMAX
 10
2167.145689
 20
3935.60371
 30
0.0
  9
$LIMMIN
 10
0.0
 20
0.0
  9
$LIMMAX
 10
420.0
 20
296.987823
  9
$ORTHOMODE
 70
     0
  9
$REGENMODE
 70
     1
  9
$FILLMODE
 70
     1
  9
$QTEXTMODE
 70
     0
  9
$MIRRTEXT
 70
     0
  9
$DRAGMODE
 70
     2
  9
$LTSCALE
 40
1.0
  9
$OSMODE
 70
     0
  9
$ATTMODE
 70
     1
  9
$TEXTSIZE
 40
0.2
  9
$TRACEWID
 40
0.05
  9
$TEXTSTYLE
  7
STANDARD
  9
$CLAYER
  8
0
  9
$CELTYPE
  6
BYLAYER
  9
$CECOLOR
 62
   256
  9
$DIMSCALE
 40
1.0
  9
$DIMASZ
 40
0.18
  9
$DIMEXO
 40
3.0
  9
$DIMDLI
 40
0.38
  9
$DIMRND
 40
0.0
  9
$DIMDLE
 40
0.0
  9
$DIMEXE
 40
5.0
  9
$DIMTP
 40
0.0
  9
$DIMTM
 40
0.0
  9
$DIMTXT
 40
0.18
  9
$DIMCEN
 40
0.09
  9
$DIMTSZ
 40
0.0
  9
$DIMTOL
 70
     0
  9
$DIMLIM
 70
     0
  9
$DIMTIH
 70
     1
  9
$DIMTOH
 70
     1
  9
$DIMSE1
 70
     0
  9
$DIMSE2
 70
     0
  9
$DIMTAD
 70
     1
  9
$DIMZIN
 70
     0
  9
$DIMBLK
  1

  9
$DIMASO
 70
     1
  9
$DIMSHO
 70
     0
  9
$DIMPOST
  1

  9
$DIMAPOST
  1

  9
$DIMALT
 70
     0
  9
$DIMALTD
 70
     2
  9
$DIMALTF
 40
25.4
  9
$DIMLFAC
 40
1.0
  9
$DIMTOFL
 70
     0
  9
$DIMTVP
 40
1.0
  9
$DIMTIX
 70
     0
  9
$DIMSOXD
 70
     0
  9
$DIMSAH
 70
     0
  9
$DIMBLK1
  1

  9
$DIMBLK2
  1

  9
$DIMSTYLE
  2
STANDARD
  9
$DIMCLRD
 70
     0
  9
$DIMCLRE
 70
     0
  9
$DIMCLRT
 70
     0
  9
$DIMTFAC
 40
1.0
  9
$DIMGAP
 40
0.09
  9
$LUNITS
 70
     2
  9
$LUPREC
 70
     4
  9
$SKETCHINC
 40
0.1
  9
$FILLETRAD
 40
0.05
  9
$AUNITS
 70
     0
  9
$AUPREC
 70
     0
  9
$MENU
  1
acad
  9
$ELEVATION
 40
0.0
  9
$PELEVATION
 40
0.0
  9
$THICKNESS
 40
0.0
  9
$LIMCHECK
 70
     0
  9
$BLIPMODE
 70
     1
  9
$CHAMFERA
 40
0.0
  9
$CHAMFERB
 40
0.0
  9
$SKPOLY
 70
     0
  9
$TDCREATE
 40
0.0
  9
$TDUPDATE
 40
0.0
  9
$TDINDWG
 40
0.0
  9
$TDUSRTIMER
 40
0.0
  9
$USRTIMER
 70
     1
  9
$ANGBASE
 50
0.0
  9
$ANGDIR
 70
     0
  9
$PDMODE
 70
     0
  9
$PDSIZE
 40
0.0
  9
$PLINEWID
 40
0.0
  9
$COORDS
 70
     0
  9
$SPLFRAME
 70
     0
  9
$SPLINETYPE
 70
     6
  9
$SPLINESEGS
 70
     8
  9
$ATTDIA
 70
     1
  9
$ATTREQ
 70
     1
  9
$HANDLING
 70
     1
  9
$HANDSEED
  5
4D0
  9
$SURFTAB1
 70
     6
  9
$SURFTAB2
 70
     6
  9
$SURFTYPE
 70
     6
  9
$SURFU
 70
     6
  9
$SURFV
 70
     6
  9
$UCSNAME
  2

  9
$UCSORG
 10
0.0
 20
0.0
 30
0.0
  9
$UCSXDIR
 10
1.0
 20
0.0
 30
0.0
  9
$UCSYDIR
 10
0.0
 20
1.0
 30
0.0
  9
$PUCSNAME
  2

  9
$PUCSORG
 10
0.0
 20
0.0
 30
0.0
  9
$PUCSXDIR
 10
1.0
 20
0.0
 30
0.0
  9
$PUCSYDIR
 10
0.0
 20
1.0
 30
0.0
  9
$USERI1
 70
     0
  9
$USERI2
 70
     0
  9
$USERI3
 70
     0
  9
$USERI4
 70
     0
  9
$USERI5
 70
     0
  9
$USERR1
 40
0.0
  9
$USERR2
 40
0.0
  9
$USERR3
 40
0.0
  9
$USERR4
 40
0.0
  9
$USERR5
 40
0.0
  9
$WORLDVIEW
 70
     1
  9
$SHADEDGE
 70
     3
  9
$SHADEDIF
 70
    70
  9
$TILEMODE
 70
     1
  9
$MAXACTVP
 70
    16
  9
$PINSBASE
 10
0.0
 20
0.0
 30
0.0
  9
$PLIMCHECK
 70
     0
  9
$PEXTMIN
 10
1.000000E+020
 20
1.000000E+020
 30
1.000000E+020
  9
$PEXTMAX
 10
-1.000000E+020
 20
-1.000000E+020
 30
-1.000000E+020
  9
$PLIMMIN
 10
0.0
 20
0.0
  9
$PLIMMAX
 10
12.0
 20
9.0
  9
$UNITMODE
 70
     0
  9
$VISRETAIN
 70
     0
  9
$PLINEGEN
 70
     0
  9
$PSLTSCALE
 70
     1
  9
$TREEDEPTH
 70
  3020
  0
ENDSEC
  0
SECTION
  2
TABLES
  0
TABLE
  2
VPORT
 70
     2
  0
VPORT
  2
*ACTIVE
 70
     0
 10
0.0
 20
0.0
 11
1.0
 21
1.0
 12
2104.670609
 22
104.57988
 13
0.0
 23
0.0
 14
1.0
 24
1.0
 15
0.0
 25
0.0
 16
0.0
 26
0.0
 36
1.0
 17
0.0
 27
0.0
 37
0.0
 40
8583.026185
 41
1.938119
 42
50.0
 43
0.0
 44
0.0
 50
0.0
 51
0.0
 71
     0
 72
   100
 73
     1
 74
     1
 75
     0
 76
     0
 77
     0
 78
     0
  0
ENDTAB
  0
TABLE
  2
LTYPE
 70
     4
  0
LTYPE
  2
CONTINUOUS
 70
    64
  3
Solid line
 72
    65
 73
     0
 40
0.0
  0
LTYPE
  2
DASHED
 70
    64
  3
__ __ __ __ __ __ __ __ __ __ __ __ __ __ __
 72
    65
 73
     2
 40
0.75
 49
0.5
 49
-0.25
  0
LTYPE
  2
DASHDOT
 70
    64
  3
__ . __ . __ . __ . __ . __ . __ . __ . __ . __
 72
    65
 73
     4
 40
1.0
 49
0.5
 49
-0.25
 49
0.0
 49
-0.25
  0
LTYPE
  2
DOT
 70
    64
  3
...............................................
 72
    65
 73
     2
 40
0.25
 49
0.0
 49
-0.25
  0
ENDTAB
  0
TABLE
  2
LAYER
 70
     5
  0
LAYER
  2
0
 70
     0
 62
     7
  6
CONTINUOUS
  0
LAYER
  2
DEFPOINTS
 70
     0
 62
    -7
  6
CONTINUOUS
  0
LAYER
  2
1
 70
     0
 62
     7
  6
CONTINUOUS
  0
LAYER
  2
2
 70
     0
 62
     7
  6
DOT
  0
LAYER
  2
3
 70
     0
 62
     7
  6
CONTINUOUS
  0
ENDTAB
  0
TABLE
  2
STYLE
 70
     3
  0
STYLE
  2
STANDARD
 70
    64
 40
100.0
 41
0.8
 50
0.0
 71
     0
 42
0.2
  3
txt
  4

  0
STYLE
  2
MONOTXT
 70
    64
 40
0.0
 41
0.5
 50
0.0
 71
     0
 42
4.191412
  3
monotxt
  4
BIGFONT
  0
STYLE
  2
VERTICAL
 70
    68
 40
0.0
 41
0.5
 50
0.0
 71
     0
 42
4.191412
  3
monotxt
  4
BIGFONT
  0
ENDTAB
  0
TABLE
  2
VIEW
 70
     0
  0
ENDTAB
  0
TABLE
  2
UCS
 70
     0
  0
ENDTAB
  0
TABLE
  2
APPID
 70
     1
  0
APPID
  2
ACAD
 70
     0
  0
ENDTAB
  0
TABLE
  2
DIMSTYLE
 70
     1
  0
DIMSTYLE
  2
STANDARD
 70
     0
  3

  4

  5

  6

  7

 40
1.0
 41
0.18
 42
0.0625
 43
0.38
 44
0.18
 45
0.0
 46
0.0
 47
0.0
 48
0.0
140
0.18
141
0.09
142
0.0
143
25.4
144
1.0
145
0.0
146
1.0
147
0.09
 71
     0
 72
     0
 73
     1
 74
     1
 75
     0
 76
     0
 77
     0
 78
     0
170
     0
171
     2
172
     0
173
     0
174
     0
175
     0
176
     0
177
     0
178
     0
  0
ENDTAB
  0
ENDSEC
  0
SECTION
  2
BLOCKS
  0
BLOCK
  5
490
  8
0
  2
$MODEL_SPACE
 70
     0
 10
0.0
 20
0.0
 30
0.0
  3
$MODEL_SPACE
  1

  0
ENDBLK
  5
491
  8
0
  0
BLOCK
  5
48D
 67
     1
  8
0
  2
$PAPER_SPACE
 70
     0
 10
0.0
 20
0.0
 30
0.0
  3
$PAPER_SPACE
  1

  0
ENDBLK
  5
48E
 67
     1
  8
0
  0
BLOCK
  5
2A
  8
2
  2
*D2
 70
    65
 10
0.0
 20
0.0
 30
0.0
  3
*D2
  1

  0
POINT
  5
2B
  8
DEFPOINTS
 10
354.699102
 20
-1038.07582
 30
0.0
  0
POINT
  5
2C
  8
DEFPOINTS
 10
684.698602
 20
-1120.37592
 30
0.0
  0
POINT
  5
2D
  8
DEFPOINTS
 10
354.943704
 20
-1528.375896
 30
0.0
  0
LINE
  5
2E
  8
2
  6
CONTINUOUS
 10
354.699102
 20
-1053.07582
 30
0.0
 11
354.699102
 21
-1543.375896
 31
0.0
  0
LINE
  5
2F
  8
2
  6
CONTINUOUS
 10
684.698602
 20
-1135.37592
 30
0.0
 11
684.698602
 21
-1543.375896
 31
0.0
  0
LINE
  5
30
  8
2
  6
CONTINUOUS
 10
354.699102
 20
-1528.375896
 30
0.0
 11
684.698602
 21
-1528.375896
 31
0.0
  0
LINE
  5
31
  8
2
  6
CONTINUOUS
 10
384.243334
 20
-1523.166451
 30
0.0
 11
354.699102
 21
-1528.375896
 31
0.0
  0
LINE
  5
32
  8
2
  6
CONTINUOUS
 10
384.243334
 20
-1533.585342
 30
0.0
 11
354.699102
 21
-1528.375896
 31
0.0
  0
LINE
  5
33
  8
2
  6
CONTINUOUS
 10
655.154369
 20
-1533.585342
 30
0.0
 11
684.698602
 21
-1528.375896
 31
0.0
  0
LINE
  5
34
  8
2
  6
CONTINUOUS
 10
655.154369
 20
-1523.166451
 30
0.0
 11
684.698602
 21
-1528.375896
 31
0.0
  0
TEXT
  5
35
  8
2
  6
CONTINUOUS
 10
454.698853
 20
-1526.375854
 30
0.0
 40
50.0
  1
330
 41
0.9
  7
MONOTXT
  0
ENDBLK
  5
36
  8
0
  0
BLOCK
  5
38
  8
2
  2
*D3
 70
    65
 10
0.0
 20
0.0
 30
0.0
  3
*D3
  1

  0
POINT
  5
39
  8
DEFPOINTS
 10
2064.698902
 20
-1120.37582
 30
0.0
  0
POINT
  5
3A
  8
DEFPOINTS
 10
2064.698902
 20
-1043.37592
 30
0.0
  0
POINT
  5
3B
  8
DEFPOINTS
 10
2161.068002
 20
-1198.278905
 30
0.0
  0
LINE
  5
3C
  8
2
  6
CONTINUOUS
 10
2067.698902
 20
-1120.37582
 30
0.0
 11
2166.068002
 21
-1120.37582
 31
0.0
  0
LINE
  5
3D
  8
2
  6
CONTINUOUS
 10
2067.698902
 20
-1043.37592
 30
0.0
 11
2166.068002
 21
-1043.37592
 31
0.0
  0
LINE
  5
3E
  8
2
  6
CONTINUOUS
 10
2161.068002
 20
-1299.415829
 30
0.0
 11
2161.068002
 21
-991.673512
 31
0.0
  0
LINE
  5
3F
  8
2
  6
CONTINUOUS
 10
2167.145689
 20
-1154.844091
 30
0.0
 11
2161.068002
 21
-1120.37582
 31
0.0
  0
LINE
  5
40
  8
2
  6
CONTINUOUS
 10
2154.990317
 20
-1154.844092
 30
0.0
 11
2161.068002
 21
-1120.37582
 31
0.0
  0
LINE
  5
41
  8
2
  6
CONTINUOUS
 10
2154.990314
 20
-1008.907649
 30
0.0
 11
2161.068002
 21
-1043.37592
 31
0.0
  0
LINE
  5
42
  8
2
  6
CONTINUOUS
 10
2167.145686
 20
-1008.907649
 30
0.0
 11
2161.068002
 21
-1043.37592
 31
0.0
  0
TEXT
  5
43
  8
2
  6
CONTINUOUS
 10
2159.068115
 20
-1255.73584
 30
0.0
 40
48.0
  1
77
 50
90.000003
 41
0.9
  7
MONOTXT
  0
ENDBLK
  5
44
  8
0
  0
BLOCK
  5
46
  8
2
  2
*D4
 70
    65
 10
0.0
 20
0.0
 30
0.0
  3
*D4
  1

  0
POINT
  5
47
  8
DEFPOINTS
 10
2064.698902
 20
-1043.37592
 30
0.0
  0
POINT
  5
48
  8
DEFPOINTS
 10
2064.698902
 20
-697.37592
 30
0.0
  0
POINT
  5
49
  8
DEFPOINTS
 10
2161.068002
 20
-881.138764
 30
0.0
  0
LINE
  5
4A
  8
2
  6
CONTINUOUS
 10
2067.698902
 20
-1043.37592
 30
0.0
 11
2166.068002
 21
-1043.37592
 31
0.0
  0
LINE
  5
4B
  8
2
  6
CONTINUOUS
 10
2067.698902
 20
-697.37592
 30
0.0
 11
2166.068002
 21
-697.37592
 31
0.0
  0
LINE
  5
4C
  8
2
  6
CONTINUOUS
 10
2161.068002
 20
-1043.37592
 30
0.0
 11
2161.068002
 21
-697.37592
 31
0.0
  0
LINE
  5
4D
  8
2
  6
CONTINUOUS
 10
2154.990314
 20
-1008.907649
 30
0.0
 11
2161.068002
 21
-1043.37592
 31
0.0
  0
LINE
  5
4E
  8
2
  6
CONTINUOUS
 10
2167.145686
 20
-1008.907649
 30
0.0
 11
2161.068002
 21
-1043.37592
 31
0.0
  0
LINE
  5
4F
  8
2
  6
CONTINUOUS
 10
2167.145689
 20
-731.844191
 30
0.0
 11
2161.068002
 21
-697.37592
 31
0.0
  0
LINE
  5
50
  8
2
  6
CONTINUOUS
 10
2154.990317
 20
-731.844192
 30
0.0
 11
2161.068002
 21
-697.37592
 31
0.0
  0
TEXT
  5
51
  8
2
  6
CONTINUOUS
 10
2159.068115
 20
-938.055908
 30
0.0
 40
48.0
  1
346
 50
90.000003
 41
0.9
  7
MONOTXT
  0
ENDBLK
  5
52
  8
0
  0
BLOCK
  5
54
  8
2
  2
*D5
 70
    65
 10
0.0
 20
0.0
 30
0.0
  3
*D5
  1

  0
POINT
  5
55
  8
DEFPOINTS
 10
766.698602
 20
-697.37592
 30
0.0
  0
POINT
  5
56
  8
DEFPOINTS
 10
1982.698902
 20
-697.37592
 30
0.0
  0
POINT
  5
57
  8
DEFPOINTS
 10
913.096153
 20
-566.28732
 30
0.0
  0
LINE
  5
58
  8
2
  6
CONTINUOUS
 10
766.698602
 20
-694.37592
 30
0.0
 11
766.698602
 21
-561.28732
 31
0.0
  0
LINE
  5
59
  8
2
  6
CONTINUOUS
 10
1982.698902
 20
-694.37592
 30
0.0
 11
1982.698902
 21
-561.28732
 31
0.0
  0
LINE
  5
5A
  8
2
  6
CONTINUOUS
 10
766.698602
 20
-566.28732
 30
0.0
 11
1982.698902
 21
-566.28732
 31
0.0
  0
LINE
  5
5B
  8
2
  6
CONTINUOUS
 10
801.166873
 20
-560.209634
 30
0.0
 11
766.698602
 21
-566.28732
 31
0.0
  0
LINE
  5
5C
  8
2
  6
CONTINUOUS
 10
801.166873
 20
-572.365006
 30
0.0
 11
766.698602
 21
-566.28732
 31
0.0
  0
LINE
  5
5D
  8
2
  6
CONTINUOUS
 10
1948.23063
 20
-572.365006
 30
0.0
 11
1982.698902
 21
-566.28732
 31
0.0
  0
LINE
  5
5E
  8
2
  6
CONTINUOUS
 10
1948.23063
 20
-560.209634
 30
0.0
 11
1982.698902
 21
-566.28732
 31
0.0
  0
TEXT
  5
5F
  8
2
  6
CONTINUOUS
 10
1285.178711
 20
-564.287292
 30
0.0
 40
48.0
  1
1216
 41
0.9
  7
MONOTXT
  0
ENDBLK
  5
60
  8
0
  0
BLOCK
  5
62
  8
2
  2
*D6
 70
    65
 10
0.0
 20
0.0
 30
0.0
  3
*D6
  1

  0
POINT
  5
63
  8
DEFPOINTS
 10
759.698602
 20
-1016.76612
 30
0.0
  0
POINT
  5
64
  8
DEFPOINTS
 10
1989.698902
 20
-1013.08032
 30
0.0
  0
POINT
  5
65
  8
DEFPOINTS
 10
1080.599748
 20
-1316.28732
 30
0.0
  0
LINE
  5
66
  8
2
  6
CONTINUOUS
 10
759.698602
 20
-1019.76612
 30
0.0
 11
759.698602
 21
-1321.28732
 31
0.0
  0
LINE
  5
67
  8
2
  6
CONTINUOUS
 10
1989.698902
 20
-1016.08032
 30
0.0
 11
1989.698902
 21
-1321.28732
 31
0.0
  0
LINE
  5
68
  8
2
  6
CONTINUOUS
 10
759.698602
 20
-1316.28732
 30
0.0
 11
1989.698902
 21
-1316.28732
 31
0.0
  0
LINE
  5
69
  8
2
  6
CONTINUOUS
 10
794.166873
 20
-1310.209634
 30
0.0
 11
759.698602
 21
-1316.28732
 31
0.0
  0
LINE
  5
6A
  8
2
  6
CONTINUOUS
 10
794.166873
 20
-1322.365006
 30
0.0
 11
759.698602
 21
-1316.28732
 31
0.0
  0
LINE
  5
6B
  8
2
  6
CONTINUOUS
 10
1955.23063
 20
-1322.365006
 30
0.0
 11
1989.698902
 21
-1316.28732
 31
0.0
  0
LINE
  5
6C
  8
2
  6
CONTINUOUS
 10
1955.23063
 20
-1310.209634
 30
0.0
 11
1989.698902
 21
-1316.28732
 31
0.0
  0
TEXT
  5
6D
  8
2
  6
CONTINUOUS
 10
1285.178711
 20
-1314.287354
 30
0.0
 40
48.0
  1
1230
 41
0.9
  7
MONOTXT
  0
ENDBLK
  5
6E
  8
0
  0
BLOCK
  5
70
  8
2
  2
*D7
 70
    65
 10
0.0
 20
0.0
 30
0.0
  3
*D7
  1

  0
POINT
  5
71
  8
DEFPOINTS
 10
619.698602
 20
-789.37592
 30
0.0
  0
POINT
  5
72
  8
DEFPOINTS
 10
684.698602
 20
-650.37592
 30
0.0
  0
POINT
  5
73
  8
DEFPOINTS
 10
651.595161
 20
-570.099961
 30
0.0
  0
LINE
  5
74
  8
2
  6
CONTINUOUS
 10
619.698602
 20
-786.37592
 30
0.0
 11
619.698602
 21
-565.099961
 31
0.0
  0
LINE
  5
75
  8
2
  6
CONTINUOUS
 10
684.698602
 20
-647.37592
 30
0.0
 11
684.698602
 21
-565.099961
 31
0.0
  0
LINE
  5
76
  8
2
  6
CONTINUOUS
 10
619.698602
 20
-570.099961
 30
0.0
 11
684.698602
 21
-570.099961
 31
0.0
  0
LINE
  5
77
  8
2
  6
CONTINUOUS
 10
654.166873
 20
-564.022275
 30
0.0
 11
619.698602
 21
-570.099961
 31
0.0
  0
LINE
  5
78
  8
2
  6
CONTINUOUS
 10
654.166873
 20
-576.177648
 30
0.0
 11
619.698602
 21
-570.099961
 31
0.0
  0
LINE
  5
79
  8
2
  6
CONTINUOUS
 10
650.23033
 20
-576.177648
 30
0.0
 11
684.698602
 21
-570.099961
 31
0.0
  0
LINE
  5
7A
  8
2
  6
CONTINUOUS
 10
650.23033
 20
-564.022275
 30
0.0
 11
684.698602
 21
-570.099961
 31
0.0
  0
TEXT
  5
7B
  8
2
  6
CONTINUOUS
 10
611.641357
 20
-568.099976
 30
0.0
 40
48.0
  1
65
 41
0.9
  7
MONOTXT
  0
ENDBLK
  5
7C
  8
0
  0
BLOCK
  5
7E
  8
2
  2
*D8
 70
    65
 10
0.0
 20
0.0
 30
0.0
  3
*D8
  1

  0
POINT
  5
7F
  8
DEFPOINTS
 10
874.698602
 20
-1075.49302
 30
0.0
  0
POINT
  5
80
  8
DEFPOINTS
 10
1874.698902
 20
-1070.08722
 30
0.0
  0
POINT
  5
81
  8
DEFPOINTS
 10
1129.734136
 20
-1226.28732
 30
0.0
  0
LINE
  5
82
  8
2
  6
CONTINUOUS
 10
874.698602
 20
-1078.49302
 30
0.0
 11
874.698602
 21
-1231.28732
 31
0.0
  0
LINE
  5
83
  8
2
  6
CONTINUOUS
 10
1874.698902
 20
-1073.08722
 30
0.0
 11
1874.698902
 21
-1231.28732
 31
0.0
  0
LINE
  5
84
  8
2
  6
CONTINUOUS
 10
874.698602
 20
-1226.28732
 30
0.0
 11
1874.698902
 21
-1226.28732
 31
0.0
  0
LINE
  5
85
  8
2
  6
CONTINUOUS
 10
909.166873
 20
-1220.209634
 30
0.0
 11
874.698602
 21
-1226.28732
 31
0.0
  0
LINE
  5
86
  8
2
  6
CONTINUOUS
 10
909.166873
 20
-1232.365006
 30
0.0
 11
874.698602
 21
-1226.28732
 31
0.0
  0
LINE
  5
87
  8
2
  6
CONTINUOUS
 10
1840.23063
 20
-1232.365006
 30
0.0
 11
1874.698902
 21
-1226.28732
 31
0.0
  0
LINE
  5
88
  8
2
  6
CONTINUOUS
 10
1840.23063
 20
-1220.209634
 30
0.0
 11
1874.698902
 21
-1226.28732
 31
0.0
  0
TEXT
  5
89
  8
2
  6
CONTINUOUS
 10
1164.69873
 20
-1224.287354
 30
0.0
 40
60.0
  1
５×２００＝１０００
 41
0.9
  7
MONOTXT
  0
ENDBLK
  5
8A
  8
0
  0
BLOCK
  5
8C
  8
2
  2
*D9
 70
    65
 10
0.0
 20
0.0
 30
0.0
  3
*D9
  1

  0
POINT
  5
8D
  8
DEFPOINTS
 10
653.698602
 20
-1112.37592
 30
0.0
  0
POINT
  5
8E
  8
DEFPOINTS
 10
684.698602
 20
-1120.37592
 30
0.0
  0
POINT
  5
8F
  8
DEFPOINTS
 10
591.48925
 20
-1316.28732
 30
0.0
  0
LINE
  5
90
  8
2
  6
CONTINUOUS
 10
653.698602
 20
-1115.37592
 30
0.0
 11
653.698602
 21
-1321.28732
 31
0.0
  0
LINE
  5
91
  8
2
  6
CONTINUOUS
 10
684.698602
 20
-1123.37592
 30
0.0
 11
684.698602
 21
-1321.28732
 31
0.0
  0
LINE
  5
92
  8
2
  6
CONTINUOUS
 10
474.658593
 20
-1316.28732
 30
0.0
 11
736.401009
 21
-1316.28732
 31
0.0
  0
LINE
  5
93
  8
2
  6
CONTINUOUS
 10
619.23033
 20
-1322.365006
 30
0.0
 11
653.698602
 21
-1316.28732
 31
0.0
  0
LINE
  5
94
  8
2
  6
CONTINUOUS
 10
619.23033
 20
-1310.209634
 30
0.0
 11
653.698602
 21
-1316.28732
 31
0.0
  0
LINE
  5
95
  8
2
  6
CONTINUOUS
 10
719.166873
 20
-1310.209634
 30
0.0
 11
684.698602
 21
-1316.28732
 31
0.0
  0
LINE
  5
96
  8
2
  6
CONTINUOUS
 10
719.166873
 20
-1322.365006
 30
0.0
 11
684.698602
 21
-1316.28732
 31
0.0
  0
TEXT
  5
97
  8
2
  6
CONTINUOUS
 10
518.338623
 20
-1314.287354
 30
0.0
 40
48.0
  1
31
 41
0.9
  7
MONOTXT
  0
ENDBLK
  5
98
  8
0
  0
BLOCK
  5
9A
  8
2
  2
*D10
 70
    65
 10
0.0
 20
0.0
 30
0.0
  3
*D10
  1

  0
POINT
  5
9B
  8
DEFPOINTS
 10
434.698602
 20
-1038.07592
 30
0.0
  0
POINT
  5
9C
  8
DEFPOINTS
 10
684.698602
 20
-1120.37592
 30
0.0
  0
POINT
  5
9D
  8
DEFPOINTS
 10
575.855581
 20
-1406.28732
 30
0.0
  0
LINE
  5
9E
  8
2
  6
CONTINUOUS
 10
434.698602
 20
-1041.07592
 30
0.0
 11
434.698602
 21
-1411.28732
 31
0.0
  0
LINE
  5
9F
  8
2
  6
CONTINUOUS
 10
684.698602
 20
-1123.37592
 30
0.0
 11
684.698602
 21
-1411.28732
 31
0.0
  0
LINE
  5
A0
  8
2
  6
CONTINUOUS
 10
434.698602
 20
-1406.28732
 30
0.0
 11
684.698602
 21
-1406.28732
 31
0.0
  0
LINE
  5
A1
  8
2
  6
CONTINUOUS
 10
469.166873
 20
-1400.209634
 30
0.0
 11
434.698602
 21
-1406.28732
 31
0.0
  0
LINE
  5
A2
  8
2
  6
CONTINUOUS
 10
469.166873
 20
-1412.365006
 30
0.0
 11
434.698602
 21
-1406.28732
 31
0.0
  0
LINE
  5
A3
  8
2
  6
CONTINUOUS
 10
650.23033
 20
-1412.365006
 30
0.0
 11
684.698602
 21
-1406.28732
 31
0.0
  0
LINE
  5
A4
  8
2
  6
CONTINUOUS
 10
650.23033
 20
-1400.209634
 30
0.0
 11
684.698602
 21
-1406.28732
 31
0.0
  0
TEXT
  5
A5
  8
2
  6
CONTINUOUS
 10
492.018616
 20
-1404.287354
 30
0.0
 40
48.0
  1
250
 41
0.9
  7
MONOTXT
  0
ENDBLK
  5
A6
  8
0
  0
BLOCK
  5
A8
  8
2
  2
*D11
 70
    65
 10
0.0
 20
0.0
 30
0.0
  3
*D11
  1

  0
POINT
  5
A9
  8
DEFPOINTS
 10
582.698602
 20
-1120.37592
 30
0.0
  0
POINT
  5
AA
  8
DEFPOINTS
 10
436.068002
 20
-870.37592
 30
0.0
  0
POINT
  5
AB
  8
DEFPOINTS
 10
241.068002
 20
-1010.674878
 30
0.0
  0
LINE
  5
AC
  8
2
  6
CONTINUOUS
 10
579.698602
 20
-1120.37592
 30
0.0
 11
236.068002
 21
-1120.37592
 31
0.0
  0
LINE
  5
AD
  8
2
  6
CONTINUOUS
 10
433.068002
 20
-870.37592
 30
0.0
 11
236.068002
 21
-870.37592
 31
0.0
  0
LINE
  5
AE
  8
2
  6
CONTINUOUS
 10
241.068002
 20
-1120.37592
 30
0.0
 11
241.068002
 21
-870.37592
 31
0.0
  0
LINE
  5
AF
  8
2
  6
CONTINUOUS
 10
234.990314
 20
-1085.907649
 30
0.0
 11
241.068002
 21
-1120.37592
 31
0.0
  0
LINE
  5
B0
  8
2
  6
CONTINUOUS
 10
247.145686
 20
-1085.907649
 30
0.0
 11
241.068002
 21
-1120.37592
 31
0.0
  0
LINE
  5
B1
  8
2
  6
CONTINUOUS
 10
247.145689
 20
-904.844191
 30
0.0
 11
241.068002
 21
-870.37592
 31
0.0
  0
LINE
  5
B2
  8
2
  6
CONTINUOUS
 10
234.990317
 20
-904.844192
 30
0.0
 11
241.068002
 21
-870.37592
 31
0.0
  0
TEXT
  5
B3
  8
2
  6
CONTINUOUS
 10
239.068008
 20
-1063.055908
 30
0.0
 40
48.0
  1
250
 50
90.000003
 41
0.9
  7
MONOTXT
  0
ENDBLK
  5
B4
  8
0
  0
BLOCK
  5
B6
  8
2
  2
*D12
 70
    65
 10
0.0
 20
0.0
 30
0.0
  3
*D12
  1

  0
POINT
  5
B7
  8
DEFPOINTS
 10
436.067802
 20
-1050.37592
 30
0.0
  0
POINT
  5
B8
  8
DEFPOINTS
 10
845.560702
 20
-690.37592
 30
0.0
  0
POINT
  5
B9
  8
DEFPOINTS
 10
331.068002
 20
-907.93934
 30
0.0
  0
LINE
  5
BA
  8
2
  6
CONTINUOUS
 10
433.067802
 20
-1050.37592
 30
0.0
 11
326.068002
 21
-1050.37592
 31
0.0
  0
LINE
  5
BB
  8
2
  6
CONTINUOUS
 10
842.560702
 20
-690.37592
 30
0.0
 11
326.068002
 21
-690.37592
 31
0.0
  0
LINE
  5
BC
  8
2
  6
CONTINUOUS
 10
331.068002
 20
-1050.37592
 30
0.0
 11
331.068002
 21
-690.37592
 31
0.0
  0
LINE
  5
BD
  8
2
  6
CONTINUOUS
 10
324.990314
 20
-1015.907649
 30
0.0
 11
331.068002
 21
-1050.37592
 31
0.0
  0
LINE
  5
BE
  8
2
  6
CONTINUOUS
 10
337.145686
 20
-1015.907649
 30
0.0
 11
331.068002
 21
-1050.37592
 31
0.0
  0
LINE
  5
BF
  8
2
  6
CONTINUOUS
 10
337.145689
 20
-724.844191
 30
0.0
 11
331.068002
 21
-690.37592
 31
0.0
  0
LINE
  5
C0
  8
2
  6
CONTINUOUS
 10
324.990317
 20
-724.844192
 30
0.0
 11
331.068002
 21
-690.37592
 31
0.0
  0
TEXT
  5
C1
  8
2
  6
CONTINUOUS
 10
329.067993
 20
-938.055908
 30
0.0
 40
48.0
  1
360
 50
90.000003
 41
0.9
  7
MONOTXT
  0
ENDBLK
  5
C2
  8
0
  0
BLOCK
  5
C4
  8
2
  2
*D13
 70
    65
 10
0.0
 20
0.0
 30
0.0
  3
*D13
  1

  0
POINT
  5
C5
  8
DEFPOINTS
 10
740.146902
 20
-972.37592
 30
0.0
  0
POINT
  5
C6
  8
DEFPOINTS
 10
740.146902
 20
-772.37592
 30
0.0
  0
POINT
  5
C7
  8
DEFPOINTS
 10
421.068002
 20
-925.80639
 30
0.0
  0
LINE
  5
C8
  8
2
  6
CONTINUOUS
 10
737.146902
 20
-972.37592
 30
0.0
 11
416.068002
 21
-972.37592
 31
0.0
  0
LINE
  5
C9
  8
2
  6
CONTINUOUS
 10
737.146902
 20
-772.37592
 30
0.0
 11
416.068002
 21
-772.37592
 31
0.0
  0
LINE
  5
CA
  8
2
  6
CONTINUOUS
 10
421.068002
 20
-972.37592
 30
0.0
 11
421.068002
 21
-772.37592
 31
0.0
  0
LINE
  5
CB
  8
2
  6
CONTINUOUS
 10
414.990314
 20
-937.907649
 30
0.0
 11
421.068002
 21
-972.37592
 31
0.0
  0
LINE
  5
CC
  8
2
  6
CONTINUOUS
 10
427.145686
 20
-937.907649
 30
0.0
 11
421.068002
 21
-972.37592
 31
0.0
  0
LINE
  5
CD
  8
2
  6
CONTINUOUS
 10
427.145689
 20
-806.844191
 30
0.0
 11
421.068002
 21
-772.37592
 31
0.0
  0
LINE
  5
CE
  8
2
  6
CONTINUOUS
 10
414.990317
 20
-806.844192
 30
0.0
 11
421.068002
 21
-772.37592
 31
0.0
  0
TEXT
  5
CF
  8
2
  6
CONTINUOUS
 10
419.067993
 20
-940.055908
 30
0.0
 40
48.0
  1
200
 50
90.000003
 41
0.9
  7
MONOTXT
  0
ENDBLK
  5
D0
  8
0
  0
BLOCK
  5
D2
  8
2
  2
*D14
 70
    65
 10
0.0
 20
0.0
 30
0.0
  3
*D14
  1

  0
POINT
  5
D3
  8
DEFPOINTS
 10
-740.020511
 20
-1120.375896
 30
0.0
  0
POINT
  5
D4
  8
DEFPOINTS
 10
-745.020511
 20
-650.375896
 30
0.0
  0
POINT
  5
D5
  8
DEFPOINTS
 10
-341.651011
 20
-868.780383
 30
0.0
  0
LINE
  5
D6
  8
2
  6
CONTINUOUS
 10
-737.020511
 20
-1120.375896
 30
0.0
 11
-336.651011
 21
-1120.375896
 31
0.0
  0
LINE
  5
D7
  8
2
  6
CONTINUOUS
 10
-742.020511
 20
-650.375896
 30
0.0
 11
-336.651011
 21
-650.375896
 31
0.0
  0
LINE
  5
D8
  8
2
  6
CONTINUOUS
 10
-341.651011
 20
-1120.375896
 30
0.0
 11
-341.651011
 21
-650.375896
 31
0.0
  0
LINE
  5
D9
  8
2
  6
CONTINUOUS
 10
-347.728698
 20
-1085.907625
 30
0.0
 11
-341.651011
 21
-1120.375896
 31
0.0
  0
LINE
  5
DA
  8
2
  6
CONTINUOUS
 10
-335.573326
 20
-1085.907625
 30
0.0
 11
-341.651011
 21
-1120.375896
 31
0.0
  0
LINE
  5
DB
  8
2
  6
CONTINUOUS
 10
-335.573323
 20
-684.844168
 30
0.0
 11
-341.651011
 21
-650.375896
 31
0.0
  0
LINE
  5
DC
  8
2
  6
CONTINUOUS
 10
-347.728695
 20
-684.844168
 30
0.0
 11
-341.651011
 21
-650.375896
 31
0.0
  0
TEXT
  5
DD
  8
2
  6
CONTINUOUS
 10
-343.651001
 20
-953.055908
 30
0.0
 40
48.0
  1
470
 50
90.000003
 41
0.9
  7
MONOTXT
  0
ENDBLK
  5
DE
  8
0
  0
BLOCK
  5
E0
  8
2
  2
*D15
 70
    65
 10
0.0
 20
0.0
 30
0.0
  3
*D15
  1

  0
POINT
  5
E1
  8
DEFPOINTS
 10
-740.020511
 20
-1120.375896
 30
0.0
  0
POINT
  5
E2
  8
DEFPOINTS
 10
-978.671111
 20
-801.375896
 30
0.0
  0
POINT
  5
E3
  8
DEFPOINTS
 10
-431.651011
 20
-940.558776
 30
0.0
  0
LINE
  5
E4
  8
2
  6
CONTINUOUS
 10
-737.020511
 20
-1120.375896
 30
0.0
 11
-426.651011
 21
-1120.375896
 31
0.0
  0
LINE
  5
E5
  8
2
  6
CONTINUOUS
 10
-975.671111
 20
-801.375896
 30
0.0
 11
-426.651011
 21
-801.375896
 31
0.0
  0
LINE
  5
E6
  8
2
  6
CONTINUOUS
 10
-431.651011
 20
-1120.375896
 30
0.0
 11
-431.651011
 21
-801.375896
 31
0.0
  0
LINE
  5
E7
  8
2
  6
CONTINUOUS
 10
-437.728698
 20
-1085.907625
 30
0.0
 11
-431.651011
 21
-1120.375896
 31
0.0
  0
LINE
  5
E8
  8
2
  6
CONTINUOUS
 10
-425.573326
 20
-1085.907625
 30
0.0
 11
-431.651011
 21
-1120.375896
 31
0.0
  0
LINE
  5
E9
  8
2
  6
CONTINUOUS
 10
-425.573323
 20
-835.844168
 30
0.0
 11
-431.651011
 21
-801.375896
 31
0.0
  0
LINE
  5
EA
  8
2
  6
CONTINUOUS
 10
-437.728695
 20
-835.844168
 30
0.0
 11
-431.651011
 21
-801.375896
 31
0.0
  0
TEXT
  5
EB
  8
2
  6
CONTINUOUS
 10
-433.651001
 20
-1028.555908
 30
0.0
 40
48.0
  1
319
 50
90.000003
 41
0.9
  7
MONOTXT
  0
ENDBLK
  5
EC
  8
0
  0
BLOCK
  5
EE
  8
2
  2
*D16
 70
    65
 10
0.0
 20
0.0
 30
0.0
  3
*D16
  1

  0
POINT
  5
EF
  8
DEFPOINTS
 10
-740.020511
 20
-1120.375896
 30
0.0
  0
POINT
  5
F0
  8
DEFPOINTS
 10
-956.049911
 20
-1025.375896
 30
0.0
  0
POINT
  5
F1
  8
DEFPOINTS
 10
-521.651011
 20
-1076.753674
 30
0.0
  0
LINE
  5
F2
  8
2
  6
CONTINUOUS
 10
-737.020511
 20
-1120.375896
 30
0.0
 11
-516.651011
 21
-1120.375896
 31
0.0
  0
LINE
  5
F3
  8
2
  6
CONTINUOUS
 10
-953.049911
 20
-1025.375896
 30
0.0
 11
-516.651011
 21
-1025.375896
 31
0.0
  0
LINE
  5
F4
  8
2
  6
CONTINUOUS
 10
-521.651011
 20
-1120.375896
 30
0.0
 11
-521.651011
 21
-1025.375896
 31
0.0
  0
LINE
  5
F5
  8
2
  6
CONTINUOUS
 10
-527.728698
 20
-1085.907625
 30
0.0
 11
-521.651011
 21
-1120.375896
 31
0.0
  0
LINE
  5
F6
  8
2
  6
CONTINUOUS
 10
-515.573326
 20
-1085.907625
 30
0.0
 11
-521.651011
 21
-1120.375896
 31
0.0
  0
LINE
  5
F7
  8
2
  6
CONTINUOUS
 10
-515.573323
 20
-1059.844168
 30
0.0
 11
-521.651011
 21
-1025.375896
 31
0.0
  0
LINE
  5
F8
  8
2
  6
CONTINUOUS
 10
-527.728695
 20
-1059.844168
 30
0.0
 11
-521.651011
 21
-1025.375896
 31
0.0
  0
TEXT
  5
F9
  8
2
  6
CONTINUOUS
 10
-523.651001
 20
-1126.902832
 30
0.0
 40
48.0
  1
95
 50
90.000003
 41
0.9
  7
MONOTXT
  0
ENDBLK
  5
FA
  8
0
  0
BLOCK
  5
FC
  8
2
  2
*D17
 70
    65
 10
0.0
 20
0.0
 30
0.0
  3
*D17
  1

  0
POINT
  5
FD
  8
DEFPOINTS
 10
-740.020511
 20
-1120.375896
 30
0.0
  0
POINT
  5
FE
  8
DEFPOINTS
 10
-698.020611
 20
-1070.375996
 30
0.0
  0
POINT
  5
FF
  8
DEFPOINTS
 10
-626.651011
 20
-1098.839333
 30
0.0
  0
LINE
  5
100
  8
2
  6
CONTINUOUS
 10
-737.020511
 20
-1120.375896
 30
0.0
 11
-621.651011
 21
-1120.375896
 31
0.0
  0
LINE
  5
101
  8
2
  6
CONTINUOUS
 10
-695.020611
 20
-1070.375996
 30
0.0
 11
-621.651011
 21
-1070.375996
 31
0.0
  0
LINE
  5
102
  8
2
  6
CONTINUOUS
 10
-626.651011
 20
-1299.415905
 30
0.0
 11
-626.651011
 21
-1018.673589
 31
0.0
  0
LINE
  5
103
  8
2
  6
CONTINUOUS
 10
-620.573323
 20
-1154.844168
 30
0.0
 11
-626.651011
 21
-1120.375896
 31
0.0
  0
LINE
  5
104
  8
2
  6
CONTINUOUS
 10
-632.728695
 20
-1154.844168
 30
0.0
 11
-626.651011
 21
-1120.375896
 31
0.0
  0
LINE
  5
105
  8
2
  6
CONTINUOUS
 10
-632.728698
 20
-1035.907725
 30
0.0
 11
-626.651011
 21
-1070.375996
 31
0.0
  0
LINE
  5
106
  8
2
  6
CONTINUOUS
 10
-620.573326
 20
-1035.907725
 30
0.0
 11
-626.651011
 21
-1070.375996
 31
0.0
  0
TEXT
  5
107
  8
2
  6
CONTINUOUS
 10
-628.651001
 20
-1255.735962
 30
0.0
 40
48.0
  1
50
 50
90.000003
 41
0.9
  7
MONOTXT
  0
ENDBLK
  5
108
  8
0
  0
BLOCK
  5
10A
  8
2
  2
*D18
 70
    65
 10
0.0
 20
0.0
 30
0.0
  3
*D18
  1

  0
POINT
  5
10B
  8
DEFPOINTS
 10
-1845.020511
 20
-1120.375896
 30
0.0
  0
POINT
  5
10C
  8
DEFPOINTS
 10
-745.020511
 20
-1120.375896
 30
0.0
  0
POINT
  5
10D
  8
DEFPOINTS
 10
-1573.605064
 20
-1526.287296
 30
0.0
  0
LINE
  5
10E
  8
2
  6
CONTINUOUS
 10
-1845.020511
 20
-1123.375896
 30
0.0
 11
-1845.020511
 21
-1531.287296
 31
0.0
  0
LINE
  5
10F
  8
2
  6
CONTINUOUS
 10
-745.020511
 20
-1123.375896
 30
0.0
 11
-745.020511
 21
-1531.287296
 31
0.0
  0
LINE
  5
110
  8
2
  6
CONTINUOUS
 10
-1845.020511
 20
-1526.287296
 30
0.0
 11
-745.020511
 21
-1526.287296
 31
0.0
  0
LINE
  5
111
  8
2
  6
CONTINUOUS
 10
-1810.552239
 20
-1520.20961
 30
0.0
 11
-1845.020511
 21
-1526.287296
 31
0.0
  0
LINE
  5
112
  8
2
  6
CONTINUOUS
 10
-1810.552239
 20
-1532.364983
 30
0.0
 11
-1845.020511
 21
-1526.287296
 31
0.0
  0
LINE
  5
113
  8
2
  6
CONTINUOUS
 10
-779.488782
 20
-1532.364983
 30
0.0
 11
-745.020511
 21
-1526.287296
 31
0.0
  0
LINE
  5
114
  8
2
  6
CONTINUOUS
 10
-779.488782
 20
-1520.20961
 30
0.0
 11
-745.020511
 21
-1526.287296
 31
0.0
  0
TEXT
  5
115
  8
2
  6
CONTINUOUS
 10
-1384.540527
 20
-1524.287354
 30
0.0
 40
48.0
  1
1100
 41
0.9
  7
MONOTXT
  0
ENDBLK
  5
116
  8
0
  0
BLOCK
  5
118
  8
2
  2
*D19
 70
    65
 10
0.0
 20
0.0
 30
0.0
  3
*D19
  1

  0
POINT
  5
119
  8
DEFPOINTS
 10
-1875.020511
 20
-1070.375996
 30
0.0
  0
POINT
  5
11A
  8
DEFPOINTS
 10
-1845.020511
 20
-1120.375896
 30
0.0
  0
POINT
  5
11B
  8
DEFPOINTS
 10
-1926.975612
 20
-1226.287296
 30
0.0
  0
LINE
  5
11C
  8
2
  6
CONTINUOUS
 10
-1875.020511
 20
-1073.375996
 30
0.0
 11
-1875.020511
 21
-1231.287296
 31
0.0
  0
LINE
  5
11D
  8
2
  6
CONTINUOUS
 10
-1845.020511
 20
-1123.375896
 30
0.0
 11
-1845.020511
 21
-1231.287296
 31
0.0
  0
LINE
  5
11E
  8
2
  6
CONTINUOUS
 10
-2054.060519
 20
-1226.287296
 30
0.0
 11
-1793.318103
 21
-1226.287296
 31
0.0
  0
LINE
  5
11F
  8
2
  6
CONTINUOUS
 10
-1909.488782
 20
-1232.364983
 30
0.0
 11
-1875.020511
 21
-1226.287296
 31
0.0
  0
LINE
  5
120
  8
2
  6
CONTINUOUS
 10
-1909.488782
 20
-1220.20961
 30
0.0
 11
-1875.020511
 21
-1226.287296
 31
0.0
  0
LINE
  5
121
  8
2
  6
CONTINUOUS
 10
-1810.552239
 20
-1220.20961
 30
0.0
 11
-1845.020511
 21
-1226.287296
 31
0.0
  0
LINE
  5
122
  8
2
  6
CONTINUOUS
 10
-1810.552239
 20
-1232.364983
 30
0.0
 11
-1845.020511
 21
-1226.287296
 31
0.0
  0
TEXT
  5
123
  8
2
  6
CONTINUOUS
 10
-2010.380493
 20
-1224.287354
 30
0.0
 40
48.0
  1
30
 41
0.9
  7
MONOTXT
  0
ENDBLK
  5
124
  8
0
  0
BLOCK
  5
126
  8
2
  2
*D20
 70
    65
 10
0.0
 20
0.0
 30
0.0
  3
*D20
  1

  0
POINT
  5
127
  8
DEFPOINTS
 10
-1022.020511
 20
-1062.036896
 30
0.0
  0
POINT
  5
128
  8
DEFPOINTS
 10
-745.020511
 20
-1120.375896
 30
0.0
  0
POINT
  5
129
  8
DEFPOINTS
 10
-951.525663
 20
-1346.287296
 30
0.0
  0
LINE
  5
12A
  8
2
  6
CONTINUOUS
 10
-1022.020511
 20
-1065.036896
 30
0.0
 11
-1022.020511
 21
-1351.287296
 31
0.0
  0
LINE
  5
12B
  8
2
  6
CONTINUOUS
 10
-745.020511
 20
-1123.375896
 30
0.0
 11
-745.020511
 21
-1351.287296
 31
0.0
  0
LINE
  5
12C
  8
2
  6
CONTINUOUS
 10
-1022.020511
 20
-1346.287296
 30
0.0
 11
-745.020511
 21
-1346.287296
 31
0.0
  0
LINE
  5
12D
  8
2
  6
CONTINUOUS
 10
-987.552239
 20
-1340.20961
 30
0.0
 11
-1022.020511
 21
-1346.287296
 31
0.0
  0
LINE
  5
12E
  8
2
  6
CONTINUOUS
 10
-987.552239
 20
-1352.364983
 30
0.0
 11
-1022.020511
 21
-1346.287296
 31
0.0
  0
LINE
  5
12F
  8
2
  6
CONTINUOUS
 10
-779.488782
 20
-1352.364983
 30
0.0
 11
-745.020511
 21
-1346.287296
 31
0.0
  0
LINE
  5
130
  8
2
  6
CONTINUOUS
 10
-779.488782
 20
-1340.20961
 30
0.0
 11
-745.020511
 21
-1346.287296
 31
0.0
  0
TEXT
  5
131
  8
2
  6
CONTINUOUS
 10
-951.2005
 20
-1344.287354
 30
0.0
 40
48.0
  1
277
 41
0.9
  7
MONOTXT
  0
ENDBLK
  5
132
  8
0
  0
BLOCK
  5
134
  8
2
  2
*D21
 70
    65
 10
0.0
 20
0.0
 30
0.0
  3
*D21
  1

  0
POINT
  5
135
  8
DEFPOINTS
 10
-1230.020511
 20
-1155.056996
 30
0.0
  0
POINT
  5
136
  8
DEFPOINTS
 10
-745.020511
 20
-1120.375896
 30
0.0
  0
POINT
  5
137
  8
DEFPOINTS
 10
-1106.125277
 20
-1436.287296
 30
0.0
  0
LINE
  5
138
  8
2
  6
CONTINUOUS
 10
-1230.020511
 20
-1158.056996
 30
0.0
 11
-1230.020511
 21
-1441.287296
 31
0.0
  0
LINE
  5
139
  8
2
  6
CONTINUOUS
 10
-745.020511
 20
-1123.375896
 30
0.0
 11
-745.020511
 21
-1441.287296
 31
0.0
  0
LINE
  5
13A
  8
2
  6
CONTINUOUS
 10
-1230.020511
 20
-1436.287296
 30
0.0
 11
-745.020511
 21
-1436.287296
 31
0.0
  0
LINE
  5
13B
  8
2
  6
CONTINUOUS
 10
-1195.552239
 20
-1430.20961
 30
0.0
 11
-1230.020511
 21
-1436.287296
 31
0.0
  0
LINE
  5
13C
  8
2
  6
CONTINUOUS
 10
-1195.552239
 20
-1442.364983
 30
0.0
 11
-1230.020511
 21
-1436.287296
 31
0.0
  0
LINE
  5
13D
  8
2
  6
CONTINUOUS
 10
-779.488782
 20
-1442.364983
 30
0.0
 11
-745.020511
 21
-1436.287296
 31
0.0
  0
LINE
  5
13E
  8
2
  6
CONTINUOUS
 10
-779.488782
 20
-1430.20961
 30
0.0
 11
-745.020511
 21
-1436.287296
 31
0.0
  0
TEXT
  5
13F
  8
2
  6
CONTINUOUS
 10
-1055.200562
 20
-1434.287354
 30
0.0
 40
48.0
  1
485
 41
0.9
  7
MONOTXT
  0
ENDBLK
  5
140
  8
0
  0
BLOCK
  5
142
  8
2
  2
*D22
 70
    65
 10
0.0
 20
0.0
 30
0.0
  3
*D22
  1

  0
POINT
  5
143
  8
DEFPOINTS
 10
-740.020511
 20
-1120.375896
 30
0.0
  0
POINT
  5
144
  8
DEFPOINTS
 10
-1182.262111
 20
-1095.375896
 30
0.0
  0
POINT
  5
145
  8
DEFPOINTS
 10
-1123.855611
 20
-1059.432055
 30
0.0
  0
LINE
  5
146
  8
2
  6
CONTINUOUS
 10
-743.020511
 20
-1120.375896
 30
0.0
 11
-1128.855611
 21
-1120.375896
 31
0.0
  0
LINE
  5
147
  8
2
  6
CONTINUOUS
 10
-1179.262111
 20
-1095.375896
 30
0.0
 11
-1118.855611
 21
-1095.375896
 31
0.0
  0
LINE
  5
148
  8
2
  6
CONTINUOUS
 10
-1123.855611
 20
-1157.306187
 30
0.0
 11
-1123.855611
 21
-916.335888
 31
0.0
  0
CIRCLE
  5
149
  8
2
  6
CONTINUOUS
 10
-1123.855611
 20
-1120.375896
 30
0.0
 40
6.25
  0
CIRCLE
  5
14A
  8
2
  6
CONTINUOUS
 10
-1123.855611
 20
-1120.375896
 30
0.0
 40
3.75
  0
LINE
  5
14B
  8
2
  6
CONTINUOUS
 10
-1129.933298
 20
-1060.907625
 30
0.0
 11
-1123.855611
 21
-1095.375896
 31
0.0
  0
LINE
  5
14C
  8
2
  6
CONTINUOUS
 10
-1117.777926
 20
-1060.907625
 30
0.0
 11
-1123.855611
 21
-1095.375896
 31
0.0
  0
TEXT
  5
14D
  8
2
  6
CONTINUOUS
 10
-1125.855591
 20
-1051.695923
 30
0.0
 40
48.0
  1
25
 50
90.000003
 41
0.9
  7
MONOTXT
  0
ENDBLK
  5
14E
  8
0
  0
BLOCK
  5
150
  8
2
  2
*D23
 70
    65
 10
0.0
 20
0.0
 30
0.0
  3
*D23
  1

  0
POINT
  5
151
  8
DEFPOINTS
 10
-1202.820311
 20
-1148.375896
 30
0.0
  0
POINT
  5
152
  8
DEFPOINTS
 10
-740.020511
 20
-1120.375896
 30
0.0
  0
POINT
  5
153
  8
DEFPOINTS
 10
-1123.855611
 20
-1192.574534
 30
0.0
  0
LINE
  5
154
  8
2
  6
CONTINUOUS
 10
-1199.820311
 20
-1148.375896
 30
0.0
 11
-1118.855611
 21
-1148.375896
 31
0.0
  0
LINE
  5
155
  8
2
  6
CONTINUOUS
 10
-743.020511
 20
-1120.375896
 30
0.0
 11
-1128.855611
 21
-1120.375896
 31
0.0
  0
LINE
  5
156
  8
2
  6
CONTINUOUS
 10
-1123.855611
 20
-1327.415905
 30
0.0
 11
-1123.855611
 21
-1083.445606
 31
0.0
  0
LINE
  5
157
  8
2
  6
CONTINUOUS
 10
-1117.777923
 20
-1182.844168
 30
0.0
 11
-1123.855611
 21
-1148.375896
 31
0.0
  0
LINE
  5
158
  8
2
  6
CONTINUOUS
 10
-1129.933295
 20
-1182.844168
 30
0.0
 11
-1123.855611
 21
-1148.375896
 31
0.0
  0
CIRCLE
  5
159
  8
2
  6
CONTINUOUS
 10
-1123.855611
 20
-1120.375896
 30
0.0
 40
6.25
  0
CIRCLE
  5
15A
  8
2
  6
CONTINUOUS
 10
-1123.855611
 20
-1120.375896
 30
0.0
 40
3.75
  0
TEXT
  5
15B
  8
2
  6
CONTINUOUS
 10
-1125.855591
 20
-1283.735962
 30
0.0
 40
48.0
  1
28
 50
90.000003
 41
0.9
  7
MONOTXT
  0
ENDBLK
  5
15C
  8
0
  0
BLOCK
  5
15E
  8
2
  2
*D24
 70
    65
 10
0.0
 20
0.0
 30
0.0
  3
*D24
  1

  0
POINT
  5
15F
  8
DEFPOINTS
 10
-1236.246511
 20
-1240.375896
 30
0.0
  0
POINT
  5
160
  8
DEFPOINTS
 10
-1300.020111
 20
-1120.376196
 30
0.0
  0
POINT
  5
161
  8
DEFPOINTS
 10
-1384.146511
 20
-1187.736593
 30
0.0
  0
LINE
  5
162
  8
2
  6
CONTINUOUS
 10
-1239.246511
 20
-1240.375896
 30
0.0
 11
-1389.146511
 21
-1240.375896
 31
0.0
  0
LINE
  5
163
  8
2
  6
CONTINUOUS
 10
-1303.020111
 20
-1120.376196
 30
0.0
 11
-1389.146511
 21
-1120.376196
 31
0.0
  0
LINE
  5
164
  8
2
  6
CONTINUOUS
 10
-1384.146511
 20
-1240.375896
 30
0.0
 11
-1384.146511
 21
-1120.376196
 31
0.0
  0
LINE
  5
165
  8
2
  6
CONTINUOUS
 10
-1390.224198
 20
-1205.907625
 30
0.0
 11
-1384.146511
 21
-1240.375896
 31
0.0
  0
LINE
  5
166
  8
2
  6
CONTINUOUS
 10
-1378.068826
 20
-1205.907625
 30
0.0
 11
-1384.146511
 21
-1240.375896
 31
0.0
  0
LINE
  5
167
  8
2
  6
CONTINUOUS
 10
-1378.068823
 20
-1154.844468
 30
0.0
 11
-1384.146511
 21
-1120.376196
 31
0.0
  0
LINE
  5
168
  8
2
  6
CONTINUOUS
 10
-1390.224195
 20
-1154.844468
 30
0.0
 11
-1384.146511
 21
-1120.376196
 31
0.0
  0
TEXT
  5
169
  8
2
  6
CONTINUOUS
 10
-1386.146484
 20
-1255.204346
 30
0.0
 40
48.0
  1
135
 50
90.000003
 41
0.9
  7
MONOTXT
  0
ENDBLK
  5
16A
  8
0
  0
BLOCK
  5
16C
  8
2
  2
*D25
 70
    65
 10
0.0
 20
0.0
 30
0.0
  3
*D25
  1

  0
POINT
  5
16D
  8
DEFPOINTS
 10
-1883.910011
 20
-1020.375896
 30
0.0
  0
POINT
  5
16E
  8
DEFPOINTS
 10
-1881.179911
 20
-720.375896
 30
0.0
  0
POINT
  5
16F
  8
DEFPOINTS
 10
-1961.651011
 20
-853.666272
 30
0.0
  0
LINE
  5
170
  8
2
  6
CONTINUOUS
 10
-1886.910011
 20
-1020.375896
 30
0.0
 11
-1966.651011
 21
-1020.375896
 31
0.0
  0
LINE
  5
171
  8
2
  6
CONTINUOUS
 10
-1884.179911
 20
-720.375896
 30
0.0
 11
-1966.651011
 21
-720.375896
 31
0.0
  0
LINE
  5
172
  8
2
  6
CONTINUOUS
 10
-1961.651011
 20
-1020.375896
 30
0.0
 11
-1961.651011
 21
-720.375896
 31
0.0
  0
LINE
  5
173
  8
2
  6
CONTINUOUS
 10
-1967.728698
 20
-985.907625
 30
0.0
 11
-1961.651011
 21
-1020.375896
 31
0.0
  0
LINE
  5
174
  8
2
  6
CONTINUOUS
 10
-1955.573326
 20
-985.907625
 30
0.0
 11
-1961.651011
 21
-1020.375896
 31
0.0
  0
LINE
  5
175
  8
2
  6
CONTINUOUS
 10
-1955.573323
 20
-754.844168
 30
0.0
 11
-1961.651011
 21
-720.375896
 31
0.0
  0
LINE
  5
176
  8
2
  6
CONTINUOUS
 10
-1967.728695
 20
-754.844168
 30
0.0
 11
-1961.651011
 21
-720.375896
 31
0.0
  0
TEXT
  5
177
  8
2
  6
CONTINUOUS
 10
-1963.651001
 20
-1049.054077
 30
0.0
 40
60.0
  1
３×１００＝３００
 50
90.000003
 41
0.9
  7
MONOTXT
  0
ENDBLK
  5
178
  8
0
  0
BLOCK
  5
17A
  8
2
  2
*D26
 70
    65
 10
0.0
 20
0.0
 30
0.0
  3
*D26
  1

  0
POINT
  5
17B
  8
DEFPOINTS
 10
582.698602
 20
1074.407763
 30
0.0
  0
POINT
  5
17C
  8
DEFPOINTS
 10
536.877785
 20
1324.408246
 30
0.0
  0
POINT
  5
17D
  8
DEFPOINTS
 10
184.068002
 20
1171.495651
 30
0.0
  0
LINE
  5
17E
  8
2
  6
CONTINUOUS
 10
579.698602
 20
1074.407763
 30
0.0
 11
179.068002
 21
1074.407763
 31
0.0
  0
LINE
  5
17F
  8
2
  6
CONTINUOUS
 10
533.877785
 20
1324.408246
 30
0.0
 11
179.068002
 21
1324.408246
 31
0.0
  0
LINE
  5
180
  8
2
  6
CONTINUOUS
 10
184.068002
 20
1074.407763
 30
0.0
 11
184.068002
 21
1324.408246
 31
0.0
  0
LINE
  5
181
  8
2
  6
CONTINUOUS
 10
177.990314
 20
1108.876034
 30
0.0
 11
184.068002
 21
1074.407763
 31
0.0
  0
LINE
  5
182
  8
2
  6
CONTINUOUS
 10
190.145686
 20
1108.876034
 30
0.0
 11
184.068002
 21
1074.407763
 31
0.0
  0
LINE
  5
183
  8
2
  6
CONTINUOUS
 10
190.145689
 20
1289.939974
 30
0.0
 11
184.068002
 21
1324.408246
 31
0.0
  0
LINE
  5
184
  8
2
  6
CONTINUOUS
 10
177.990317
 20
1289.939974
 30
0.0
 11
184.068002
 21
1324.408246
 31
0.0
  0
TEXT
  5
185
  8
2
  6
CONTINUOUS
 10
182.068008
 20
1131.728027
 30
0.0
 40
48.0
  1
250
 50
90.000003
 41
0.9
  7
MONOTXT
  0
ENDBLK
  5
186
  8
0
  0
BLOCK
  5
188
  8
2
  2
*D27
 70
    65
 10
0.0
 20
0.0
 30
0.0
  3
*D27
  1

  0
POINT
  5
189
  8
DEFPOINTS
 10
703.144202
 20
1144.407763
 30
0.0
  0
POINT
  5
18A
  8
DEFPOINTS
 10
695.148802
 20
1504.407763
 30
0.0
  0
POINT
  5
18B
  8
DEFPOINTS
 10
304.068002
 20
1403.196971
 30
0.0
  0
LINE
  5
18C
  8
2
  6
CONTINUOUS
 10
700.144202
 20
1144.407763
 30
0.0
 11
299.068002
 21
1144.407763
 31
0.0
  0
LINE
  5
18D
  8
2
  6
CONTINUOUS
 10
692.148802
 20
1504.407763
 30
0.0
 11
299.068002
 21
1504.407763
 31
0.0
  0
LINE
  5
18E
  8
2
  6
CONTINUOUS
 10
304.068002
 20
1144.407763
 30
0.0
 11
304.068002
 21
1504.407763
 31
0.0
  0
LINE
  5
18F
  8
2
  6
CONTINUOUS
 10
297.990314
 20
1178.876034
 30
0.0
 11
304.068002
 21
1144.407763
 31
0.0
  0
LINE
  5
190
  8
2
  6
CONTINUOUS
 10
310.145686
 20
1178.876034
 30
0.0
 11
304.068002
 21
1144.407763
 31
0.0
  0
LINE
  5
191
  8
2
  6
CONTINUOUS
 10
310.145689
 20
1469.939492
 30
0.0
 11
304.068002
 21
1504.407763
 31
0.0
  0
LINE
  5
192
  8
2
  6
CONTINUOUS
 10
297.990317
 20
1469.939491
 30
0.0
 11
304.068002
 21
1504.407763
 31
0.0
  0
TEXT
  5
193
  8
2
  6
CONTINUOUS
 10
302.067993
 20
1256.727783
 30
0.0
 40
48.0
  1
360
 50
90.000003
 41
0.9
  7
MONOTXT
  0
ENDBLK
  5
194
  8
0
  0
BLOCK
  5
196
  8
2
  2
*D28
 70
    65
 10
0.0
 20
0.0
 30
0.0
  3
*D28
  1

  0
POINT
  5
197
  8
DEFPOINTS
 10
672.698602
 20
1159.407763
 30
0.0
  0
POINT
  5
198
  8
DEFPOINTS
 10
672.699802
 20
1489.407763
 30
0.0
  0
POINT
  5
199
  8
DEFPOINTS
 10
394.068002
 20
1278.434722
 30
0.0
  0
LINE
  5
19A
  8
2
  6
CONTINUOUS
 10
669.698602
 20
1159.407763
 30
0.0
 11
389.068002
 21
1159.407763
 31
0.0
  0
LINE
  5
19B
  8
2
  6
CONTINUOUS
 10
669.699802
 20
1489.407763
 30
0.0
 11
389.068002
 21
1489.407763
 31
0.0
  0
LINE
  5
19C
  8
2
  6
CONTINUOUS
 10
394.068002
 20
1159.407763
 30
0.0
 11
394.068002
 21
1489.407763
 31
0.0
  0
LINE
  5
19D
  8
2
  6
CONTINUOUS
 10
387.990314
 20
1193.876034
 30
0.0
 11
394.068002
 21
1159.407763
 31
0.0
  0
LINE
  5
19E
  8
2
  6
CONTINUOUS
 10
400.145686
 20
1193.876034
 30
0.0
 11
394.068002
 21
1159.407763
 31
0.0
  0
LINE
  5
19F
  8
2
  6
CONTINUOUS
 10
400.145689
 20
1454.939492
 30
0.0
 11
394.068002
 21
1489.407763
 31
0.0
  0
LINE
  5
1A0
  8
2
  6
CONTINUOUS
 10
387.990317
 20
1454.939491
 30
0.0
 11
394.068002
 21
1489.407763
 31
0.0
  0
TEXT
  5
1A1
  8
2
  6
CONTINUOUS
 10
392.067993
 20
1256.727783
 30
0.0
 40
48.0
  1
330
 50
90.000003
 41
0.9
  7
MONOTXT
  0
ENDBLK
  5
1A2
  8
0
  0
BLOCK
  5
1A4
  8
2
  2
*D29
 70
    65
 10
0.0
 20
0.0
 30
0.0
  3
*D29
  1

  0
POINT
  5
1A5
  8
DEFPOINTS
 10
624.749902
 20
1174.407763
 30
0.0
  0
POINT
  5
1A6
  8
DEFPOINTS
 10
618.509702
 20
1474.407763
 30
0.0
  0
POINT
  5
1A7
  8
DEFPOINTS
 10
484.068002
 20
1240.560468
 30
0.0
  0
LINE
  5
1A8
  8
2
  6
CONTINUOUS
 10
621.749902
 20
1174.407763
 30
0.0
 11
479.068002
 21
1174.407763
 31
0.0
  0
LINE
  5
1A9
  8
2
  6
CONTINUOUS
 10
615.509702
 20
1474.407763
 30
0.0
 11
479.068002
 21
1474.407763
 31
0.0
  0
LINE
  5
1AA
  8
2
  6
CONTINUOUS
 10
484.068002
 20
1174.407763
 30
0.0
 11
484.068002
 21
1474.407763
 31
0.0
  0
LINE
  5
1AB
  8
2
  6
CONTINUOUS
 10
477.990314
 20
1208.876034
 30
0.0
 11
484.068002
 21
1174.407763
 31
0.0
  0
LINE
  5
1AC
  8
2
  6
CONTINUOUS
 10
490.145686
 20
1208.876034
 30
0.0
 11
484.068002
 21
1174.407763
 31
0.0
  0
LINE
  5
1AD
  8
2
  6
CONTINUOUS
 10
490.145689
 20
1439.939492
 30
0.0
 11
484.068002
 21
1474.407763
 31
0.0
  0
LINE
  5
1AE
  8
2
  6
CONTINUOUS
 10
477.990317
 20
1439.939491
 30
0.0
 11
484.068002
 21
1474.407763
 31
0.0
  0
TEXT
  5
1AF
  8
2
  6
CONTINUOUS
 10
482.067993
 20
1194.880737
 30
0.0
 40
60.0
  1
３×１００＝３００
 50
90.000003
 41
0.9
  7
MONOTXT
  0
ENDBLK
  5
1B0
  8
0
  0
BLOCK
  5
1B2
  8
2
  2
*D30
 70
    65
 10
0.0
 20
0.0
 30
0.0
  3
*D30
  1

  0
POINT
  5
1B3
  8
DEFPOINTS
 10
657.698602
 20
1162.444701
 30
0.0
  0
POINT
  5
1B4
  8
DEFPOINTS
 10
1887.698902
 20
1159.841142
 30
0.0
  0
POINT
  5
1B5
  8
DEFPOINTS
 10
929.367911
 20
782.496363
 30
0.0
  0
LINE
  5
1B6
  8
2
  6
CONTINUOUS
 10
657.698602
 20
1159.444701
 30
0.0
 11
657.698602
 21
777.496363
 31
0.0
  0
LINE
  5
1B7
  8
2
  6
CONTINUOUS
 10
1887.698902
 20
1156.841142
 30
0.0
 11
1887.698902
 21
777.496363
 31
0.0
  0
LINE
  5
1B8
  8
2
  6
CONTINUOUS
 10
657.698602
 20
782.496363
 30
0.0
 11
1887.698902
 21
782.496363
 31
0.0
  0
LINE
  5
1B9
  8
2
  6
CONTINUOUS
 10
692.166873
 20
788.574049
 30
0.0
 11
657.698602
 21
782.496363
 31
0.0
  0
LINE
  5
1BA
  8
2
  6
CONTINUOUS
 10
692.166873
 20
776.418676
 30
0.0
 11
657.698602
 21
782.496363
 31
0.0
  0
LINE
  5
1BB
  8
2
  6
CONTINUOUS
 10
1853.23063
 20
776.418676
 30
0.0
 11
1887.698902
 21
782.496363
 31
0.0
  0
LINE
  5
1BC
  8
2
  6
CONTINUOUS
 10
1853.23063
 20
788.574049
 30
0.0
 11
1887.698902
 21
782.496363
 31
0.0
  0
TEXT
  5
1BD
  8
2
  6
CONTINUOUS
 10
1183.178711
 20
784.496338
 30
0.0
 40
48.0
  1
1230
 41
0.9
  7
MONOTXT
  0
ENDBLK
  5
1BE
  8
0
  0
BLOCK
  5
1C0
  8
2
  2
*D31
 70
    65
 10
0.0
 20
0.0
 30
0.0
  3
*D31
  1

  0
POINT
  5
1C1
  8
DEFPOINTS
 10
672.698602
 20
1129.407763
 30
0.0
  0
POINT
  5
1C2
  8
DEFPOINTS
 10
1872.698902
 20
1129.407763
 30
0.0
  0
POINT
  5
1C3
  8
DEFPOINTS
 10
956.102678
 20
872.496363
 30
0.0
  0
LINE
  5
1C4
  8
2
  6
CONTINUOUS
 10
672.698602
 20
1126.407763
 30
0.0
 11
672.698602
 21
867.496363
 31
0.0
  0
LINE
  5
1C5
  8
2
  6
CONTINUOUS
 10
1872.698902
 20
1126.407763
 30
0.0
 11
1872.698902
 21
867.496363
 31
0.0
  0
LINE
  5
1C6
  8
2
  6
CONTINUOUS
 10
672.698602
 20
872.496363
 30
0.0
 11
1872.698902
 21
872.496363
 31
0.0
  0
LINE
  5
1C7
  8
2
  6
CONTINUOUS
 10
707.166873
 20
878.574049
 30
0.0
 11
672.698602
 21
872.496363
 31
0.0
  0
LINE
  5
1C8
  8
2
  6
CONTINUOUS
 10
707.166873
 20
866.418676
 30
0.0
 11
672.698602
 21
872.496363
 31
0.0
  0
LINE
  5
1C9
  8
2
  6
CONTINUOUS
 10
1838.23063
 20
866.418676
 30
0.0
 11
1872.698902
 21
872.496363
 31
0.0
  0
LINE
  5
1CA
  8
2
  6
CONTINUOUS
 10
1838.23063
 20
878.574049
 30
0.0
 11
1872.698902
 21
872.496363
 31
0.0
  0
TEXT
  5
1CB
  8
2
  6
CONTINUOUS
 10
1183.178711
 20
874.496338
 30
0.0
 40
48.0
  1
1200
 41
0.9
  7
MONOTXT
  0
ENDBLK
  5
1CC
  8
0
  0
BLOCK
  5
1CE
  8
2
  2
*D32
 70
    65
 10
0.0
 20
0.0
 30
0.0
  3
*D32
  1

  0
POINT
  5
1CF
  8
DEFPOINTS
 10
722.698602
 20
1119.708763
 30
0.0
  0
POINT
  5
1D0
  8
DEFPOINTS
 10
1822.698902
 20
1117.563763
 30
0.0
  0
POINT
  5
1D1
  8
DEFPOINTS
 10
1036.306981
 20
962.496363
 30
0.0
  0
LINE
  5
1D2
  8
2
  6
CONTINUOUS
 10
722.698602
 20
1116.708763
 30
0.0
 11
722.698602
 21
957.496363
 31
0.0
  0
LINE
  5
1D3
  8
2
  6
CONTINUOUS
 10
1822.698902
 20
1114.563763
 30
0.0
 11
1822.698902
 21
957.496363
 31
0.0
  0
LINE
  5
1D4
  8
2
  6
CONTINUOUS
 10
722.698602
 20
962.496363
 30
0.0
 11
1822.698902
 21
962.496363
 31
0.0
  0
LINE
  5
1D5
  8
2
  6
CONTINUOUS
 10
757.166873
 20
968.574049
 30
0.0
 11
722.698602
 21
962.496363
 31
0.0
  0
LINE
  5
1D6
  8
2
  6
CONTINUOUS
 10
757.166873
 20
956.418676
 30
0.0
 11
722.698602
 21
962.496363
 31
0.0
  0
LINE
  5
1D7
  8
2
  6
CONTINUOUS
 10
1788.23063
 20
956.418676
 30
0.0
 11
1822.698902
 21
962.496363
 31
0.0
  0
LINE
  5
1D8
  8
2
  6
CONTINUOUS
 10
1788.23063
 20
968.574049
 30
0.0
 11
1822.698902
 21
962.496363
 31
0.0
  0
TEXT
  5
1D9
  8
2
  6
CONTINUOUS
 10
1043.19873
 20
964.496338
 30
0.0
 40
60.0
  1
１１×１００＝１１００
 41
0.9
  7
MONOTXT
  0
ENDBLK
  5
1DA
  8
0
  0
BLOCK
  5
1DC
  8
2
  2
*D33
 70
    65
 10
0.0
 20
0.0
 30
0.0
  3
*D33
  1

  0
POINT
  5
1DD
  8
DEFPOINTS
 10
-1838.299358
 20
790.34078
 30
0.0
  0
POINT
  5
1DE
  8
DEFPOINTS
 10
-1835.959158
 20
1890.34078
 30
0.0
  0
POINT
  5
1DF
  8
DEFPOINTS
 10
-1903.559658
 20
1631.532183
 30
0.0
  0
LINE
  5
1E0
  8
2
  6
CONTINUOUS
 10
-1841.299358
 20
790.34078
 30
0.0
 11
-1908.559658
 21
790.34078
 31
0.0
  0
LINE
  5
1E1
  8
2
  6
CONTINUOUS
 10
-1838.959158
 20
1890.34078
 30
0.0
 11
-1908.559658
 21
1890.34078
 31
0.0
  0
LINE
  5
1E2
  8
2
  6
CONTINUOUS
 10
-1903.559658
 20
790.34078
 30
0.0
 11
-1903.559658
 21
1890.34078
 31
0.0
  0
LINE
  5
1E3
  8
2
  6
CONTINUOUS
 10
-1909.637346
 20
824.809051
 30
0.0
 11
-1903.559658
 21
790.34078
 31
0.0
  0
LINE
  5
1E4
  8
2
  6
CONTINUOUS
 10
-1897.481974
 20
824.809052
 30
0.0
 11
-1903.559658
 21
790.34078
 31
0.0
  0
LINE
  5
1E5
  8
2
  6
CONTINUOUS
 10
-1897.481971
 20
1855.872509
 30
0.0
 11
-1903.559658
 21
1890.34078
 31
0.0
  0
LINE
  5
1E6
  8
2
  6
CONTINUOUS
 10
-1909.637343
 20
1855.872509
 30
0.0
 11
-1903.559658
 21
1890.34078
 31
0.0
  0
TEXT
  5
1E7
  8
2
  6
CONTINUOUS
 10
-1905.559692
 20
1129.140747
 30
0.0
 40
60.0
  1
１１×１００＝１１００
 50
90.000003
 41
0.9
  7
MONOTXT
  0
ENDBLK
  5
1E8
  8
0
  0
BLOCK
  5
1EA
  8
2
  2
*D34
 70
    65
 10
0.0
 20
0.0
 30
0.0
  3
*D34
  1

  0
POINT
  5
1EB
  8
DEFPOINTS
 10
-1810.929158
 20
2081.62788
 30
0.0
  0
POINT
  5
1EC
  8
DEFPOINTS
 10
-662.929158
 20
2081.62788
 30
0.0
  0
POINT
  5
1ED
  8
DEFPOINTS
 10
-735.543134
 20
2200.336415
 30
0.0
  0
LINE
  5
1EE
  8
2
  6
CONTINUOUS
 10
-1810.929158
 20
2084.62788
 30
0.0
 11
-1810.929158
 21
2205.336415
 31
0.0
  0
LINE
  5
1EF
  8
2
  6
CONTINUOUS
 10
-662.929158
 20
2084.62788
 30
0.0
 11
-662.929158
 21
2205.336415
 31
0.0
  0
LINE
  5
1F0
  8
2
  6
CONTINUOUS
 10
-1810.929158
 20
2200.336415
 30
0.0
 11
-662.929158
 21
2200.336415
 31
0.0
  0
LINE
  5
1F1
  8
2
  6
CONTINUOUS
 10
-1776.460887
 20
2206.414101
 30
0.0
 11
-1810.929158
 21
2200.336415
 31
0.0
  0
LINE
  5
1F2
  8
2
  6
CONTINUOUS
 10
-1776.460887
 20
2194.258728
 30
0.0
 11
-1810.929158
 21
2200.336415
 31
0.0
  0
LINE
  5
1F3
  8
2
  6
CONTINUOUS
 10
-697.39743
 20
2194.258728
 30
0.0
 11
-662.929158
 21
2200.336415
 31
0.0
  0
LINE
  5
1F4
  8
2
  6
CONTINUOUS
 10
-697.39743
 20
2206.414101
 30
0.0
 11
-662.929158
 21
2200.336415
 31
0.0
  0
TEXT
  5
1F5
  8
2
  6
CONTINUOUS
 10
-1326.449219
 20
2202.336426
 30
0.0
 40
48.0
  1
1148
 41
0.9
  7
MONOTXT
  0
ENDBLK
  5
1F6
  8
0
  0
BLOCK
  5
1F8
  8
2
  2
*D35
 70
    65
 10
0.0
 20
0.0
 30
0.0
  3
*D35
  1

  0
POINT
  5
1F9
  8
DEFPOINTS
 10
-686.929258
 20
650.34078
 30
0.0
  0
POINT
  5
1FA
  8
DEFPOINTS
 10
-686.929158
 20
2030.34078
 30
0.0
  0
POINT
  5
1FB
  8
DEFPOINTS
 10
-343.954292
 20
988.411821
 30
0.0
  0
LINE
  5
1FC
  8
2
  6
CONTINUOUS
 10
-683.929258
 20
650.34078
 30
0.0
 11
-338.954292
 21
650.34078
 31
0.0
  0
LINE
  5
1FD
  8
2
  6
CONTINUOUS
 10
-683.929158
 20
2030.34078
 30
0.0
 11
-338.954292
 21
2030.34078
 31
0.0
  0
LINE
  5
1FE
  8
2
  6
CONTINUOUS
 10
-343.954292
 20
650.34078
 30
0.0
 11
-343.954292
 21
2030.34078
 31
0.0
  0
LINE
  5
1FF
  8
2
  6
CONTINUOUS
 10
-350.031979
 20
684.809051
 30
0.0
 11
-343.954292
 21
650.34078
 31
0.0
  0
LINE
  5
200
  8
2
  6
CONTINUOUS
 10
-337.876607
 20
684.809052
 30
0.0
 11
-343.954292
 21
650.34078
 31
0.0
  0
LINE
  5
201
  8
2
  6
CONTINUOUS
 10
-337.876604
 20
1995.872509
 30
0.0
 11
-343.954292
 21
2030.34078
 31
0.0
  0
LINE
  5
202
  8
2
  6
CONTINUOUS
 10
-350.031976
 20
1995.872509
 30
0.0
 11
-343.954292
 21
2030.34078
 31
0.0
  0
TEXT
  5
203
  8
2
  6
CONTINUOUS
 10
-345.954285
 20
1250.820801
 30
0.0
 40
48.0
  1
1380
 50
90.000003
 41
0.9
  7
MONOTXT
  0
ENDBLK
  5
204
  8
0
  0
BLOCK
  5
206
  8
2
  2
*D36
 70
    65
 10
0.0
 20
0.0
 30
0.0
  3
*D36
  1

  0
POINT
  5
207
  8
DEFPOINTS
 10
-606.676358
 20
692.34078
 30
0.0
  0
POINT
  5
208
  8
DEFPOINTS
 10
-606.676358
 20
1988.34078
 30
0.0
  0
POINT
  5
209
  8
DEFPOINTS
 10
-492.586553
 20
1988.821273
 30
0.0
  0
LINE
  5
20A
  8
2
  6
CONTINUOUS
 10
-603.676358
 20
692.34078
 30
0.0
 11
-487.586553
 21
692.34078
 31
0.0
  0
LINE
  5
20B
  8
2
  6
CONTINUOUS
 10
-603.676358
 20
1988.34078
 30
0.0
 11
-487.586553
 21
1988.34078
 31
0.0
  0
LINE
  5
20C
  8
2
  6
CONTINUOUS
 10
-492.586553
 20
692.34078
 30
0.0
 11
-492.586553
 21
1988.34078
 31
0.0
  0
LINE
  5
20D
  8
2
  6
CONTINUOUS
 10
-498.664241
 20
726.809051
 30
0.0
 11
-492.586553
 21
692.34078
 31
0.0
  0
LINE
  5
20E
  8
2
  6
CONTINUOUS
 10
-486.508868
 20
726.809052
 30
0.0
 11
-492.586553
 21
692.34078
 31
0.0
  0
LINE
  5
20F
  8
2
  6
CONTINUOUS
 10
-486.508865
 20
1953.872509
 30
0.0
 11
-492.586553
 21
1988.34078
 31
0.0
  0
LINE
  5
210
  8
2
  6
CONTINUOUS
 10
-498.664238
 20
1953.872509
 30
0.0
 11
-492.586553
 21
1988.34078
 31
0.0
  0
TEXT
  5
211
  8
2
  6
CONTINUOUS
 10
-494.586548
 20
1250.820801
 30
0.0
 40
48.0
  1
1296
 50
90.000003
 41
0.9
  7
MONOTXT
  0
ENDBLK
  5
212
  8
0
  0
BLOCK
  5
214
  8
2
  2
*D37
 70
    65
 10
0.0
 20
0.0
 30
0.0
  3
*D37
  1

  0
POINT
  5
215
  8
DEFPOINTS
 10
-1751.929158
 20
548.34078
 30
0.0
  0
POINT
  5
216
  8
DEFPOINTS
 10
-1241.929158
 20
548.34078
 30
0.0
  0
POINT
  5
217
  8
DEFPOINTS
 10
-1541.587322
 20
400.34098
 30
0.0
  0
LINE
  5
218
  8
2
  6
CONTINUOUS
 10
-1751.929158
 20
545.34078
 30
0.0
 11
-1751.929158
 21
395.34098
 31
0.0
  0
LINE
  5
219
  8
2
  6
CONTINUOUS
 10
-1241.929158
 20
545.34078
 30
0.0
 11
-1241.929158
 21
395.34098
 31
0.0
  0
LINE
  5
21A
  8
2
  6
CONTINUOUS
 10
-1751.929158
 20
400.34098
 30
0.0
 11
-1241.929158
 21
400.34098
 31
0.0
  0
LINE
  5
21B
  8
2
  6
CONTINUOUS
 10
-1717.460887
 20
406.418667
 30
0.0
 11
-1751.929158
 21
400.34098
 31
0.0
  0
LINE
  5
21C
  8
2
  6
CONTINUOUS
 10
-1717.460887
 20
394.263294
 30
0.0
 11
-1751.929158
 21
400.34098
 31
0.0
  0
LINE
  5
21D
  8
2
  6
CONTINUOUS
 10
-1276.39743
 20
394.263294
 30
0.0
 11
-1241.929158
 21
400.34098
 31
0.0
  0
LINE
  5
21E
  8
2
  6
CONTINUOUS
 10
-1276.39743
 20
406.418667
 30
0.0
 11
-1241.929158
 21
400.34098
 31
0.0
  0
TEXT
  5
21F
  8
2
  6
CONTINUOUS
 10
-1564.609131
 20
402.340973
 30
0.0
 40
48.0
  1
510
 41
0.9
  7
MONOTXT
  0
ENDBLK
  5
220
  8
0
  0
BLOCK
  5
222
  8
2
  2
*D38
 70
    65
 10
0.0
 20
0.0
 30
0.0
  3
*D38
  1

  0
POINT
  5
223
  8
DEFPOINTS
 10
-1786.929058
 20
650.34098
 30
0.0
  0
POINT
  5
224
  8
DEFPOINTS
 10
-1751.929158
 20
548.34078
 30
0.0
  0
POINT
  5
225
  8
DEFPOINTS
 10
-1838.851845
 20
400.34098
 30
0.0
  0
LINE
  5
226
  8
2
  6
CONTINUOUS
 10
-1786.929058
 20
647.34098
 30
0.0
 11
-1786.929058
 21
395.34098
 31
0.0
  0
LINE
  5
227
  8
2
  6
CONTINUOUS
 10
-1751.929158
 20
545.34078
 30
0.0
 11
-1751.929158
 21
395.34098
 31
0.0
  0
LINE
  5
228
  8
2
  6
CONTINUOUS
 10
-1940.244244
 20
400.34098
 30
0.0
 11
-1700.22675
 21
400.34098
 31
0.0
  0
LINE
  5
229
  8
2
  6
CONTINUOUS
 10
-1821.39733
 20
394.263294
 30
0.0
 11
-1786.929058
 21
400.34098
 31
0.0
  0
LINE
  5
22A
  8
2
  6
CONTINUOUS
 10
-1821.39733
 20
406.418667
 30
0.0
 11
-1786.929058
 21
400.34098
 31
0.0
  0
LINE
  5
22B
  8
2
  6
CONTINUOUS
 10
-1717.460887
 20
406.418667
 30
0.0
 11
-1751.929158
 21
400.34098
 31
0.0
  0
LINE
  5
22C
  8
2
  6
CONTINUOUS
 10
-1717.460887
 20
394.263294
 30
0.0
 11
-1751.929158
 21
400.34098
 31
0.0
  0
TEXT
  5
22D
  8
2
  6
CONTINUOUS
 10
-1896.564209
 20
402.340973
 30
0.0
 40
48.0
  1
35
 41
0.9
  7
MONOTXT
  0
ENDBLK
  5
22E
  8
0
  0
BLOCK
  5
230
  8
2
  2
*D39
 70
    65
 10
0.0
 20
0.0
 30
0.0
  3
*D39
  1

  0
POINT
  5
231
  8
DEFPOINTS
 10
-1751.929258
 20
548.34078
 30
0.0
  0
POINT
  5
232
  8
DEFPOINTS
 10
-1786.929158
 20
650.34078
 30
0.0
  0
POINT
  5
233
  8
DEFPOINTS
 10
-1973.192543
 20
648.272607
 30
0.0
  0
LINE
  5
234
  8
2
  6
CONTINUOUS
 10
-1754.929258
 20
548.34078
 30
0.0
 11
-1978.192543
 21
548.34078
 31
0.0
  0
LINE
  5
235
  8
2
  6
CONTINUOUS
 10
-1789.929158
 20
650.34078
 30
0.0
 11
-1978.192543
 21
650.34078
 31
0.0
  0
LINE
  5
236
  8
2
  6
CONTINUOUS
 10
-1973.192543
 20
325.620779
 30
0.0
 11
-1973.192543
 21
702.043188
 31
0.0
  0
LINE
  5
237
  8
2
  6
CONTINUOUS
 10
-1967.114855
 20
513.872509
 30
0.0
 11
-1973.192543
 21
548.34078
 31
0.0
  0
LINE
  5
238
  8
2
  6
CONTINUOUS
 10
-1979.270227
 20
513.872509
 30
0.0
 11
-1973.192543
 21
548.34078
 31
0.0
  0
LINE
  5
239
  8
2
  6
CONTINUOUS
 10
-1979.27023
 20
684.809051
 30
0.0
 11
-1973.192543
 21
650.34078
 31
0.0
  0
LINE
  5
23A
  8
2
  6
CONTINUOUS
 10
-1967.114858
 20
684.809052
 30
0.0
 11
-1973.192543
 21
650.34078
 31
0.0
  0
TEXT
  5
23B
  8
2
  6
CONTINUOUS
 10
-1975.192505
 20
369.300781
 30
0.0
 40
48.0
  1
102
 50
90.000003
 41
0.9
  7
MONOTXT
  0
ENDBLK
  5
23C
  8
0
  0
BLOCK
  5
23E
  8
2
  2
*D40
 70
    65
 10
0.0
 20
0.0
 30
0.0
  3
*D40
  1

  0
POINT
  5
23F
  8
DEFPOINTS
 10
-1153.929158
 20
330.34118
 30
0.0
  0
POINT
  5
240
  8
DEFPOINTS
 10
-686.929258
 20
650.34078
 30
0.0
  0
POINT
  5
241
  8
DEFPOINTS
 10
-736.928958
 20
468.198906
 30
0.0
  0
LINE
  5
242
  8
2
  6
CONTINUOUS
 10
-1150.929158
 20
330.34118
 30
0.0
 11
-731.928958
 21
330.34118
 31
0.0
  0
LINE
  5
243
  8
2
  6
CONTINUOUS
 10
-689.929258
 20
650.34078
 30
0.0
 11
-741.928958
 21
650.34078
 31
0.0
  0
LINE
  5
244
  8
2
  6
CONTINUOUS
 10
-736.928958
 20
330.34118
 30
0.0
 11
-736.928958
 21
650.34078
 31
0.0
  0
LINE
  5
245
  8
2
  6
CONTINUOUS
 10
-743.006646
 20
364.809451
 30
0.0
 11
-736.928958
 21
330.34118
 31
0.0
  0
LINE
  5
246
  8
2
  6
CONTINUOUS
 10
-730.851274
 20
364.809452
 30
0.0
 11
-736.928958
 21
330.34118
 31
0.0
  0
LINE
  5
247
  8
2
  6
CONTINUOUS
 10
-730.851271
 20
615.872509
 30
0.0
 11
-736.928958
 21
650.34078
 31
0.0
  0
LINE
  5
248
  8
2
  6
CONTINUOUS
 10
-743.006643
 20
615.872509
 30
0.0
 11
-736.928958
 21
650.34078
 31
0.0
  0
TEXT
  5
249
  8
2
  6
CONTINUOUS
 10
-738.928955
 20
422.66098
 30
0.0
 40
48.0
  1
320
 50
90.000003
 41
0.9
  7
MONOTXT
  0
ENDBLK
  5
24A
  8
0
  0
ENDSEC
  0
SECTION
  2
ENTITIES
  0
DIMENSION
  5
24B
  8
2
  6
CONTINUOUS
 62
     7
  2
*D2
 10
354.943704
 20
-1528.375896
 30
0.0
 11
519.698853
 21
-1501.375854
 31
0.0
 13
354.699102
 23
-1038.07582
 33
0.0
 14
684.698602
 24
-1120.37592
 34
0.0
  0
DIMENSION
  5
24C
  8
2
  6
CONTINUOUS
 62
     7
  2
*D3
 10
2161.068002
 20
-1198.278905
 30
0.0
 11
2135.068113
 21
-1209.895841
 31
0.0
 13
2064.698902
 23
-1120.37582
 33
0.0
 14
2064.698902
 24
-1043.37592
 34
0.0
 50
90.000003
  0
DIMENSION
  5
24D
  8
2
  6
CONTINUOUS
 62
     7
  2
*D4
 10
2161.068002
 20
-881.138764
 30
0.0
 11
2135.068112
 21
-870.375909
 31
0.0
 13
2064.698902
 23
-1043.37592
 33
0.0
 14
2064.698902
 24
-697.37592
 34
0.0
 50
90.000003
  0
DIMENSION
  5
24E
  8
2
  6
CONTINUOUS
 62
     7
  2
*D5
 10
913.096153
 20
-566.28732
 30
0.0
 11
1374.698711
 21
-540.287292
 31
0.0
 13
766.698602
 23
-697.37592
 33
0.0
 14
1982.698902
 24
-697.37592
 34
0.0
  0
DIMENSION
  5
24F
  8
2
  6
CONTINUOUS
 62
     7
  2
*D6
 10
1080.599748
 20
-1316.28732
 30
0.0
 11
1374.698711
 21
-1290.287354
 31
0.0
 13
759.698602
 23
-1016.76612
 33
0.0
 14
1989.698902
 24
-1013.08032
 34
0.0
  0
DIMENSION
  5
250
  8
2
  6
CONTINUOUS
 62
     7
  2
*D7
 10
651.595161
 20
-570.099961
 30
0.0
 11
657.481357
 21
-544.099976
 31
0.0
 13
619.698602
 23
-789.37592
 33
0.0
 14
684.698602
 24
-650.37592
 34
0.0
  0
DIMENSION
  5
251
  8
2
  6
CONTINUOUS
 62
     7
  2
*D8
 10
1129.734136
 20
-1226.28732
 30
0.0
 11
1374.69873
 21
-1194.287354
 31
0.0
  1
５×２００＝１０００
 13
874.698602
 23
-1075.49302
 33
0.0
 14
1874.698902
 24
-1070.08722
 34
0.0
  0
DIMENSION
  5
252
  8
2
  6
CONTINUOUS
 62
     7
  2
*D9
 10
591.48925
 20
-1316.28732
 30
0.0
 11
564.178623
 21
-1290.287354
 31
0.0
 13
653.698602
 23
-1112.37592
 33
0.0
 14
684.698602
 24
-1120.37592
 34
0.0
  0
DIMENSION
  5
253
  8
2
  6
CONTINUOUS
 62
     7
  2
*D10
 10
575.855581
 20
-1406.28732
 30
0.0
 11
559.698616
 21
-1380.287354
 31
0.0
 13
434.698602
 23
-1038.07592
 33
0.0
 14
684.698602
 24
-1120.37592
 34
0.0
  0
DIMENSION
  5
254
  8
2
  6
CONTINUOUS
 62
     7
  2
*D11
 10
241.068002
 20
-1010.674878
 30
0.0
 11
215.068005
 21
-995.375909
 31
0.0
 13
582.698602
 23
-1120.37592
 33
0.0
 14
436.068002
 24
-870.37592
 34
0.0
 50
90.000003
  0
DIMENSION
  5
255
  8
2
  6
CONTINUOUS
 62
     7
  2
*D12
 10
331.068002
 20
-907.93934
 30
0.0
 11
305.06799
 21
-870.375909
 31
0.0
 13
436.067802
 23
-1050.37592
 33
0.0
 14
845.560702
 24
-690.37592
 34
0.0
 50
90.000003
  0
DIMENSION
  5
256
  8
2
  6
CONTINUOUS
 62
     7
  2
*D13
 10
421.068002
 20
-925.80639
 30
0.0
 11
395.06799
 21
-872.375909
 31
0.0
 13
740.146902
 23
-972.37592
 33
0.0
 14
740.146902
 24
-772.37592
 34
0.0
 50
90.000003
  0
DIMENSION
  5
257
  8
2
  6
CONTINUOUS
 62
     7
  2
*D14
 10
-341.651011
 20
-868.780383
 30
0.0
 11
-367.651004
 21
-885.375909
 31
0.0
 13
-740.020511
 23
-1120.375896
 33
0.0
 14
-745.020511
 24
-650.375896
 34
0.0
 50
90.000003
  0
DIMENSION
  5
258
  8
2
  6
CONTINUOUS
 62
     7
  2
*D15
 10
-431.651011
 20
-940.558776
 30
0.0
 11
-457.651004
 21
-960.875909
 31
0.0
 13
-740.020511
 23
-1120.375896
 33
0.0
 14
-978.671111
 24
-801.375896
 34
0.0
 50
90.000003
  0
DIMENSION
  5
259
  8
2
  6
CONTINUOUS
 62
     7
  2
*D16
 10
-521.651011
 20
-1076.753674
 30
0.0
 11
-547.651003
 21
-1081.062833
 31
0.0
 13
-740.020511
 23
-1120.375896
 33
0.0
 14
-956.049911
 24
-1025.375896
 34
0.0
 50
90.000003
  0
DIMENSION
  5
25A
  8
2
  6
CONTINUOUS
 62
     7
  2
*D17
 10
-626.651011
 20
-1098.839333
 30
0.0
 11
-652.651003
 21
-1209.895963
 31
0.0
 13
-740.020511
 23
-1120.375896
 33
0.0
 14
-698.020611
 24
-1070.375996
 34
0.0
 50
90.000003
  0
DIMENSION
  5
25B
  8
2
  6
CONTINUOUS
 62
     7
  2
*D18
 10
-1573.605064
 20
-1526.287296
 30
0.0
 11
-1295.020527
 21
-1500.287354
 31
0.0
 13
-1845.020511
 23
-1120.375896
 33
0.0
 14
-745.020511
 24
-1120.375896
 34
0.0
  0
DIMENSION
  5
25C
  8
2
  6
CONTINUOUS
 62
     7
  2
*D19
 10
-1926.975612
 20
-1226.287296
 30
0.0
 11
-1964.540493
 21
-1200.287354
 31
0.0
 13
-1875.020511
 23
-1070.375996
 33
0.0
 14
-1845.020511
 24
-1120.375896
 34
0.0
  0
DIMENSION
  5
25D
  8
2
  6
CONTINUOUS
 62
     7
  2
*D20
 10
-951.525663
 20
-1346.287296
 30
0.0
 11
-883.5205
 21
-1320.287354
 31
0.0
 13
-1022.020511
 23
-1062.036896
 33
0.0
 14
-745.020511
 24
-1120.375896
 34
0.0
  0
DIMENSION
  5
25E
  8
2
  6
CONTINUOUS
 62
     7
  2
*D21
 10
-1106.125277
 20
-1436.287296
 30
0.0
 11
-987.520562
 21
-1410.287354
 31
0.0
 13
-1230.020511
 23
-1155.056996
 33
0.0
 14
-745.020511
 24
-1120.375896
 34
0.0
  0
DIMENSION
  5
25F
  8
2
  6
CONTINUOUS
 62
     7
  2
*D22
 10
-1123.855611
 20
-1059.432055
 30
0.0
 11
-1149.855593
 21
-1005.855924
 31
0.0
 13
-740.020511
 23
-1120.375896
 33
0.0
 14
-1182.262111
 24
-1095.375896
 34
0.0
 50
90.000003
  0
DIMENSION
  5
260
  8
2
  6
CONTINUOUS
 62
     7
  2
*D23
 10
-1123.855611
 20
-1192.574534
 30
0.0
 11
-1149.855593
 21
-1237.895963
 31
0.0
 13
-1202.820311
 23
-1148.375896
 33
0.0
 14
-740.020511
 24
-1120.375896
 34
0.0
 50
90.000003
  0
DIMENSION
  5
261
  8
2
  6
CONTINUOUS
 62
     7
  2
*D24
 10
-1384.146511
 20
-1187.736593
 30
0.0
 11
-1410.146487
 21
-1187.524347
 31
0.0
  1
135
 13
-1236.246511
 23
-1240.375896
 33
0.0
 14
-1300.020111
 24
-1120.376196
 34
0.0
 50
90.000003
  0
DIMENSION
  5
262
  8
2
  6
CONTINUOUS
 62
     7
  2
*D25
 10
-1961.651011
 20
-853.666272
 30
0.0
 11
-1993.651008
 21
-887.054078
 31
0.0
  1
３×１００＝３００
 13
-1883.910011
 23
-1020.375896
 33
0.0
 14
-1881.179911
 24
-720.375896
 34
0.0
 50
90.000003
  0
DIMENSION
  5
263
  8
2
  6
CONTINUOUS
 62
     7
  2
*D26
 10
184.068002
 20
1171.495651
 30
0.0
 11
158.068005
 21
1199.408026
 31
0.0
 13
582.698602
 23
1074.407763
 33
0.0
 14
536.877785
 24
1324.408246
 34
0.0
 50
90.000003
  0
DIMENSION
  5
264
  8
2
  6
CONTINUOUS
 62
     7
  2
*D27
 10
304.068002
 20
1403.196971
 30
0.0
 11
278.06799
 21
1324.407782
 31
0.0
 13
703.144202
 23
1144.407763
 33
0.0
 14
695.148802
 24
1504.407763
 34
0.0
 50
90.000003
  0
DIMENSION
  5
265
  8
2
  6
CONTINUOUS
 62
     7
  2
*D28
 10
394.068002
 20
1278.434722
 30
0.0
 11
368.06799
 21
1324.407782
 31
0.0
 13
672.698602
 23
1159.407763
 33
0.0
 14
672.699802
 24
1489.407763
 34
0.0
 50
90.000003
  0
DIMENSION
  5
266
  8
2
  6
CONTINUOUS
 62
     7
  2
*D29
 10
484.068002
 20
1240.560468
 30
0.0
 11
452.067987
 21
1339.180736
 31
0.0
  1
３×１００＝３００
 13
624.749902
 23
1174.407763
 33
0.0
 14
618.509702
 24
1474.407763
 34
0.0
 50
90.000003
  0
DIMENSION
  5
267
  8
2
  6
CONTINUOUS
 62
     7
  2
*D30
 10
929.367911
 20
782.496363
 30
0.0
 11
1272.698711
 21
808.496338
 31
0.0
 13
657.698602
 23
1162.444701
 33
0.0
 14
1887.698902
 24
1159.841142
 34
0.0
  0
DIMENSION
  5
268
  8
2
  6
CONTINUOUS
 62
     7
  2
*D31
 10
956.102678
 20
872.496363
 30
0.0
 11
1272.698711
 21
898.496338
 31
0.0
 13
672.698602
 23
1129.407763
 33
0.0
 14
1872.698902
 24
1129.407763
 34
0.0
  0
DIMENSION
  5
269
  8
2
  6
CONTINUOUS
 62
     7
  2
*D32
 10
1036.306981
 20
962.496363
 30
0.0
 11
1272.69873
 21
994.496338
 31
0.0
  1
１１×１００＝１１００
 13
722.698602
 23
1119.708763
 33
0.0
 14
1822.698902
 24
1117.563763
 34
0.0
  0
DIMENSION
  5
26A
  8
2
  6
CONTINUOUS
 62
     7
  2
*D33
 10
-1903.559658
 20
1631.532183
 30
0.0
 11
-1935.559702
 21
1340.340746
 31
0.0
  1
１１×１００＝１１００
 13
-1838.299358
 23
790.34078
 33
0.0
 14
-1835.959158
 24
1890.34078
 34
0.0
 50
90.000003
  0
DIMENSION
  5
26B
  8
2
  6
CONTINUOUS
 62
     7
  2
*D34
 10
-735.543134
 20
2200.336415
 30
0.0
 11
-1236.929219
 21
2226.336426
 31
0.0
 13
-1810.929158
 23
2081.62788
 33
0.0
 14
-662.929158
 24
2081.62788
 34
0.0
  0
DIMENSION
  5
26C
  8
2
  6
CONTINUOUS
 62
     7
  2
*D35
 10
-343.954292
 20
988.411821
 30
0.0
 11
-369.954289
 21
1340.3408
 31
0.0
 13
-686.929258
 23
650.34078
 33
0.0
 14
-686.929158
 24
2030.34078
 34
0.0
 50
90.000003
  0
DIMENSION
  5
26D
  8
2
  6
CONTINUOUS
 62
     7
  2
*D36
 10
-492.586553
 20
1988.821273
 30
0.0
 11
-518.586552
 21
1340.3408
 31
0.0
 13
-606.676358
 23
692.34078
 33
0.0
 14
-606.676358
 24
1988.34078
 34
0.0
 50
90.000003
  0
DIMENSION
  5
26E
  8
2
  6
CONTINUOUS
 62
     7
  2
*D37
 10
-1541.587322
 20
400.34098
 30
0.0
 11
-1496.929131
 21
426.340973
 31
0.0
 13
-1751.929158
 23
548.34078
 33
0.0
 14
-1241.929158
 24
548.34078
 34
0.0
  0
DIMENSION
  5
26F
  8
2
  6
CONTINUOUS
 62
     7
  2
*D38
 10
-1838.851845
 20
400.34098
 30
0.0
 11
-1850.724209
 21
426.340973
 31
0.0
 13
-1786.929058
 23
650.34098
 33
0.0
 14
-1751.929158
 24
548.34078
 34
0.0
  0
DIMENSION
  5
270
  8
2
  6
CONTINUOUS
 62
     7
  2
*D39
 10
-1973.192543
 20
648.272607
 30
0.0
 11
-1999.192508
 21
436.98078
 31
0.0
 13
-1751.929258
 23
548.34078
 33
0.0
 14
-1786.929158
 24
650.34078
 34
0.0
 50
90.000003
  0
DIMENSION
  5
271
  8
2
  6
CONTINUOUS
 62
     7
  2
*D40
 10
-736.928958
 20
468.198906
 30
0.0
 11
-762.928958
 21
490.340979
 31
0.0
 13
-1153.929158
 23
330.34118
 33
0.0
 14
-686.929258
 24
650.34078
 34
0.0
 50
90.000003
  0
LINE
  5
272
  8
1
 10
-1845.020511
 20
-1120.375896
 30
0.0
 11
-1845.020511
 21
-650.375896
 31
0.0
  0
LINE
  5
273
  8
1
 10
-1845.020511
 20
-650.375896
 30
0.0
 11
-745.020511
 21
-650.375896
 31
0.0
  0
LINE
  5
274
  8
1
 10
-745.020511
 20
-650.375896
 30
0.0
 11
-745.020511
 21
-1120.375896
 31
0.0
  0
LINE
  5
275
  8
1
 10
-740.020511
 20
-1120.375896
 30
0.0
 11
-1850.020611
 21
-1120.375896
 31
0.0
  0
LINE
  5
276
  8
1
 10
-1810.020511
 20
-1120.375896
 30
0.0
 11
-1810.020511
 21
-650.375896
 31
0.0
  0
LINE
  5
277
  8
1
 10
-1300.020111
 20
-1120.376196
 30
0.0
 11
-1300.020311
 21
-650.375796
 31
0.0
  0
LINE
  5
278
  8
1
  6
DASHED
 10
434.698602
 20
-1038.07592
 30
0.0
 11
434.698602
 21
-1012.67602
 31
0.0
  0
LINE
  5
279
  8
1
 10
582.698602
 20
-650.37592
 30
0.0
 11
2064.698902
 21
-650.37582
 31
0.0
  0
LINE
  5
27A
  8
1
 10
2064.698902
 20
-650.37592
 30
0.0
 11
2064.698902
 21
-1120.37592
 31
0.0
  0
LINE
  5
27B
  8
1
 10
2064.698902
 20
-1120.37582
 30
0.0
 11
582.698602
 21
-1120.37592
 31
0.0
  0
LINE
  5
27C
  8
1
 10
684.698602
 20
-1120.37592
 30
0.0
 11
684.698602
 21
-650.37592
 31
0.0
  0
LINE
  5
27D
  8
1
 10
2064.698902
 20
-1043.37592
 30
0.0
 11
684.698602
 21
-1043.37592
 31
0.0
  0
LINE
  5
27E
  8
1
 10
2064.698902
 20
-697.37592
 30
0.0
 11
684.698602
 21
-697.37592
 31
0.0
  0
LINE
  5
27F
  8
1
 10
766.698602
 20
-1043.37592
 30
0.0
 11
766.698602
 21
-697.37592
 31
0.0
  0
LINE
  5
280
  8
1
 10
1982.698902
 20
-1043.37592
 30
0.0
 11
1982.698902
 21
-697.37592
 31
0.0
  0
CIRCLE
  5
281
  8
1
 10
1274.698602
 20
-1050.37592
 30
0.0
 40
5.0
  0
CIRCLE
  5
282
  8
1
 10
1074.698602
 20
-1050.37592
 30
0.0
 40
5.0
  0
CIRCLE
  5
283
  8
1
 10
874.698602
 20
-1050.37592
 30
0.0
 40
5.0
  0
LINE
  5
284
  8
1
  6
DASHDOT
 10
1921.068502
 20
-1050.37592
 30
0.0
 11
651.068002
 21
-1050.37592
 31
0.0
  0
LINE
  5
285
  8
1
  6
DASHDOT
 10
874.698602
 20
-1035.44062
 30
0.0
 11
874.698602
 21
-1075.49302
 31
0.0
  0
LINE
  5
286
  8
1
  6
DASHDOT
 10
1274.698602
 20
-1028.56052
 30
0.0
 11
1274.698602
 21
-1070.08722
 31
0.0
  0
LINE
  5
287
  8
1
  6
DASHDOT
 10
1374.696902
 20
-616.28732
 30
0.0
 11
1374.698402
 21
-1141.28732
 31
0.0
  0
LINE
  5
288
  8
1
  6
DASHDOT
 10
1274.698602
 20
-668.56052
 30
0.0
 11
1274.698602
 21
-710.08722
 31
0.0
  0
LINE
  5
289
  8
1
  6
DASHDOT
 10
874.698602
 20
-675.44062
 30
0.0
 11
874.698602
 21
-715.49302
 31
0.0
  0
LINE
  5
28A
  8
1
  6
DASHDOT
 10
1921.067502
 20
-690.37592
 30
0.0
 11
845.560702
 21
-690.37592
 31
0.0
  0
CIRCLE
  5
28B
  8
1
 10
874.698602
 20
-690.37592
 30
0.0
 40
5.0
  0
CIRCLE
  5
28C
  8
1
 10
1074.698602
 20
-690.37592
 30
0.0
 40
5.0
  0
CIRCLE
  5
28D
  8
1
 10
1274.698602
 20
-690.37592
 30
0.0
 40
5.0
  0
LINE
  5
28E
  8
1
  6
DASHDOT
 10
2007.276002
 20
-972.37592
 30
0.0
 11
1965.749202
 21
-972.37592
 31
0.0
  0
LINE
  5
28F
  8
1
  6
DASHDOT
 10
781.182002
 20
-972.37592
 30
0.0
 11
740.146902
 21
-972.37592
 31
0.0
  0
CIRCLE
  5
290
  8
1
 10
759.698602
 20
-772.37592
 30
0.0
 40
5.0
  0
CIRCLE
  5
291
  8
1
 10
1989.698902
 20
-972.37592
 30
0.0
 40
5.0
  0
CIRCLE
  5
292
  8
1
 10
759.698602
 20
-972.37592
 30
0.0
 40
5.0
  0
CIRCLE
  5
293
  8
1
 10
1989.698902
 20
-772.37592
 30
0.0
 40
5.0
  0
LINE
  5
294
  8
1
  6
DASHDOT
 10
781.182002
 20
-772.37592
 30
0.0
 11
740.146902
 21
-772.37592
 31
0.0
  0
LINE
  5
295
  8
1
  6
DASHDOT
 10
2007.276002
 20
-772.37592
 30
0.0
 11
1965.749202
 21
-772.37592
 31
0.0
  0
LINE
  5
296
  8
1
  6
DASHDOT
 10
1989.698902
 20
-744.26292
 30
0.0
 11
1989.698902
 21
-1013.08032
 31
0.0
  0
LINE
  5
297
  8
1
  6
DASHDOT
 10
759.698602
 20
-742.78852
 30
0.0
 11
759.698602
 21
-1016.76612
 31
0.0
  0
LINE
  5
298
  8
1
 10
653.698602
 20
-1112.37592
 30
0.0
 11
653.698602
 21
-1078.37602
 31
0.0
  0
LINE
  5
299
  8
1
 10
684.698602
 20
-1078.37592
 30
0.0
 11
653.698902
 21
-1078.37592
 31
0.0
  0
LINE
  5
29A
  8
1
 10
684.698602
 20
-1112.37592
 30
0.0
 11
653.698902
 21
-1112.37592
 31
0.0
  0
LINE
  5
29B
  8
1
  6
DASHDOT
 10
-1278.012311
 20
-1095.375896
 30
0.0
 11
-1182.262111
 21
-1095.375896
 31
0.0
  0
LINE
  5
29C
  8
1
 10
686.698602
 20
-1120.37592
 30
0.0
 11
686.698602
 21
-1070.37602
 31
0.0
  0
LINE
  5
29D
  8
1
 10
766.698602
 20
-1120.37592
 30
0.0
 11
766.698602
 21
-1070.37602
 31
0.0
  0
LINE
  5
29E
  8
1
 10
719.698602
 20
-1085.37592
 30
0.0
 11
719.698602
 21
-1070.37602
 31
0.0
  0
LINE
  5
29F
  8
1
 10
-698.020511
 20
-1070.375896
 30
0.0
 11
-698.020511
 21
-1085.375896
 31
0.0
  0
LINE
  5
2A0
  8
1
 10
-698.020611
 20
-1070.375996
 30
0.0
 11
-745.020411
 21
-1070.375996
 31
0.0
  0
LINE
  5
2A1
  8
1
 10
-703.020511
 20
-1075.375896
 30
0.0
 11
-703.020511
 21
-1085.375896
 31
0.0
  0
LINE
  5
2A2
  8
1
 10
-740.020511
 20
-1075.375896
 30
0.0
 11
-740.020511
 21
-1120.375896
 31
0.0
  0
LINE
  5
2A3
  8
1
 10
-703.020511
 20
-1075.375896
 30
0.0
 11
-740.020611
 21
-1075.375896
 31
0.0
  0
LINE
  5
2A4
  8
1
 10
-698.020611
 20
-1085.375996
 30
0.0
 11
-703.020511
 21
-1085.375996
 31
0.0
  0
LINE
  5
2A5
  8
1
 10
1982.698902
 20
-1070.37602
 30
0.0
 11
2062.698902
 21
-1070.37602
 31
0.0
  0
LINE
  5
2A6
  8
1
 10
1982.698902
 20
-1085.37602
 30
0.0
 11
2015.698902
 21
-1085.37602
 31
0.0
  0
LINE
  5
2A7
  8
1
 10
2029.698902
 20
-1085.37592
 30
0.0
 11
2062.698902
 21
-1085.37602
 31
0.0
  0
LINE
  5
2A8
  8
1
  6
DASHED
 10
2029.699302
 20
-1075.37592
 30
0.0
 11
2062.698902
 21
-1075.37602
 31
0.0
  0
LINE
  5
2A9
  8
1
  6
DASHED
 10
1982.699302
 20
-1075.37602
 30
0.0
 11
2015.698902
 21
-1075.37592
 31
0.0
  0
LINE
  5
2AA
  8
1
  6
DASHED
 10
766.698902
 20
-1075.37582
 30
0.0
 11
733.698902
 21
-1075.37592
 31
0.0
  0
LINE
  5
2AB
  8
1
  6
DASHED
 10
719.698602
 20
-1075.37592
 30
0.0
 11
686.698602
 21
-1075.37602
 31
0.0
  0
LINE
  5
2AC
  8
1
 10
719.698602
 20
-1085.37592
 30
0.0
 11
686.698602
 21
-1085.37602
 31
0.0
  0
LINE
  5
2AD
  8
1
 10
766.698902
 20
-1085.37602
 30
0.0
 11
733.698602
 21
-1085.37592
 31
0.0
  0
LINE
  5
2AE
  8
1
 10
2062.698902
 20
-1070.37602
 30
0.0
 11
2062.698902
 21
-1120.37592
 31
0.0
  0
LINE
  5
2AF
  8
1
 10
1982.698902
 20
-1070.37602
 30
0.0
 11
1982.698902
 21
-1120.37592
 31
0.0
  0
LINE
  5
2B0
  8
1
 10
2015.698902
 20
-1070.37602
 30
0.0
 11
2015.698902
 21
-1085.37602
 31
0.0
  0
LINE
  5
2B1
  8
1
 10
766.698602
 20
-1070.37602
 30
0.0
 11
686.698602
 21
-1070.37602
 31
0.0
  0
LINE
  5
2B2
  8
1
 10
-1892.020411
 20
-1085.375996
 30
0.0
 11
-1887.020511
 21
-1085.375996
 31
0.0
  0
LINE
  5
2B3
  8
1
 10
-1887.020511
 20
-1075.375896
 30
0.0
 11
-1850.020411
 21
-1075.375896
 31
0.0
  0
LINE
  5
2B4
  8
1
 10
-1850.020511
 20
-1075.375896
 30
0.0
 11
-1850.020511
 21
-1120.375896
 31
0.0
  0
LINE
  5
2B5
  8
1
 10
-1887.020511
 20
-1075.375896
 30
0.0
 11
-1887.020511
 21
-1085.375896
 31
0.0
  0
LINE
  5
2B6
  8
1
 10
-1892.020411
 20
-1070.375996
 30
0.0
 11
-1845.020611
 21
-1070.375996
 31
0.0
  0
LINE
  5
2B7
  8
1
 10
-1892.020511
 20
-1070.375896
 30
0.0
 11
-1892.020511
 21
-1085.375896
 31
0.0
  0
CIRCLE
  5
2B8
  8
1
 10
632.698602
 20
-1098.37592
 30
0.0
 40
13.5
  0
LINE
  5
2B9
  8
1
 10
733.698602
 20
-1085.37592
 30
0.0
 11
733.698602
 21
-1070.37602
 31
0.0
  0
LINE
  5
2BA
  8
1
 10
2029.698902
 20
-1070.37602
 30
0.0
 11
2029.698902
 21
-1085.37602
 31
0.0
  0
LINE
  5
2BB
  8
1
  6
DASHDOT
 10
2087.090002
 20
-870.37582
 30
0.0
 11
436.068002
 21
-870.37592
 31
0.0
  0
LINE
  5
2BC
  8
1
 10
-1875.020511
 20
-1070.375996
 30
0.0
 11
-1875.020511
 21
-675.375896
 31
0.0
  0
LINE
  5
2BD
  8
1
 10
-1875.020511
 20
-675.375896
 30
0.0
 11
-1845.020511
 21
-675.375896
 31
0.0
  0
LINE
  5
2BE
  8
1
 10
-1875.020511
 20
-1065.375896
 30
0.0
 11
-1845.020511
 21
-1065.375896
 31
0.0
  0
CIRCLE
  5
2BF
  8
1
 10
-1860.020511
 20
-720.375896
 30
0.0
 40
3.5
  0
CIRCLE
  5
2C0
  8
1
 10
-1860.020511
 20
-820.375896
 30
0.0
 40
3.5
  0
CIRCLE
  5
2C1
  8
1
 10
-1860.020511
 20
-920.375896
 30
0.0
 40
3.5
  0
CIRCLE
  5
2C2
  8
1
 10
-1860.020511
 20
-1020.375896
 30
0.0
 40
3.5
  0
LINE
  5
2C3
  8
1
  6
DASHDOT
 10
-1834.572411
 20
-720.375896
 30
0.0
 11
-1881.179911
 21
-720.375896
 31
0.0
  0
LINE
  5
2C4
  8
1
  6
DASHDOT
 10
-1835.742411
 20
-1020.375896
 30
0.0
 11
-1883.910011
 21
-1020.375896
 31
0.0
  0
LINE
  5
2C5
  8
1
  6
DASHDOT
 10
-1860.020511
 20
-686.446496
 30
0.0
 11
-1860.020511
 21
-1055.991496
 31
0.0
  0
LINE
  5
2C6
  8
1
 10
-1016.020511
 20
-650.375896
 30
0.0
 11
-1016.020411
 21
-784.405096
 31
0.0
  0
LINE
  5
2C7
  8
1
 10
-1028.020511
 20
-650.375896
 30
0.0
 11
-1028.020511
 21
-784.404996
 31
0.0
  0
LINE
  5
2C8
  8
1
 10
647.198902
 20
-1070.37592
 30
0.0
 11
647.198902
 21
-980.37622
 31
0.0
  0
CIRCLE
  5
2C9
  8
1
 10
-1022.020511
 20
-801.375896
 30
0.0
 40
6.35
  0
LINE
  5
2CA
  8
1
 10
-1006.432011
 20
-810.375896
 30
0.0
 11
-1006.432011
 21
-792.375896
 31
0.0
  0
LINE
  5
2CB
  8
1
 10
-1028.020511
 20
-1069.250996
 30
0.0
 11
-1028.020511
 21
-1120.375896
 31
0.0
  0
CIRCLE
  5
2CC
  8
1
 10
-1022.020511
 20
-801.375896
 30
0.0
 40
18.0
  0
LINE
  5
2CD
  8
1
  6
DASHDOT
 10
590.867802
 20
-1025.37592
 30
0.0
 11
734.395902
 21
-1025.37592
 31
0.0
  0
LINE
  5
2CE
  8
1
  6
DASHDOT
 10
580.867802
 20
-801.37592
 30
0.0
 11
734.395902
 21
-801.37592
 31
0.0
  0
LINE
  5
2CF
  8
1
 10
626.461102
 20
-783.37592
 30
0.0
 11
641.698902
 21
-783.37592
 31
0.0
  0
LINE
  5
2D0
  8
1
 10
626.461102
 20
-819.37592
 30
0.0
 11
641.698902
 21
-819.37592
 31
0.0
  0
LINE
  5
2D1
  8
1
 10
632.198902
 20
-1070.37592
 30
0.0
 11
632.198902
 21
-980.37612
 31
0.0
  0
LINE
  5
2D2
  8
1
 10
619.698602
 20
-813.37592
 30
0.0
 11
619.698602
 21
-789.37592
 31
0.0
  0
LINE
  5
2D3
  8
1
  6
DASHDOT
 10
-978.671111
 20
-801.375896
 30
0.0
 11
-1082.221711
 21
-801.375896
 31
0.0
  0
LINE
  5
2D4
  8
1
  6
DASHDOT
 10
-956.049911
 20
-1025.375896
 30
0.0
 11
-1094.507311
 21
-1025.375896
 31
0.0
  0
LINE
  5
2D5
  8
1
  6
DASHDOT
 10
-1022.020511
 20
-745.924796
 30
0.0
 11
-1022.020511
 21
-1062.036896
 31
0.0
  0
LINE
  5
2D6
  8
1
 10
641.698602
 20
-819.37592
 30
0.0
 11
641.698602
 21
-783.37592
 31
0.0
  0
LINE
  5
2D7
  8
1
 10
647.698602
 20
-819.37592
 30
0.0
 11
647.698602
 21
-783.37592
 31
0.0
  0
LINE
  5
2D8
  8
1
 10
657.698602
 20
-819.37592
 30
0.0
 11
657.698602
 21
-783.37592
 31
0.0
  0
LINE
  5
2D9
  8
1
 10
641.698602
 20
-795.02592
 30
0.0
 11
647.698602
 21
-795.02592
 31
0.0
  0
LINE
  5
2DA
  8
1
 10
641.698902
 20
-807.72592
 30
0.0
 11
647.698902
 21
-807.72592
 31
0.0
  0
LINE
  5
2DB
  8
1
 10
657.698602
 20
-795.02592
 30
0.0
 11
684.698402
 21
-795.02592
 31
0.0
  0
LINE
  5
2DC
  8
1
 10
657.698602
 20
-807.72592
 30
0.0
 11
684.698402
 21
-807.72592
 31
0.0
  0
LINE
  5
2DD
  8
1
 10
647.698602
 20
-819.37592
 30
0.0
 11
657.698902
 21
-819.37592
 31
0.0
  0
LINE
  5
2DE
  8
1
 10
647.698602
 20
-783.37592
 30
0.0
 11
657.698602
 21
-783.37592
 31
0.0
  0
LINE
  5
2DF
  8
1
 10
-1006.432011
 20
-792.375896
 30
0.0
 11
-1022.020511
 21
-783.375896
 31
0.0
  0
LINE
  5
2E0
  8
1
 10
-1022.020511
 20
-783.375896
 30
0.0
 11
-1037.609011
 21
-792.375896
 31
0.0
  0
LINE
  5
2E1
  8
1
 10
-1037.609011
 20
-792.375896
 30
0.0
 11
-1037.609011
 21
-810.375896
 31
0.0
  0
LINE
  5
2E2
  8
1
 10
-1037.609011
 20
-810.375896
 30
0.0
 11
-1022.020511
 21
-819.375896
 31
0.0
  0
LINE
  5
2E3
  8
1
 10
-1022.020511
 20
-819.375896
 30
0.0
 11
-1006.432011
 21
-810.375896
 31
0.0
  0
LINE
  5
2E4
  8
1
 10
626.461302
 20
-807.37582
 30
0.0
 11
635.936202
 21
-807.37582
 31
0.0
  0
LINE
  5
2E5
  8
1
 10
626.461102
 20
-795.37582
 30
0.0
 11
635.936202
 21
-795.37592
 31
0.0
  0
LINE
  5
2E6
  8
1
  6
DASHDOT
 10
-1278.012311
 20
-1095.375896
 30
0.0
 11
-1182.262111
 21
-1095.375896
 31
0.0
  0
ARC
  5
2E7
  8
1
 10
649.698902
 20
-789.37592
 30
0.0
 40
24.0
 50
165.5225
 51
194.4777
  0
ARC
  5
2E8
  8
1
 10
649.698902
 20
-801.37592
 30
0.0
 40
24.0
 50
165.5225
 51
194.4777
  0
ARC
  5
2E9
  8
1
 10
649.698902
 20
-813.37592
 30
0.0
 40
24.0
 50
165.5225
 51
194.4777
  0
LINE
  5
2EA
  8
1
  6
DASHDOT
 10
714.114602
 20
-1095.37592
 30
0.0
 11
613.294302
 21
-1095.37592
 31
0.0
  0
LINE
  5
2EB
  8
1
 10
626.461102
 20
-819.37592
 30
0.0
 11
619.698602
 21
-813.37592
 31
0.0
  0
LINE
  5
2EC
  8
1
 10
626.461102
 20
-783.37592
 30
0.0
 11
619.698602
 21
-789.37592
 31
0.0
  0
LINE
  5
2ED
  8
1
 10
636.698602
 20
-819.37592
 30
0.0
 11
636.698602
 21
-783.37592
 31
0.0
  0
ARC
  5
2EE
  8
1
 10
612.698402
 20
-813.37592
 30
0.0
 40
24.0
 50
345.5227
 51
14.4779
  0
ARC
  5
2EF
  8
1
 10
612.698402
 20
-801.37592
 30
0.0
 40
24.0
 50
345.5227
 51
14.4779
  0
ARC
  5
2F0
  8
1
 10
612.698402
 20
-789.37592
 30
0.0
 40
24.0
 50
345.5227
 51
14.4779
  0
ARC
  5
2F1
  8
1
 10
616.698902
 20
-1002.87592
 30
0.0
 40
8.0
 50
90.0001
 51
270.0002
  0
LINE
  5
2F2
  8
1
  6
DASHDOT
 10
591.068002
 20
-1050.37592
 30
0.0
 11
436.067802
 21
-1050.37592
 31
0.0
  0
ARC
  5
2F3
  8
1
 10
616.698902
 20
-1047.87592
 30
0.0
 40
8.0
 50
90.0001
 51
270.0002
  0
LINE
  5
2F4
  8
1
  6
DASHED
 10
354.698902
 20
-1012.67602
 30
0.0
 11
617.198602
 21
-1012.67592
 31
0.0
  0
LINE
  5
2F5
  8
1
  6
DASHED
 10
354.699102
 20
-1038.07582
 30
0.0
 11
617.198602
 21
-1038.07592
 31
0.0
  0
LINE
  5
2F6
  8
1
 10
647.198902
 20
-1012.67592
 30
0.0
 11
684.698602
 21
-1012.67592
 31
0.0
  0
LINE
  5
2F7
  8
1
 10
647.198902
 20
-1038.07592
 30
0.0
 11
684.698602
 21
-1038.07592
 31
0.0
  0
LINE
  5
2F8
  8
1
  6
DASHED
 10
354.698902
 20
-1038.07602
 30
0.0
 11
354.698902
 21
-1012.67592
 31
0.0
  0
LINE
  5
2F9
  8
1
 10
616.698902
 20
-980.37622
 30
0.0
 11
646.698902
 21
-980.37622
 31
0.0
  0
LINE
  5
2FA
  8
1
 10
616.698902
 20
-1070.37592
 30
0.0
 11
646.698902
 21
-1070.37592
 31
0.0
  0
LINE
  5
2FB
  8
1
 10
616.698902
 20
-1070.37592
 30
0.0
 11
616.698602
 21
-980.37622
 31
0.0
  0
CIRCLE
  5
2FC
  8
1
 10
-1695.529911
 20
-985.202696
 30
0.0
 40
15.0
  0
LINE
  5
2FD
  8
1
 10
-1016.020411
 20
-1069.250996
 30
0.0
 11
-1016.020511
 21
-1120.375896
 31
0.0
  0
LINE
  5
2FE
  8
1
 10
-1028.020511
 20
-818.346896
 30
0.0
 11
-1028.020511
 21
-981.501196
 31
0.0
  0
LINE
  5
2FF
  8
1
 10
-1016.020411
 20
-818.346696
 30
0.0
 11
-1016.020411
 21
-981.500996
 31
0.0
  0
CIRCLE
  5
300
  8
1
  6
DASHED
 10
-1022.020411
 20
-1025.375896
 30
0.0
 40
6.0
  0
CIRCLE
  5
301
  8
1
  6
DASHED
 10
-1022.020411
 20
-1025.375896
 30
0.0
 40
11.0
  0
LINE
  5
302
  8
1
  6
DASHED
 10
-1242.020411
 20
-1134.959496
 30
0.0
 11
-1242.020511
 21
-1095.375896
 31
0.0
  0
LINE
  5
303
  8
1
  6
DASHDOT
 10
-1230.020511
 20
-1054.603396
 30
0.0
 11
-1230.020511
 21
-1155.056996
 31
0.0
  0
CIRCLE
  5
304
  8
1
 10
1474.698602
 20
-690.37592
 30
0.0
 40
5.0
  0
LINE
  5
305
  8
1
  6
DASHED
 10
394.698902
 20
-1253.37592
 30
0.0
 11
394.698902
 21
-1203.37592
 31
0.0
  0
LINE
  5
306
  8
1
  6
DASHDOT
 10
-1834.572411
 20
-870.375896
 30
0.0
 11
-1881.179911
 21
-870.375896
 31
0.0
  0
LINE
  5
307
  8
1
  6
DASHED
 10
-1218.020511
 20
-1134.959496
 30
0.0
 11
-1218.020511
 21
-1095.375896
 31
0.0
  0
ARC
  5
308
  8
1
  6
DASHED
 10
-1230.020511
 20
-1228.375896
 30
0.0
 40
12.0
 50
180.0002
 51
0.0
  0
LINE
  5
309
  8
1
  6
DASHDOT
 10
1474.698602
 20
-668.56052
 30
0.0
 11
1474.698602
 21
-710.08722
 31
0.0
  0
LINE
  5
30A
  8
1
  6
DASHDOT
 10
1474.698602
 20
-1028.56052
 30
0.0
 11
1474.698602
 21
-1070.08722
 31
0.0
  0
CIRCLE
  5
30B
  8
1
 10
1474.698602
 20
-1050.37592
 30
0.0
 40
5.0
  0
CIRCLE
  5
30C
  8
1
 10
1674.698902
 20
-1050.37592
 30
0.0
 40
5.0
  0
LINE
  5
30D
  8
1
  6
DASHDOT
 10
1674.698902
 20
-1028.56052
 30
0.0
 11
1674.698902
 21
-1070.08722
 31
0.0
  0
LINE
  5
30E
  8
1
  6
DASHDOT
 10
1674.698902
 20
-668.56052
 30
0.0
 11
1674.698902
 21
-710.08722
 31
0.0
  0
CIRCLE
  5
30F
  8
1
 10
1674.698902
 20
-690.37592
 30
0.0
 40
5.0
  0
CIRCLE
  5
310
  8
1
 10
1874.698902
 20
-690.37592
 30
0.0
 40
5.0
  0
LINE
  5
311
  8
1
  6
DASHDOT
 10
1874.698902
 20
-668.56052
 30
0.0
 11
1874.698902
 21
-710.08722
 31
0.0
  0
LINE
  5
312
  8
1
  6
DASHDOT
 10
1874.698902
 20
-1028.56052
 30
0.0
 11
1874.698902
 21
-1070.08722
 31
0.0
  0
CIRCLE
  5
313
  8
1
 10
1874.698902
 20
-1050.37592
 30
0.0
 40
5.0
  0
LINE
  5
314
  8
1
  6
DASHDOT
 10
1074.698602
 20
-1028.56052
 30
0.0
 11
1074.698602
 21
-1070.08722
 31
0.0
  0
LINE
  5
315
  8
1
  6
DASHDOT
 10
1074.698602
 20
-668.56052
 30
0.0
 11
1074.698602
 21
-710.08722
 31
0.0
  0
LINE
  5
316
  8
1
 10
582.698602
 20
-1120.37582
 30
0.0
 11
582.698602
 21
-650.37592
 31
0.0
  0
CIRCLE
  5
317
  8
1
 10
-1022.020411
 20
-1002.875896
 30
0.0
 40
8.0
  0
CIRCLE
  5
318
  8
1
 10
-1022.020411
 20
-1047.875896
 30
0.0
 40
8.0
  0
POLYLINE
  5
319
  8
1
 66
     1
 10
0.0
 20
0.0
 30
0.0
 70
     8
  0
VERTEX
  5
31A
  8
1
 10
-1022.020489
 20
-980.375896
 30
0.0
 70
    32
  0
VERTEX
  5
31B
  8
1
 10
-1026.756369
 20
-981.073552
 30
0.0
 70
    32
  0
VERTEX
  5
31C
  8
1
 10
-1031.176013
 20
-983.042044
 30
0.0
 70
    32
  0
VERTEX
  5
31D
  8
1
 10
-1035.056992
 20
-985.968879
 30
0.0
 70
    32
  0
VERTEX
  5
31E
  8
1
 10
-1038.306778
 20
-989.484256
 30
0.0
 70
    32
  0
VERTEX
  5
31F
  8
1
 10
-1040.938906
 20
-993.269653
 30
0.0
 70
    32
  0
VERTEX
  5
320
  8
1
 10
-1043.025807
 20
-997.102694
 30
0.0
 70
    32
  0
VERTEX
  5
321
  8
1
 10
-1044.659014
 20
-1000.852954
 30
0.0
 70
    32
  0
VERTEX
  5
322
  8
1
 10
-1045.926097
 20
-1004.458115
 30
0.0
 70
    32
  0
VERTEX
  5
323
  8
1
 10
-1046.901073
 20
-1007.899433
 30
0.0
 70
    32
  0
VERTEX
  5
324
  8
1
 10
-1047.642406
 20
-1011.183357
 30
0.0
 70
    32
  0
VERTEX
  5
325
  8
1
 10
-1048.194327
 20
-1014.32969
 30
0.0
 70
    32
  0
VERTEX
  5
326
  8
1
 10
-1048.58911
 20
-1017.364674
 30
0.0
 70
    32
  0
VERTEX
  5
327
  8
1
 10
-1048.849275
 20
-1020.317263
 30
0.0
 70
    32
  0
VERTEX
  5
328
  8
1
 10
-1048.989332
 20
-1023.217317
 30
0.0
 70
    32
  0
VERTEX
  5
329
  8
1
 10
-1049.016964
 20
-1026.094861
 30
0.0
 70
    32
  0
VERTEX
  5
32A
  8
1
 10
-1048.933675
 20
-1028.979906
 30
0.0
 70
    32
  0
VERTEX
  5
32B
  8
1
 10
-1048.734919
 20
-1031.902476
 30
0.0
 70
    32
  0
VERTEX
  5
32C
  8
1
 10
-1048.409715
 20
-1034.892559
 30
0.0
 70
    32
  0
VERTEX
  5
32D
  8
1
 10
-1047.93973
 20
-1037.979705
 30
0.0
 70
    32
  0
VERTEX
  5
32E
  8
1
 10
-1047.297817
 20
-1041.191837
 30
0.0
 70
    32
  0
VERTEX
  5
32F
  8
1
 10
-1046.446019
 20
-1044.552604
 30
0.0
 70
    32
  0
VERTEX
  5
330
  8
1
 10
-1045.33325
 20
-1048.07626
 30
0.0
 70
    32
  0
VERTEX
  5
331
  8
1
 10
-1043.893301
 20
-1051.758517
 30
0.0
 70
    32
  0
VERTEX
  5
332
  8
1
 10
-1042.044781
 20
-1055.561583
 30
0.0
 70
    32
  0
VERTEX
  5
333
  8
1
 10
-1039.696238
 20
-1059.392387
 30
0.0
 70
    32
  0
VERTEX
  5
334
  8
1
 10
-1036.761755
 20
-1063.076896
 30
0.0
 70
    32
  0
VERTEX
  5
335
  8
1
 10
-1033.192457
 20
-1066.342833
 30
0.0
 70
    32
  0
VERTEX
  5
336
  8
1
 10
-1029.022447
 20
-1068.836313
 30
0.0
 70
    32
  0
VERTEX
  5
337
  8
1
 10
-1024.409323
 20
-1070.199404
 30
0.0
 70
    32
  0
VERTEX
  5
338
  8
1
 10
-1019.631342
 20
-1070.199396
 30
0.0
 70
    32
  0
VERTEX
  5
339
  8
1
 10
-1015.018223
 20
-1068.836288
 30
0.0
 70
    32
  0
VERTEX
  5
33A
  8
1
 10
-1010.848221
 20
-1066.342794
 30
0.0
 70
    32
  0
VERTEX
  5
33B
  8
1
 10
-1007.278935
 20
-1063.076845
 30
0.0
 70
    32
  0
VERTEX
  5
33C
  8
1
 10
-1004.344465
 20
-1059.392325
 30
0.0
 70
    32
  0
VERTEX
  5
33D
  8
1
 10
-1001.995935
 20
-1055.561513
 30
0.0
 70
    32
  0
VERTEX
  5
33E
  8
1
 10
-1000.147428
 20
-1051.758441
 30
0.0
 70
    32
  0
VERTEX
  5
33F
  8
1
 10
-998.707492
 20
-1048.076178
 30
0.0
 70
    32
  0
VERTEX
  5
340
  8
1
 10
-997.594735
 20
-1044.552518
 30
0.0
 70
    32
  0
VERTEX
  5
341
  8
1
 10
-996.742949
 20
-1041.191748
 30
0.0
 70
    32
  0
VERTEX
  5
342
  8
1
 10
-996.101047
 20
-1037.979615
 30
0.0
 70
    32
  0
VERTEX
  5
343
  8
1
 10
-995.631073
 20
-1034.892466
 30
0.0
 70
    32
  0
VERTEX
  5
344
  8
1
 10
-995.305879
 20
-1031.902382
 30
0.0
 70
    32
  0
VERTEX
  5
345
  8
1
 10
-995.107134
 20
-1028.979812
 30
0.0
 70
    32
  0
VERTEX
  5
346
  8
1
 10
-995.023855
 20
-1026.094766
 30
0.0
 70
    32
  0
VERTEX
  5
347
  8
1
 10
-995.051497
 20
-1023.217223
 30
0.0
 70
    32
  0
VERTEX
  5
348
  8
1
 10
-995.191563
 20
-1020.31717
 30
0.0
 70
    32
  0
VERTEX
  5
349
  8
1
 10
-995.451739
 20
-1017.364581
 30
0.0
 70
    32
  0
VERTEX
  5
34A
  8
1
 10
-995.846532
 20
-1014.329599
 30
0.0
 70
    32
  0
VERTEX
  5
34B
  8
1
 10
-996.398464
 20
-1011.183268
 30
0.0
 70
    32
  0
VERTEX
  5
34C
  8
1
 10
-997.13981
 20
-1007.899347
 30
0.0
 70
    32
  0
VERTEX
  5
34D
  8
1
 10
-998.114798
 20
-1004.458032
 30
0.0
 70
    32
  0
VERTEX
  5
34E
  8
1
 10
-999.381893
 20
-1000.852875
 30
0.0
 70
    32
  0
VERTEX
  5
34F
  8
1
 10
-1001.015112
 20
-997.102621
 30
0.0
 70
    32
  0
VERTEX
  5
350
  8
1
 10
-1003.102028
 20
-993.269587
 30
0.0
 70
    32
  0
VERTEX
  5
351
  8
1
 10
-1005.734169
 20
-989.484199
 30
0.0
 70
    32
  0
VERTEX
  5
352
  8
1
 10
-1008.983967
 20
-985.968833
 30
0.0
 70
    32
  0
VERTEX
  5
353
  8
1
 10
-1012.864956
 20
-983.042012
 30
0.0
 70
    32
  0
VERTEX
  5
354
  8
1
 10
-1017.284607
 20
-981.073536
 30
0.0
 70
    32
  0
VERTEX
  5
355
  8
1
 10
-1022.020489
 20
-980.375896
 30
0.0
 70
    32
  0
SEQEND
  5
356
  8
DEFPOINTS
  0
ARC
  5
357
  8
1
  6
DASHED
 10
-1230.020511
 20
-1095.375896
 30
0.0
 40
12.0
 50
0.0
 51
180.0002
  0
ARC
  5
358
  8
1
 10
-1230.020511
 20
-1095.375896
 30
0.0
 40
17.0
 50
314.9012
 51
225.0996
  0
CIRCLE
  5
359
  8
1
  6
DASHED
 10
-1230.020511
 20
-1148.375896
 30
0.0
 40
12.0
  0
LINE
  5
35A
  8
1
  6
DASHED
 10
-1218.020611
 20
-1228.375996
 30
0.0
 11
-1218.020511
 21
-1161.792296
 31
0.0
  0
LINE
  5
35B
  8
1
  6
DASHED
 10
-1242.020611
 20
-1228.375896
 30
0.0
 11
-1242.020511
 21
-1161.792296
 31
0.0
  0
CIRCLE
  5
35C
  8
1
  6
DASHED
 10
-1230.020511
 20
-1148.375896
 30
0.0
 40
18.0
  0
LINE
  5
35D
  8
1
  6
DASHDOT
 10
-1261.201911
 20
-1148.375896
 30
0.0
 11
-1202.820311
 21
-1148.375896
 31
0.0
  0
LINE
  5
35E
  8
1
  6
DASHED
 10
653.698602
 20
-1080.37592
 30
0.0
 11
594.698602
 21
-1080.37592
 31
0.0
  0
LINE
  5
35F
  8
1
  6
DASHED
 10
653.698602
 20
-1110.37592
 30
0.0
 11
594.698902
 21
-1110.37592
 31
0.0
  0
LINE
  5
360
  8
1
  6
DASHED
 10
343.698902
 20
-1173.37602
 30
0.0
 11
343.698602
 21
-1123.37602
 31
0.0
  0
LINE
  5
361
  8
1
  6
DASHED
 10
396.498702
 20
-1173.37592
 30
0.0
 11
396.498702
 21
-1123.37592
 31
0.0
  0
LINE
  5
362
  8
1
  6
DASHED
 10
549.698902
 20
-1243.37592
 30
0.0
 11
549.698902
 21
-1155.37602
 31
0.0
  0
LINE
  5
363
  8
1
  6
DASHED
 10
519.698902
 20
-1213.37582
 30
0.0
 11
519.698602
 21
-1155.37592
 31
0.0
  0
LINE
  5
364
  8
1
  6
DASHED
 10
519.698902
 20
-1213.37592
 30
0.0
 11
489.698602
 21
-1213.37592
 31
0.0
  0
LINE
  5
365
  8
1
  6
DASHED
 10
549.699102
 20
-1243.37592
 30
0.0
 11
419.698902
 21
-1243.37592
 31
0.0
  0
LINE
  5
366
  8
1
  6
DASHED
 10
459.698902
 20
-1213.37592
 30
0.0
 11
459.698902
 21
-1208.37582
 31
0.0
  0
LINE
  5
367
  8
1
  6
DASHED
 10
489.698602
 20
-1213.37592
 30
0.0
 11
489.698602
 21
-1208.37592
 31
0.0
  0
LINE
  5
368
  8
1
  6
DASHED
 10
414.698602
 20
-1133.37592
 30
0.0
 11
396.498702
 21
-1133.37592
 31
0.0
  0
LINE
  5
369
  8
1
  6
DASHED
 10
414.698902
 20
-1163.37592
 30
0.0
 11
396.498702
 21
-1163.37592
 31
0.0
  0
LINE
  5
36A
  8
1
  6
DASHED
 10
419.698902
 20
-1253.37592
 30
0.0
 11
419.698902
 21
-1203.37592
 31
0.0
  0
LINE
  5
36B
  8
1
  6
DASHED
 10
396.498702
 20
-1123.37592
 30
0.0
 11
343.698602
 21
-1123.37602
 31
0.0
  0
LINE
  5
36C
  8
1
  6
DASHED
 10
396.498702
 20
-1173.37592
 30
0.0
 11
343.698602
 21
-1173.37602
 31
0.0
  0
ARC
  5
36D
  8
1
  6
DASHED
 10
594.698902
 20
-1155.37592
 30
0.0
 40
45.0
 50
90.0001
 51
180.0002
  0
ARC
  5
36E
  8
1
  6
DASHED
 10
414.698902
 20
-1208.37592
 30
0.0
 40
45.0
 50
0.0
 51
90.0001
  0
ARC
  5
36F
  8
1
  6
DASHED
 10
414.698602
 20
-1208.37592
 30
0.0
 40
75.0
 50
0.0
 51
90.0001
  0
ARC
  5
370
  8
1
  6
DASHED
 10
594.698602
 20
-1155.37592
 30
0.0
 40
75.0
 50
90.0001
 51
180.0002
  0
LINE
  5
371
  8
1
  6
DASHED
 10
459.698902
 20
-1213.37592
 30
0.0
 11
419.698902
 21
-1213.37592
 31
0.0
  0
LINE
  5
372
  8
1
  6
DASHED
 10
419.698902
 20
-1203.37592
 30
0.0
 11
394.698902
 21
-1203.37602
 31
0.0
  0
LINE
  5
373
  8
1
  6
DASHED
 10
419.698902
 20
-1253.37592
 30
0.0
 11
394.698902
 21
-1253.37592
 31
0.0
  0
LINE
  5
374
  8
1
 10
-1786.929058
 20
650.34098
 30
0.0
 11
-1786.929158
 21
2030.34078
 31
0.0
  0
LINE
  5
375
  8
1
 10
-639.929158
 20
699.34078
 30
0.0
 11
-662.929158
 21
699.34078
 31
0.0
  0
LINE
  5
376
  8
1
 10
-686.929158
 20
2030.34078
 30
0.0
 11
-686.929258
 21
650.34078
 31
0.0
  0
LINE
  5
377
  8
1
 10
-1241.929158
 20
548.34078
 30
0.0
 11
-1241.929158
 21
650.34078
 31
0.0
  0
LINE
  5
378
  8
1
 10
-1751.929158
 20
548.34078
 30
0.0
 11
-1751.929158
 21
650.34078
 31
0.0
  0
LINE
  5
379
  8
1
 10
-1241.929158
 20
548.34078
 30
0.0
 11
-1751.929258
 21
548.34078
 31
0.0
  0
LINE
  5
37A
  8
1
  6
DASHED
 10
-644.929458
 20
685.34078
 30
0.0
 11
-644.929158
 21
652.34078
 31
0.0
  0
ARC
  5
37B
  8
1
 10
-662.929158
 20
1988.34078
 30
0.0
 40
7.0
 50
90.0001
 51
270.0002
  0
LINE
  5
37C
  8
1
 10
-639.929158
 20
2028.34078
 30
0.0
 11
-686.929158
 21
2028.34078
 31
0.0
  0
LINE
  5
37D
  8
1
 10
-1786.929158
 20
2030.34078
 30
0.0
 11
-686.929058
 21
2030.34078
 31
0.0
  0
LINE
  5
37E
  8
1
 10
-639.929158
 20
1948.34078
 30
0.0
 11
-686.929058
 21
1948.34078
 31
0.0
  0
LINE
  5
37F
  8
1
 10
-639.929058
 20
685.34098
 30
0.0
 11
-662.929158
 21
685.34098
 31
0.0
  0
LINE
  5
380
  8
1
  6
DASHED
 10
-644.929058
 20
732.34078
 30
0.0
 11
-644.929158
 21
699.34078
 31
0.0
  0
LINE
  5
381
  8
1
  6
DASHED
 10
-1154.929158
 20
619.34098
 30
0.0
 11
-1154.929158
 21
650.34078
 31
0.0
  0
LINE
  5
382
  8
1
 10
-1188.929158
 20
619.34078
 30
0.0
 11
-1188.929258
 21
650.34078
 31
0.0
  0
LINE
  5
383
  8
1
 10
-1154.929158
 20
619.34098
 30
0.0
 11
-1188.929158
 21
619.34098
 31
0.0
  0
LINE
  5
384
  8
1
  6
DASHED
 10
-1828.928958
 20
1981.34078
 30
0.0
 11
-1828.929158
 21
1948.34078
 31
0.0
  0
LINE
  5
385
  8
1
  6
DASHED
 10
-1828.929258
 20
2028.34078
 30
0.0
 11
-1828.929158
 21
1995.34078
 31
0.0
  0
LINE
  5
386
  8
1
  6
DASHED
 10
-1791.929158
 20
2028.34078
 30
0.0
 11
-1791.929158
 21
1945.34078
 31
0.0
  0
LINE
  5
387
  8
1
  6
DASHDOT
 10
-1810.929158
 20
2081.62788
 30
0.0
 11
-1810.929158
 21
1903.48118
 31
0.0
  0
LINE
  5
388
  8
1
  6
DASHED
 10
-681.929158
 20
732.34078
 30
0.0
 11
-681.929158
 21
652.34078
 31
0.0
  0
LINE
  5
389
  8
1
  6
DASHDOT
 10
-662.929158
 20
785.62788
 30
0.0
 11
-662.929158
 21
607.48118
 31
0.0
  0
LINE
  5
38A
  8
1
  6
DASHDOT
 10
-606.676358
 20
692.34078
 30
0.0
 11
-749.930758
 21
692.34078
 31
0.0
  0
LINE
  5
38B
  8
1
 10
-639.929058
 20
685.34078
 30
0.0
 11
-639.929058
 21
652.34078
 31
0.0
  0
LINE
  5
38C
  8
1
 10
-639.929258
 20
732.34078
 30
0.0
 11
-639.929058
 21
699.34078
 31
0.0
  0
LINE
  5
38D
  8
1
 10
-1833.929158
 20
1995.34078
 30
0.0
 11
-1810.929158
 21
1995.34078
 31
0.0
  0
LINE
  5
38E
  8
1
 10
-639.929258
 20
2028.34078
 30
0.0
 11
-639.929158
 21
1995.34078
 31
0.0
  0
LINE
  5
38F
  8
1
 10
-639.929158
 20
652.34078
 30
0.0
 11
-686.929058
 21
652.34078
 31
0.0
  0
LINE
  5
390
  8
1
 10
-639.929158
 20
1981.34098
 30
0.0
 11
-639.929058
 21
1948.34078
 31
0.0
  0
LINE
  5
391
  8
1
 10
-639.929158
 20
732.34078
 30
0.0
 11
-686.929158
 21
732.34078
 31
0.0
  0
LINE
  5
392
  8
1
 10
-1833.929058
 20
1981.34078
 30
0.0
 11
-1810.929158
 21
1981.34078
 31
0.0
  0
ARC
  5
393
  8
1
 10
-1810.929158
 20
1988.34078
 30
0.0
 40
7.0
 50
270.0002
 51
90.0004
  0
LINE
  5
394
  8
1
 10
-639.929158
 20
1995.34078
 30
0.0
 11
-662.929158
 21
1995.34078
 31
0.0
  0
LINE
  5
395
  8
1
  6
DASHDOT
 10
-1867.181958
 20
1988.34078
 30
0.0
 11
-1723.927558
 21
1988.34078
 31
0.0
  0
LINE
  5
396
  8
1
 10
-1833.929158
 20
699.34098
 30
0.0
 11
-1810.929158
 21
699.34098
 31
0.0
  0
LINE
  5
397
  8
1
 10
-1833.929158
 20
685.34078
 30
0.0
 11
-1810.929158
 21
685.34078
 31
0.0
  0
LINE
  5
398
  8
1
 10
-1833.929158
 20
732.34078
 30
0.0
 11
-1786.929158
 21
732.34078
 31
0.0
  0
LINE
  5
399
  8
1
 10
-1833.929058
 20
1981.34078
 30
0.0
 11
-1833.929258
 21
1948.34078
 31
0.0
  0
LINE
  5
39A
  8
1
 10
-1833.929158
 20
652.34078
 30
0.0
 11
-1786.929258
 21
652.34078
 31
0.0
  0
LINE
  5
39B
  8
1
 10
-1833.929058
 20
2028.34078
 30
0.0
 11
-1833.929158
 21
1995.34078
 31
0.0
  0
ARC
  5
39C
  8
1
 10
-1810.929158
 20
692.34078
 30
0.0
 40
7.0
 50
270.0002
 51
90.0004
  0
LINE
  5
39D
  8
1
 10
-1833.929058
 20
732.34078
 30
0.0
 11
-1833.929158
 21
699.34078
 31
0.0
  0
LINE
  5
39E
  8
1
 10
-1833.929058
 20
685.34098
 30
0.0
 11
-1833.929258
 21
652.34078
 31
0.0
  0
LINE
  5
39F
  8
1
  6
DASHDOT
 10
-606.676358
 20
1988.34078
 30
0.0
 11
-749.930758
 21
1988.34078
 31
0.0
  0
LINE
  5
3A0
  8
1
  6
DASHDOT
 10
-662.929158
 20
2081.62788
 30
0.0
 11
-662.929158
 21
1903.48118
 31
0.0
  0
LINE
  5
3A1
  8
1
  6
DASHDOT
 10
-1867.181958
 20
692.34078
 30
0.0
 11
-1723.927558
 21
692.34078
 31
0.0
  0
LINE
  5
3A2
  8
1
  6
DASHDOT
 10
-1810.929158
 20
785.62788
 30
0.0
 11
-1810.929158
 21
607.48118
 31
0.0
  0
LINE
  5
3A3
  8
1
  6
DASHED
 10
-1791.929158
 20
735.34098
 30
0.0
 11
-1791.929158
 21
652.34078
 31
0.0
  0
LINE
  5
3A4
  8
1
  6
DASHED
 10
-1828.929258
 20
732.34078
 30
0.0
 11
-1828.929058
 21
699.34078
 31
0.0
  0
LINE
  5
3A5
  8
1
  6
DASHED
 10
-681.929158
 20
2028.34078
 30
0.0
 11
-681.929158
 21
1948.34078
 31
0.0
  0
LINE
  5
3A6
  8
1
 10
-1833.929158
 20
1948.34078
 30
0.0
 11
-1786.929258
 21
1948.34078
 31
0.0
  0
LINE
  5
3A7
  8
1
 10
-1833.929158
 20
2028.34078
 30
0.0
 11
-1786.929158
 21
2028.34078
 31
0.0
  0
LINE
  5
3A8
  8
1
  6
DASHED
 10
-644.929058
 20
2028.34078
 30
0.0
 11
-644.929158
 21
1995.34078
 31
0.0
  0
LINE
  5
3A9
  8
1
  6
DASHED
 10
-644.929158
 20
1981.34078
 30
0.0
 11
-644.929158
 21
1948.34078
 31
0.0
  0
LINE
  5
3AA
  8
1
  6
DASHED
 10
-1828.928958
 20
685.34078
 30
0.0
 11
-1828.929158
 21
652.34078
 31
0.0
  0
LINE
  5
3AB
  8
1
 10
-639.929158
 20
1981.34078
 30
0.0
 11
-662.929158
 21
1981.34078
 31
0.0
  0
LINE
  5
3AC
  8
1
  6
DASHED
 10
-1786.929058
 20
1970.34078
 30
0.0
 11
-1791.929158
 21
1970.34098
 31
0.0
  0
LINE
  5
3AD
  8
1
  6
DASHED
 10
-1786.929058
 20
710.34098
 30
0.0
 11
-1791.929158
 21
710.34098
 31
0.0
  0
LINE
  5
3AE
  8
1
 10
-1786.929158
 20
1945.34078
 30
0.0
 11
-1816.929058
 21
1945.34078
 31
0.0
  0
LINE
  5
3AF
  8
1
 10
-1791.929158
 20
735.34098
 30
0.0
 11
-1816.929058
 21
735.34078
 31
0.0
  0
LINE
  5
3B0
  8
1
  6
DASHDOT
 10
-631.059658
 20
1340.34078
 30
0.0
 11
-1881.059658
 21
1340.34078
 31
0.0
  0
ARC
  5
3B1
  8
1
 10
-662.929158
 20
692.34078
 30
0.0
 40
7.0
 50
90.0001
 51
270.0002
  0
CIRCLE
  5
3B2
  8
1
 10
-1801.929158
 20
1390.34078
 30
0.0
 40
3.5
  0
LINE
  5
3B3
  8
1
  6
DASHED
 10
-936.928758
 20
582.84078
 30
0.0
 11
-936.928758
 21
597.84098
 31
0.0
  0
LINE
  5
3B4
  8
1
  6
DASHED
 10
-990.928758
 20
582.84078
 30
0.0
 11
-990.928758
 21
597.84078
 31
0.0
  0
LINE
  5
3B5
  8
1
 10
-1756.929058
 20
650.34078
 30
0.0
 11
-1786.929158
 21
650.34078
 31
0.0
  0
CIRCLE
  5
3B6
  8
1
 10
-1801.929158
 20
1090.34078
 30
0.0
 40
3.5
  0
CIRCLE
  5
3B7
  8
1
 10
-1801.929158
 20
1190.34078
 30
0.0
 40
3.5
  0
CIRCLE
  5
3B8
  8
1
 10
-1801.929158
 20
1290.34078
 30
0.0
 40
3.5
  0
CIRCLE
  5
3B9
  8
1
 10
-1801.929158
 20
790.34078
 30
0.0
 40
3.5
  0
CIRCLE
  5
3BA
  8
1
 10
-1801.929158
 20
890.34078
 30
0.0
 40
3.5
  0
CIRCLE
  5
3BB
  8
1
 10
-1801.929158
 20
990.34078
 30
0.0
 40
3.5
  0
LINE
  5
3BC
  8
1
 10
-1816.929058
 20
735.34078
 30
0.0
 11
-1816.929158
 21
1945.34078
 31
0.0
  0
LINE
  5
3BD
  8
1
 10
-1786.929158
 20
1940.34078
 30
0.0
 11
-1816.929058
 21
1940.34078
 31
0.0
  0
LINE
  5
3BE
  8
1
 10
-1786.929158
 20
740.34078
 30
0.0
 11
-1816.929058
 21
740.34078
 31
0.0
  0
LINE
  5
3BF
  8
1
  6
DASHDOT
 10
-1801.929158
 20
1940.34098
 30
0.0
 11
-1801.929158
 21
768.14058
 31
0.0
  0
LINE
  5
3C0
  8
1
  6
DASHDOT
 10
-1764.975458
 20
790.34078
 30
0.0
 11
-1838.299358
 21
790.34078
 31
0.0
  0
LINE
  5
3C1
  8
1
  6
DASHED
 10
-951.228858
 20
380.34078
 30
0.0
 11
-976.628758
 21
380.34078
 31
0.0
  0
LINE
  5
3C2
  8
1
  6
DASHED
 10
-951.228858
 20
380.34078
 30
0.0
 11
-951.228858
 21
582.84048
 31
0.0
  0
LINE
  5
3C3
  8
1
  6
DASHED
 10
-976.628758
 20
380.34078
 30
0.0
 11
-976.628758
 21
582.84048
 31
0.0
  0
LINE
  5
3C4
  8
1
 10
-936.928758
 20
582.84078
 30
0.0
 11
-990.928758
 21
582.84078
 31
0.0
  0
LINE
  5
3C5
  8
1
  6
DASHED
 10
-951.228858
 20
460.34048
 30
0.0
 11
-976.628758
 21
460.34048
 31
0.0
  0
ARC
  5
3C6
  8
1
 10
-975.929058
 20
588.34048
 30
0.0
 40
24.0
 50
75.5225
 51
104.4777
  0
ARC
  5
3C7
  8
1
 10
-963.929058
 20
588.34048
 30
0.0
 40
24.0
 50
75.5225
 51
104.4777
  0
ARC
  5
3C8
  8
1
 10
-951.929058
 20
588.34048
 30
0.0
 40
24.0
 50
75.5225
 51
104.4777
  0
LINE
  5
3C9
  8
1
 10
-945.929058
 20
612.34078
 30
0.0
 11
-981.929058
 21
612.34078
 31
0.0
  0
LINE
  5
3CA
  8
1
 10
-981.929058
 20
602.10318
 30
0.0
 11
-975.929058
 21
595.34078
 31
0.0
  0
LINE
  5
3CB
  8
1
 10
-945.929058
 20
602.10318
 30
0.0
 11
-951.929058
 21
595.34078
 31
0.0
  0
ARC
  5
3CC
  8
1
 10
-951.929058
 20
625.34098
 30
0.0
 40
24.0
 50
255.5226
 51
284.4778
  0
ARC
  5
3CD
  8
1
 10
-963.929058
 20
625.34098
 30
0.0
 40
24.0
 50
255.5226
 51
284.4778
  0
ARC
  5
3CE
  8
1
 10
-975.929058
 20
625.34098
 30
0.0
 40
24.0
 50
255.5226
 51
284.4778
  0
LINE
  5
3CF
  8
1
 10
-969.929258
 20
602.10318
 30
0.0
 11
-969.929058
 21
611.57828
 31
0.0
  0
LINE
  5
3D0
  8
1
 10
-957.929258
 20
602.10348
 30
0.0
 11
-957.929258
 21
611.57828
 31
0.0
  0
LINE
  5
3D1
  8
1
 10
-981.929058
 20
623.34078
 30
0.0
 11
-981.929058
 21
633.34078
 31
0.0
  0
LINE
  5
3D2
  8
1
 10
-945.929058
 20
623.34078
 30
0.0
 11
-945.929058
 21
633.34098
 31
0.0
  0
LINE
  5
3D3
  8
1
 10
-957.579158
 20
633.34078
 30
0.0
 11
-957.579158
 21
650.34048
 31
0.0
  0
LINE
  5
3D4
  8
1
 10
-970.279158
 20
633.34078
 30
0.0
 11
-970.279158
 21
650.34048
 31
0.0
  0
LINE
  5
3D5
  8
1
 10
-957.579158
 20
617.34098
 30
0.0
 11
-957.579158
 21
623.34098
 31
0.0
  0
LINE
  5
3D6
  8
1
 10
-970.279158
 20
617.34078
 30
0.0
 11
-970.279158
 21
623.34078
 31
0.0
  0
LINE
  5
3D7
  8
1
 10
-945.929058
 20
633.34078
 30
0.0
 11
-981.929058
 21
633.34078
 31
0.0
  0
LINE
  5
3D8
  8
1
 10
-945.929058
 20
623.34078
 30
0.0
 11
-981.929058
 21
623.34078
 31
0.0
  0
LINE
  5
3D9
  8
1
 10
-945.929058
 20
617.34078
 30
0.0
 11
-981.929058
 21
617.34078
 31
0.0
  0
LINE
  5
3DA
  8
1
 10
-951.929058
 20
595.34078
 30
0.0
 11
-975.929058
 21
595.34078
 31
0.0
  0
LINE
  5
3DB
  8
1
 10
-945.929058
 20
602.10318
 30
0.0
 11
-945.929058
 21
617.34098
 31
0.0
  0
LINE
  5
3DC
  8
1
 10
-981.929058
 20
602.10318
 30
0.0
 11
-981.929058
 21
617.34098
 31
0.0
  0
LINE
  5
3DD
  8
1
 10
-978.147158
 20
597.84078
 30
0.0
 11
-990.929058
 21
597.84078
 31
0.0
  0
LINE
  5
3DE
  8
1
  6
DASHDOT
 10
-1171.929158
 20
556.50998
 30
0.0
 11
-1171.929158
 21
700.03798
 31
0.0
  0
LINE
  5
3DF
  8
1
 10
-936.929058
 20
583.34078
 30
0.0
 11
-936.929058
 21
598.34098
 31
0.0
  0
LINE
  5
3E0
  8
1
 10
-990.929058
 20
583.34078
 30
0.0
 11
-990.929058
 21
598.34078
 31
0.0
  0
LINE
  5
3E1
  8
1
 10
-936.929058
 20
598.34098
 30
0.0
 11
-936.929058
 21
613.34078
 31
0.0
  0
LINE
  5
3E2
  8
1
 10
-990.929058
 20
598.34078
 30
0.0
 11
-990.929058
 21
613.34048
 31
0.0
  0
LINE
  5
3E3
  8
1
 10
-936.929058
 20
613.34078
 30
0.0
 11
-990.929058
 21
613.34078
 31
0.0
  0
CIRCLE
  5
3E4
  8
1
 10
-1801.929158
 20
1490.34078
 30
0.0
 40
3.5
  0
CIRCLE
  5
3E5
  8
1
 10
-1801.929158
 20
1590.34078
 30
0.0
 40
3.5
  0
CIRCLE
  5
3E6
  8
1
 10
-1801.929158
 20
1690.34078
 30
0.0
 40
3.5
  0
CIRCLE
  5
3E7
  8
1
 10
-1801.929158
 20
1790.34078
 30
0.0
 40
3.5
  0
CIRCLE
  5
3E8
  8
1
 10
-1801.929158
 20
1890.34078
 30
0.0
 40
3.5
  0
LINE
  5
3E9
  8
1
  6
DASHDOT
 10
-1766.340458
 20
1890.34078
 30
0.0
 11
-1835.959158
 21
1890.34078
 31
0.0
  0
LINE
  5
3EA
  8
1
  6
DASHDOT
 10
-963.929058
 20
556.50998
 30
0.0
 11
-963.929058
 21
700.03798
 31
0.0
  0
LINE
  5
3EB
  8
1
 10
-936.929058
 20
597.84098
 30
0.0
 11
-949.710758
 21
597.84098
 31
0.0
  0
LINE
  5
3EC
  8
1
 10
-951.229058
 20
617.34078
 30
0.0
 11
-951.229058
 21
623.34078
 31
0.0
  0
LINE
  5
3ED
  8
1
 10
-976.628958
 20
617.34078
 30
0.0
 11
-976.628958
 21
623.34078
 31
0.0
  0
LINE
  5
3EE
  8
1
 10
-951.229058
 20
633.34078
 30
0.0
 11
-951.229058
 21
650.34078
 31
0.0
  0
LINE
  5
3EF
  8
1
 10
-976.628858
 20
633.34078
 30
0.0
 11
-976.628958
 21
650.34078
 31
0.0
  0
ARC
  5
3F0
  8
1
 10
-964.429058
 20
582.84078
 30
0.0
 40
8.0
 50
180.0002
 51
0.0
  0
LINE
  5
3F1
  8
1
 10
-686.929258
 20
650.34078
 30
0.0
 11
-1786.929058
 21
650.34078
 31
0.0
  0
LINE
  5
3F2
  8
1
  6
DASHDOT
 10
-1171.929058
 20
313.55258
 30
0.0
 11
-1171.929158
 21
677.25748
 31
0.0
  0
LINE
  5
3F3
  8
1
  6
DASHED
 10
-1153.929158
 20
330.34118
 30
0.0
 11
-1153.929158
 21
374.09118
 31
0.0
  0
LINE
  5
3F4
  8
1
  6
DASHED
 10
-1189.929158
 20
330.34118
 30
0.0
 11
-1189.929158
 21
374.09098
 31
0.0
  0
LINE
  5
3F5
  8
1
  6
DASHDOT
 10
-1171.929158
 20
572.46108
 30
0.0
 11
-1171.929158
 21
691.58958
 31
0.0
  0
LINE
  5
3F6
  8
1
  6
DASHED
 10
-1189.929258
 20
330.34098
 30
0.0
 11
-1153.929158
 21
330.34118
 31
0.0
  0
LINE
  5
3F7
  8
1
  6
DASHED
 10
-1189.929158
 20
374.09098
 30
0.0
 11
-1153.929058
 21
374.09118
 31
0.0
  0
LINE
  5
3F8
  8
1
  6
DASHED
 10
-1159.929158
 20
374.09118
 30
0.0
 11
-1159.929058
 21
619.34098
 31
0.0
  0
LINE
  5
3F9
  8
1
  6
DASHED
 10
-1183.929158
 20
374.09068
 30
0.0
 11
-1183.929158
 21
619.34098
 31
0.0
  0
ARC
  5
3FA
  8
1
  6
DASHED
 10
-1171.929158
 20
476.34098
 30
0.0
 40
11.9999
 50
0.0
 51
180.0007
  0
ARC
  5
3FB
  8
1
  6
DASHED
 10
-1171.929158
 20
534.59098
 30
0.0
 40
12.0
 50
180.0002
 51
0.0
  0
LINE
  5
3FC
  8
1
 10
-1154.929158
 20
619.34098
 30
0.0
 11
-1154.929258
 21
650.34098
 31
0.0
  0
LINE
  5
3FD
  8
1
 10
1637.698402
 20
1394.408263
 30
0.0
 11
1637.698902
 21
1254.407963
 31
0.0
  0
LINE
  5
3FE
  8
1
 10
1397.697602
 20
1394.407763
 30
0.0
 11
1397.698602
 21
1254.407463
 31
0.0
  0
LINE
  5
3FF
  8
1
  6
DASHDOT
 10
1849.068002
 20
1144.407963
 30
0.0
 11
703.144202
 21
1144.407763
 31
0.0
  0
LINE
  5
400
  8
1
  6
DASHDOT
 10
1822.698902
 20
1167.876463
 30
0.0
 11
1822.698902
 21
1117.563763
 31
0.0
  0
LINE
  5
401
  8
1
 10
584.698602
 20
1124.407763
 30
0.0
 11
584.698602
 21
1074.407763
 31
0.0
  0
LINE
  5
402
  8
1
 10
631.698602
 20
1124.407763
 30
0.0
 11
631.698602
 21
1109.407763
 31
0.0
  0
LINE
  5
403
  8
1
 10
664.698602
 20
1124.407763
 30
0.0
 11
664.698602
 21
1074.407763
 31
0.0
  0
LINE
  5
404
  8
1
 10
1880.698902
 20
1124.407763
 30
0.0
 11
1960.698902
 21
1124.407763
 31
0.0
  0
LINE
  5
405
  8
1
 10
1397.698602
 20
1274.407763
 30
0.0
 11
1637.698902
 21
1274.407763
 31
0.0
  0
LINE
  5
406
  8
1
 10
1880.698902
 20
1109.407963
 30
0.0
 11
1913.698902
 21
1109.407763
 31
0.0
  0
LINE
  5
407
  8
1
 10
1927.698902
 20
1109.407963
 30
0.0
 11
1960.698902
 21
1109.407763
 31
0.0
  0
LINE
  5
408
  8
1
  6
DASHED
 10
1927.698902
 20
1119.407763
 30
0.0
 11
1960.698902
 21
1119.407763
 31
0.0
  0
LINE
  5
409
  8
1
  6
DASHED
 10
1880.698902
 20
1119.407763
 30
0.0
 11
1913.698902
 21
1119.407763
 31
0.0
  0
LINE
  5
40A
  8
1
  6
DASHED
 10
664.698902
 20
1119.407763
 30
0.0
 11
631.698902
 21
1119.407763
 31
0.0
  0
LINE
  5
40B
  8
1
  6
DASHED
 10
617.698602
 20
1119.407963
 30
0.0
 11
584.698602
 21
1119.407763
 31
0.0
  0
LINE
  5
40C
  8
1
 10
617.698602
 20
1109.407763
 30
0.0
 11
584.698602
 21
1109.407763
 31
0.0
  0
LINE
  5
40D
  8
1
 10
664.698902
 20
1109.407963
 30
0.0
 11
631.698602
 21
1109.407763
 31
0.0
  0
LINE
  5
40E
  8
1
 10
617.698602
 20
1124.407763
 30
0.0
 11
617.698602
 21
1109.407763
 31
0.0
  0
LINE
  5
40F
  8
1
 10
1960.698902
 20
1074.407763
 30
0.0
 11
1960.698902
 21
1124.407763
 31
0.0
  0
LINE
  5
410
  8
1
 10
1927.698902
 20
1109.407763
 30
0.0
 11
1927.698902
 21
1124.407763
 31
0.0
  0
LINE
  5
411
  8
1
 10
664.698602
 20
1124.407763
 30
0.0
 11
584.698602
 21
1124.407763
 31
0.0
  0
LINE
  5
412
  8
1
 10
1872.698902
 20
1519.408463
 30
0.0
 11
1872.698902
 21
1129.407763
 31
0.0
  0
LINE
  5
413
  8
1
 10
672.699802
 20
1519.408463
 30
0.0
 11
672.698602
 21
1129.407763
 31
0.0
  0
LINE
  5
414
  8
1
  6
DASHDOT
 10
722.698602
 20
1163.196063
 30
0.0
 11
722.698602
 21
1119.708763
 31
0.0
  0
LINE
  5
415
  8
1
 10
672.699802
 20
1489.407763
 30
0.0
 11
1872.698902
 21
1489.407763
 31
0.0
  0
LINE
  5
416
  8
1
 10
672.698602
 20
1159.407763
 30
0.0
 11
1872.698902
 21
1159.407763
 31
0.0
  0
LINE
  5
417
  8
1
 10
1902.700802
 20
1519.408463
 30
0.0
 11
1902.698902
 21
1129.407763
 31
0.0
  0
LINE
  5
418
  8
1
 10
642.698902
 20
1519.408463
 30
0.0
 11
642.698602
 21
1129.407763
 31
0.0
  0
LINE
  5
419
  8
1
 10
642.698602
 20
1129.407763
 30
0.0
 11
1902.698902
 21
1129.407763
 31
0.0
  0
LINE
  5
41A
  8
1
 10
642.698602
 20
1519.407763
 30
0.0
 11
1902.698902
 21
1519.407763
 31
0.0
  0
LINE
  5
41B
  8
1
 10
1877.698902
 20
1519.408463
 30
0.0
 11
1877.698902
 21
1129.407763
 31
0.0
  0
LINE
  5
41C
  8
1
 10
672.698602
 20
1154.407763
 30
0.0
 11
1872.698902
 21
1154.407763
 31
0.0
  0
LINE
  5
41D
  8
1
 10
667.699802
 20
1519.408463
 30
0.0
 11
667.698602
 21
1129.407763
 31
0.0
  0
LINE
  5
41E
  8
1
 10
672.699802
 20
1494.407763
 30
0.0
 11
1872.698902
 21
1494.407763
 31
0.0
  0
LINE
  5
41F
  8
1
 10
1880.698902
 20
1074.407763
 30
0.0
 11
1880.698902
 21
1124.407763
 31
0.0
  0
LINE
  5
420
  8
1
 10
1913.698902
 20
1109.407763
 30
0.0
 11
1913.698902
 21
1124.407763
 31
0.0
  0
CIRCLE
  5
421
  8
1
 10
722.698602
 20
1144.407763
 30
0.0
 40
3.5
  0
CIRCLE
  5
422
  8
1
 10
822.698602
 20
1144.407763
 30
0.0
 40
3.5
  0
CIRCLE
  5
423
  8
1
 10
922.698602
 20
1144.407763
 30
0.0
 40
3.5
  0
CIRCLE
  5
424
  8
1
 10
1022.698602
 20
1144.407763
 30
0.0
 40
3.5
  0
CIRCLE
  5
425
  8
1
 10
1122.698602
 20
1144.407763
 30
0.0
 40
3.5
  0
CIRCLE
  5
426
  8
1
 10
1222.698602
 20
1144.407763
 30
0.0
 40
3.5
  0
CIRCLE
  5
427
  8
1
 10
1222.698602
 20
1504.407763
 30
0.0
 40
3.5
  0
CIRCLE
  5
428
  8
1
 10
1122.698602
 20
1504.407763
 30
0.0
 40
3.5
  0
CIRCLE
  5
429
  8
1
 10
1022.698602
 20
1504.407763
 30
0.0
 40
3.5
  0
CIRCLE
  5
42A
  8
1
 10
922.698602
 20
1504.407763
 30
0.0
 40
3.5
  0
CIRCLE
  5
42B
  8
1
 10
822.698602
 20
1504.407763
 30
0.0
 40
3.5
  0
CIRCLE
  5
42C
  8
1
 10
722.698602
 20
1504.407763
 30
0.0
 40
3.5
  0
CIRCLE
  5
42D
  8
1
 10
1887.698902
 20
1374.407763
 30
0.0
 40
3.5
  0
LINE
  5
42E
  8
1
 10
1962.698902
 20
1074.407763
 30
0.0
 11
1962.698902
 21
1544.407763
 31
0.0
  0
LINE
  5
42F
  8
1
 10
582.698602
 20
1074.407763
 30
0.0
 11
2064.698902
 21
1074.407763
 31
0.0
  0
LINE
  5
430
  8
1
 10
582.698602
 20
1544.407763
 30
0.0
 11
582.698602
 21
1074.407763
 31
0.0
  0
LINE
  5
431
  8
1
 10
2064.698902
 20
1544.407763
 30
0.0
 11
582.698602
 21
1544.407763
 31
0.0
  0
LINE
  5
432
  8
1
 10
2064.698902
 20
1074.407763
 30
0.0
 11
2064.698902
 21
1544.407763
 31
0.0
  0
CIRCLE
  5
433
  8
1
 10
1887.698902
 20
1474.407763
 30
0.0
 40
3.5
  0
CIRCLE
  5
434
  8
1
 10
1887.698902
 20
1174.407763
 30
0.0
 40
3.5
  0
CIRCLE
  5
435
  8
1
 10
657.698602
 20
1174.407763
 30
0.0
 40
3.5
  0
CIRCLE
  5
436
  8
1
 10
657.698602
 20
1474.407763
 30
0.0
 40
3.5
  0
CIRCLE
  5
437
  8
1
 10
657.698602
 20
1374.407763
 30
0.0
 40
3.5
  0
LINE
  5
438
  8
1
 10
752.697902
 20
1394.407763
 30
0.0
 11
752.698602
 21
1254.407463
 31
0.0
  0
LINE
  5
439
  8
1
  6
DASHDOT
 10
695.148802
 20
1504.407763
 30
0.0
 11
1849.068002
 21
1504.407963
 31
0.0
  0
LINE
  5
43A
  8
1
  6
DASHDOT
 10
657.698902
 20
1489.407963
 30
0.0
 11
657.698602
 21
1162.444701
 31
0.0
  0
LINE
  5
43B
  8
1
  6
DASHDOT
 10
1887.698902
 20
1489.407763
 30
0.0
 11
1887.698902
 21
1159.841142
 31
0.0
  0
LINE
  5
43C
  8
1
  6
DASHDOT
 10
682.473002
 20
1474.407763
 30
0.0
 11
618.509702
 21
1474.407763
 31
0.0
  0
LINE
  5
43D
  8
1
  6
DASHDOT
 10
680.132902
 20
1174.407763
 30
0.0
 11
624.749902
 21
1174.407763
 31
0.0
  0
LINE
  5
43E
  8
1
 10
1397.698402
 20
1294.407763
 30
0.0
 11
1637.698902
 21
1294.407763
 31
0.0
  0
LINE
  5
43F
  8
1
  6
DASHDOT
 10
2021.340002
 20
1324.406563
 30
0.0
 11
536.877785
 21
1324.408246
 31
0.0
  0
CIRCLE
  5
440
  8
1
 10
657.698602
 20
1274.407763
 30
0.0
 40
3.5
  0
CIRCLE
  5
441
  8
1
 10
1887.698902
 20
1274.407763
 30
0.0
 40
3.5
  0
LINE
  5
442
  8
1
 10
1022.698402
 20
1394.408263
 30
0.0
 11
1022.698602
 21
1254.407963
 31
0.0
  0
LINE
  5
443
  8
1
 10
1652.698402
 20
1394.407963
 30
0.0
 11
1652.698902
 21
1254.407763
 31
0.0
  0
LINE
  5
444
  8
1
 10
1382.697902
 20
1394.407463
 30
0.0
 11
1382.698602
 21
1254.407463
 31
0.0
  0
LINE
  5
445
  8
1
 10
1052.699102
 20
1254.407963
 30
0.0
 11
722.698602
 21
1254.407463
 31
0.0
  0
CIRCLE
  5
446
  8
1
 10
2014.698902
 20
1124.407763
 30
0.0
 40
16.5
  0
LINE
  5
447
  8
1
 10
1397.698102
 20
1314.407763
 30
0.0
 11
1637.698402
 21
1314.407763
 31
0.0
  0
LINE
  5
448
  8
1
  6
DASHDOT
 10
1272.698602
 20
1564.996363
 30
0.0
 11
1272.698602
 21
1052.496363
 31
0.0
  0
LINE
  5
449
  8
1
 10
1397.698102
 20
1334.407963
 30
0.0
 11
1637.698402
 21
1334.407763
 31
0.0
  0
LINE
  5
44A
  8
1
 10
1397.698102
 20
1354.407763
 30
0.0
 11
1637.698402
 21
1354.407763
 31
0.0
  0
LINE
  5
44B
  8
1
 10
1397.698102
 20
1374.407763
 30
0.0
 11
1637.698402
 21
1374.407763
 31
0.0
  0
CIRCLE
  5
44C
  8
1
 10
1322.698602
 20
1504.407763
 30
0.0
 40
3.5
  0
CIRCLE
  5
44D
  8
1
 10
1322.698602
 20
1144.407763
 30
0.0
 40
3.5
  0
CIRCLE
  5
44E
  8
1
 10
1422.698902
 20
1144.407763
 30
0.0
 40
3.5
  0
CIRCLE
  5
44F
  8
1
 10
1422.698902
 20
1504.407763
 30
0.0
 40
3.5
  0
CIRCLE
  5
450
  8
1
 10
1522.698902
 20
1504.407763
 30
0.0
 40
3.5
  0
CIRCLE
  5
451
  8
1
 10
1522.698902
 20
1144.407763
 30
0.0
 40
3.5
  0
CIRCLE
  5
452
  8
1
 10
1622.698902
 20
1144.407763
 30
0.0
 40
3.5
  0
CIRCLE
  5
453
  8
1
 10
1622.698902
 20
1504.407763
 30
0.0
 40
3.5
  0
CIRCLE
  5
454
  8
1
 10
1722.698902
 20
1504.407763
 30
0.0
 40
3.5
  0
CIRCLE
  5
455
  8
1
 10
1722.698902
 20
1144.407763
 30
0.0
 40
3.5
  0
CIRCLE
  5
456
  8
1
 10
1822.698902
 20
1144.407763
 30
0.0
 40
3.5
  0
CIRCLE
  5
457
  8
1
 10
1822.698902
 20
1504.407763
 30
0.0
 40
3.5
  0
LINE
  5
458
  8
1
 10
1382.697602
 20
1394.407763
 30
0.0
 11
1652.698402
 21
1394.407963
 31
0.0
  0
LINE
  5
459
  8
1
 10
1682.698402
 20
1465.407763
 30
0.0
 11
1682.698902
 21
1254.407763
 31
0.0
  0
LINE
  5
45A
  8
1
 10
722.697902
 20
1465.407763
 30
0.0
 11
722.698602
 21
1254.407463
 31
0.0
  0
LINE
  5
45B
  8
1
 10
1352.697602
 20
1465.407963
 30
0.0
 11
1352.698402
 21
1254.407463
 31
0.0
  0
LINE
  5
45C
  8
1
 10
1052.698602
 20
1465.407963
 30
0.0
 11
1052.698902
 21
1254.407763
 31
0.0
  0
LINE
  5
45D
  8
1
 10
1682.699302
 20
1254.407763
 30
0.0
 11
1352.698902
 21
1254.407463
 31
0.0
  0
LINE
  5
45E
  8
1
 10
1352.697602
 20
1465.407763
 30
0.0
 11
1682.698402
 21
1465.407963
 31
0.0
  0
LINE
  5
45F
  8
1
 10
767.698102
 20
1314.407763
 30
0.0
 11
1007.698402
 21
1314.407763
 31
0.0
  0
LINE
  5
460
  8
1
 10
767.698402
 20
1294.407763
 30
0.0
 11
1007.698602
 21
1294.407763
 31
0.0
  0
LINE
  5
461
  8
1
 10
767.698602
 20
1274.407763
 30
0.0
 11
1007.698602
 21
1274.407763
 31
0.0
  0
LINE
  5
462
  8
1
 10
767.697902
 20
1394.407463
 30
0.0
 11
767.698602
 21
1254.407463
 31
0.0
  0
LINE
  5
463
  8
1
 10
1007.698402
 20
1394.407963
 30
0.0
 11
1007.698902
 21
1254.407763
 31
0.0
  0
LINE
  5
464
  8
1
 10
722.697602
 20
1465.407463
 30
0.0
 11
1052.698602
 21
1465.407763
 31
0.0
  0
LINE
  5
465
  8
1
 10
752.697902
 20
1394.407763
 30
0.0
 11
1022.698102
 21
1394.407963
 31
0.0
  0
LINE
  5
466
  8
1
 10
767.698102
 20
1374.407763
 30
0.0
 11
1007.698402
 21
1374.407763
 31
0.0
  0
LINE
  5
467
  8
1
 10
767.698102
 20
1354.407763
 30
0.0
 11
1007.698402
 21
1354.407763
 31
0.0
  0
LINE
  5
468
  8
1
 10
767.698102
 20
1334.407963
 30
0.0
 11
1007.698402
 21
1334.407763
 31
0.0
  0
LINE
  5
469
  8
1
  6
DASHED
 10
1397.697902
 20
1324.407963
 30
0.0
 11
1392.698402
 21
1324.407763
 31
0.0
  0
LINE
  5
46A
  8
1
  6
DASHED
 10
1637.698402
 20
1324.407763
 30
0.0
 11
1642.698402
 21
1324.407963
 31
0.0
  0
LINE
  5
46B
  8
1
 10
-1241.929758
 20
650.34098
 30
0.0
 11
-1241.929758
 21
548.34098
 31
0.0
  0
LINE
  5
46C
  8
1
 10
-1751.929758
 20
650.34098
 30
0.0
 11
-1751.929758
 21
548.34098
 31
0.0
  0
LINE
  5
46D
  8
1
 10
-1751.929758
 20
548.34068
 30
0.0
 11
-1241.929658
 21
548.34098
 31
0.0
  0
LINE
  5
46E
  8
1
  6
DASHDOT
 10
-1236.929758
 20
2080.685103
 30
0.0
 11
-1236.929758
 21
479.116288
 31
0.0
  0
LINE
  5
46F
  8
1
 10
-1751.929758
 20
548.34068
 30
0.0
 11
-1241.929658
 21
548.34098
 31
0.0
  0
LINE
  5
471
  8
1
  6
DASHDOT
 10
-1295.020608
 20
-616.287396
 30
0.0
 11
-1295.019108
 21
-1141.287396
 31
0.0
  0
TEXT
  8
3
  40
100
  5
4CB
  72
0
  71
0
 10
-271.747
 20
-1773.81
 30
0.000000
  1

  0
TEXT
  8
3
  40
100
  5
4CC
  72
0
  71
0
 10
-271.747
 20
-1903.81
 30
0.000000
  1

  0
TEXT
  8
3
  40
100
  5
4CD
  72
0
  71
0
 10
-271.747
 20
-2033.81
 30
0.000000
  1
GBM6_3
  0
TEXT
  8
3
  40
100
  5
4CE
  72
0
  71
0
 10
-271.747
 20
-2163.81
 30
0.000000
  1
FXYM200KVE
  0
TEXT
  8
3
  40
100
  5
4CF
  72
0
  71
0
 10
-271.747
 20
-2293.81
 30
0.000000
  1
FXYM250KVE
  0
ENDSEC
  0
EOF
