  0
SECTION
  2
HEADER
  9
$ACADVER
  1
AC1009
  9
$DWGCODEPAGE
  3
dos932
  9
$INSBASE
 10
0.0
 20
0.0
 30
0.0
  9
$EXTMIN
 10
6383.315154
 20
3667.963333
 30
0.0
  9
$EXTMAX
 10
11100.912839
 20
6414.751368
 30
0.0
  9
$LIMMIN
 10
6345.001986
 20
3527.681284
  9
$LIMMAX
 10
10730.734114
 20
6627.338882
  9
$ORTHOMODE
 70
     0
  9
$REGENMODE
 70
     1
  9
$FILLMODE
 70
     1
  9
$QTEXTMODE
 70
     0
  9
$MIRRTEXT
 70
     0
  9
$DRAGMODE
 70
     2
  9
$LTSCALE
 40
1.0
  9
$OSMODE
 70
     0
  9
$ATTMODE
 70
     1
  9
$TEXTSIZE
 40
0.2
  9
$TRACEWID
 40
0.05
  9
$TEXTSTYLE
  7
STANDARD
  9
$CLAYER
  8
0
  9
$CELTYPE
  6
BYLAYER
  9
$CECOLOR
 62
   256
  9
$DIMSCALE
 40
1.0
  9
$DIMASZ
 40
0.18
  9
$DIMEXO
 40
3.0
  9
$DIMDLI
 40
0.38
  9
$DIMRND
 40
0.0
  9
$DIMDLE
 40
0.0
  9
$DIMEXE
 40
5.0
  9
$DIMTP
 40
0.0
  9
$DIMTM
 40
0.0
  9
$DIMTXT
 40
0.18
  9
$DIMCEN
 40
0.09
  9
$DIMTSZ
 40
0.0
  9
$DIMTOL
 70
     0
  9
$DIMLIM
 70
     0
  9
$DIMTIH
 70
     1
  9
$DIMTOH
 70
     1
  9
$DIMSE1
 70
     0
  9
$DIMSE2
 70
     0
  9
$DIMTAD
 70
     1
  9
$DIMZIN
 70
     0
  9
$DIMBLK
  1

  9
$DIMASO
 70
     1
  9
$DIMSHO
 70
     0
  9
$DIMPOST
  1

  9
$DIMAPOST
  1

  9
$DIMALT
 70
     0
  9
$DIMALTD
 70
     2
  9
$DIMALTF
 40
25.4
  9
$DIMLFAC
 40
1.0
  9
$DIMTOFL
 70
     0
  9
$DIMTVP
 40
1.0
  9
$DIMTIX
 70
     0
  9
$DIMSOXD
 70
     0
  9
$DIMSAH
 70
     0
  9
$DIMBLK1
  1

  9
$DIMBLK2
  1

  9
$DIMSTYLE
  2
STANDARD
  9
$DIMCLRD
 70
     0
  9
$DIMCLRE
 70
     0
  9
$DIMCLRT
 70
     0
  9
$DIMTFAC
 40
1.0
  9
$DIMGAP
 40
0.09
  9
$LUNITS
 70
     2
  9
$LUPREC
 70
     4
  9
$SKETCHINC
 40
0.1
  9
$FILLETRAD
 40
0.05
  9
$AUNITS
 70
     0
  9
$AUPREC
 70
     0
  9
$MENU
  1
acad
  9
$ELEVATION
 40
0.0
  9
$PELEVATION
 40
0.0
  9
$THICKNESS
 40
0.0
  9
$LIMCHECK
 70
     0
  9
$BLIPMODE
 70
     1
  9
$CHAMFERA
 40
0.0
  9
$CHAMFERB
 40
0.0
  9
$SKPOLY
 70
     0
  9
$TDCREATE
 40
0.0
  9
$TDUPDATE
 40
0.0
  9
$TDINDWG
 40
0.0
  9
$TDUSRTIMER
 40
0.0
  9
$USRTIMER
 70
     1
  9
$ANGBASE
 50
0.0
  9
$ANGDIR
 70
     0
  9
$PDMODE
 70
     0
  9
$PDSIZE
 40
0.0
  9
$PLINEWID
 40
0.0
  9
$COORDS
 70
     0
  9
$SPLFRAME
 70
     0
  9
$SPLINETYPE
 70
     6
  9
$SPLINESEGS
 70
     8
  9
$ATTDIA
 70
     1
  9
$ATTREQ
 70
     1
  9
$HANDLING
 70
     1
  9
$HANDSEED
  5
505
  9
$SURFTAB1
 70
     6
  9
$SURFTAB2
 70
     6
  9
$SURFTYPE
 70
     6
  9
$SURFU
 70
     6
  9
$SURFV
 70
     6
  9
$UCSNAME
  2

  9
$UCSORG
 10
0.0
 20
0.0
 30
0.0
  9
$UCSXDIR
 10
1.0
 20
0.0
 30
0.0
  9
$UCSYDIR
 10
0.0
 20
1.0
 30
0.0
  9
$PUCSNAME
  2

  9
$PUCSORG
 10
0.0
 20
0.0
 30
0.0
  9
$PUCSXDIR
 10
1.0
 20
0.0
 30
0.0
  9
$PUCSYDIR
 10
0.0
 20
1.0
 30
0.0
  9
$USERI1
 70
     0
  9
$USERI2
 70
     0
  9
$USERI3
 70
     0
  9
$USERI4
 70
     0
  9
$USERI5
 70
     0
  9
$USERR1
 40
0.0
  9
$USERR2
 40
0.0
  9
$USERR3
 40
0.0
  9
$USERR4
 40
0.0
  9
$USERR5
 40
0.0
  9
$WORLDVIEW
 70
     1
  9
$SHADEDGE
 70
     3
  9
$SHADEDIF
 70
    70
  9
$TILEMODE
 70
     1
  9
$MAXACTVP
 70
    16
  9
$PINSBASE
 10
0.0
 20
0.0
 30
0.0
  9
$PLIMCHECK
 70
     0
  9
$PEXTMIN
 10
1.000000E+020
 20
1.000000E+020
 30
1.000000E+020
  9
$PEXTMAX
 10
-1.000000E+020
 20
-1.000000E+020
 30
-1.000000E+020
  9
$PLIMMIN
 10
0.0
 20
0.0
  9
$PLIMMAX
 10
12.0
 20
9.0
  9
$UNITMODE
 70
     0
  9
$VISRETAIN
 70
     0
  9
$PLINEGEN
 70
     0
  9
$PSLTSCALE
 70
     1
  9
$TREEDEPTH
 70
  3020
  0
ENDSEC
  0
SECTION
  2
TABLES
  0
TABLE
  2
VPORT
 70
     2
  0
VPORT
  2
*ACTIVE
 70
     0
 10
0.0
 20
0.0
 11
1.0
 21
1.0
 12
9348.754337
 22
5077.510083
 13
0.0
 23
0.0
 14
1.0
 24
1.0
 15
0.0
 25
0.0
 16
0.0
 26
0.0
 36
1.0
 17
0.0
 27
0.0
 37
0.0
 40
3099.657598
 41
1.938119
 42
50.0
 43
0.0
 44
0.0
 50
0.0
 51
0.0
 71
     0
 72
   100
 73
     1
 74
     1
 75
     0
 76
     0
 77
     0
 78
     0
  0
ENDTAB
  0
TABLE
  2
LTYPE
 70
     5
  0
LTYPE
  2
CONTINUOUS
 70
    64
  3
Solid line
 72
    65
 73
     0
 40
0.0
  0
LTYPE
  2
DASHDOT
 70
    64
  3
__ . __ . __ . __ . __ . __ . __ . __ . __ . __
 72
    65
 73
     4
 40
1.0
 49
0.5
 49
-0.25
 49
0.0
 49
-0.25
  0
LTYPE
  2
DIVIDE
 70
    64
  3
__ . . __ . . __ . . __ . . __ . . __ . . __
 72
    65
 73
     6
 40
1.25
 49
0.5
 49
-0.25
 49
0.0
 49
-0.25
 49
0.0
 49
-0.25
  0
LTYPE
  2
DASHED
 70
    64
  3
__ __ __ __ __ __ __ __ __ __ __ __ __ __ __
 72
    65
 73
     2
 40
0.75
 49
0.5
 49
-0.25
  0
LTYPE
  2
DOT
 70
    64
  3
...............................................
 72
    65
 73
     2
 40
0.25
 49
0.0
 49
-0.25
  0
ENDTAB
  0
TABLE
  2
LAYER
 70
     5
  0
LAYER
  2
0
 70
     0
 62
     7
  6
CONTINUOUS
  0
LAYER
  2
DEFPOINTS
 70
     0
 62
    -7
  6
CONTINUOUS
  0
LAYER
  2
1
 70
     0
 62
     7
  6
CONTINUOUS
  0
LAYER
  2
2
 70
     0
 62
     7
  6
CONTINUOUS
  0
LAYER
  2
3
 70
     0
 62
     7
  6
CONTINUOUS
  0
ENDTAB
  0
TABLE
  2
STYLE
 70
     3
  0
STYLE
  2
STANDARD
 70
    64
 40
100.0
 41
0.8
 50
0.0
 71
     0
 42
0.2
  3
txt
  4

  0
STYLE
  2
MONOTXT
 70
    64
 40
0.0
 41
0.5
 50
0.0
 71
     0
 42
4.191412
  3
monotxt
  4
BIGFONT
  0
STYLE
  2
VERTICAL
 70
    68
 40
0.0
 41
0.5
 50
0.0
 71
     0
 42
4.191412
  3
monotxt
  4
BIGFONT
  0
ENDTAB
  0
TABLE
  2
VIEW
 70
     0
  0
ENDTAB
  0
TABLE
  2
UCS
 70
     0
  0
ENDTAB
  0
TABLE
  2
APPID
 70
     1
  0
APPID
  2
ACAD
 70
     0
  0
ENDTAB
  0
TABLE
  2
DIMSTYLE
 70
     1
  0
DIMSTYLE
  2
STANDARD
 70
     0
  3

  4

  5

  6

  7

 40
1.0
 41
0.18
 42
0.0625
 43
0.38
 44
0.18
 45
0.0
 46
0.0
 47
0.0
 48
0.0
140
0.18
141
0.09
142
0.0
143
25.4
144
1.0
145
0.0
146
1.0
147
0.09
 71
     0
 72
     0
 73
     1
 74
     1
 75
     0
 76
     0
 77
     0
 78
     0
170
     0
171
     2
172
     0
173
     0
174
     0
175
     0
176
     0
177
     0
178
     0
  0
ENDTAB
  0
ENDSEC
  0
SECTION
  2
BLOCKS
  0
BLOCK
  5
4C4
  8
0
  2
$MODEL_SPACE
 70
     0
 10
0.0
 20
0.0
 30
0.0
  3
$MODEL_SPACE
  1

  0
ENDBLK
  5
4C5
  8
0
  0
BLOCK
  5
4C1
 67
     1
  8
0
  2
$PAPER_SPACE
 70
     0
 10
0.0
 20
0.0
 30
0.0
  3
$PAPER_SPACE
  1

  0
ENDBLK
  5
4C2
 67
     1
  8
0
  0
BLOCK
  5
2B
  8
2
  2
*D2
 70
    65
 10
0.0
 20
0.0
 30
0.0
  3
*D2
  1

  0
POINT
  5
2C
  8
DEFPOINTS
 10
9989.73478
 20
4476.833737
 30
0.0
  0
POINT
  5
2D
  8
DEFPOINTS
 10
9990.73448
 20
4671.833737
 30
0.0
  0
POINT
  5
2E
  8
DEFPOINTS
 10
10185.81608
 20
4540.139163
 30
0.0
  0
LINE
  5
2F
  8
2
 10
9992.73478
 20
4476.833737
 30
0.0
 11
10190.81608
 21
4476.833737
 31
0.0
  0
LINE
  5
30
  8
2
 10
9993.73448
 20
4671.833737
 30
0.0
 11
10190.81608
 21
4671.833737
 31
0.0
  0
LINE
  5
31
  8
2
 10
10185.81608
 20
4476.833737
 30
0.0
 11
10185.81608
 21
4671.833737
 31
0.0
  0
LINE
  5
32
  8
2
 10
10179.738392
 20
4511.302008
 30
0.0
 11
10185.81608
 21
4476.833737
 31
0.0
  0
LINE
  5
33
  8
2
 10
10191.893765
 20
4511.302008
 30
0.0
 11
10185.81608
 21
4476.833737
 31
0.0
  0
LINE
  5
34
  8
2
 10
10191.893767
 20
4637.365465
 30
0.0
 11
10185.81608
 21
4671.833737
 31
0.0
  0
LINE
  5
35
  8
2
 10
10179.738394
 20
4637.365465
 30
0.0
 11
10185.81608
 21
4671.833737
 31
0.0
  0
TEXT
  5
36
  8
2
 10
10183.816406
 20
4506.653809
 30
0.0
 40
48.0
  1
195
 50
90.000003
 41
0.9
  7
MONOTXT
  0
ENDBLK
  5
37
  8
0
  0
BLOCK
  5
39
  8
2
  2
*D3
 70
    65
 10
0.0
 20
0.0
 30
0.0
  3
*D3
  1

  0
POINT
  5
3A
  8
DEFPOINTS
 10
9652.73448
 20
4416.833737
 30
0.0
  0
POINT
  5
3B
  8
DEFPOINTS
 10
9652.73448
 20
4551.833737
 30
0.0
  0
POINT
  5
3C
  8
DEFPOINTS
 10
9908.37388
 20
4498.675016
 30
0.0
  0
LINE
  5
3D
  8
2
 10
9655.73448
 20
4416.833737
 30
0.0
 11
9913.37388
 21
4416.833737
 31
0.0
  0
LINE
  5
3E
  8
2
 10
9655.73448
 20
4551.833737
 30
0.0
 11
9913.37388
 21
4551.833737
 31
0.0
  0
LINE
  5
3F
  8
2
 10
9908.37388
 20
4416.833737
 30
0.0
 11
9908.37388
 21
4551.833737
 31
0.0
  0
LINE
  5
40
  8
2
 10
9902.296192
 20
4451.302008
 30
0.0
 11
9908.37388
 21
4416.833737
 31
0.0
  0
LINE
  5
41
  8
2
 10
9914.451565
 20
4451.302008
 30
0.0
 11
9908.37388
 21
4416.833737
 31
0.0
  0
LINE
  5
42
  8
2
 10
9914.451567
 20
4517.365465
 30
0.0
 11
9908.37388
 21
4551.833737
 31
0.0
  0
LINE
  5
43
  8
2
 10
9902.296194
 20
4517.365465
 30
0.0
 11
9908.37388
 21
4551.833737
 31
0.0
  0
TEXT
  5
44
  8
2
 10
9906.374023
 20
4398.00293
 30
0.0
 40
48.0
  1
135
 50
90.000003
 41
0.9
  7
MONOTXT
  0
ENDBLK
  5
45
  8
0
  0
BLOCK
  5
47
  8
2
  2
*D4
 70
    65
 10
0.0
 20
0.0
 30
0.0
  3
*D4
  1

  0
POINT
  5
48
  8
DEFPOINTS
 10
9652.73448
 20
4551.833737
 30
0.0
  0
POINT
  5
49
  8
DEFPOINTS
 10
9990.73448
 20
4671.833737
 30
0.0
  0
POINT
  5
4A
  8
DEFPOINTS
 10
9908.37388
 20
4620.985174
 30
0.0
  0
LINE
  5
4B
  8
2
 10
9655.73448
 20
4551.833737
 30
0.0
 11
9913.37388
 21
4551.833737
 31
0.0
  0
LINE
  5
4C
  8
2
 10
9987.73448
 20
4671.833737
 30
0.0
 11
9903.37388
 21
4671.833737
 31
0.0
  0
LINE
  5
4D
  8
2
 10
9908.37388
 20
4551.833737
 30
0.0
 11
9908.37388
 21
4671.833737
 31
0.0
  0
LINE
  5
4E
  8
2
 10
9902.296192
 20
4586.302008
 30
0.0
 11
9908.37388
 21
4551.833737
 31
0.0
  0
LINE
  5
4F
  8
2
 10
9914.451565
 20
4586.302008
 30
0.0
 11
9908.37388
 21
4551.833737
 31
0.0
  0
LINE
  5
50
  8
2
 10
9914.451567
 20
4637.365465
 30
0.0
 11
9908.37388
 21
4671.833737
 31
0.0
  0
LINE
  5
51
  8
2
 10
9902.296194
 20
4637.365465
 30
0.0
 11
9908.37388
 21
4671.833737
 31
0.0
  0
TEXT
  5
52
  8
2
 10
9906.374023
 20
4534.632324
 30
0.0
 40
48.0
  1
120
 50
90.000003
 41
0.9
  7
MONOTXT
  0
ENDBLK
  5
53
  8
0
  0
BLOCK
  5
55
  8
2
  2
*D5
 70
    65
 10
0.0
 20
0.0
 30
0.0
  3
*D5
  1

  0
POINT
  5
56
  8
DEFPOINTS
 10
9169.73448
 20
4471.833937
 30
0.0
  0
POINT
  5
57
  8
DEFPOINTS
 10
9169.73938
 20
4601.834937
 30
0.0
  0
POINT
  5
58
  8
DEFPOINTS
 10
9046.11098
 20
4533.128581
 30
0.0
  0
LINE
  5
59
  8
2
 10
9166.73448
 20
4471.833937
 30
0.0
 11
9041.11098
 21
4471.833937
 31
0.0
  0
LINE
  5
5A
  8
2
 10
9166.73938
 20
4601.834937
 30
0.0
 11
9041.11098
 21
4601.834937
 31
0.0
  0
LINE
  5
5B
  8
2
 10
9046.11098
 20
4471.833937
 30
0.0
 11
9046.11098
 21
4601.834937
 31
0.0
  0
LINE
  5
5C
  8
2
 10
9040.033292
 20
4506.302208
 30
0.0
 11
9046.11098
 21
4471.833937
 31
0.0
  0
LINE
  5
5D
  8
2
 10
9052.188665
 20
4506.302208
 30
0.0
 11
9046.11098
 21
4471.833937
 31
0.0
  0
LINE
  5
5E
  8
2
 10
9052.188667
 20
4567.366665
 30
0.0
 11
9046.11098
 21
4601.834937
 31
0.0
  0
LINE
  5
5F
  8
2
 10
9040.033294
 20
4567.366665
 30
0.0
 11
9046.11098
 21
4601.834937
 31
0.0
  0
TEXT
  5
60
  8
2
 10
9044.111328
 20
4420.430176
 30
0.0
 40
43.75
  1
２×６５＝１３０
 50
90.000003
 41
0.9
  7
MONOTXT
  0
ENDBLK
  5
61
  8
0
  0
BLOCK
  5
63
  8
2
  2
*D6
 70
    65
 10
0.0
 20
0.0
 30
0.0
  3
*D6
  1

  0
POINT
  5
64
  8
DEFPOINTS
 10
9190.73448
 20
4671.833737
 30
0.0
  0
POINT
  5
65
  8
DEFPOINTS
 10
9990.73448
 20
4671.833737
 30
0.0
  0
POINT
  5
66
  8
DEFPOINTS
 10
9575.413527
 20
5083.083237
 30
0.0
  0
LINE
  5
67
  8
2
 10
9190.73448
 20
4674.833737
 30
0.0
 11
9190.73448
 21
5088.083237
 31
0.0
  0
LINE
  5
68
  8
2
 10
9990.73448
 20
4674.833737
 30
0.0
 11
9990.73448
 21
5088.083237
 31
0.0
  0
LINE
  5
69
  8
2
 10
9190.73448
 20
5083.083237
 30
0.0
 11
9990.73448
 21
5083.083237
 31
0.0
  0
LINE
  5
6A
  8
2
 10
9225.202752
 20
5089.160923
 30
0.0
 11
9190.73448
 21
5083.083237
 31
0.0
  0
LINE
  5
6B
  8
2
 10
9225.202752
 20
5077.005551
 30
0.0
 11
9190.73448
 21
5083.083237
 31
0.0
  0
LINE
  5
6C
  8
2
 10
9956.266209
 20
5077.005548
 30
0.0
 11
9990.73448
 21
5083.083237
 31
0.0
  0
LINE
  5
6D
  8
2
 10
9956.266208
 20
5089.16092
 30
0.0
 11
9990.73448
 21
5083.083237
 31
0.0
  0
TEXT
  5
6E
  8
2
 10
9523.054688
 20
5085.083008
 30
0.0
 40
48.0
  1
800
 41
0.9
  7
MONOTXT
  0
ENDBLK
  5
6F
  8
0
  0
BLOCK
  5
71
  8
2
  2
*D7
 70
    65
 10
0.0
 20
0.0
 30
0.0
  3
*D7
  1

  0
POINT
  5
72
  8
DEFPOINTS
 10
9190.73448
 20
4671.833737
 30
0.0
  0
POINT
  5
73
  8
DEFPOINTS
 10
9630.73448
 20
4573.833737
 30
0.0
  0
POINT
  5
74
  8
DEFPOINTS
 10
9304.953037
 20
4883.083237
 30
0.0
  0
LINE
  5
75
  8
2
 10
9190.73448
 20
4674.833737
 30
0.0
 11
9190.73448
 21
4888.083237
 31
0.0
  0
LINE
  5
76
  8
2
 10
9630.73448
 20
4576.833737
 30
0.0
 11
9630.73448
 21
4888.083237
 31
0.0
  0
LINE
  5
77
  8
2
 10
9190.73448
 20
4883.083237
 30
0.0
 11
9630.73448
 21
4883.083237
 31
0.0
  0
LINE
  5
78
  8
2
 10
9225.202752
 20
4889.160923
 30
0.0
 11
9190.73448
 21
4883.083237
 31
0.0
  0
LINE
  5
79
  8
2
 10
9225.202752
 20
4877.005551
 30
0.0
 11
9190.73448
 21
4883.083237
 31
0.0
  0
LINE
  5
7A
  8
2
 10
9596.266209
 20
4877.005548
 30
0.0
 11
9630.73448
 21
4883.083237
 31
0.0
  0
LINE
  5
7B
  8
2
 10
9596.266208
 20
4889.16092
 30
0.0
 11
9630.73448
 21
4883.083237
 31
0.0
  0
TEXT
  5
7C
  8
2
 10
9343.054687
 20
4885.083008
 30
0.0
 40
48.0
  1
440
 41
0.9
  7
MONOTXT
  0
ENDBLK
  5
7D
  8
0
  0
BLOCK
  5
7F
  8
2
  2
*D8
 70
    65
 10
0.0
 20
0.0
 30
0.0
  3
*D8
  1

  0
POINT
  5
80
  8
DEFPOINTS
 10
9190.73448
 20
4671.833737
 30
0.0
  0
POINT
  5
81
  8
DEFPOINTS
 10
9505.73478
 20
4631.833937
 30
0.0
  0
POINT
  5
82
  8
DEFPOINTS
 10
9303.230359
 20
4804.529237
 30
0.0
  0
LINE
  5
83
  8
2
 10
9190.73448
 20
4674.833737
 30
0.0
 11
9190.73448
 21
4809.529237
 31
0.0
  0
LINE
  5
84
  8
2
 10
9505.73478
 20
4634.833937
 30
0.0
 11
9505.73478
 21
4809.529237
 31
0.0
  0
LINE
  5
85
  8
2
 10
9190.73448
 20
4804.529237
 30
0.0
 11
9505.73478
 21
4804.529237
 31
0.0
  0
LINE
  5
86
  8
2
 10
9225.202752
 20
4810.606923
 30
0.0
 11
9190.73448
 21
4804.529237
 31
0.0
  0
LINE
  5
87
  8
2
 10
9225.202752
 20
4798.451551
 30
0.0
 11
9190.73448
 21
4804.529237
 31
0.0
  0
LINE
  5
88
  8
2
 10
9471.266509
 20
4798.451548
 30
0.0
 11
9505.73478
 21
4804.529237
 31
0.0
  0
LINE
  5
89
  8
2
 10
9471.266508
 20
4810.60692
 30
0.0
 11
9505.73478
 21
4804.529237
 31
0.0
  0
TEXT
  5
8A
  8
2
 10
9280.554687
 20
4806.529297
 30
0.0
 40
48.0
  1
315
 41
0.9
  7
MONOTXT
  0
ENDBLK
  5
8B
  8
0
  0
BLOCK
  5
8D
  8
2
  2
*D9
 70
    65
 10
0.0
 20
0.0
 30
0.0
  3
*D9
  1

  0
POINT
  5
8E
  8
DEFPOINTS
 10
9165.73448
 20
4649.333437
 30
0.0
  0
POINT
  5
8F
  8
DEFPOINTS
 10
9190.73448
 20
4671.833737
 30
0.0
  0
POINT
  5
90
  8
DEFPOINTS
 10
9177.474844
 20
5083.083237
 30
0.0
  0
LINE
  5
91
  8
2
 10
9165.73448
 20
4652.333437
 30
0.0
 11
9165.73448
 21
5088.083237
 31
0.0
  0
LINE
  5
92
  8
2
 10
9190.73448
 20
4674.833737
 30
0.0
 11
9190.73448
 21
5088.083237
 31
0.0
  0
LINE
  5
93
  8
2
 10
8986.694472
 20
5083.083237
 30
0.0
 11
9242.436888
 21
5083.083237
 31
0.0
  0
LINE
  5
94
  8
2
 10
9131.266209
 20
5077.005548
 30
0.0
 11
9165.73448
 21
5083.083237
 31
0.0
  0
LINE
  5
95
  8
2
 10
9131.266208
 20
5089.16092
 30
0.0
 11
9165.73448
 21
5083.083237
 31
0.0
  0
LINE
  5
96
  8
2
 10
9225.202751
 20
5089.160929
 30
0.0
 11
9190.73448
 21
5083.083237
 31
0.0
  0
LINE
  5
97
  8
2
 10
9225.202753
 20
5077.005557
 30
0.0
 11
9190.73448
 21
5083.083237
 31
0.0
  0
TEXT
  5
98
  8
2
 10
9030.374023
 20
5085.083008
 30
0.0
 40
48.0
  1
25
 41
0.9
  7
MONOTXT
  0
ENDBLK
  5
99
  8
0
  0
BLOCK
  5
9B
  8
2
  2
*D10
 70
    65
 10
0.0
 20
0.0
 30
0.0
  3
*D10
  1

  0
POINT
  5
9C
  8
DEFPOINTS
 10
9190.73448
 20
4671.833737
 30
0.0
  0
POINT
  5
9D
  8
DEFPOINTS
 10
9785.73208
 20
4391.835237
 30
0.0
  0
POINT
  5
9E
  8
DEFPOINTS
 10
9354.910707
 20
4983.083237
 30
0.0
  0
LINE
  5
9F
  8
2
 10
9190.73448
 20
4674.833737
 30
0.0
 11
9190.73448
 21
4988.083237
 31
0.0
  0
LINE
  5
A0
  8
2
 10
9785.73208
 20
4394.835237
 30
0.0
 11
9785.73208
 21
4988.083237
 31
0.0
  0
LINE
  5
A1
  8
2
 10
9190.73448
 20
4983.083237
 30
0.0
 11
9785.73208
 21
4983.083237
 31
0.0
  0
LINE
  5
A2
  8
2
 10
9225.202752
 20
4989.160923
 30
0.0
 11
9190.73448
 21
4983.083237
 31
0.0
  0
LINE
  5
A3
  8
2
 10
9225.202752
 20
4977.005551
 30
0.0
 11
9190.73448
 21
4983.083237
 31
0.0
  0
LINE
  5
A4
  8
2
 10
9751.263809
 20
4977.005548
 30
0.0
 11
9785.73208
 21
4983.083237
 31
0.0
  0
LINE
  5
A5
  8
2
 10
9751.263808
 20
4989.16092
 30
0.0
 11
9785.73208
 21
4983.083237
 31
0.0
  0
TEXT
  5
A6
  8
2
 10
9236.226562
 20
4985.083008
 30
0.0
 40
48.0
  1
595
 41
0.9
  7
MONOTXT
  0
ENDBLK
  5
A7
  8
0
  0
BLOCK
  5
A9
  8
2
  2
*D11
 70
    65
 10
0.0
 20
0.0
 30
0.0
  3
*D11
  1

  0
POINT
  5
AA
  8
DEFPOINTS
 10
9190.73448
 20
4371.833737
 30
0.0
  0
POINT
  5
AB
  8
DEFPOINTS
 10
9235.73448
 20
4450.833737
 30
0.0
  0
POINT
  5
AC
  8
DEFPOINTS
 10
9215.373767
 20
4300.702337
 30
0.0
  0
LINE
  5
AD
  8
2
 10
9190.73448
 20
4368.833737
 30
0.0
 11
9190.73448
 21
4295.702337
 31
0.0
  0
LINE
  5
AE
  8
2
 10
9235.73448
 20
4447.833737
 30
0.0
 11
9235.73448
 21
4295.702337
 31
0.0
  0
LINE
  5
AF
  8
2
 10
9011.694472
 20
4300.702337
 30
0.0
 11
9265.278714
 21
4300.702337
 31
0.0
  0
LINE
  5
B0
  8
2
 10
9156.266209
 20
4294.624648
 30
0.0
 11
9190.73448
 21
4300.702337
 31
0.0
  0
LINE
  5
B1
  8
2
 10
9156.266208
 20
4306.78002
 30
0.0
 11
9190.73448
 21
4300.702337
 31
0.0
  0
CIRCLE
  5
B2
  8
2
 10
9235.73448
 20
4300.702337
 30
0.0
 40
5.0
  0
CIRCLE
  5
B3
  8
2
 10
9235.73448
 20
4300.702337
 30
0.0
 40
3.0
  0
TEXT
  5
B4
  8
2
 10
9055.374023
 20
4302.702148
 30
0.0
 40
48.0
  1
45
 41
0.9
  7
MONOTXT
  0
ENDBLK
  5
B5
  8
0
  0
BLOCK
  5
B7
  8
2
  2
*D12
 70
    65
 10
0.0
 20
0.0
 30
0.0
  3
*D12
  1

  0
POINT
  5
B8
  8
DEFPOINTS
 10
9235.73448
 20
4450.833737
 30
0.0
  0
POINT
  5
B9
  8
DEFPOINTS
 10
9281.73448
 20
4505.833737
 30
0.0
  0
POINT
  5
BA
  8
DEFPOINTS
 10
9318.734463
 20
4300.702337
 30
0.0
  0
LINE
  5
BB
  8
2
 10
9235.73448
 20
4447.833737
 30
0.0
 11
9235.73448
 21
4295.702337
 31
0.0
  0
LINE
  5
BC
  8
2
 10
9281.73448
 20
4502.833737
 30
0.0
 11
9281.73448
 21
4295.702337
 31
0.0
  0
LINE
  5
BD
  8
2
 10
9206.190247
 20
4300.702337
 30
0.0
 11
9460.774489
 21
4300.702337
 31
0.0
  0
CIRCLE
  5
BE
  8
2
 10
9235.73448
 20
4300.702337
 30
0.0
 40
5.0
  0
CIRCLE
  5
BF
  8
2
 10
9235.73448
 20
4300.702337
 30
0.0
 40
3.0
  0
LINE
  5
C0
  8
2
 10
9316.202751
 20
4306.780029
 30
0.0
 11
9281.73448
 21
4300.702337
 31
0.0
  0
LINE
  5
C1
  8
2
 10
9316.202753
 20
4294.624657
 30
0.0
 11
9281.73448
 21
4300.702337
 31
0.0
  0
TEXT
  5
C2
  8
2
 10
9325.414062
 20
4302.702148
 30
0.0
 40
48.0
  1
46
 41
0.9
  7
MONOTXT
  0
ENDBLK
  5
C3
  8
0
  0
BLOCK
  5
C5
  8
2
  2
*D13
 70
    65
 10
0.0
 20
0.0
 30
0.0
  3
*D13
  1

  0
POINT
  5
C6
  8
DEFPOINTS
 10
8041.61028
 20
4254.333937
 30
0.0
  0
POINT
  5
C7
  8
DEFPOINTS
 10
8098.61088
 20
4386.816837
 30
0.0
  0
POINT
  5
C8
  8
DEFPOINTS
 10
8076.733723
 20
4263.083237
 30
0.0
  0
LINE
  5
C9
  8
2
 10
8041.61028
 20
4257.333937
 30
0.0
 11
8041.61028
 21
4268.083237
 31
0.0
  0
LINE
  5
CA
  8
2
 10
8098.61088
 20
4383.816837
 30
0.0
 11
8098.61088
 21
4258.083237
 31
0.0
  0
LINE
  5
CB
  8
2
 10
7989.907872
 20
4263.083237
 30
0.0
 11
8277.650889
 21
4263.083237
 31
0.0
  0
LINE
  5
CC
  8
2
 10
8007.142009
 20
4257.005548
 30
0.0
 11
8041.61028
 21
4263.083237
 31
0.0
  0
LINE
  5
CD
  8
2
 10
8007.142008
 20
4269.16092
 30
0.0
 11
8041.61028
 21
4263.083237
 31
0.0
  0
LINE
  5
CE
  8
2
 10
8133.079151
 20
4269.160929
 30
0.0
 11
8098.61088
 21
4263.083237
 31
0.0
  0
LINE
  5
CF
  8
2
 10
8133.079153
 20
4257.005557
 30
0.0
 11
8098.61088
 21
4263.083237
 31
0.0
  0
TEXT
  5
D0
  8
2
 10
8142.291016
 20
4265.083008
 30
0.0
 40
48.0
  1
57
 41
0.9
  7
MONOTXT
  0
ENDBLK
  5
D1
  8
0
  0
BLOCK
  5
D3
  8
2
  2
*D14
 70
    65
 10
0.0
 20
0.0
 30
0.0
  3
*D14
  1

  0
POINT
  5
D4
  8
DEFPOINTS
 10
8130.86198
 20
4471.833737
 30
0.0
  0
POINT
  5
D5
  8
DEFPOINTS
 10
8041.61078
 20
4671.833737
 30
0.0
  0
POINT
  5
D6
  8
DEFPOINTS
 10
8341.70838
 20
4498.185348
 30
0.0
  0
LINE
  5
D7
  8
2
 10
8133.86198
 20
4471.833737
 30
0.0
 11
8346.70838
 21
4471.833737
 31
0.0
  0
LINE
  5
D8
  8
2
 10
8044.61078
 20
4671.833737
 30
0.0
 11
8346.70838
 21
4671.833737
 31
0.0
  0
LINE
  5
D9
  8
2
 10
8341.70838
 20
4471.833737
 30
0.0
 11
8341.70838
 21
4671.833737
 31
0.0
  0
LINE
  5
DA
  8
2
 10
8335.630692
 20
4506.302008
 30
0.0
 11
8341.70838
 21
4471.833737
 31
0.0
  0
LINE
  5
DB
  8
2
 10
8347.786065
 20
4506.302008
 30
0.0
 11
8341.70838
 21
4471.833737
 31
0.0
  0
LINE
  5
DC
  8
2
 10
8347.786067
 20
4637.365465
 30
0.0
 11
8341.70838
 21
4671.833737
 31
0.0
  0
LINE
  5
DD
  8
2
 10
8335.630694
 20
4637.365465
 30
0.0
 11
8341.70838
 21
4671.833737
 31
0.0
  0
TEXT
  5
DE
  8
2
 10
8339.708008
 20
4504.153809
 30
0.0
 40
48.0
  1
200
 50
90.000003
 41
0.9
  7
MONOTXT
  0
ENDBLK
  5
DF
  8
0
  0
BLOCK
  5
E1
  8
2
  2
*D15
 70
    65
 10
0.0
 20
0.0
 30
0.0
  3
*D15
  1

  0
POINT
  5
E2
  8
DEFPOINTS
 10
8131.61078
 20
4521.833737
 30
0.0
  0
POINT
  5
E3
  8
DEFPOINTS
 10
8041.61078
 20
4671.833737
 30
0.0
  0
POINT
  5
E4
  8
DEFPOINTS
 10
8264.096107
 20
4641.181537
 30
0.0
  0
LINE
  5
E5
  8
2
 10
8134.61078
 20
4521.833737
 30
0.0
 11
8269.096107
 21
4521.833737
 31
0.0
  0
LINE
  5
E6
  8
2
 10
8044.61078
 20
4671.833737
 30
0.0
 11
8269.096107
 21
4671.833737
 31
0.0
  0
LINE
  5
E7
  8
2
 10
8264.096107
 20
4521.833737
 30
0.0
 11
8264.096107
 21
4671.833737
 31
0.0
  0
LINE
  5
E8
  8
2
 10
8258.01842
 20
4556.302008
 30
0.0
 11
8264.096107
 21
4521.833737
 31
0.0
  0
LINE
  5
E9
  8
2
 10
8270.173792
 20
4556.302008
 30
0.0
 11
8264.096107
 21
4521.833737
 31
0.0
  0
LINE
  5
EA
  8
2
 10
8270.173794
 20
4637.365465
 30
0.0
 11
8264.096107
 21
4671.833737
 31
0.0
  0
LINE
  5
EB
  8
2
 10
8258.018421
 20
4637.365465
 30
0.0
 11
8264.096107
 21
4671.833737
 31
0.0
  0
TEXT
  5
EC
  8
2
 10
8262.095703
 20
4529.153809
 30
0.0
 40
48.0
  1
150
 50
90.000003
 41
0.9
  7
MONOTXT
  0
ENDBLK
  5
ED
  8
0
  0
BLOCK
  5
EF
  8
2
  2
*D16
 70
    65
 10
0.0
 20
0.0
 30
0.0
  3
*D16
  1

  0
POINT
  5
F0
  8
DEFPOINTS
 10
8091.61078
 20
4604.833737
 30
0.0
  0
POINT
  5
F1
  8
DEFPOINTS
 10
8041.61078
 20
4671.833737
 30
0.0
  0
POINT
  5
F2
  8
DEFPOINTS
 10
8176.371494
 20
4634.082436
 30
0.0
  0
LINE
  5
F3
  8
2
 10
8094.61078
 20
4604.833737
 30
0.0
 11
8181.371494
 21
4604.833737
 31
0.0
  0
LINE
  5
F4
  8
2
 10
8044.61078
 20
4671.833737
 30
0.0
 11
8181.371494
 21
4671.833737
 31
0.0
  0
LINE
  5
F5
  8
2
 10
8176.371494
 20
4604.833737
 30
0.0
 11
8176.371494
 21
4671.833737
 31
0.0
  0
LINE
  5
F6
  8
2
 10
8170.293807
 20
4639.302008
 30
0.0
 11
8176.371494
 21
4604.833737
 31
0.0
  0
LINE
  5
F7
  8
2
 10
8182.449179
 20
4639.302008
 30
0.0
 11
8176.371494
 21
4604.833737
 31
0.0
  0
LINE
  5
F8
  8
2
 10
8182.449181
 20
4637.365465
 30
0.0
 11
8176.371494
 21
4671.833737
 31
0.0
  0
LINE
  5
F9
  8
2
 10
8170.293809
 20
4637.365465
 30
0.0
 11
8176.371494
 21
4671.833737
 31
0.0
  0
TEXT
  5
FA
  8
2
 10
8174.371582
 20
4593.710449
 30
0.0
 40
48.0
  1
67
 50
90.000003
 41
0.9
  7
MONOTXT
  0
ENDBLK
  5
FB
  8
0
  0
BLOCK
  5
FD
  8
2
  2
*D17
 70
    65
 10
0.0
 20
0.0
 30
0.0
  3
*D17
  1

  0
POINT
  5
FE
  8
DEFPOINTS
 10
7626.61088
 20
4721.834437
 30
0.0
  0
POINT
  5
FF
  8
DEFPOINTS
 10
7691.61088
 20
4771.834237
 30
0.0
  0
POINT
  5
100
  8
DEFPOINTS
 10
7716.485035
 20
4803.083237
 30
0.0
  0
LINE
  5
101
  8
2
 10
7626.61088
 20
4724.834437
 30
0.0
 11
7626.61088
 21
4808.083237
 31
0.0
  0
LINE
  5
102
  8
2
 10
7691.61088
 20
4774.834237
 30
0.0
 11
7691.61088
 21
4808.083237
 31
0.0
  0
LINE
  5
103
  8
2
 10
7574.908472
 20
4803.083237
 30
0.0
 11
7870.650889
 21
4803.083237
 31
0.0
  0
LINE
  5
104
  8
2
 10
7592.142609
 20
4797.005548
 30
0.0
 11
7626.61088
 21
4803.083237
 31
0.0
  0
LINE
  5
105
  8
2
 10
7592.142608
 20
4809.16092
 30
0.0
 11
7626.61088
 21
4803.083237
 31
0.0
  0
LINE
  5
106
  8
2
 10
7726.079151
 20
4809.160929
 30
0.0
 11
7691.61088
 21
4803.083237
 31
0.0
  0
LINE
  5
107
  8
2
 10
7726.079153
 20
4797.005557
 30
0.0
 11
7691.61088
 21
4803.083237
 31
0.0
  0
TEXT
  5
108
  8
2
 10
7735.291016
 20
4805.083008
 30
0.0
 40
48.0
  1
65
 41
0.9
  7
MONOTXT
  0
ENDBLK
  5
109
  8
0
  0
BLOCK
  5
10B
  8
2
  2
*D18
 70
    65
 10
0.0
 20
0.0
 30
0.0
  3
*D18
  1

  0
POINT
  5
10C
  8
DEFPOINTS
 10
7341.61058
 20
4671.833737
 30
0.0
  0
POINT
  5
10D
  8
DEFPOINTS
 10
8041.61078
 20
4671.833737
 30
0.0
  0
POINT
  5
10E
  8
DEFPOINTS
 10
7588.519182
 20
5123.083237
 30
0.0
  0
LINE
  5
10F
  8
2
 10
7341.61058
 20
4674.833737
 30
0.0
 11
7341.61058
 21
5128.083237
 31
0.0
  0
LINE
  5
110
  8
2
 10
8041.61078
 20
4674.833737
 30
0.0
 11
8041.61078
 21
5128.083237
 31
0.0
  0
LINE
  5
111
  8
2
 10
7341.61058
 20
5123.083237
 30
0.0
 11
8041.61078
 21
5123.083237
 31
0.0
  0
LINE
  5
112
  8
2
 10
7376.078852
 20
5129.160923
 30
0.0
 11
7341.61058
 21
5123.083237
 31
0.0
  0
LINE
  5
113
  8
2
 10
7376.078852
 20
5117.005551
 30
0.0
 11
7341.61058
 21
5123.083237
 31
0.0
  0
LINE
  5
114
  8
2
 10
8007.142509
 20
5117.005548
 30
0.0
 11
8041.61078
 21
5123.083237
 31
0.0
  0
LINE
  5
115
  8
2
 10
8007.142508
 20
5129.16092
 30
0.0
 11
8041.61078
 21
5123.083237
 31
0.0
  0
TEXT
  5
116
  8
2
 10
7623.930664
 20
5125.083008
 30
0.0
 40
48.0
  1
700
 41
0.9
  7
MONOTXT
  0
ENDBLK
  5
117
  8
0
  0
BLOCK
  5
119
  8
2
  2
*D19
 70
    65
 10
0.0
 20
0.0
 30
0.0
  3
*D19
  1

  0
POINT
  5
11A
  8
DEFPOINTS
 10
7384.11088
 20
4621.834737
 30
0.0
  0
POINT
  5
11B
  8
DEFPOINTS
 10
7869.11088
 20
4621.833737
 30
0.0
  0
POINT
  5
11C
  8
DEFPOINTS
 10
7501.948807
 20
5043.083237
 30
0.0
  0
LINE
  5
11D
  8
2
 10
7384.11088
 20
4624.834737
 30
0.0
 11
7384.11088
 21
5048.083237
 31
0.0
  0
LINE
  5
11E
  8
2
 10
7869.11088
 20
4624.833737
 30
0.0
 11
7869.11088
 21
5048.083237
 31
0.0
  0
LINE
  5
11F
  8
2
 10
7384.11088
 20
5043.083237
 30
0.0
 11
7869.11088
 21
5043.083237
 31
0.0
  0
LINE
  5
120
  8
2
 10
7418.579152
 20
5049.160923
 30
0.0
 11
7384.11088
 21
5043.083237
 31
0.0
  0
LINE
  5
121
  8
2
 10
7418.579152
 20
5037.005551
 30
0.0
 11
7384.11088
 21
5043.083237
 31
0.0
  0
LINE
  5
122
  8
2
 10
7834.642609
 20
5037.005548
 30
0.0
 11
7869.11088
 21
5043.083237
 31
0.0
  0
LINE
  5
123
  8
2
 10
7834.642608
 20
5049.16092
 30
0.0
 11
7869.11088
 21
5043.083237
 31
0.0
  0
TEXT
  5
124
  8
2
 10
7558.930664
 20
5045.083008
 30
0.0
 40
48.0
  1
485
 41
0.9
  7
MONOTXT
  0
ENDBLK
  5
125
  8
0
  0
BLOCK
  5
127
  8
2
  2
*D20
 70
    65
 10
0.0
 20
0.0
 30
0.0
  3
*D20
  1

  0
POINT
  5
128
  8
DEFPOINTS
 10
7396.61088
 20
4644.334737
 30
0.0
  0
POINT
  5
129
  8
DEFPOINTS
 10
7856.61098
 20
4644.333937
 30
0.0
  0
POINT
  5
12A
  8
DEFPOINTS
 10
7464.374812
 20
4963.083237
 30
0.0
  0
LINE
  5
12B
  8
2
 10
7396.61088
 20
4647.334737
 30
0.0
 11
7396.61088
 21
4968.083237
 31
0.0
  0
LINE
  5
12C
  8
2
 10
7856.61098
 20
4647.333937
 30
0.0
 11
7856.61098
 21
4968.083237
 31
0.0
  0
LINE
  5
12D
  8
2
 10
7396.61088
 20
4963.083237
 30
0.0
 11
7856.61098
 21
4963.083237
 31
0.0
  0
LINE
  5
12E
  8
2
 10
7431.079152
 20
4969.160923
 30
0.0
 11
7396.61088
 21
4963.083237
 31
0.0
  0
LINE
  5
12F
  8
2
 10
7431.079152
 20
4957.005551
 30
0.0
 11
7396.61088
 21
4963.083237
 31
0.0
  0
LINE
  5
130
  8
2
 10
7822.142709
 20
4957.005548
 30
0.0
 11
7856.61098
 21
4963.083237
 31
0.0
  0
LINE
  5
131
  8
2
 10
7822.142708
 20
4969.16092
 30
0.0
 11
7856.61098
 21
4963.083237
 31
0.0
  0
TEXT
  5
132
  8
2
 10
7558.931152
 20
4965.083008
 30
0.0
 40
48.0
  1
460
 41
0.9
  7
MONOTXT
  0
ENDBLK
  5
133
  8
0
  0
BLOCK
  5
135
  8
2
  2
*D21
 70
    65
 10
0.0
 20
0.0
 30
0.0
  3
*D21
  1

  0
POINT
  5
136
  8
DEFPOINTS
 10
8041.61078
 20
4671.833737
 30
0.0
  0
POINT
  5
137
  8
DEFPOINTS
 10
8091.61078
 20
4619.833737
 30
0.0
  0
POINT
  5
138
  8
DEFPOINTS
 10
8063.680026
 20
5043.083237
 30
0.0
  0
LINE
  5
139
  8
2
 10
8041.61078
 20
4674.833737
 30
0.0
 11
8041.61078
 21
5048.083237
 31
0.0
  0
LINE
  5
13A
  8
2
 10
8091.61078
 20
4622.833737
 30
0.0
 11
8091.61078
 21
5048.083237
 31
0.0
  0
LINE
  5
13B
  8
2
 10
7989.908372
 20
5043.083237
 30
0.0
 11
8246.308366
 21
5043.083237
 31
0.0
  0
LINE
  5
13C
  8
2
 10
8007.142509
 20
5037.005548
 30
0.0
 11
8041.61078
 21
5043.083237
 31
0.0
  0
LINE
  5
13D
  8
2
 10
8007.142508
 20
5049.16092
 30
0.0
 11
8041.61078
 21
5043.083237
 31
0.0
  0
LINE
  5
13E
  8
2
 10
8126.079051
 20
5049.160929
 30
0.0
 11
8091.61078
 21
5043.083237
 31
0.0
  0
LINE
  5
13F
  8
2
 10
8126.079053
 20
5037.005557
 30
0.0
 11
8091.61078
 21
5043.083237
 31
0.0
  0
TEXT
  5
140
  8
2
 10
8110.948242
 20
5045.083008
 30
0.0
 40
48.0
  1
50
 41
0.9
  7
MONOTXT
  0
ENDBLK
  5
141
  8
0
  0
BLOCK
  5
143
  8
2
  2
*D22
 70
    65
 10
0.0
 20
0.0
 30
0.0
  3
*D22
  1

  0
POINT
  5
144
  8
DEFPOINTS
 10
8041.61078
 20
4671.833737
 30
0.0
  0
POINT
  5
145
  8
DEFPOINTS
 10
8101.61078
 20
4528.833737
 30
0.0
  0
POINT
  5
146
  8
DEFPOINTS
 10
8073.073525
 20
5123.083237
 30
0.0
  0
LINE
  5
147
  8
2
 10
8041.61078
 20
4674.833737
 30
0.0
 11
8041.61078
 21
5128.083237
 31
0.0
  0
LINE
  5
148
  8
2
 10
8101.61078
 20
4531.833737
 30
0.0
 11
8101.61078
 21
5128.083237
 31
0.0
  0
LINE
  5
149
  8
2
 10
7989.908372
 20
5123.083237
 30
0.0
 11
8240.036165
 21
5123.083237
 31
0.0
  0
LINE
  5
14A
  8
2
 10
8007.142509
 20
5117.005548
 30
0.0
 11
8041.61078
 21
5123.083237
 31
0.0
  0
LINE
  5
14B
  8
2
 10
8007.142508
 20
5129.16092
 30
0.0
 11
8041.61078
 21
5123.083237
 31
0.0
  0
LINE
  5
14C
  8
2
 10
8136.079051
 20
5129.160929
 30
0.0
 11
8101.61078
 21
5123.083237
 31
0.0
  0
LINE
  5
14D
  8
2
 10
8136.079053
 20
5117.005557
 30
0.0
 11
8101.61078
 21
5123.083237
 31
0.0
  0
TEXT
  5
14E
  8
2
 10
8104.67627
 20
5125.083008
 30
0.0
 40
48.0
  1
60
 41
0.9
  7
MONOTXT
  0
ENDBLK
  5
14F
  8
0
  0
BLOCK
  5
151
  8
2
  2
*D23
 70
    65
 10
0.0
 20
0.0
 30
0.0
  3
*D23
  1

  0
POINT
  5
152
  8
DEFPOINTS
 10
7401.61078
 20
4667.333937
 30
0.0
  0
POINT
  5
153
  8
DEFPOINTS
 10
7851.61078
 20
4667.333937
 30
0.0
  0
POINT
  5
154
  8
DEFPOINTS
 10
7573.339396
 20
4883.083237
 30
0.0
  0
LINE
  5
155
  8
2
 10
7401.61078
 20
4670.333937
 30
0.0
 11
7401.61078
 21
4888.083237
 31
0.0
  0
LINE
  5
156
  8
2
 10
7851.61078
 20
4670.333937
 30
0.0
 11
7851.61078
 21
4888.083237
 31
0.0
  0
LINE
  5
157
  8
2
 10
7401.61078
 20
4883.083237
 30
0.0
 11
7851.61078
 21
4883.083237
 31
0.0
  0
LINE
  5
158
  8
2
 10
7436.079052
 20
4889.160923
 30
0.0
 11
7401.61078
 21
4883.083237
 31
0.0
  0
LINE
  5
159
  8
2
 10
7436.079052
 20
4877.005551
 30
0.0
 11
7401.61078
 21
4883.083237
 31
0.0
  0
LINE
  5
15A
  8
2
 10
7817.142509
 20
4877.005548
 30
0.0
 11
7851.61078
 21
4883.083237
 31
0.0
  0
LINE
  5
15B
  8
2
 10
7817.142508
 20
4889.16092
 30
0.0
 11
7851.61078
 21
4883.083237
 31
0.0
  0
TEXT
  5
15C
  8
2
 10
7450.07959
 20
4885.083008
 30
0.0
 40
43.75
  1
３×１５０＝４５０
 41
0.9
  7
MONOTXT
  0
ENDBLK
  5
15D
  8
0
  0
BLOCK
  5
15F
  8
2
  2
*D24
 70
    65
 10
0.0
 20
0.0
 30
0.0
  3
*D24
  1

  0
POINT
  5
160
  8
DEFPOINTS
 10
7341.61058
 20
4371.834237
 30
0.0
  0
POINT
  5
161
  8
DEFPOINTS
 10
7341.61058
 20
4671.834437
 30
0.0
  0
POINT
  5
162
  8
DEFPOINTS
 10
6936.11098
 20
4625.865329
 30
0.0
  0
LINE
  5
163
  8
2
 10
7338.61058
 20
4371.834237
 30
0.0
 11
6931.11098
 21
4371.834237
 31
0.0
  0
LINE
  5
164
  8
2
 10
7338.61058
 20
4671.834437
 30
0.0
 11
6931.11098
 21
4671.834437
 31
0.0
  0
LINE
  5
165
  8
2
 10
6936.11098
 20
4371.834237
 30
0.0
 11
6936.11098
 21
4671.834437
 31
0.0
  0
LINE
  5
166
  8
2
 10
6930.033292
 20
4406.302508
 30
0.0
 11
6936.11098
 21
4371.834237
 31
0.0
  0
LINE
  5
167
  8
2
 10
6942.188665
 20
4406.302508
 30
0.0
 11
6936.11098
 21
4371.834237
 31
0.0
  0
LINE
  5
168
  8
2
 10
6942.188667
 20
4637.366165
 30
0.0
 11
6936.11098
 21
4671.834437
 31
0.0
  0
LINE
  5
169
  8
2
 10
6930.033294
 20
4637.366165
 30
0.0
 11
6936.11098
 21
4671.834437
 31
0.0
  0
TEXT
  5
16A
  8
2
 10
6934.11084
 20
4454.154297
 30
0.0
 40
48.0
  1
300
 50
90.000003
 41
0.9
  7
MONOTXT
  0
ENDBLK
  5
16B
  8
0
  0
BLOCK
  5
16D
  8
2
  2
*D25
 70
    65
 10
0.0
 20
0.0
 30
0.0
  3
*D25
  1

  0
POINT
  5
16E
  8
DEFPOINTS
 10
7393.61078
 20
4414.333037
 30
0.0
  0
POINT
  5
16F
  8
DEFPOINTS
 10
7393.61098
 20
4659.333237
 30
0.0
  0
POINT
  5
170
  8
DEFPOINTS
 10
7016.11098
 20
4456.406613
 30
0.0
  0
LINE
  5
171
  8
2
 10
7390.61078
 20
4414.333037
 30
0.0
 11
7011.11098
 21
4414.333037
 31
0.0
  0
LINE
  5
172
  8
2
 10
7390.61098
 20
4659.333237
 30
0.0
 11
7011.11098
 21
4659.333237
 31
0.0
  0
LINE
  5
173
  8
2
 10
7016.11098
 20
4414.333037
 30
0.0
 11
7016.11098
 21
4659.333237
 31
0.0
  0
LINE
  5
174
  8
2
 10
7010.033292
 20
4448.801308
 30
0.0
 11
7016.11098
 21
4414.333037
 31
0.0
  0
LINE
  5
175
  8
2
 10
7022.188665
 20
4448.801308
 30
0.0
 11
7016.11098
 21
4414.333037
 31
0.0
  0
LINE
  5
176
  8
2
 10
7022.188667
 20
4624.864965
 30
0.0
 11
7016.11098
 21
4659.333237
 31
0.0
  0
LINE
  5
177
  8
2
 10
7010.033294
 20
4624.864965
 30
0.0
 11
7016.11098
 21
4659.333237
 31
0.0
  0
TEXT
  5
178
  8
2
 10
7014.11084
 20
4469.15332
 30
0.0
 40
48.0
  1
245
 50
90.000003
 41
0.9
  7
MONOTXT
  0
ENDBLK
  5
179
  8
0
  0
BLOCK
  5
17B
  8
2
  2
*D26
 70
    65
 10
0.0
 20
0.0
 30
0.0
  3
*D26
  1

  0
POINT
  5
17C
  8
DEFPOINTS
 10
7374.11088
 20
4429.334437
 30
0.0
  0
POINT
  5
17D
  8
DEFPOINTS
 10
7374.11088
 20
4644.334737
 30
0.0
  0
POINT
  5
17E
  8
DEFPOINTS
 10
7096.11098
 20
4457.784326
 30
0.0
  0
LINE
  5
17F
  8
2
 10
7371.11088
 20
4429.334437
 30
0.0
 11
7091.11098
 21
4429.334437
 31
0.0
  0
LINE
  5
180
  8
2
 10
7371.11088
 20
4644.334737
 30
0.0
 11
7091.11098
 21
4644.334737
 31
0.0
  0
LINE
  5
181
  8
2
 10
7096.11098
 20
4429.334437
 30
0.0
 11
7096.11098
 21
4644.334737
 31
0.0
  0
LINE
  5
182
  8
2
 10
7090.033292
 20
4463.802708
 30
0.0
 11
7096.11098
 21
4429.334437
 31
0.0
  0
LINE
  5
183
  8
2
 10
7102.188665
 20
4463.802708
 30
0.0
 11
7096.11098
 21
4429.334437
 31
0.0
  0
LINE
  5
184
  8
2
 10
7102.188667
 20
4609.866465
 30
0.0
 11
7096.11098
 21
4644.334737
 31
0.0
  0
LINE
  5
185
  8
2
 10
7090.033294
 20
4609.866465
 30
0.0
 11
7096.11098
 21
4644.334737
 31
0.0
  0
TEXT
  5
186
  8
2
 10
7094.11084
 20
4469.154785
 30
0.0
 40
48.0
  1
215
 50
90.000003
 41
0.9
  7
MONOTXT
  0
ENDBLK
  5
187
  8
0
  0
BLOCK
  5
189
  8
2
  2
*D27
 70
    65
 10
0.0
 20
0.0
 30
0.0
  3
*D27
  1

  0
POINT
  5
18A
  8
DEFPOINTS
 10
7341.61058
 20
4131.833937
 30
0.0
  0
POINT
  5
18B
  8
DEFPOINTS
 10
7341.61058
 20
4371.834237
 30
0.0
  0
POINT
  5
18C
  8
DEFPOINTS
 10
7102.73008
 20
4289.703323
 30
0.0
  0
LINE
  5
18D
  8
2
 10
7338.61058
 20
4131.833937
 30
0.0
 11
7097.73008
 21
4131.833937
 31
0.0
  0
LINE
  5
18E
  8
2
 10
7338.61058
 20
4371.834237
 30
0.0
 11
7097.73008
 21
4371.834237
 31
0.0
  0
LINE
  5
18F
  8
2
 10
7102.73008
 20
4131.833937
 30
0.0
 11
7102.73008
 21
4371.834237
 31
0.0
  0
LINE
  5
190
  8
2
 10
7096.652392
 20
4166.302208
 30
0.0
 11
7102.73008
 21
4131.833937
 31
0.0
  0
LINE
  5
191
  8
2
 10
7108.807765
 20
4166.302208
 30
0.0
 11
7102.73008
 21
4131.833937
 31
0.0
  0
LINE
  5
192
  8
2
 10
7108.807767
 20
4337.365965
 30
0.0
 11
7102.73008
 21
4371.834237
 31
0.0
  0
LINE
  5
193
  8
2
 10
7096.652394
 20
4337.365965
 30
0.0
 11
7102.73008
 21
4371.834237
 31
0.0
  0
TEXT
  5
194
  8
2
 10
7100.72998
 20
4160.490723
 30
0.0
 40
40.0
  1
１１５～２５５
 50
90.000003
 41
0.9
  7
MONOTXT
  0
ENDBLK
  5
195
  8
0
  0
BLOCK
  5
197
  8
2
  2
*D28
 70
    65
 10
0.0
 20
0.0
 30
0.0
  3
*D28
  1

  0
POINT
  5
198
  8
DEFPOINTS
 10
7379.11088
 20
4461.833737
 30
0.0
  0
POINT
  5
199
  8
DEFPOINTS
 10
7379.11088
 20
4611.833937
 30
0.0
  0
POINT
  5
19A
  8
DEFPOINTS
 10
7176.468628
 20
4543.058932
 30
0.0
  0
LINE
  5
19B
  8
2
 10
7376.11088
 20
4461.833737
 30
0.0
 11
7171.468628
 21
4461.833737
 31
0.0
  0
LINE
  5
19C
  8
2
 10
7376.11088
 20
4611.833937
 30
0.0
 11
7171.468628
 21
4611.833937
 31
0.0
  0
LINE
  5
19D
  8
2
 10
7176.468628
 20
4461.833737
 30
0.0
 11
7176.468628
 21
4611.833937
 31
0.0
  0
LINE
  5
19E
  8
2
 10
7170.39094
 20
4496.302008
 30
0.0
 11
7176.468628
 21
4461.833737
 31
0.0
  0
LINE
  5
19F
  8
2
 10
7182.546313
 20
4496.302008
 30
0.0
 11
7176.468628
 21
4461.833737
 31
0.0
  0
LINE
  5
1A0
  8
2
 10
7182.546315
 20
4577.365665
 30
0.0
 11
7176.468628
 21
4611.833937
 31
0.0
  0
LINE
  5
1A1
  8
2
 10
7170.390942
 20
4577.365665
 30
0.0
 11
7176.468628
 21
4611.833937
 31
0.0
  0
TEXT
  5
1A2
  8
2
 10
7174.46875
 20
4469.153809
 30
0.0
 40
48.0
  1
150
 50
90.000003
 41
0.9
  7
MONOTXT
  0
ENDBLK
  5
1A3
  8
0
  0
BLOCK
  5
1A5
  8
2
  2
*D29
 70
    65
 10
0.0
 20
0.0
 30
0.0
  3
*D29
  1

  0
POINT
  5
1A6
  8
DEFPOINTS
 10
7354.11088
 20
4536.834437
 30
0.0
  0
POINT
  5
1A7
  8
DEFPOINTS
 10
7341.61058
 20
4671.834437
 30
0.0
  0
POINT
  5
1A8
  8
DEFPOINTS
 10
7259.500106
 20
4608.814772
 30
0.0
  0
LINE
  5
1A9
  8
2
 10
7351.11088
 20
4536.834437
 30
0.0
 11
7254.500106
 21
4536.834437
 31
0.0
  0
LINE
  5
1AA
  8
2
 10
7338.61058
 20
4671.834437
 30
0.0
 11
7254.500106
 21
4671.834437
 31
0.0
  0
LINE
  5
1AB
  8
2
 10
7259.500106
 20
4536.834437
 30
0.0
 11
7259.500106
 21
4671.834437
 31
0.0
  0
LINE
  5
1AC
  8
2
 10
7253.422418
 20
4571.302708
 30
0.0
 11
7259.500106
 21
4536.834437
 31
0.0
  0
LINE
  5
1AD
  8
2
 10
7265.577791
 20
4571.302708
 30
0.0
 11
7259.500106
 21
4536.834437
 31
0.0
  0
LINE
  5
1AE
  8
2
 10
7265.577792
 20
4637.366165
 30
0.0
 11
7259.500106
 21
4671.834437
 31
0.0
  0
LINE
  5
1AF
  8
2
 10
7253.42242
 20
4637.366165
 30
0.0
 11
7259.500106
 21
4671.834437
 31
0.0
  0
TEXT
  5
1B0
  8
2
 10
7257.5
 20
4521.799805
 30
0.0
 40
48.0
  1
135
 50
90.000003
 41
0.9
  7
MONOTXT
  0
ENDBLK
  5
1B1
  8
0
  0
BLOCK
  5
1B3
  8
2
  2
*D30
 70
    65
 10
0.0
 20
0.0
 30
0.0
  3
*D30
  1

  0
POINT
  5
1B4
  8
DEFPOINTS
 10
7291.61058
 20
4086.834237
 30
0.0
  0
POINT
  5
1B5
  8
DEFPOINTS
 10
7341.61058
 20
4131.833937
 30
0.0
  0
POINT
  5
1B6
  8
DEFPOINTS
 10
7016.11098
 20
4449.518047
 30
0.0
  0
LINE
  5
1B7
  8
2
 10
7288.61058
 20
4086.834237
 30
0.0
 11
7011.11098
 21
4086.834237
 31
0.0
  0
LINE
  5
1B8
  8
2
 10
7338.61058
 20
4131.833937
 30
0.0
 11
7011.11098
 21
4131.833937
 31
0.0
  0
LINE
  5
1B9
  8
2
 10
7016.11098
 20
4057.290003
 30
0.0
 11
7016.11098
 21
4310.873945
 31
0.0
  0
CIRCLE
  5
1BA
  8
2
 10
7016.11098
 20
4086.834237
 30
0.0
 40
5.0
  0
CIRCLE
  5
1BB
  8
2
 10
7016.11098
 20
4086.834237
 30
0.0
 40
3.0
  0
LINE
  5
1BC
  8
2
 10
7010.033299
 20
4166.302209
 30
0.0
 11
7016.11098
 21
4131.833937
 31
0.0
  0
LINE
  5
1BD
  8
2
 10
7022.188671
 20
4166.302207
 30
0.0
 11
7016.11098
 21
4131.833937
 31
0.0
  0
TEXT
  5
1BE
  8
2
 10
7014.11084
 20
4175.51416
 30
0.0
 40
48.0
  1
45
 50
90.000003
 41
0.9
  7
MONOTXT
  0
ENDBLK
  5
1BF
  8
0
  0
BLOCK
  5
1C1
  8
2
  2
*D31
 70
    65
 10
0.0
 20
0.0
 30
0.0
  3
*D31
  1

  0
POINT
  5
1C2
  8
DEFPOINTS
 10
7301.61078
 20
4076.833737
 30
0.0
  0
POINT
  5
1C3
  8
DEFPOINTS
 10
7291.61058
 20
4086.834237
 30
0.0
  0
POINT
  5
1C4
  8
DEFPOINTS
 10
7016.11098
 20
4464.672892
 30
0.0
  0
LINE
  5
1C5
  8
2
 10
7298.61078
 20
4076.833737
 30
0.0
 11
7011.11098
 21
4076.833737
 31
0.0
  0
LINE
  5
1C6
  8
2
 10
7288.61058
 20
4086.834237
 30
0.0
 11
7011.11098
 21
4086.834237
 31
0.0
  0
LINE
  5
1C7
  8
2
 10
7016.11098
 20
3897.793728
 30
0.0
 11
7016.11098
 21
4116.37847
 31
0.0
  0
LINE
  5
1C8
  8
2
 10
7022.188667
 20
4042.365465
 30
0.0
 11
7016.11098
 21
4076.833737
 31
0.0
  0
LINE
  5
1C9
  8
2
 10
7010.033294
 20
4042.365465
 30
0.0
 11
7016.11098
 21
4076.833737
 31
0.0
  0
CIRCLE
  5
1CA
  8
2
 10
7016.11098
 20
4086.834237
 30
0.0
 40
5.0
  0
CIRCLE
  5
1CB
  8
2
 10
7016.11098
 20
4086.834237
 30
0.0
 40
3.0
  0
TEXT
  5
1CC
  8
2
 10
7014.11084
 20
3941.473633
 30
0.0
 40
48.0
  1
10
 50
90.000003
 41
0.9
  7
MONOTXT
  0
ENDBLK
  5
1CD
  8
0
  0
BLOCK
  5
1CF
  8
2
  2
*D32
 70
    65
 10
0.0
 20
0.0
 30
0.0
  3
*D32
  1

  0
POINT
  5
1D0
  8
DEFPOINTS
 10
7341.61048
 20
5410.683643
 30
0.0
  0
POINT
  5
1D1
  8
DEFPOINTS
 10
7296.61048
 20
5555.683343
 30
0.0
  0
POINT
  5
1D2
  8
DEFPOINTS
 10
7156.11098
 20
5510.109081
 30
0.0
  0
LINE
  5
1D3
  8
2
 10
7338.61048
 20
5410.683643
 30
0.0
 11
7151.11098
 21
5410.683643
 31
0.0
  0
LINE
  5
1D4
  8
2
 10
7293.61048
 20
5555.683343
 30
0.0
 11
7151.11098
 21
5555.683343
 31
0.0
  0
LINE
  5
1D5
  8
2
 10
7156.11098
 20
5410.683643
 30
0.0
 11
7156.11098
 21
5555.683343
 31
0.0
  0
LINE
  5
1D6
  8
2
 10
7150.033292
 20
5445.151914
 30
0.0
 11
7156.11098
 21
5410.683643
 31
0.0
  0
LINE
  5
1D7
  8
2
 10
7162.188665
 20
5445.151915
 30
0.0
 11
7156.11098
 21
5410.683643
 31
0.0
  0
LINE
  5
1D8
  8
2
 10
7162.188667
 20
5521.215072
 30
0.0
 11
7156.11098
 21
5555.683343
 31
0.0
  0
LINE
  5
1D9
  8
2
 10
7150.033294
 20
5521.215072
 30
0.0
 11
7156.11098
 21
5555.683343
 31
0.0
  0
TEXT
  5
1DA
  8
2
 10
7154.11084
 20
5415.503418
 30
0.0
 40
48.0
  1
145
 50
90.000003
 41
0.9
  7
MONOTXT
  0
ENDBLK
  5
1DB
  8
0
  0
BLOCK
  5
1DD
  8
2
  2
*D33
 70
    65
 10
0.0
 20
0.0
 30
0.0
  3
*D33
  1

  0
POINT
  5
1DE
  8
DEFPOINTS
 10
7316.61618
 20
6205.683343
 30
0.0
  0
POINT
  5
1DF
  8
DEFPOINTS
 10
8066.61808
 20
6205.683343
 30
0.0
  0
POINT
  5
1E0
  8
DEFPOINTS
 10
7461.763631
 20
6309.433843
 30
0.0
  0
LINE
  5
1E1
  8
2
 10
7316.61618
 20
6208.683343
 30
0.0
 11
7316.61618
 21
6314.433843
 31
0.0
  0
LINE
  5
1E2
  8
2
 10
8066.61808
 20
6208.683343
 30
0.0
 11
8066.61808
 21
6314.433843
 31
0.0
  0
LINE
  5
1E3
  8
2
 10
7316.61618
 20
6309.433843
 30
0.0
 11
8066.61808
 21
6309.433843
 31
0.0
  0
LINE
  5
1E4
  8
2
 10
7351.084452
 20
6315.51153
 30
0.0
 11
7316.61618
 21
6309.433843
 31
0.0
  0
LINE
  5
1E5
  8
2
 10
7351.084452
 20
6303.356157
 30
0.0
 11
7316.61618
 21
6309.433843
 31
0.0
  0
LINE
  5
1E6
  8
2
 10
8032.149809
 20
6303.356154
 30
0.0
 11
8066.61808
 21
6309.433843
 31
0.0
  0
LINE
  5
1E7
  8
2
 10
8032.149808
 20
6315.511527
 30
0.0
 11
8066.61808
 21
6309.433843
 31
0.0
  0
TEXT
  5
1E8
  8
2
 10
7599.465332
 20
6311.434082
 30
0.0
 40
48.0
  1
750
 41
0.9
  7
MONOTXT
  0
ENDBLK
  5
1E9
  8
0
  0
BLOCK
  5
1EB
  8
2
  2
*D34
 70
    65
 10
0.0
 20
0.0
 30
0.0
  3
*D34
  1

  0
POINT
  5
1EC
  8
DEFPOINTS
 10
7296.61048
 20
5555.683343
 30
0.0
  0
POINT
  5
1ED
  8
DEFPOINTS
 10
7296.61148
 20
6185.683343
 30
0.0
  0
POINT
  5
1EE
  8
DEFPOINTS
 10
7156.11098
 20
6104.961005
 30
0.0
  0
LINE
  5
1EF
  8
2
 10
7293.61048
 20
5555.683343
 30
0.0
 11
7151.11098
 21
5555.683343
 31
0.0
  0
LINE
  5
1F0
  8
2
 10
7293.61148
 20
6185.683343
 30
0.0
 11
7151.11098
 21
6185.683343
 31
0.0
  0
LINE
  5
1F1
  8
2
 10
7156.11098
 20
5555.683343
 30
0.0
 11
7156.11098
 21
6185.683343
 31
0.0
  0
LINE
  5
1F2
  8
2
 10
7150.033292
 20
5590.151614
 30
0.0
 11
7156.11098
 21
5555.683343
 31
0.0
  0
LINE
  5
1F3
  8
2
 10
7162.188665
 20
5590.151615
 30
0.0
 11
7156.11098
 21
5555.683343
 31
0.0
  0
LINE
  5
1F4
  8
2
 10
7162.188667
 20
6151.215072
 30
0.0
 11
7156.11098
 21
6185.683343
 31
0.0
  0
LINE
  5
1F5
  8
2
 10
7150.033294
 20
6151.215072
 30
0.0
 11
7156.11098
 21
6185.683343
 31
0.0
  0
TEXT
  5
1F6
  8
2
 10
7154.11084
 20
5887.713379
 30
0.0
 40
48.0
  1
630
 50
90.000003
 41
0.9
  7
MONOTXT
  0
ENDBLK
  5
1F7
  8
0
  0
BLOCK
  5
1F9
  8
2
  2
*D35
 70
    65
 10
0.0
 20
0.0
 30
0.0
  3
*D35
  1

  0
POINT
  5
1FA
  8
DEFPOINTS
 10
9163.61078
 20
5546.236071
 30
0.0
  0
POINT
  5
1FB
  8
DEFPOINTS
 10
9963.61078
 20
5546.236071
 30
0.0
  0
POINT
  5
1FC
  8
DEFPOINTS
 10
9396.796132
 20
5315.260471
 30
0.0
  0
LINE
  5
1FD
  8
2
 10
9163.61078
 20
5543.236071
 30
0.0
 11
9163.61078
 21
5310.260471
 31
0.0
  0
LINE
  5
1FE
  8
2
 10
9963.61078
 20
5543.236071
 30
0.0
 11
9963.61078
 21
5310.260471
 31
0.0
  0
LINE
  5
1FF
  8
2
 10
9163.61078
 20
5315.260471
 30
0.0
 11
9963.61078
 21
5315.260471
 31
0.0
  0
LINE
  5
200
  8
2
 10
9198.079052
 20
5321.338157
 30
0.0
 11
9163.61078
 21
5315.260471
 31
0.0
  0
LINE
  5
201
  8
2
 10
9198.079052
 20
5309.182785
 30
0.0
 11
9163.61078
 21
5315.260471
 31
0.0
  0
LINE
  5
202
  8
2
 10
9929.142509
 20
5309.182782
 30
0.0
 11
9963.61078
 21
5315.260471
 31
0.0
  0
LINE
  5
203
  8
2
 10
9929.142508
 20
5321.338154
 30
0.0
 11
9963.61078
 21
5315.260471
 31
0.0
  0
TEXT
  5
204
  8
2
 10
9495.930664
 20
5317.260254
 30
0.0
 40
48.0
  1
800
 41
0.9
  7
MONOTXT
  0
ENDBLK
  5
205
  8
0
  0
BLOCK
  5
207
  8
2
  2
*D36
 70
    65
 10
0.0
 20
0.0
 30
0.0
  3
*D36
  1

  0
POINT
  5
208
  8
DEFPOINTS
 10
9939.61078
 20
5522.236071
 30
0.0
  0
POINT
  5
209
  8
DEFPOINTS
 10
9939.61078
 20
6024.236071
 30
0.0
  0
POINT
  5
20A
  8
DEFPOINTS
 10
10193.14758
 20
5857.875392
 30
0.0
  0
LINE
  5
20B
  8
2
 10
9942.61078
 20
5522.236071
 30
0.0
 11
10198.14758
 21
5522.236071
 31
0.0
  0
LINE
  5
20C
  8
2
 10
9942.61078
 20
6024.236071
 30
0.0
 11
10198.14758
 21
6024.236071
 31
0.0
  0
LINE
  5
20D
  8
2
 10
10193.14758
 20
5522.236071
 30
0.0
 11
10193.14758
 21
6024.236071
 31
0.0
  0
LINE
  5
20E
  8
2
 10
10187.069892
 20
5556.704342
 30
0.0
 11
10193.14758
 21
5522.236071
 31
0.0
  0
LINE
  5
20F
  8
2
 10
10199.225265
 20
5556.704343
 30
0.0
 11
10193.14758
 21
5522.236071
 31
0.0
  0
LINE
  5
210
  8
2
 10
10199.225267
 20
5989.7678
 30
0.0
 11
10193.14758
 21
6024.236071
 31
0.0
  0
LINE
  5
211
  8
2
 10
10187.069894
 20
5989.7678
 30
0.0
 11
10193.14758
 21
6024.236071
 31
0.0
  0
TEXT
  5
212
  8
2
 10
10191.147461
 20
5705.556152
 30
0.0
 40
48.0
  1
500
 50
90.000003
 41
0.9
  7
MONOTXT
  0
ENDBLK
  5
213
  8
0
  0
BLOCK
  5
215
  8
2
  2
*D37
 70
    65
 10
0.0
 20
0.0
 30
0.0
  3
*D37
  1

  0
POINT
  5
216
  8
DEFPOINTS
 10
9943.61098
 20
5542.236071
 30
0.0
  0
POINT
  5
217
  8
DEFPOINTS
 10
9943.61078
 20
6004.236071
 30
0.0
  0
POINT
  5
218
  8
DEFPOINTS
 10
10084.84338
 20
5673.257072
 30
0.0
  0
LINE
  5
219
  8
2
 10
9946.61098
 20
5542.236071
 30
0.0
 11
10089.84338
 21
5542.236071
 31
0.0
  0
LINE
  5
21A
  8
2
 10
9946.61078
 20
6004.236071
 30
0.0
 11
10089.84338
 21
6004.236071
 31
0.0
  0
LINE
  5
21B
  8
2
 10
10084.84338
 20
5542.236071
 30
0.0
 11
10084.84338
 21
6004.236071
 31
0.0
  0
LINE
  5
21C
  8
2
 10
10078.765692
 20
5576.704342
 30
0.0
 11
10084.84338
 21
5542.236071
 31
0.0
  0
LINE
  5
21D
  8
2
 10
10090.921065
 20
5576.704343
 30
0.0
 11
10084.84338
 21
5542.236071
 31
0.0
  0
LINE
  5
21E
  8
2
 10
10090.921067
 20
5969.7678
 30
0.0
 11
10084.84338
 21
6004.236071
 31
0.0
  0
LINE
  5
21F
  8
2
 10
10078.765694
 20
5969.7678
 30
0.0
 11
10084.84338
 21
6004.236071
 31
0.0
  0
TEXT
  5
220
  8
2
 10
10082.84375
 20
5556.683105
 30
0.0
 40
48.0
  1
462
 50
90.000003
 41
0.9
  7
MONOTXT
  0
ENDBLK
  5
221
  8
0
  0
BLOCK
  5
223
  8
2
  2
*D38
 70
    65
 10
0.0
 20
0.0
 30
0.0
  3
*D38
  1

  0
POINT
  5
224
  8
DEFPOINTS
 10
9183.60918
 20
5542.234571
 30
0.0
  0
POINT
  5
225
  8
DEFPOINTS
 10
9943.61098
 20
5542.236071
 30
0.0
  0
POINT
  5
226
  8
DEFPOINTS
 10
9369.245462
 20
5415.260471
 30
0.0
  0
LINE
  5
227
  8
2
 10
9183.60918
 20
5539.234571
 30
0.0
 11
9183.60918
 21
5410.260471
 31
0.0
  0
LINE
  5
228
  8
2
 10
9943.61098
 20
5539.236071
 30
0.0
 11
9943.61098
 21
5410.260471
 31
0.0
  0
LINE
  5
229
  8
2
 10
9183.60918
 20
5415.260471
 30
0.0
 11
9943.61098
 21
5415.260471
 31
0.0
  0
LINE
  5
22A
  8
2
 10
9218.077452
 20
5421.338157
 30
0.0
 11
9183.60918
 21
5415.260471
 31
0.0
  0
LINE
  5
22B
  8
2
 10
9218.077452
 20
5409.182785
 30
0.0
 11
9183.60918
 21
5415.260471
 31
0.0
  0
LINE
  5
22C
  8
2
 10
9909.142709
 20
5409.182782
 30
0.0
 11
9943.61098
 21
5415.260471
 31
0.0
  0
LINE
  5
22D
  8
2
 10
9909.142708
 20
5421.338154
 30
0.0
 11
9943.61098
 21
5415.260471
 31
0.0
  0
TEXT
  5
22E
  8
2
 10
9392.231445
 20
5417.260254
 30
0.0
 40
48.0
  1
760
 41
0.9
  7
MONOTXT
  0
ENDBLK
  5
22F
  8
0
  0
BLOCK
  5
231
  8
2
  2
*D39
 70
    65
 10
0.0
 20
0.0
 30
0.0
  3
*D39
  1

  0
POINT
  5
232
  8
DEFPOINTS
 10
7431.61098
 20
5389.683343
 30
0.0
  0
POINT
  5
233
  8
DEFPOINTS
 10
7821.61098
 20
5389.683343
 30
0.0
  0
POINT
  5
234
  8
DEFPOINTS
 10
7631.076719
 20
5297.668474
 30
0.0
  0
LINE
  5
235
  8
2
 10
7431.61098
 20
5386.683343
 30
0.0
 11
7431.61098
 21
5292.668474
 31
0.0
  0
LINE
  5
236
  8
2
 10
7821.61098
 20
5386.683343
 30
0.0
 11
7821.61098
 21
5292.668474
 31
0.0
  0
LINE
  5
237
  8
2
 10
7431.61098
 20
5297.668474
 30
0.0
 11
7821.61098
 21
5297.668474
 31
0.0
  0
LINE
  5
238
  8
2
 10
7466.079252
 20
5303.746161
 30
0.0
 11
7431.61098
 21
5297.668474
 31
0.0
  0
LINE
  5
239
  8
2
 10
7466.079252
 20
5291.590788
 30
0.0
 11
7431.61098
 21
5297.668474
 31
0.0
  0
LINE
  5
23A
  8
2
 10
7787.142709
 20
5291.590785
 30
0.0
 11
7821.61098
 21
5297.668474
 31
0.0
  0
LINE
  5
23B
  8
2
 10
7787.142708
 20
5303.746158
 30
0.0
 11
7821.61098
 21
5297.668474
 31
0.0
  0
TEXT
  5
23C
  8
2
 10
7463.147461
 20
5299.668457
 30
0.0
 40
43.75
  1
６×６５＝３９０
 41
0.9
  7
MONOTXT
  0
ENDBLK
  5
23D
  8
0
  0
ENDSEC
  0
SECTION
  2
ENTITIES
  0
DIMENSION
  5
23E
  8
2
 62
     7
  2
*D2
 10
10185.81608
 20
4540.139163
 30
0.0
 11
10159.816403
 21
4574.333808
 31
0.0
 13
9989.73478
 23
4476.833737
 33
0.0
 14
9990.73448
 24
4671.833737
 34
0.0
 50
90.000003
  0
DIMENSION
  5
23F
  8
2
 62
     7
  2
*D3
 10
9908.37388
 20
4498.675016
 30
0.0
 11
9882.37402
 21
4465.682929
 31
0.0
 13
9652.73448
 23
4416.833737
 33
0.0
 14
9652.73448
 24
4551.833737
 34
0.0
 50
90.000003
  0
DIMENSION
  5
240
  8
2
 62
     7
  2
*D4
 10
9908.37388
 20
4620.985174
 30
0.0
 11
9882.37402
 21
4602.312323
 31
0.0
 13
9652.73448
 23
4551.833737
 33
0.0
 14
9990.73448
 24
4671.833737
 34
0.0
 50
90.000003
  0
DIMENSION
  5
241
  8
2
 62
     7
  2
*D5
 10
9046.11098
 20
4533.128581
 30
0.0
 11
9022.236323
 21
4541.836425
 31
0.0
  1
２×６５＝１３０
 13
9169.73448
 23
4471.833937
 33
0.0
 14
9169.73938
 24
4601.834937
 34
0.0
 50
90.000003
  0
DIMENSION
  5
242
  8
2
 62
     7
  2
*D6
 10
9575.413527
 20
5083.083237
 30
0.0
 11
9590.734688
 21
5109.083008
 31
0.0
 13
9190.73448
 23
4671.833737
 33
0.0
 14
9990.73448
 24
4671.833737
 34
0.0
  0
DIMENSION
  5
243
  8
2
 62
     7
  2
*D7
 10
9304.953037
 20
4883.083237
 30
0.0
 11
9410.734688
 21
4909.083008
 31
0.0
 13
9190.73448
 23
4671.833737
 33
0.0
 14
9630.73448
 24
4573.833737
 34
0.0
  0
DIMENSION
  5
244
  8
2
 62
     7
  2
*D8
 10
9303.230359
 20
4804.529237
 30
0.0
 11
9348.234688
 21
4830.529297
 31
0.0
 13
9190.73448
 23
4671.833737
 33
0.0
 14
9505.73478
 24
4631.833937
 34
0.0
  0
DIMENSION
  5
245
  8
2
 62
     7
  2
*D9
 10
9177.474844
 20
5083.083237
 30
0.0
 11
9076.214023
 21
5109.083008
 31
0.0
 13
9165.73448
 23
4649.333437
 33
0.0
 14
9190.73448
 24
4671.833737
 34
0.0
  0
DIMENSION
  5
246
  8
2
 62
     7
  2
*D10
 10
9354.910707
 20
4983.083237
 30
0.0
 11
9303.906563
 21
5009.083008
 31
0.0
 13
9190.73448
 23
4671.833737
 33
0.0
 14
9785.73208
 24
4391.835237
 34
0.0
  0
DIMENSION
  5
247
  8
2
 62
     7
  2
*D11
 10
9215.373767
 20
4300.702337
 30
0.0
 11
9101.214023
 21
4326.702148
 31
0.0
 13
9190.73448
 23
4371.833737
 33
0.0
 14
9235.73448
 24
4450.833737
 34
0.0
  0
DIMENSION
  5
248
  8
2
 62
     7
  2
*D12
 10
9318.734463
 20
4300.702337
 30
0.0
 11
9371.254063
 21
4326.702148
 31
0.0
 13
9235.73448
 23
4450.833737
 33
0.0
 14
9281.73448
 24
4505.833737
 34
0.0
  0
DIMENSION
  5
249
  8
2
 62
     7
  2
*D13
 10
8076.733723
 20
4263.083237
 30
0.0
 11
8188.131016
 21
4289.083008
 31
0.0
 13
8041.61028
 23
4254.333937
 33
0.0
 14
8098.61088
 24
4386.816837
 34
0.0
  0
DIMENSION
  5
24A
  8
2
 62
     7
  2
*D14
 10
8341.70838
 20
4498.185348
 30
0.0
 11
8315.708005
 21
4571.833808
 31
0.0
 13
8130.86198
 23
4471.833737
 33
0.0
 14
8041.61078
 24
4671.833737
 34
0.0
 50
90.000003
  0
DIMENSION
  5
24B
  8
2
 62
     7
  2
*D15
 10
8264.096107
 20
4641.181537
 30
0.0
 11
8238.0957
 21
4596.833808
 31
0.0
 13
8131.61078
 23
4521.833737
 33
0.0
 14
8041.61078
 24
4671.833737
 34
0.0
 50
90.000003
  0
DIMENSION
  5
24C
  8
2
 62
     7
  2
*D16
 10
8176.371494
 20
4634.082436
 30
0.0
 11
8150.37158
 21
4639.550448
 31
0.0
 13
8091.61078
 23
4604.833737
 33
0.0
 14
8041.61078
 24
4671.833737
 34
0.0
 50
90.000003
  0
DIMENSION
  5
24D
  8
2
 62
     7
  2
*D17
 10
7716.485035
 20
4803.083237
 30
0.0
 11
7781.131016
 21
4829.083008
 31
0.0
 13
7626.61088
 23
4721.834437
 33
0.0
 14
7691.61088
 24
4771.834237
 34
0.0
  0
DIMENSION
  5
24E
  8
2
 62
     7
  2
*D18
 10
7588.519182
 20
5123.083237
 30
0.0
 11
7691.610664
 21
5149.083008
 31
0.0
 13
7341.61058
 23
4671.833737
 33
0.0
 14
8041.61078
 24
4671.833737
 34
0.0
  0
DIMENSION
  5
24F
  8
2
 62
     7
  2
*D19
 10
7501.948807
 20
5043.083237
 30
0.0
 11
7626.610664
 21
5069.083008
 31
0.0
 13
7384.11088
 23
4621.834737
 33
0.0
 14
7869.11088
 24
4621.833737
 34
0.0
  0
DIMENSION
  5
250
  8
2
 62
     7
  2
*D20
 10
7464.374812
 20
4963.083237
 30
0.0
 11
7626.611152
 21
4989.083008
 31
0.0
 13
7396.61088
 23
4644.334737
 33
0.0
 14
7856.61098
 24
4644.333937
 34
0.0
  0
DIMENSION
  5
251
  8
2
 62
     7
  2
*D21
 10
8063.680026
 20
5043.083237
 30
0.0
 11
8156.788242
 21
5069.083008
 31
0.0
 13
8041.61078
 23
4671.833737
 33
0.0
 14
8091.61078
 24
4619.833737
 34
0.0
  0
DIMENSION
  5
252
  8
2
 62
     7
  2
*D22
 10
8073.073525
 20
5123.083237
 30
0.0
 11
8150.51627
 21
5149.083008
 31
0.0
 13
8041.61078
 23
4671.833737
 33
0.0
 14
8101.61078
 24
4528.833737
 34
0.0
  0
DIMENSION
  5
253
  8
2
 62
     7
  2
*D23
 10
7573.339396
 20
4883.083237
 30
0.0
 11
7626.61084
 21
4906.958008
 31
0.0
  1
３×１５０＝４５０
 13
7401.61078
 23
4667.333937
 33
0.0
 14
7851.61078
 24
4667.333937
 34
0.0
  0
DIMENSION
  5
254
  8
2
 62
     7
  2
*D24
 10
6936.11098
 20
4625.865329
 30
0.0
 11
6910.110837
 21
4521.834296
 31
0.0
 13
7341.61058
 23
4371.834237
 33
0.0
 14
7341.61058
 24
4671.834437
 34
0.0
 50
90.000003
  0
DIMENSION
  5
255
  8
2
 62
     7
  2
*D25
 10
7016.11098
 20
4456.406613
 30
0.0
 11
6990.110837
 21
4536.833319
 31
0.0
 13
7393.61078
 23
4414.333037
 33
0.0
 14
7393.61098
 24
4659.333237
 34
0.0
 50
90.000003
  0
DIMENSION
  5
256
  8
2
 62
     7
  2
*D26
 10
7096.11098
 20
4457.784326
 30
0.0
 11
7070.110837
 21
4536.834784
 31
0.0
 13
7374.11088
 23
4429.334437
 33
0.0
 14
7374.11088
 24
4644.334737
 34
0.0
 50
90.000003
  0
DIMENSION
  5
257
  8
2
 62
     7
  2
*D27
 10
7102.73008
 20
4289.703323
 30
0.0
 11
7080.729976
 21
4257.490722
 31
0.0
  1
１１５～２５５
 13
7341.61058
 23
4131.833937
 33
0.0
 14
7341.61058
 24
4371.834237
 34
0.0
 50
90.000003
  0
DIMENSION
  5
258
  8
2
 62
     7
  2
*D28
 10
7176.468628
 20
4543.058932
 30
0.0
 11
7150.468747
 21
4536.833808
 31
0.0
 13
7379.11088
 23
4461.833737
 33
0.0
 14
7379.11088
 24
4611.833937
 34
0.0
 50
90.000003
  0
DIMENSION
  5
259
  8
2
 62
     7
  2
*D29
 10
7259.500106
 20
4608.814772
 30
0.0
 11
7233.499997
 21
4589.479804
 31
0.0
 13
7354.11088
 23
4536.834437
 33
0.0
 14
7341.61058
 24
4671.834437
 34
0.0
 50
90.000003
  0
DIMENSION
  5
25A
  8
2
 62
     7
  2
*D30
 10
7016.11098
 20
4449.518047
 30
0.0
 11
6990.110838
 21
4221.354159
 31
0.0
 13
7291.61058
 23
4086.834237
 33
0.0
 14
7341.61058
 24
4131.833937
 34
0.0
 50
90.000003
  0
DIMENSION
  5
25B
  8
2
 62
     7
  2
*D31
 10
7016.11098
 20
4464.672892
 30
0.0
 11
6990.110838
 21
3987.313632
 31
0.0
 13
7301.61078
 23
4076.833737
 33
0.0
 14
7291.61058
 24
4086.834237
 34
0.0
 50
90.000003
  0
DIMENSION
  5
25C
  8
2
 62
     7
  2
*D32
 10
7156.11098
 20
5510.109081
 30
0.0
 11
7130.110837
 21
5483.183417
 31
0.0
 13
7341.61048
 23
5410.683643
 33
0.0
 14
7296.61048
 24
5555.683343
 34
0.0
 50
90.000003
  0
DIMENSION
  5
25D
  8
2
 62
     7
  2
*D33
 10
7461.763631
 20
6309.433843
 30
0.0
 11
7667.145332
 21
6335.434082
 31
0.0
 13
7316.61618
 23
6205.683343
 33
0.0
 14
8066.61808
 24
6205.683343
 34
0.0
  0
DIMENSION
  5
25E
  8
2
 62
     7
  2
*D34
 10
7156.11098
 20
6104.961005
 30
0.0
 11
7130.110837
 21
5955.393378
 31
0.0
 13
7296.61048
 23
5555.683343
 33
0.0
 14
7296.61148
 24
6185.683343
 34
0.0
 50
90.000003
  0
DIMENSION
  5
25F
  8
2
 62
     7
  2
*D35
 10
9396.796132
 20
5315.260471
 30
0.0
 11
9563.610664
 21
5341.260254
 31
0.0
 13
9163.61078
 23
5546.236071
 33
0.0
 14
9963.61078
 24
5546.236071
 34
0.0
  0
DIMENSION
  5
260
  8
2
 62
     7
  2
*D36
 10
10193.14758
 20
5857.875392
 30
0.0
 11
10167.147458
 21
5773.236151
 31
0.0
  1
500
 13
9939.61078
 23
5522.236071
 33
0.0
 14
9939.61078
 24
6024.236071
 34
0.0
 50
90.000003
  0
DIMENSION
  5
261
  8
2
 62
     7
  2
*D37
 10
10084.84338
 20
5673.257072
 30
0.0
 11
10058.843747
 21
5624.363104
 31
0.0
 13
9943.61098
 23
5542.236071
 33
0.0
 14
9943.61078
 24
6004.236071
 34
0.0
 50
90.000003
  0
DIMENSION
  5
262
  8
2
 62
     7
  2
*D38
 10
9369.245462
 20
5415.260471
 30
0.0
 11
9459.911445
 21
5441.260254
 31
0.0
 13
9183.60918
 23
5542.234571
 33
0.0
 14
9943.61098
 24
5542.236071
 34
0.0
  0
DIMENSION
  5
263
  8
2
 62
     7
  2
*D39
 10
7631.076719
 20
5297.668474
 30
0.0
 11
7619.991211
 21
5321.543457
 31
0.0
  1
６×６５＝３９０
 13
7431.61098
 23
5389.683343
 33
0.0
 14
7821.61098
 24
5389.683343
 34
0.0
  0
LINE
  5
264
  8
1
 10
8041.61078
 20
4105.910137
 30
0.0
 11
8041.61078
 21
4130.910137
 31
0.0
  0
LINE
  5
265
  8
1
 10
9220.61078
 20
5579.236071
 30
0.0
 11
9906.61088
 21
5579.236071
 31
0.0
  0
LINE
  5
266
  8
1
 10
8041.61078
 20
4671.833737
 30
0.0
 11
8041.61078
 21
4338.833737
 31
0.0
  0
LINE
  5
267
  8
1
 10
8081.61058
 20
4076.833737
 30
0.0
 11
7301.61078
 21
4076.833737
 31
0.0
  0
LINE
  5
268
  8
1
 10
9990.73448
 20
4671.833737
 30
0.0
 11
9990.73478
 21
4371.833737
 31
0.0
  0
CIRCLE
  5
269
  8
1
 10
9235.73448
 20
4470.833737
 30
0.0
 40
15.5
  0
LINE
  5
26A
  8
1
  6
DASHDOT
 10
8011.61048
 20
5455.683443
 30
0.0
 11
8130.86168
 21
5455.683443
 31
0.0
  0
LINE
  5
26B
  8
1
 10
9187.61078
 20
6024.236071
 30
0.0
 11
9939.61078
 21
6024.236071
 31
0.0
  0
LINE
  5
26C
  8
1
  6
DASHDOT
 10
9563.61088
 20
6047.732671
 30
0.0
 11
9563.61078
 21
5502.236271
 31
0.0
  0
LINE
  5
26D
  8
1
 10
7341.61058
 20
5410.683443
 30
0.0
 11
7341.61058
 21
6210.683643
 31
0.0
  0
LINE
  5
26E
  8
1
 10
7341.61058
 20
6210.683643
 30
0.0
 11
8041.61078
 21
6210.683443
 31
0.0
  0
ARC
  5
26F
  8
1
 10
8060.14928
 20
5460.948343
 30
0.0
 40
12.4312
 50
334.942
 51
27.4578
  0
LINE
  5
270
  8
1
 10
8041.61078
 20
4479.833737
 30
0.0
 11
8055.61098
 21
4479.833737
 31
0.0
  0
LINE
  5
271
  8
1
 10
8041.61078
 20
4463.833737
 30
0.0
 11
8055.61118
 21
4463.833737
 31
0.0
  0
LINE
  5
272
  8
1
 10
8101.61048
 20
4459.833737
 30
0.0
 11
8101.61078
 21
4483.833737
 31
0.0
  0
LINE
  5
273
  8
1
 10
8075.61078
 20
4487.333737
 30
0.0
 11
8093.61078
 21
4487.333737
 31
0.0
  0
LINE
  5
274
  8
1
 10
8075.61078
 20
4456.333737
 30
0.0
 11
8093.61048
 21
4456.333737
 31
0.0
  0
ARC
  5
275
  8
1
 10
8101.65368
 20
4494.825137
 30
0.0
 40
10.9915
 50
222.9664
 51
269.7756
  0
ARC
  5
276
  8
1
 10
8101.65368
 20
4448.842237
 30
0.0
 40
10.9915
 50
90.2247
 51
137.0338
  0
ARC
  5
277
  8
1
 10
8079.59438
 20
4479.583737
 30
0.0
 40
16.0161
 50
331.0605
 51
28.9399
  0
ARC
  5
278
  8
1
 10
8079.59438
 20
4464.083737
 30
0.0
 40
16.0161
 50
331.0607
 51
28.9401
  0
ARC
  5
279
  8
1
 10
8091.62658
 20
4479.583737
 30
0.0
 40
16.0161
 50
151.0606
 51
208.9399
  0
ARC
  5
27A
  8
1
 10
8091.62658
 20
4464.083737
 30
0.0
 40
16.0161
 50
151.0604
 51
208.9397
  0
LINE
  5
27B
  8
1
 10
8075.61078
 20
4456.333737
 30
0.0
 11
8075.61078
 21
4487.333737
 31
0.0
  0
LINE
  5
27C
  8
1
 10
8073.61078
 20
4471.833737
 30
0.0
 11
8075.61078
 21
4471.833737
 31
0.0
  0
LINE
  5
27D
  8
1
  6
DASHDOT
 10
8131.61078
 20
4521.833737
 30
0.0
 11
8011.61078
 21
4521.833737
 31
0.0
  0
LINE
  5
27E
  8
1
 10
8069.61078
 20
4514.833737
 30
0.0
 11
8069.61078
 21
4528.833737
 31
0.0
  0
LINE
  5
27F
  8
1
  6
DASHDOT
 10
8011.61078
 20
4471.833737
 30
0.0
 11
8130.86198
 21
4471.833737
 31
0.0
  0
LINE
  5
280
  8
1
 10
8041.61088
 20
4526.833937
 30
0.0
 11
8069.61078
 21
4526.833737
 31
0.0
  0
LINE
  5
281
  8
1
 10
8041.61078
 20
4516.833437
 30
0.0
 11
8069.61078
 21
4516.833737
 31
0.0
  0
LINE
  5
282
  8
1
 10
8073.61048
 20
4530.833737
 30
0.0
 11
8079.61078
 21
4530.833737
 31
0.0
  0
LINE
  5
283
  8
1
 10
8073.61028
 20
4512.833737
 30
0.0
 11
8079.61048
 21
4512.833737
 31
0.0
  0
LINE
  5
284
  8
1
 10
8069.61078
 20
4528.833737
 30
0.0
 11
8072.61078
 21
4528.833737
 31
0.0
  0
LINE
  5
285
  8
1
 10
8069.61078
 20
4514.833737
 30
0.0
 11
8072.61078
 21
4514.833737
 31
0.0
  0
LINE
  5
286
  8
1
 10
8080.31188
 20
4528.833737
 30
0.0
 11
8083.61078
 21
4528.833737
 31
0.0
  0
LINE
  5
287
  8
1
 10
8080.31238
 20
4514.833437
 30
0.0
 11
8083.61078
 21
4514.833737
 31
0.0
  0
LINE
  5
288
  8
1
 10
8080.61048
 20
4517.333737
 30
0.0
 11
8080.61048
 21
4521.833737
 31
0.0
  0
LINE
  5
289
  8
1
 10
8080.61048
 20
4521.833737
 30
0.0
 11
8080.61048
 21
4526.333737
 31
0.0
  0
ARC
  5
28A
  8
1
 10
8069.98548
 20
4526.333737
 30
0.0
 40
10.625
 50
334.9427
 51
25.058
  0
ARC
  5
28B
  8
1
 10
8083.23548
 20
4526.333737
 30
0.0
 40
10.625
 50
154.9425
 51
205.0578
  0
ARC
  5
28C
  8
1
 10
8083.23548
 20
4517.333737
 30
0.0
 40
10.625
 50
154.9425
 51
205.0578
  0
ARC
  5
28D
  8
1
 10
8069.98548
 20
4517.333737
 30
0.0
 40
10.625
 50
334.9426
 51
25.058
  0
LINE
  5
28E
  8
1
 10
8072.61078
 20
4517.333737
 30
0.0
 11
8072.61078
 21
4521.833737
 31
0.0
  0
LINE
  5
28F
  8
1
 10
8072.61078
 20
4521.833737
 30
0.0
 11
8072.61078
 21
4526.333737
 31
0.0
  0
LINE
  5
290
  8
1
 10
8083.61078
 20
4532.833737
 30
0.0
 11
8095.11048
 21
4532.833737
 31
0.0
  0
LINE
  5
291
  8
1
 10
8083.61078
 20
4510.833737
 30
0.0
 11
8095.11048
 21
4510.833737
 31
0.0
  0
LINE
  5
292
  8
1
 10
8083.61078
 20
4510.833737
 30
0.0
 11
8083.61078
 21
4516.333737
 31
0.0
  0
LINE
  5
293
  8
1
 10
8083.61078
 20
4516.333737
 30
0.0
 11
8083.61078
 21
4521.833737
 31
0.0
  0
LINE
  5
294
  8
1
 10
8083.61078
 20
4521.833737
 30
0.0
 11
8083.61078
 21
4527.333737
 31
0.0
  0
LINE
  5
295
  8
1
 10
8083.61078
 20
4527.333737
 30
0.0
 11
8083.61078
 21
4532.833737
 31
0.0
  0
LINE
  5
296
  8
1
 10
8101.61078
 20
4528.833737
 30
0.0
 11
8101.61078
 21
4514.833737
 31
0.0
  0
ARC
  5
297
  8
1
 10
8085.77728
 20
4527.333737
 30
0.0
 40
10.8333
 50
329.4898
 51
30.5108
  0
ARC
  5
298
  8
1
 10
8094.44448
 20
4527.333437
 30
0.0
 40
10.8333
 50
149.4896
 51
210.5106
  0
ARC
  5
299
  8
1
 10
8094.44448
 20
4516.333937
 30
0.0
 40
10.8333
 50
149.4897
 51
210.5106
  0
ARC
  5
29A
  8
1
 10
8085.77728
 20
4516.333737
 30
0.0
 40
10.8333
 50
329.4898
 51
30.5108
  0
ARC
  5
29B
  8
1
 10
8101.70478
 20
4536.268037
 30
0.0
 40
7.4349
 50
207.511
 51
269.2759
  0
ARC
  5
29C
  8
1
 10
8101.70478
 20
4507.399437
 30
0.0
 40
7.4349
 50
90.7244
 51
152.4893
  0
LINE
  5
29D
  8
1
 10
8073.61098
 20
4471.834237
 30
0.0
 11
8059.61078
 21
4471.833937
 31
0.0
  0
LINE
  5
29E
  8
1
 10
8057.61098
 20
4466.325637
 30
0.0
 11
8057.61078
 21
4477.323737
 31
0.0
  0
LINE
  5
29F
  8
1
 10
8055.61148
 20
4462.833237
 30
0.0
 11
8058.19518
 21
4462.833737
 31
0.0
  0
LINE
  5
2A0
  8
1
 10
8072.61098
 20
4466.325637
 30
0.0
 11
8072.61078
 21
4477.323737
 31
0.0
  0
LINE
  5
2A1
  8
1
 10
8072.00718
 20
4462.836637
 30
0.0
 11
8075.61048
 21
4462.837637
 31
0.0
  0
LINE
  5
2A2
  8
1
 10
8055.61098
 20
4480.834437
 30
0.0
 11
8058.19498
 21
4480.833737
 31
0.0
  0
LINE
  5
2A3
  8
1
 10
8071.18028
 20
4460.836937
 30
0.0
 11
8059.02238
 21
4460.834237
 31
0.0
  0
LINE
  5
2A4
  8
1
 10
8075.61078
 20
4480.830537
 30
0.0
 11
8072.00748
 21
4480.830337
 31
0.0
  0
LINE
  5
2A5
  8
1
 10
8071.18008
 20
4482.831537
 30
0.0
 11
8059.02258
 21
4482.833937
 31
0.0
  0
LINE
  5
2A6
  8
1
 10
8055.61118
 20
4462.833237
 30
0.0
 11
8055.61098
 21
4480.834437
 31
0.0
  0
ARC
  5
2A7
  8
1
 10
8060.14958
 20
4477.098837
 30
0.0
 40
12.4312
 50
334.9427
 51
27.4624
  0
ARC
  5
2A8
  8
1
 10
8070.05188
 20
4477.098837
 30
0.0
 40
12.4312
 50
152.5256
 51
205.0578
  0
ARC
  5
2A9
  8
1
 10
8070.05188
 20
4466.568837
 30
0.0
 40
12.4312
 50
154.9425
 51
207.4724
  0
ARC
  5
2AA
  8
1
 10
8060.14958
 20
4466.568837
 30
0.0
 40
12.4312
 50
332.5422
 51
25.058
  0
LINE
  5
2AB
  8
1
  6
DASHDOT
 10
7691.61088
 20
4771.834237
 30
0.0
 11
7691.61078
 21
4053.083237
 31
0.0
  0
LINE
  5
2AC
  8
1
  6
DASHDOT
 10
7626.61088
 20
5430.683343
 30
0.0
 11
7626.61088
 21
5365.683643
 31
0.0
  0
LINE
  5
2AD
  8
1
 10
9187.61088
 20
5522.236271
 30
0.0
 11
9939.61078
 21
5522.236071
 31
0.0
  0
LINE
  5
2AE
  8
1
 10
9963.61078
 20
6000.236071
 30
0.0
 11
9963.61078
 21
5546.236071
 31
0.0
  0
LINE
  5
2AF
  8
1
 10
9163.61078
 20
6000.236071
 30
0.0
 11
9163.61078
 21
5546.236071
 31
0.0
  0
LINE
  5
2B0
  8
1
 10
9185.73478
 20
4669.333437
 30
0.0
 11
9185.73478
 21
4649.333737
 31
0.0
  0
LINE
  5
2B1
  8
1
  6
DIVIDE
 10
9943.61078
 20
6004.235771
 30
0.0
 11
9943.61098
 21
5542.236071
 31
0.0
  0
LINE
  5
2B2
  8
1
  6
DIVIDE
 10
9183.61058
 20
6004.236271
 30
0.0
 11
9183.60918
 21
5542.234571
 31
0.0
  0
LINE
  5
2B3
  8
1
  6
DASHDOT
 10
9785.73398
 20
4056.833737
 30
0.0
 11
9785.73208
 21
4391.835237
 31
0.0
  0
LINE
  5
2B4
  8
1
  6
DIVIDE
 10
9183.61078
 20
6004.236071
 30
0.0
 11
9943.61078
 21
6004.236071
 31
0.0
  0
LINE
  5
2B5
  8
1
 10
9185.73478
 20
4644.333737
 30
0.0
 11
9185.73448
 21
4429.333937
 31
0.0
  0
LINE
  5
2B6
  8
1
 10
9163.61078
 20
5590.236071
 30
0.0
 11
9220.61058
 21
5590.235771
 31
0.0
  0
TEXT
  5
2B7
  8
2
 10
9528.177734
 20
5426.533691
 30
0.0
 40
43.75
  1
（天井開口部）
 41
0.84
  7
MONOTXT
  0
LINE
  5
2B8
  8
1
 10
7341.61058
 20
4356.834237
 30
0.0
 11
8041.61078
 21
4356.833737
 31
0.0
  0
TEXT
  5
2B9
  8
2
 10
10075.506836
 20
5670.443848
 30
0.0
 40
43.75
  1
（天井開口部）
 50
90.000201
 41
0.84
  7
MONOTXT
  0
LINE
  5
2BA
  8
1
  6
DASHDOT
 10
7626.61078
 20
4351.834437
 30
0.0
 11
7626.61088
 21
4721.834437
 31
0.0
  0
LINE
  5
2BB
  8
1
 10
7380.61088
 20
4611.834437
 30
0.0
 11
7380.61088
 21
4606.896437
 31
0.0
  0
LINE
  5
2BC
  8
1
 10
7341.61058
 20
4338.834237
 30
0.0
 11
8041.61078
 21
4338.833737
 31
0.0
  0
LINE
  5
2BD
  8
1
 10
8041.61078
 20
4619.833737
 30
0.0
 11
8091.61078
 21
4619.833737
 31
0.0
  0
LINE
  5
2BE
  8
1
  6
DIVIDE
 10
9183.60918
 20
5542.236071
 30
0.0
 11
9943.61098
 21
5542.236071
 31
0.0
  0
LINE
  5
2BF
  8
1
  6
DIVIDE
 10
7316.61618
 20
6205.683343
 30
0.0
 11
7316.61618
 21
6165.683843
 31
0.0
  0
LINE
  5
2C0
  8
1
 10
9231.61058
 20
5579.236071
 30
0.0
 11
9231.61078
 21
5522.236071
 31
0.0
  0
LINE
  5
2C1
  8
1
 10
9231.61078
 20
6024.236071
 30
0.0
 11
9231.61078
 21
5967.236071
 31
0.0
  0
LINE
  5
2C2
  8
1
 10
9163.61078
 20
5956.236071
 30
0.0
 11
9220.61088
 21
5956.236071
 31
0.0
  0
LINE
  5
2C3
  8
1
 10
9906.61098
 20
5956.236571
 30
0.0
 11
9963.61078
 21
5956.236071
 31
0.0
  0
LINE
  5
2C4
  8
1
 10
9895.61078
 20
6024.236071
 30
0.0
 11
9895.60998
 21
5967.236071
 31
0.0
  0
LINE
  5
2C5
  8
1
 10
9895.61098
 20
5579.236571
 30
0.0
 11
9895.61078
 21
5522.236071
 31
0.0
  0
LINE
  5
2C6
  8
1
 10
9906.61098
 20
5590.236071
 30
0.0
 11
9963.61078
 21
5590.236071
 31
0.0
  0
LINE
  5
2C7
  8
1
 10
9185.73448
 20
4424.333737
 30
0.0
 11
9185.73448
 21
4404.333437
 31
0.0
  0
LINE
  5
2C8
  8
1
 10
9220.61078
 20
5967.236271
 30
0.0
 11
9906.61048
 21
5967.236071
 31
0.0
  0
LINE
  5
2C9
  8
1
 10
9220.61078
 20
5967.236071
 30
0.0
 11
9220.61078
 21
5579.236071
 31
0.0
  0
LINE
  5
2CA
  8
1
 10
9906.61078
 20
5967.236071
 30
0.0
 11
9906.61078
 21
5579.236071
 31
0.0
  0
ARC
  5
2CB
  8
1
 10
9939.61078
 20
5546.236071
 30
0.0
 40
24.0
 50
270.0002
 51
0.0
  0
ARC
  5
2CC
  8
1
 10
9939.61078
 20
6000.236071
 30
0.0
 40
24.0
 50
0.0
 51
90.0001
  0
ARC
  5
2CD
  8
1
 10
9187.61078
 20
6000.236071
 30
0.0
 40
24.0
 50
90.0001
 51
180.0002
  0
ARC
  5
2CE
  8
1
 10
9187.61078
 20
5546.236071
 30
0.0
 40
24.0
 50
180.0002
 51
270.0002
  0
LINE
  5
2CF
  8
1
 10
9235.61078
 20
5952.236271
 30
0.0
 11
9235.61078
 21
5594.236071
 31
0.0
  0
LINE
  5
2D0
  8
1
 10
9235.61088
 20
5594.236071
 30
0.0
 11
9891.61078
 21
5594.236071
 31
0.0
  0
LINE
  5
2D1
  8
1
 10
9891.61078
 20
5952.236071
 30
0.0
 11
9891.61078
 21
5594.236071
 31
0.0
  0
LINE
  5
2D2
  8
1
 10
7296.61158
 20
6209.683043
 30
0.0
 11
7296.61148
 21
6191.683243
 31
0.0
  0
LINE
  5
2D3
  8
1
  6
DASHDOT
 10
9169.73938
 20
4601.834937
 30
0.0
 11
9181.73938
 21
4601.833937
 31
0.0
  0
LINE
  5
2D4
  8
1
 10
8041.61078
 20
4589.833737
 30
0.0
 11
8091.61078
 21
4589.833737
 31
0.0
  0
LINE
  5
2D5
  8
1
 10
7374.11098
 20
5410.683643
 30
0.0
 11
7374.11098
 21
5395.683643
 31
0.0
  0
LINE
  5
2D6
  8
1
 10
7879.11078
 20
5410.683343
 30
0.0
 11
7879.11078
 21
5395.683343
 31
0.0
  0
LINE
  5
2D7
  8
1
 10
7384.11088
 20
5385.683743
 30
0.0
 11
7869.11058
 21
5385.683443
 31
0.0
  0
ARC
  5
2D8
  8
1
 10
7869.11058
 20
5395.683443
 30
0.0
 40
10.0
 50
269.9999
 51
0.0
  0
LINE
  5
2D9
  8
1
 10
9532.73448
 20
4383.503437
 30
0.0
 11
9532.73448
 21
4376.295837
 31
0.0
  0
ARC
  5
2DA
  8
1
 10
7384.11098
 20
5395.683643
 30
0.0
 40
10.0
 50
179.9998
 51
269.9999
  0
TEXT
  5
2DB
  8
2
 10
7146.729004
 20
5600.566406
 30
0.0
 40
43.75
  1
（吊り位置）
 50
89.999811
 41
0.825
  7
MONOTXT
  0
LINE
  5
2DC
  8
1
 10
9165.73448
 20
4424.333737
 30
0.0
 11
9185.73498
 21
4424.333737
 31
0.0
  0
LINE
  5
2DD
  8
1
  6
DASHDOT
 10
7411.61088
 20
5395.683643
 30
0.0
 11
7841.61088
 21
5395.683443
 31
0.0
  0
LINE
  5
2DE
  8
1
  6
DASHDOT
 10
7821.61098
 20
5401.683443
 30
0.0
 11
7821.61098
 21
5389.683343
 31
0.0
  0
CIRCLE
  5
2DF
  8
1
 10
7821.61088
 20
5395.683443
 30
0.0
 40
2.35
  0
CIRCLE
  5
2E0
  8
1
 10
7756.61088
 20
5395.683443
 30
0.0
 40
2.35
  0
CIRCLE
  5
2E1
  8
1
 10
7691.61088
 20
5395.683443
 30
0.0
 40
2.35
  0
LINE
  5
2E2
  8
1
 10
9498.73448
 20
4383.503437
 30
0.0
 11
9498.73448
 21
4376.297337
 31
0.0
  0
CIRCLE
  5
2E3
  8
1
 10
7626.61088
 20
5395.683443
 30
0.0
 40
2.35
  0
CIRCLE
  5
2E4
  8
1
 10
7561.61088
 20
5395.683443
 30
0.0
 40
2.35
  0
CIRCLE
  5
2E5
  8
1
 10
7496.61088
 20
5395.683443
 30
0.0
 40
2.35
  0
CIRCLE
  5
2E6
  8
1
 10
7431.61088
 20
5395.683443
 30
0.0
 40
2.35
  0
LINE
  5
2E7
  8
1
  6
DASHDOT
 10
7756.61098
 20
5401.683443
 30
0.0
 11
7756.61098
 21
5389.683343
 31
0.0
  0
LINE
  5
2E8
  8
1
  6
DASHDOT
 10
7561.61098
 20
5401.683443
 30
0.0
 11
7561.61098
 21
5389.683343
 31
0.0
  0
LINE
  5
2E9
  8
1
  6
DASHDOT
 10
7496.61098
 20
5401.683443
 30
0.0
 11
7496.61098
 21
5389.683343
 31
0.0
  0
LINE
  5
2EA
  8
1
  6
DASHDOT
 10
7431.61098
 20
5401.683443
 30
0.0
 11
7431.61098
 21
5389.683343
 31
0.0
  0
LINE
  5
2EB
  8
1
 10
9165.73448
 20
4649.333737
 30
0.0
 11
9185.73478
 21
4649.333737
 31
0.0
  0
LINE
  5
2EC
  8
1
 10
7298.91148
 20
6179.683443
 30
0.0
 11
7298.91148
 21
6161.683143
 31
0.0
  0
LINE
  5
2ED
  8
1
 10
7341.61058
 20
4371.834237
 30
0.0
 11
8041.61078
 21
4371.833937
 31
0.0
  0
ARC
  5
2EE
  8
1
 10
8070.05168
 20
5460.948343
 30
0.0
 40
12.4312
 50
152.5276
 51
205.0575
  0
LINE
  5
2EF
  8
1
 10
10020.73378
 20
4086.833937
 30
0.0
 11
9550.73354
 21
4086.834277
 31
0.0
  0
LINE
  5
2F0
  8
1
 10
9576.14544
 20
4076.834277
 30
0.0
 11
9995.32658
 21
4076.833437
 31
0.0
  0
LINE
  5
2F1
  8
1
 10
9990.73378
 20
4086.833937
 30
0.0
 11
9990.73378
 21
4116.833937
 31
0.0
  0
LINE
  5
2F2
  8
1
 10
7341.61058
 20
4116.833937
 30
0.0
 11
7341.61058
 21
4131.834237
 31
0.0
  0
LINE
  5
2F3
  8
1
 10
9550.73354
 20
4086.834277
 30
0.0
 11
9550.73354
 21
4082.481477
 31
0.0
  0
LINE
  5
2F4
  8
1
 10
9190.73448
 20
4371.833737
 30
0.0
 11
9990.73478
 21
4371.833737
 31
0.0
  0
LINE
  5
2F5
  8
1
 10
8084.31268
 20
5549.683443
 30
0.0
 11
8084.31268
 21
5531.683143
 31
0.0
  0
LINE
  5
2F6
  8
1
 10
7341.61058
 20
4338.834437
 30
0.0
 11
7341.61058
 21
4671.833737
 31
0.0
  0
LINE
  5
2F7
  8
1
 10
8084.31288
 20
5579.682943
 30
0.0
 11
8084.31268
 21
5561.683243
 31
0.0
  0
LINE
  5
2F8
  8
1
 10
7341.61058
 20
4116.833937
 30
0.0
 11
7341.61078
 21
4086.834237
 31
0.0
  0
LINE
  5
2F9
  8
1
 10
8084.31138
 20
6209.683043
 30
0.0
 11
8084.31168
 21
6191.683243
 31
0.0
  0
LINE
  5
2FA
  8
1
 10
7291.61058
 20
4086.833737
 30
0.0
 11
7291.61058
 21
4081.833737
 31
0.0
  0
LINE
  5
2FB
  8
1
 10
8084.31168
 20
6179.683443
 30
0.0
 11
8084.31188
 21
6161.683143
 31
0.0
  0
LINE
  5
2FC
  8
1
 10
8091.61078
 20
4086.833737
 30
0.0
 11
8091.61078
 21
4081.833737
 31
0.0
  0
LINE
  5
2FD
  8
1
 10
7301.61078
 20
4076.833737
 30
0.0
 11
7291.61058
 21
4081.833737
 31
0.0
  0
LINE
  5
2FE
  8
1
 10
9185.73448
 20
4404.333737
 30
0.0
 11
9190.73448
 21
4404.333437
 31
0.0
  0
LINE
  5
2FF
  8
1
 10
9185.73478
 20
4669.333437
 30
0.0
 11
9190.73448
 21
4669.333437
 31
0.0
  0
LINE
  5
300
  8
1
 10
8081.61078
 20
4076.833737
 30
0.0
 11
8091.61078
 21
4081.833737
 31
0.0
  0
LINE
  5
301
  8
1
 10
9165.73448
 20
4429.333937
 30
0.0
 11
9190.73448
 21
4429.333937
 31
0.0
  0
LINE
  5
302
  8
1
 10
9235.61078
 20
5952.236071
 30
0.0
 11
9891.61078
 21
5952.236071
 31
0.0
  0
LINE
  5
303
  8
1
 10
7387.61088
 20
4611.834437
 30
0.0
 11
7387.61088
 21
4606.896437
 31
0.0
  0
LINE
  5
304
  8
1
 10
9165.73448
 20
4644.333737
 30
0.0
 11
9190.73478
 21
4644.333737
 31
0.0
  0
LINE
  5
305
  8
1
  6
DASHDOT
 10
9155.73478
 20
4536.834937
 30
0.0
 11
9200.73448
 21
4536.833237
 31
0.0
  0
LINE
  5
306
  8
1
 10
9165.73448
 20
4649.333437
 30
0.0
 11
9165.73448
 21
4424.333737
 31
0.0
  0
LINE
  5
307
  8
1
 10
9206.23598
 20
4483.337137
 30
0.0
 11
9206.23448
 21
4434.333437
 31
0.0
  0
LINE
  5
308
  8
1
 10
9190.73498
 20
4431.833237
 30
0.0
 11
9203.73448
 21
4431.833437
 31
0.0
  0
ARC
  5
309
  8
1
 10
9576.14104
 20
4136.833777
 30
0.0
 40
60.0
 50
244.9425
 51
270.0002
  0
LINE
  5
30A
  8
1
 10
10020.73378
 20
4086.833937
 30
0.0
 11
10020.73378
 21
4082.481137
 31
0.0
  0
LINE
  5
30B
  8
1
  6
DASHED
 10
9990.73498
 20
4286.333937
 30
0.0
 11
9990.73478
 21
4254.333937
 31
0.0
  0
LINE
  5
30C
  8
1
 10
9220.23448
 20
4479.782737
 30
0.0
 11
9220.23448
 21
4461.884537
 31
0.0
  0
LINE
  5
30D
  8
1
 10
9220.23448
 20
4461.884537
 30
0.0
 11
9235.73448
 21
4452.935737
 31
0.0
  0
LINE
  5
30E
  8
1
 10
9235.73448
 20
4452.935737
 30
0.0
 11
9251.23448
 21
4461.884537
 31
0.0
  0
LINE
  5
30F
  8
1
 10
9251.23448
 20
4461.884537
 30
0.0
 11
9251.23448
 21
4479.782737
 31
0.0
  0
LINE
  5
310
  8
1
 10
9251.23448
 20
4479.782737
 30
0.0
 11
9235.73448
 21
4488.731437
 31
0.0
  0
LINE
  5
311
  8
1
 10
9235.73448
 20
4488.731437
 30
0.0
 11
9220.23448
 21
4479.782737
 31
0.0
  0
CIRCLE
  5
312
  8
1
 10
9235.73448
 20
4470.833737
 30
0.0
 40
7.75
  0
CIRCLE
  5
313
  8
1
 10
9281.73448
 20
4520.833737
 30
0.0
 40
11.0
  0
LINE
  5
314
  8
1
 10
9270.73448
 20
4527.184337
 30
0.0
 11
9270.73448
 21
4514.482937
 31
0.0
  0
LINE
  5
315
  8
1
 10
9270.73448
 20
4514.482937
 30
0.0
 11
9281.73448
 21
4508.132037
 31
0.0
  0
LINE
  5
316
  8
1
 10
9281.73448
 20
4508.132037
 30
0.0
 11
9292.73448
 21
4514.482937
 31
0.0
  0
LINE
  5
317
  8
1
  6
DASHED
 10
9990.73478
 20
4234.333937
 30
0.0
 11
9990.73448
 21
4202.333937
 31
0.0
  0
LINE
  5
318
  8
1
 10
9292.73448
 20
4514.482937
 30
0.0
 11
9292.73448
 21
4527.184337
 31
0.0
  0
LINE
  5
319
  8
1
 10
9292.73448
 20
4527.184337
 30
0.0
 11
9281.73448
 21
4533.535137
 31
0.0
  0
LINE
  5
31A
  8
1
 10
9281.73448
 20
4533.535137
 30
0.0
 11
9270.73448
 21
4527.184337
 31
0.0
  0
LINE
  5
31B
  8
1
  6
DASHED
 10
9990.73428
 20
4182.333937
 30
0.0
 11
9990.73398
 21
4149.833937
 31
0.0
  0
LINE
  5
31C
  8
1
  6
DASHED
 10
9984.73398
 20
4192.333937
 30
0.0
 11
9990.73398
 21
4182.333937
 31
0.0
  0
LINE
  5
31D
  8
1
 10
9208.73428
 20
4485.833937
 30
0.0
 11
9213.23448
 21
4485.833937
 31
0.0
  0
LINE
  5
31E
  8
1
 10
9333.73478
 20
4403.334237
 30
0.0
 11
9333.73448
 21
4371.833737
 31
0.0
  0
CIRCLE
  5
31F
  8
1
 10
9281.73448
 20
4520.833737
 30
0.0
 40
6.6
  0
LINE
  5
320
  8
1
  6
DASHDOT
 10
9169.73448
 20
4471.833937
 30
0.0
 11
9181.73448
 21
4471.833937
 31
0.0
  0
LINE
  5
321
  8
1
  6
DASHDOT
 10
9175.73478
 20
4609.833937
 30
0.0
 11
9175.73448
 21
4463.834237
 31
0.0
  0
CIRCLE
  5
322
  8
1
 10
9175.73448
 20
4601.833737
 30
0.0
 40
2.35
  0
CIRCLE
  5
323
  8
1
 10
9175.73448
 20
4536.833737
 30
0.0
 40
2.35
  0
ARC
  5
324
  8
1
 10
7384.11088
 20
4600.834237
 30
0.0
 40
7.0
 50
120.001
 51
60.0009
  0
CIRCLE
  5
325
  8
1
 10
9175.73448
 20
4471.833737
 30
0.0
 40
2.35
  0
ARC
  5
326
  8
1
 10
7384.11088
 20
4611.834237
 30
0.0
 40
3.5
 50
0.0
 51
180.0002
  0
ARC
  5
327
  8
1
 10
7384.11088
 20
4461.834737
 30
0.0
 40
3.5
 50
180.0001
 51
0.0
  0
LINE
  5
328
  8
1
  6
DASHED
 10
9990.73398
 20
4202.333937
 30
0.0
 11
9984.73398
 21
4192.333937
 31
0.0
  0
LINE
  5
329
  8
1
 10
9307.73478
 20
4405.833937
 30
0.0
 11
9331.23398
 21
4405.833237
 31
0.0
  0
LINE
  5
32A
  8
1
  6
DASHED
 10
9984.73428
 20
4244.333937
 30
0.0
 11
9990.73428
 21
4234.333937
 31
0.0
  0
LINE
  5
32B
  8
1
  6
DASHED
 10
9990.73428
 20
4254.333937
 30
0.0
 11
9984.73428
 21
4244.333937
 31
0.0
  0
LINE
  5
32C
  8
1
 10
7341.61058
 20
4116.833937
 30
0.0
 11
8041.61098
 21
4116.833737
 31
0.0
  0
ARC
  5
32D
  8
1
 10
8070.05168
 20
5450.418443
 30
0.0
 40
12.4312
 50
154.9422
 51
207.4744
  0
ARC
  5
32E
  8
1
 10
8060.14928
 20
5450.418443
 30
0.0
 40
12.4312
 50
332.5376
 51
25.0573
  0
CIRCLE
  5
32F
  8
1
 10
9630.73448
 20
4551.833737
 30
0.0
 40
16.25
  0
CIRCLE
  5
330
  8
1
 10
9505.73448
 20
4494.834237
 30
0.0
 40
30.0
  0
LINE
  5
331
  8
1
 10
7298.91058
 20
5579.683143
 30
0.0
 11
7298.91058
 21
5561.683243
 31
0.0
  0
LINE
  5
332
  8
1
 10
7298.91058
 20
5549.683443
 30
0.0
 11
7298.91058
 21
5531.683243
 31
0.0
  0
LINE
  5
333
  8
1
 10
7298.91148
 20
6209.683043
 30
0.0
 11
7298.91148
 21
6191.683243
 31
0.0
  0
LINE
  5
334
  8
1
 10
7341.61058
 20
4131.833937
 30
0.0
 11
8041.61098
 21
4131.833737
 31
0.0
  0
LINE
  5
335
  8
1
  6
DASHED
 10
9984.73448
 20
4296.333937
 30
0.0
 11
9990.73448
 21
4286.333937
 31
0.0
  0
LINE
  5
336
  8
1
  6
DASHED
 10
9990.73448
 20
4306.333937
 30
0.0
 11
9984.73448
 21
4296.333937
 31
0.0
  0
LINE
  5
337
  8
1
 10
9305.23598
 20
4528.333237
 30
0.0
 11
9305.23478
 21
4408.333937
 31
0.0
  0
LINE
  5
338
  8
1
  6
DASHED
 10
9580.73504
 20
4338.835577
 30
0.0
 11
9580.73504
 21
4306.335977
 31
0.0
  0
LINE
  5
339
  8
1
  6
DASHED
 10
9580.73554
 20
4306.335977
 30
0.0
 11
9586.73534
 21
4296.335977
 31
0.0
  0
LINE
  5
33A
  8
1
  6
DASHED
 10
9586.73534
 20
4296.335977
 30
0.0
 11
9580.73534
 21
4286.335977
 31
0.0
  0
ARC
  5
33B
  8
1
 10
7384.11088
 20
4472.834737
 30
0.0
 40
7.0
 50
299.9996
 51
239.9996
  0
LINE
  5
33C
  8
1
  6
DASHED
 10
9580.73534
 20
4254.335977
 30
0.0
 11
9586.73534
 21
4244.335777
 31
0.0
  0
LINE
  5
33D
  8
1
  6
DASHED
 10
9586.73534
 20
4244.335777
 30
0.0
 11
9580.73504
 21
4234.335977
 31
0.0
  0
LINE
  5
33E
  8
1
  6
DASHED
 10
9580.73504
 20
4202.335977
 30
0.0
 11
9586.73504
 21
4192.335777
 31
0.0
  0
LINE
  5
33F
  8
1
  6
DASHED
 10
9586.73504
 20
4192.335777
 30
0.0
 11
9580.73504
 21
4182.335977
 31
0.0
  0
LINE
  5
340
  8
1
  6
DASHED
 10
9580.73484
 20
4182.335977
 30
0.0
 11
9580.73484
 21
4149.835977
 31
0.0
  0
LINE
  5
341
  8
1
  6
DASHED
 10
9990.73528
 20
4338.833437
 30
0.0
 11
9990.73498
 21
4306.333937
 31
0.0
  0
LINE
  5
342
  8
1
  6
DASHED
 10
9580.73454
 20
4234.335977
 30
0.0
 11
9580.73454
 21
4202.335977
 31
0.0
  0
LINE
  5
343
  8
1
 10
9990.73398
 20
4149.833937
 30
0.0
 11
9990.73378
 21
4116.833937
 31
0.0
  0
LINE
  5
344
  8
1
 10
7341.61058
 20
4149.833937
 30
0.0
 11
8041.61098
 21
4149.833737
 31
0.0
  0
LINE
  5
345
  8
1
 10
8091.61078
 20
4619.833737
 30
0.0
 11
8091.61078
 21
4604.833737
 31
0.0
  0
LINE
  5
346
  8
1
 10
7387.61088
 20
4461.834437
 30
0.0
 11
7387.61088
 21
4466.772437
 31
0.0
  0
LINE
  5
347
  8
1
 10
9580.73404
 20
4149.834277
 30
0.0
 11
9580.73384
 21
4086.834277
 31
0.0
  0
LINE
  5
348
  8
1
  6
DASHED
 10
9984.73398
 20
4192.333937
 30
0.0
 11
9586.73534
 21
4192.334277
 31
0.0
  0
LINE
  5
349
  8
1
  6
DASHED
 10
9984.73448
 20
4296.333937
 30
0.0
 11
9586.73534
 21
4296.334277
 31
0.0
  0
LINE
  5
34A
  8
1
  6
DASHED
 10
9984.73398
 20
4244.333937
 30
0.0
 11
9586.73534
 21
4244.334277
 31
0.0
  0
LINE
  5
34B
  8
1
  6
DASHED
 10
9580.73484
 20
4286.335977
 30
0.0
 11
9580.73484
 21
4254.335977
 31
0.0
  0
LINE
  5
34C
  8
1
 10
9990.73378
 20
4149.833937
 30
0.0
 11
9580.73404
 21
4149.834277
 31
0.0
  0
ARC
  5
34D
  8
1
 10
9995.32708
 20
4136.833437
 30
0.0
 40
60.0
 50
270.0002
 51
295.058
  0
LINE
  5
34E
  8
1
 10
9990.73378
 20
4131.833937
 30
0.0
 11
9580.73404
 21
4131.834277
 31
0.0
  0
LINE
  5
34F
  8
1
 10
9990.73378
 20
4116.833937
 30
0.0
 11
9580.73404
 21
4116.834277
 31
0.0
  0
LINE
  5
350
  8
1
 10
7380.61088
 20
4461.834437
 30
0.0
 11
7380.61088
 21
4466.772437
 31
0.0
  0
LINE
  5
351
  8
1
 10
8041.61118
 20
4086.833737
 30
0.0
 11
8041.61098
 21
4149.833737
 31
0.0
  0
LINE
  5
352
  8
1
 10
8069.61078
 20
5508.683643
 30
0.0
 11
8069.61078
 21
5494.683643
 31
0.0
  0
LINE
  5
353
  8
1
  6
DASHDOT
 10
8011.61078
 20
5501.683643
 30
0.0
 11
8130.86198
 21
5501.683643
 31
0.0
  0
ARC
  5
354
  8
1
 10
7869.11088
 20
4461.834437
 30
0.0
 40
3.5
 50
180.0001
 51
0.0
  0
LINE
  5
355
  8
1
 10
7341.61058
 20
4149.833937
 30
0.0
 11
7341.61058
 21
4131.833937
 31
0.0
  0
ARC
  5
356
  8
1
 10
7869.11088
 20
4472.834437
 30
0.0
 40
7.0
 50
299.9996
 51
239.9996
  0
CIRCLE
  5
357
  8
1
 10
9630.73448
 20
4551.833737
 30
0.0
 40
24.0
  0
CIRCLE
  5
358
  8
1
 10
9630.73448
 20
4416.833737
 30
0.0
 40
16.25
  0
CIRCLE
  5
359
  8
1
 10
9630.73448
 20
4416.833737
 30
0.0
 40
24.0
  0
CIRCLE
  5
35A
  8
1
 10
9505.73478
 20
4607.833937
 30
0.0
 40
16.0
  0
LINE
  5
35B
  8
1
 10
8055.61098
 20
5464.683943
 30
0.0
 11
8055.61078
 21
5446.682743
 31
0.0
  0
LINE
  5
35C
  8
1
 10
9566.73478
 20
4371.833737
 30
0.0
 11
9990.73478
 21
4371.833737
 31
0.0
  0
LINE
  5
35D
  8
1
 10
9259.23448
 20
4530.833237
 30
0.0
 11
9265.23448
 21
4530.833237
 31
0.0
  0
ARC
  5
35E
  8
1
 10
9213.23448
 20
4483.333937
 30
0.0
 40
2.5
 50
0.0
 51
90.0001
  0
LINE
  5
35F
  8
1
 10
7865.61088
 20
4461.834237
 30
0.0
 11
7865.61088
 21
4466.772237
 31
0.0
  0
ARC
  5
360
  8
1
 10
8079.59418
 20
5447.933443
 30
0.0
 40
16.0161
 50
331.0601
 51
28.9395
  0
LINE
  5
361
  8
1
 10
8041.61078
 20
5496.683243
 30
0.0
 11
8069.61078
 21
5496.683643
 31
0.0
  0
ARC
  5
362
  8
1
 10
7316.61618
 20
6185.683343
 30
0.0
 40
6.0
 50
269.9825
 51
0.0
  0
LINE
  5
363
  8
1
 10
7296.61158
 20
6209.682943
 30
0.0
 11
7341.61118
 21
6209.683343
 31
0.0
  0
LINE
  5
364
  8
1
  6
DASHED
 10
7347.61108
 20
4244.333737
 30
0.0
 11
8035.60978
 21
4244.333437
 31
0.0
  0
TEXT
  5
365
  8
2
 10
7728.108887
 20
6315.165527
 30
0.0
 40
43.75
  1
（吊り位置）
 41
0.825
  7
MONOTXT
  0
CIRCLE
  5
366
  8
1
 10
9281.73448
 20
4520.833737
 30
0.0
 40
13.0
  0
LINE
  5
367
  8
1
 10
9298.23478
 20
4530.833437
 30
0.0
 11
9302.73478
 21
4530.833737
 31
0.0
  0
ARC
  5
368
  8
1
 10
9331.23448
 20
4403.333937
 30
0.0
 40
2.5
 50
0.0
 51
90.0001
  0
LINE
  5
369
  8
1
 10
7872.61088
 20
4461.834237
 30
0.0
 11
7872.61088
 21
4466.772237
 31
0.0
  0
LINE
  5
36A
  8
1
 10
8086.61168
 20
6179.683443
 30
0.0
 11
8086.61198
 21
6161.683143
 31
0.0
  0
LINE
  5
36B
  8
1
 10
8086.61168
 20
6209.683043
 30
0.0
 11
8041.61198
 21
6209.683343
 31
0.0
  0
LINE
  5
36C
  8
1
  6
DASHDOT
 10
8041.61168
 20
6185.683343
 30
0.0
 11
8086.61168
 21
6185.683343
 31
0.0
  0
LINE
  5
36D
  8
1
 10
7341.61048
 20
5850.683643
 30
0.0
 11
8041.61058
 21
5850.683443
 31
0.0
  0
LINE
  5
36E
  8
1
 10
7296.61048
 20
5549.683443
 30
0.0
 11
7296.61048
 21
5531.683243
 31
0.0
  0
LINE
  5
36F
  8
1
 10
7296.61058
 20
5579.683143
 30
0.0
 11
7341.61028
 21
5579.683343
 31
0.0
  0
LINE
  5
370
  8
1
  6
DASHDOT
 10
7341.61048
 20
5555.683343
 30
0.0
 11
7296.61048
 21
5555.683343
 31
0.0
  0
LINE
  5
371
  8
1
 10
8086.61298
 20
5579.682943
 30
0.0
 11
8086.61268
 21
5561.683243
 31
0.0
  0
LINE
  5
372
  8
1
 10
7296.61158
 20
6161.683243
 30
0.0
 11
7341.61168
 21
6161.683343
 31
0.0
  0
LINE
  5
373
  8
1
 10
8086.61268
 20
5531.683243
 30
0.0
 11
8041.61248
 21
5531.683343
 31
0.0
  0
LINE
  5
374
  8
1
 10
7315.62658
 20
6191.683343
 30
0.0
 11
7296.61148
 21
6191.683343
 31
0.0
  0
LINE
  5
375
  8
1
 10
7315.62808
 20
6179.683343
 30
0.0
 11
7296.61148
 21
6179.683443
 31
0.0
  0
ARC
  5
376
  8
1
 10
9208.73428
 20
4483.333937
 30
0.0
 40
2.5
 50
90.0001
 51
180.0002
  0
ARC
  5
377
  8
1
 10
7316.61618
 20
6185.683343
 30
0.0
 40
6.0
 50
0.0
 51
90.0185
  0
LINE
  5
378
  8
1
  6
DASHED
 10
7338.41128
 20
6161.683343
 30
0.0
 11
7338.41128
 21
6209.683343
 31
0.0
  0
LINE
  5
379
  8
1
  6
DASHED
 10
7338.41028
 20
5531.683343
 30
0.0
 11
7338.41028
 21
5579.683343
 31
0.0
  0
LINE
  5
37A
  8
1
 10
8067.59758
 20
5561.683343
 30
0.0
 11
8086.61268
 21
5561.683343
 31
0.0
  0
LINE
  5
37B
  8
1
 10
7316.60588
 20
5561.683343
 30
0.0
 11
7315.62558
 21
5561.683343
 31
0.0
  0
LINE
  5
37C
  8
1
 10
7315.62708
 20
5549.683343
 30
0.0
 11
7296.61048
 21
5549.683443
 31
0.0
  0
LINE
  5
37D
  8
1
 10
7315.62558
 20
5561.683343
 30
0.0
 11
7296.61048
 21
5561.683343
 31
0.0
  0
LINE
  5
37E
  8
1
 10
7296.61048
 20
5531.683243
 30
0.0
 11
7341.61078
 21
5531.683343
 31
0.0
  0
LINE
  5
37F
  8
1
 10
7296.61048
 20
5579.683143
 30
0.0
 11
7296.61048
 21
5561.683243
 31
0.0
  0
LINE
  5
380
  8
1
 10
8041.61078
 20
5506.683443
 30
0.0
 11
8069.61078
 21
5506.683643
 31
0.0
  0
LINE
  5
381
  8
1
 10
8073.61048
 20
5492.683643
 30
0.0
 11
8079.61078
 21
5492.683643
 31
0.0
  0
LINE
  5
382
  8
1
 10
8073.61028
 20
5510.683643
 30
0.0
 11
8079.61048
 21
5510.683643
 31
0.0
  0
LINE
  5
383
  8
1
 10
8069.61078
 20
5494.683643
 30
0.0
 11
8072.61078
 21
5494.683643
 31
0.0
  0
LINE
  5
384
  8
1
 10
8069.61078
 20
5508.683643
 30
0.0
 11
8072.61078
 21
5508.683643
 31
0.0
  0
LINE
  5
385
  8
1
 10
8080.31188
 20
5494.683643
 30
0.0
 11
8083.61078
 21
5494.683643
 31
0.0
  0
LINE
  5
386
  8
1
 10
8080.31238
 20
5508.683843
 30
0.0
 11
8083.61078
 21
5508.683643
 31
0.0
  0
LINE
  5
387
  8
1
 10
8080.61048
 20
5506.183643
 30
0.0
 11
8080.61048
 21
5501.683643
 31
0.0
  0
LINE
  5
388
  8
1
 10
8080.61048
 20
5501.683643
 30
0.0
 11
8080.61048
 21
5497.183643
 31
0.0
  0
ARC
  5
389
  8
1
 10
8069.98548
 20
5497.183643
 30
0.0
 40
10.625
 50
334.942
 51
25.0573
  0
ARC
  5
38A
  8
1
 10
8083.23548
 20
5497.183643
 30
0.0
 40
10.625
 50
154.9422
 51
205.0575
  0
ARC
  5
38B
  8
1
 10
8083.23548
 20
5506.183643
 30
0.0
 40
10.625
 50
154.9422
 51
205.0575
  0
ARC
  5
38C
  8
1
 10
8069.98548
 20
5506.183643
 30
0.0
 40
10.625
 50
334.942
 51
25.0574
  0
LINE
  5
38D
  8
1
 10
7872.61088
 20
4611.834437
 30
0.0
 11
7872.61088
 21
4606.896437
 31
0.0
  0
LINE
  5
38E
  8
1
 10
9215.73448
 20
4483.333937
 30
0.0
 11
9217.73448
 21
4470.833737
 31
0.0
  0
LINE
  5
38F
  8
1
 10
8067.59608
 20
5549.683343
 30
0.0
 11
8086.61268
 21
5549.683443
 31
0.0
  0
LINE
  5
390
  8
1
 10
7865.61088
 20
4611.834437
 30
0.0
 11
7865.61088
 21
4606.896437
 31
0.0
  0
ARC
  5
391
  8
1
 10
7869.11088
 20
4600.834237
 30
0.0
 40
7.0
 50
120.001
 51
60.0009
  0
ARC
  5
392
  8
1
 10
7869.11088
 20
4611.834237
 30
0.0
 40
3.5
 50
0.0
 51
180.0002
  0
LINE
  5
393
  8
1
 10
7879.11078
 20
4404.333937
 30
0.0
 11
7879.11088
 21
4669.333737
 31
0.0
  0
LINE
  5
394
  8
1
 10
7374.11088
 20
4404.334737
 30
0.0
 11
7374.11088
 21
4669.334437
 31
0.0
  0
LINE
  5
395
  8
1
  6
DASHDOT
 10
7354.11088
 20
4536.834437
 30
0.0
 11
7899.11088
 21
4536.833737
 31
0.0
  0
LINE
  5
396
  8
1
 10
7856.61098
 20
4429.334237
 30
0.0
 11
7856.61098
 21
4644.333937
 31
0.0
  0
LINE
  5
397
  8
1
 10
9690.73478
 20
4581.833737
 30
0.0
 11
9690.73478
 21
4371.833737
 31
0.0
  0
LINE
  5
398
  8
1
  6
DASHED
 10
7347.61138
 20
4296.333737
 30
0.0
 11
8035.60998
 21
4296.333437
 31
0.0
  0
ARC
  5
399
  8
1
 10
7316.61618
 20
5555.683343
 30
0.0
 40
6.0
 50
269.8105
 51
0.0
  0
CIRCLE
  5
39A
  8
1
 10
9505.73448
 20
4494.834237
 30
0.0
 40
23.0
  0
LINE
  5
39B
  8
1
 10
8072.61078
 20
5506.183643
 30
0.0
 11
8072.61078
 21
5501.683643
 31
0.0
  0
LINE
  5
39C
  8
1
 10
8072.61078
 20
5501.683643
 30
0.0
 11
8072.61078
 21
5497.183643
 31
0.0
  0
LINE
  5
39D
  8
1
 10
8083.61078
 20
5490.683643
 30
0.0
 11
8095.11048
 21
5490.683643
 31
0.0
  0
LINE
  5
39E
  8
1
 10
8083.61078
 20
5512.683643
 30
0.0
 11
8095.11048
 21
5512.683643
 31
0.0
  0
ARC
  5
39F
  8
1
 10
7316.61618
 20
5555.683343
 30
0.0
 40
6.0
 50
0.0
 51
90.0993
  0
LINE
  5
3A0
  8
1
 10
8083.61078
 20
5512.683643
 30
0.0
 11
8083.61078
 21
5507.183643
 31
0.0
  0
LINE
  5
3A1
  8
1
 10
8083.61078
 20
5507.183643
 30
0.0
 11
8083.61078
 21
5501.683643
 31
0.0
  0
LINE
  5
3A2
  8
1
 10
8083.61078
 20
5501.683643
 30
0.0
 11
8083.61078
 21
5496.183643
 31
0.0
  0
LINE
  5
3A3
  8
1
 10
7316.59648
 20
5549.683343
 30
0.0
 11
7315.62708
 21
5549.683343
 31
0.0
  0
LINE
  5
3A4
  8
1
 10
7316.61428
 20
6191.683343
 30
0.0
 11
7315.62658
 21
6191.683343
 31
0.0
  0
LINE
  5
3A5
  8
1
 10
7316.61438
 20
6179.683343
 30
0.0
 11
7315.62808
 21
6179.683343
 31
0.0
  0
LINE
  5
3A6
  8
1
 10
8067.59508
 20
6179.683343
 30
0.0
 11
8066.62608
 21
6179.683343
 31
0.0
  0
ARC
  5
3A7
  8
1
 10
8066.61808
 20
6185.683343
 30
0.0
 40
6.0
 50
89.8924
 51
270.0766
  0
LINE
  5
3A8
  8
1
 10
8041.61048
 20
5410.683443
 30
0.0
 11
8041.61078
 21
6210.683343
 31
0.0
  0
LINE
  5
3A9
  8
1
  6
DASHED
 10
7347.61088
 20
4192.333737
 30
0.0
 11
8035.60948
 21
4192.333437
 31
0.0
  0
LINE
  5
3AA
  8
1
 10
8098.61078
 20
4411.816837
 30
0.0
 11
8098.61088
 21
4386.816837
 31
0.0
  0
LINE
  5
3AB
  8
1
  6
DASHED
 10
8044.81288
 20
5531.683343
 30
0.0
 11
8044.81288
 21
5579.683343
 31
0.0
  0
LINE
  5
3AC
  8
1
 10
7396.61088
 20
4429.334437
 30
0.0
 11
7396.61088
 21
4644.334737
 31
0.0
  0
LINE
  5
3AD
  8
1
 10
7374.11088
 20
4644.334737
 30
0.0
 11
7879.11088
 21
4644.333937
 31
0.0
  0
LINE
  5
3AE
  8
1
  6
DASHED
 10
8041.61048
 20
4286.333937
 30
0.0
 11
8041.61028
 21
4254.333937
 31
0.0
  0
LINE
  5
3AF
  8
1
  6
DASHDOT
 10
9630.73448
 20
4573.833737
 30
0.0
 11
9630.73448
 21
4529.833737
 31
0.0
  0
LINE
  5
3B0
  8
1
 10
7341.61048
 20
5410.683643
 30
0.0
 11
8041.61048
 21
5410.683343
 31
0.0
  0
LINE
  5
3B1
  8
1
 10
8083.61078
 20
5496.183643
 30
0.0
 11
8083.61078
 21
5490.683643
 31
0.0
  0
LINE
  5
3B2
  8
1
 10
8101.61078
 20
5508.683343
 30
0.0
 11
8101.61078
 21
5507.183643
 31
0.0
  0
LINE
  5
3B3
  8
1
 10
8101.61078
 20
5507.183643
 30
0.0
 11
8101.61078
 21
5501.683643
 31
0.0
  0
LINE
  5
3B4
  8
1
 10
8101.61078
 20
5501.683643
 30
0.0
 11
8101.61078
 21
5496.183643
 31
0.0
  0
LINE
  5
3B5
  8
1
 10
8101.61078
 20
5496.183643
 30
0.0
 11
8101.61078
 21
5494.683643
 31
0.0
  0
ARC
  5
3B6
  8
1
 10
8085.77728
 20
5496.183643
 30
0.0
 40
10.8333
 50
329.4892
 51
30.5102
  0
ARC
  5
3B7
  8
1
 10
8094.44448
 20
5496.183843
 30
0.0
 40
10.8333
 50
149.4894
 51
210.5104
  0
ARC
  5
3B8
  8
1
 10
8094.44448
 20
5507.183343
 30
0.0
 40
10.8333
 50
149.4894
 51
210.5103
  0
ARC
  5
3B9
  8
1
 10
8085.77728
 20
5507.183643
 30
0.0
 40
10.8333
 50
329.4892
 51
30.5102
  0
ARC
  5
3BA
  8
1
 10
8101.70478
 20
5487.249243
 30
0.0
 40
7.4349
 50
90.7241
 51
152.489
  0
LINE
  5
3BB
  8
1
 10
8067.59658
 20
6191.683343
 30
0.0
 11
8066.62928
 21
6191.683343
 31
0.0
  0
LINE
  5
3BC
  8
1
  6
DASHDOT
 10
7341.61148
 20
6185.683343
 30
0.0
 11
7296.61148
 21
6185.683343
 31
0.0
  0
LINE
  5
3BD
  8
1
 10
7296.61148
 20
6179.683443
 30
0.0
 11
7296.61148
 21
6161.683143
 31
0.0
  0
LINE
  5
3BE
  8
1
  6
DASHED
 10
8044.81188
 20
6161.683343
 30
0.0
 11
8044.81188
 21
6209.683343
 31
0.0
  0
LINE
  5
3BF
  8
1
 10
8067.59608
 20
5549.683343
 30
0.0
 11
8066.64028
 21
5549.683343
 31
0.0
  0
LINE
  5
3C0
  8
1
 10
8067.59508
 20
6179.683343
 30
0.0
 11
8086.61168
 21
6179.683443
 31
0.0
  0
LINE
  5
3C1
  8
1
 10
8067.59658
 20
6191.683343
 30
0.0
 11
8086.61168
 21
6191.683343
 31
0.0
  0
LINE
  5
3C2
  8
1
 10
8086.61168
 20
6161.683143
 30
0.0
 11
8041.61148
 21
6161.683343
 31
0.0
  0
ARC
  5
3C3
  8
1
 10
9235.73448
 20
4470.833737
 30
0.0
 40
18.0
 50
180.0
 51
0.0
  0
ARC
  5
3C4
  8
1
 10
8066.61778
 20
5555.683343
 30
0.0
 40
6.0
 50
89.9569
 51
270.2135
  0
LINE
  5
3C5
  8
1
 10
8067.59758
 20
5561.683343
 30
0.0
 11
8066.62218
 21
5561.683343
 31
0.0
  0
ARC
  5
3C6
  8
1
 10
9235.73448
 20
4470.833737
 30
0.0
 40
18.0
 50
180.0003
 51
0.0
  0
LINE
  5
3C7
  8
1
 10
7374.11088
 20
4429.334437
 30
0.0
 11
7879.11088
 21
4429.333937
 31
0.0
  0
LINE
  5
3C8
  8
1
 10
7374.11088
 20
4669.334437
 30
0.0
 11
7879.11088
 21
4669.333737
 31
0.0
  0
LINE
  5
3C9
  8
1
 10
7374.11088
 20
4404.334437
 30
0.0
 11
7879.11078
 21
4404.333737
 31
0.0
  0
LINE
  5
3CA
  8
1
 10
7374.11088
 20
4649.334737
 30
0.0
 11
7879.11088
 21
4649.333937
 31
0.0
  0
LINE
  5
3CB
  8
1
 10
7374.11088
 20
4424.334437
 30
0.0
 11
7879.11088
 21
4424.333937
 31
0.0
  0
LINE
  5
3CC
  8
1
 10
7861.61108
 20
4434.334237
 30
0.0
 11
7861.61098
 21
4639.333937
 31
0.0
  0
LINE
  5
3CD
  8
1
 10
7391.61088
 20
4434.334437
 30
0.0
 11
7391.61088
 21
4639.334437
 31
0.0
  0
LINE
  5
3CE
  8
1
 10
7374.11088
 20
4639.334737
 30
0.0
 11
7391.61088
 21
4639.334737
 31
0.0
  0
LINE
  5
3CF
  8
1
 10
7374.11088
 20
4434.334437
 30
0.0
 11
7391.61088
 21
4434.334437
 31
0.0
  0
LINE
  5
3D0
  8
1
 10
7861.61098
 20
4639.333937
 30
0.0
 11
7879.11088
 21
4639.333937
 31
0.0
  0
LINE
  5
3D1
  8
1
 10
7861.61108
 20
4434.333937
 30
0.0
 11
7879.11088
 21
4434.333937
 31
0.0
  0
LINE
  5
3D2
  8
1
  6
DASHDOT
 10
7393.61078
 20
4414.333037
 30
0.0
 11
7859.61078
 21
4414.333737
 31
0.0
  0
LINE
  5
3D3
  8
1
  6
DASHDOT
 10
7851.61078
 20
4406.333937
 30
0.0
 11
7851.61078
 21
4422.333937
 31
0.0
  0
CIRCLE
  5
3D4
  8
1
 10
7851.61078
 20
4414.333737
 30
0.0
 40
3.5
  0
CIRCLE
  5
3D5
  8
1
 10
7851.61088
 20
4659.333737
 30
0.0
 40
3.5
  0
CIRCLE
  5
3D6
  8
1
 10
7701.61088
 20
4659.333737
 30
0.0
 40
3.5
  0
CIRCLE
  5
3D7
  8
1
 10
7701.61078
 20
4414.333737
 30
0.0
 40
3.5
  0
CIRCLE
  5
3D8
  8
1
 10
7551.61078
 20
4414.333737
 30
0.0
 40
3.5
  0
CIRCLE
  5
3D9
  8
1
 10
7551.61088
 20
4659.333737
 30
0.0
 40
3.5
  0
CIRCLE
  5
3DA
  8
1
 10
7401.61088
 20
4659.333737
 30
0.0
 40
3.5
  0
CIRCLE
  5
3DB
  8
1
 10
7401.61078
 20
4414.333737
 30
0.0
 40
3.5
  0
LINE
  5
3DC
  8
1
  6
DASHDOT
 10
7393.61098
 20
4659.333237
 30
0.0
 11
7859.61078
 21
4659.333737
 31
0.0
  0
LINE
  5
3DD
  8
1
  6
DASHDOT
 10
7851.61078
 20
4651.333937
 30
0.0
 11
7851.61078
 21
4667.333937
 31
0.0
  0
LINE
  5
3DE
  8
1
  6
DASHDOT
 10
7701.61078
 20
4651.333937
 30
0.0
 11
7701.61078
 21
4667.333937
 31
0.0
  0
LINE
  5
3DF
  8
1
  6
DASHDOT
 10
7551.61078
 20
4651.333937
 30
0.0
 11
7551.61078
 21
4667.333937
 31
0.0
  0
LINE
  5
3E0
  8
1
  6
DASHDOT
 10
7401.61078
 20
4651.333937
 30
0.0
 11
7401.61078
 21
4667.333937
 31
0.0
  0
LINE
  5
3E1
  8
1
  6
DASHDOT
 10
7701.61078
 20
4406.333937
 30
0.0
 11
7701.61078
 21
4422.333937
 31
0.0
  0
LINE
  5
3E2
  8
1
  6
DASHDOT
 10
7551.61078
 20
4406.333937
 30
0.0
 11
7551.61078
 21
4422.333937
 31
0.0
  0
LINE
  5
3E3
  8
1
  6
DASHDOT
 10
7401.61078
 20
4406.333937
 30
0.0
 11
7401.61078
 21
4422.333937
 31
0.0
  0
LINE
  5
3E4
  8
1
  6
DASHDOT
 10
7864.11088
 20
4611.833937
 30
0.0
 11
7874.11088
 21
4611.833737
 31
0.0
  0
LINE
  5
3E5
  8
1
  6
DASHDOT
 10
7864.11088
 20
4461.833737
 30
0.0
 11
7874.11098
 21
4461.833737
 31
0.0
  0
LINE
  5
3E6
  8
1
  6
DASHDOT
 10
7869.11088
 20
4451.833737
 30
0.0
 11
7869.11088
 21
4621.833737
 31
0.0
  0
LINE
  5
3E7
  8
1
  6
DASHDOT
 10
7384.11088
 20
4451.834737
 30
0.0
 11
7384.11088
 21
4621.834737
 31
0.0
  0
LINE
  5
3E8
  8
1
  6
DASHDOT
 10
7384.11088
 20
4451.833737
 30
0.0
 11
7384.11088
 21
4621.833737
 31
0.0
  0
LINE
  5
3E9
  8
1
  6
DASHDOT
 10
7379.11088
 20
4461.833737
 30
0.0
 11
7389.11098
 21
4461.833737
 31
0.0
  0
LINE
  5
3EA
  8
1
  6
DASHDOT
 10
7379.11088
 20
4611.833937
 30
0.0
 11
7389.11088
 21
4611.833737
 31
0.0
  0
LINE
  5
3EB
  8
1
 10
9235.61088
 20
5624.236071
 30
0.0
 11
9891.61078
 21
5624.236071
 31
0.0
  0
TEXT
  5
3EC
  8
2
 10
9376.110352
 20
4993.083496
 30
0.0
 40
43.75
  1
（吸込パネル中心）
 41
0.75
  7
MONOTXT
  0
LINE
  5
3ED
  8
1
  6
DASHDOT
 10
9608.73448
 20
4551.833737
 30
0.0
 11
9652.73448
 21
4551.833737
 31
0.0
  0
LINE
  5
3EE
  8
1
  6
DASHDOT
 10
9608.73448
 20
4416.833737
 30
0.0
 11
9652.73448
 21
4416.833737
 31
0.0
  0
LINE
  5
3EF
  8
1
  6
DASHDOT
 10
9630.73448
 20
4438.833737
 30
0.0
 11
9630.73448
 21
4394.833737
 31
0.0
  0
LINE
  5
3F0
  8
1
  6
DASHDOT
 10
8041.61268
 20
5555.683343
 30
0.0
 11
8086.61268
 21
5555.683343
 31
0.0
  0
LINE
  5
3F1
  8
1
 10
8086.61298
 20
5579.682943
 30
0.0
 11
8041.61298
 21
5579.683343
 31
0.0
  0
LINE
  5
3F2
  8
1
 10
8086.61268
 20
5549.683443
 30
0.0
 11
8086.61268
 21
5531.683143
 31
0.0
  0
ARC
  5
3F3
  8
1
 10
9302.73478
 20
4528.333737
 30
0.0
 40
2.5
 50
0.0
 51
90.0001
  0
ARC
  5
3F4
  8
1
 10
9298.23478
 20
4528.333737
 30
0.0
 40
2.5
 50
90.0001
 51
180.0002
  0
ARC
  5
3F5
  8
1
 10
9281.73448
 20
4520.833737
 30
0.0
 40
13.0
 50
179.9999
 51
0.0
  0
LINE
  5
3F6
  8
1
 10
9483.25698
 20
4493.834237
 30
0.0
 11
9528.21258
 21
4493.834237
 31
0.0
  0
LINE
  5
3F7
  8
1
 10
9528.21158
 20
4495.834237
 30
0.0
 11
9483.25698
 21
4495.834437
 31
0.0
  0
LINE
  5
3F8
  8
1
 10
9295.73498
 20
4528.333937
 30
0.0
 11
9294.73448
 21
4520.833737
 31
0.0
  0
ARC
  5
3F9
  8
1
 10
9265.23478
 20
4528.333237
 30
0.0
 40
2.5
 50
0.0
 51
90.0057
  0
ARC
  5
3FA
  8
1
 10
9259.23448
 20
4528.333037
 30
0.0
 40
2.5
 50
90.0001
 51
180.0002
  0
LINE
  5
3FB
  8
1
 10
9267.73498
 20
4528.333237
 30
0.0
 11
9268.73448
 21
4520.833737
 31
0.0
  0
LINE
  5
3FC
  8
1
 10
9256.73448
 20
4528.333037
 30
0.0
 11
9253.73448
 21
4470.833737
 31
0.0
  0
ARC
  5
3FD
  8
1
 10
9307.73398
 20
4408.333737
 30
0.0
 40
2.5
 50
180.0002
 51
270.0114
  0
ARC
  5
3FE
  8
1
 10
9203.73448
 20
4434.333437
 30
0.0
 40
2.5
 50
270.0002
 51
0.0
  0
LINE
  5
3FF
  8
1
  6
DASHDOT
 10
9235.73448
 20
4490.833737
 30
0.0
 11
9235.73448
 21
4450.833737
 31
0.0
  0
LINE
  5
400
  8
1
  6
DASHDOT
 10
9215.73448
 20
4470.833737
 30
0.0
 11
9255.73448
 21
4470.833737
 31
0.0
  0
LINE
  5
401
  8
1
  6
DASHDOT
 10
9281.73448
 20
4535.833737
 30
0.0
 11
9281.73448
 21
4505.833737
 31
0.0
  0
LINE
  5
402
  8
1
  6
DASHDOT
 10
9266.73448
 20
4520.833737
 30
0.0
 11
9296.73448
 21
4520.833737
 31
0.0
  0
LINE
  5
403
  8
1
 10
9442.73478
 20
4451.834237
 30
0.0
 11
9568.73448
 21
4451.833937
 31
0.0
  0
LINE
  5
404
  8
1
 10
9442.73448
 20
4657.833737
 30
0.0
 11
9568.73448
 21
4657.833737
 31
0.0
  0
LINE
  5
405
  8
1
 10
8071.17978
 20
5444.685643
 30
0.0
 11
8059.02238
 21
5444.683243
 31
0.0
  0
LINE
  5
406
  8
1
 10
9432.73478
 20
4647.833737
 30
0.0
 11
9432.73448
 21
4461.833937
 31
0.0
  0
LINE
  5
407
  8
1
 10
9578.73448
 20
4647.833937
 30
0.0
 11
9578.73448
 21
4461.833937
 31
0.0
  0
ARC
  5
408
  8
1
 10
9568.73448
 20
4461.833937
 30
0.0
 40
10.0
 50
270.0002
 51
0.0
  0
ARC
  5
409
  8
1
 10
9568.73448
 20
4647.833737
 30
0.0
 40
10.0
 50
0.0
 51
90.0001
  0
ARC
  5
40A
  8
1
 10
9442.73478
 20
4647.833737
 30
0.0
 40
10.0
 50
90.0001
 51
180.0002
  0
ARC
  5
40B
  8
1
 10
9442.73448
 20
4461.833937
 30
0.0
 40
10.0
 50
180.0002
 51
270.0002
  0
LINE
  5
40C
  8
1
 10
9593.73448
 20
4581.833937
 30
0.0
 11
9593.73448
 21
4563.833737
 31
0.0
  0
LINE
  5
40D
  8
1
 10
9603.73428
 20
4591.833737
 30
0.0
 11
9680.73498
 21
4591.833937
 31
0.0
  0
LINE
  5
40E
  8
1
 10
8075.61048
 20
5446.686743
 30
0.0
 11
8072.00718
 21
5446.686943
 31
0.0
  0
CIRCLE
  5
40F
  8
1
 10
9515.73448
 20
4401.833737
 30
0.0
 40
25.0
  0
CIRCLE
  5
410
  8
1
 10
9515.73448
 20
4401.833737
 30
0.0
 40
10.0
  0
CIRCLE
  5
411
  8
1
 10
9505.73478
 20
4607.833937
 30
0.0
 40
20.0
  0
ARC
  5
412
  8
1
 10
9505.73448
 20
4469.834237
 30
0.0
 40
4.0
 50
0.0
 51
4.591
  0
ARC
  5
413
  8
1
 10
9505.73448
 20
4519.834237
 30
0.0
 40
4.0
 50
355.4124
 51
0.0
  0
ARC
  5
414
  8
1
 10
9538.53408
 20
4377.833437
 30
0.0
 40
6.0
 50
180.0001
 51
291.5096
  0
ARC
  5
415
  8
1
 10
9492.93448
 20
4377.833737
 30
0.0
 40
6.0
 50
0.0
 51
14.8329
  0
ARC
  5
416
  8
1
 10
9492.93448
 20
4377.833737
 30
0.0
 40
6.0
 50
248.4908
 51
0.0
  0
ARC
  5
417
  8
1
 10
9680.73428
 20
4581.833737
 30
0.0
 40
10.0
 50
0.0
 51
89.9973
  0
ARC
  5
418
  8
1
 10
9603.73448
 20
4581.833937
 30
0.0
 40
10.0
 50
90.0001
 51
180.0016
  0
LINE
  5
419
  8
1
 10
9595.73448
 20
4561.833737
 30
0.0
 11
9608.91718
 21
4561.833937
 31
0.0
  0
LINE
  5
41A
  8
1
 10
9595.73478
 20
4541.833937
 30
0.0
 11
9608.91738
 21
4541.833937
 31
0.0
  0
LINE
  5
41B
  8
1
 10
9593.73478
 20
4539.834237
 30
0.0
 11
9593.73498
 21
4436.833737
 31
0.0
  0
ARC
  5
41C
  8
1
 10
9595.73448
 20
4563.833737
 30
0.0
 40
2.0
 50
180.0002
 51
270.0002
  0
ARC
  5
41D
  8
1
 10
9595.73448
 20
4539.834237
 30
0.0
 40
2.0
 50
89.9861
 51
180.0002
  0
LINE
  5
41E
  8
1
 10
9598.73498
 20
4391.833737
 30
0.0
 11
9605.72448
 21
4391.833737
 31
0.0
  0
LINE
  5
41F
  8
1
 10
9598.73528
 20
4406.833437
 30
0.0
 11
9608.91718
 21
4406.833737
 31
0.0
  0
LINE
  5
420
  8
1
 10
9605.72448
 20
4391.833737
 30
0.0
 11
9605.72308
 21
4371.833737
 31
0.0
  0
LINE
  5
421
  8
1
 10
9603.73498
 20
4426.833737
 30
0.0
 11
9608.91718
 21
4426.833737
 31
0.0
  0
LINE
  5
422
  8
1
 10
9593.73548
 20
4401.833737
 30
0.0
 11
9593.73548
 21
4396.833937
 31
0.0
  0
ARC
  5
423
  8
1
 10
9603.73498
 20
4436.833737
 30
0.0
 40
10.0
 50
180.0002
 51
270.0002
  0
ARC
  5
424
  8
1
 10
9598.73528
 20
4401.833037
 30
0.0
 40
5.0
 50
90.0001
 51
179.9946
  0
ARC
  5
425
  8
1
 10
9598.73528
 20
4396.833937
 30
0.0
 40
5.0
 50
180.0002
 51
270.0002
  0
LINE
  5
426
  8
1
 10
8086.61148
 20
6209.683043
 30
0.0
 11
8086.61168
 21
6191.683243
 31
0.0
  0
LINE
  5
427
  8
1
  6
DIVIDE
 10
8066.61808
 20
6205.683343
 30
0.0
 11
8066.61808
 21
6165.683843
 31
0.0
  0
LINE
  5
428
  8
1
  6
DIVIDE
 10
7316.61618
 20
5575.683343
 30
0.0
 11
7316.61618
 21
5535.683843
 31
0.0
  0
LINE
  5
429
  8
1
  6
DASHED
 10
8041.61028
 20
4234.333937
 30
0.0
 11
8041.60998
 21
4202.333937
 31
0.0
  0
LINE
  5
42A
  8
1
  6
DASHED
 10
8041.60978
 20
4182.333937
 30
0.0
 11
8041.60948
 21
4149.833937
 31
0.0
  0
LINE
  5
42B
  8
1
  6
DASHED
 10
8035.60948
 20
4192.333937
 30
0.0
 11
8041.60948
 21
4182.333937
 31
0.0
  0
LINE
  5
42C
  8
1
  6
DASHED
 10
8041.60948
 20
4202.333937
 30
0.0
 11
8035.60948
 21
4192.333937
 31
0.0
  0
LINE
  5
42D
  8
1
  6
DASHED
 10
8035.60978
 20
4244.333937
 30
0.0
 11
8041.60978
 21
4234.333937
 31
0.0
  0
LINE
  5
42E
  8
1
  6
DASHED
 10
8041.60978
 20
4254.333937
 30
0.0
 11
8035.60978
 21
4244.333937
 31
0.0
  0
LINE
  5
42F
  8
1
  6
DASHED
 10
8035.60998
 20
4296.333937
 30
0.0
 11
8041.60998
 21
4286.333937
 31
0.0
  0
LINE
  5
430
  8
1
  6
DASHED
 10
8041.60998
 20
4306.333937
 30
0.0
 11
8035.60998
 21
4296.333937
 31
0.0
  0
LINE
  5
431
  8
1
  6
DASHED
 10
8041.61078
 20
4338.833737
 30
0.0
 11
8041.61048
 21
4306.333937
 31
0.0
  0
LINE
  5
432
  8
1
 10
8091.61078
 20
4604.833737
 30
0.0
 11
8091.61078
 21
4589.833737
 31
0.0
  0
LINE
  5
433
  8
1
  6
DASHED
 10
8041.61078
 20
4149.833037
 30
0.0
 11
8041.61048
 21
4182.332737
 31
0.0
  0
LINE
  5
434
  8
1
  6
DASHED
 10
8041.60998
 20
4182.332737
 30
0.0
 11
8035.60998
 21
4192.332737
 31
0.0
  0
LINE
  5
435
  8
1
  6
DASHED
 10
8035.60998
 20
4192.332737
 30
0.0
 11
8041.60998
 21
4202.332737
 31
0.0
  0
LINE
  5
436
  8
1
  6
DASHED
 10
8041.60978
 20
4234.332737
 30
0.0
 11
8035.60978
 21
4244.332737
 31
0.0
  0
LINE
  5
437
  8
1
  6
DASHED
 10
8035.60978
 20
4244.332737
 30
0.0
 11
8041.60978
 21
4254.332737
 31
0.0
  0
LINE
  5
438
  8
1
  6
DASHED
 10
8041.60948
 20
4286.332737
 30
0.0
 11
8035.60948
 21
4296.332737
 31
0.0
  0
LINE
  5
439
  8
1
  6
DASHED
 10
8035.60948
 20
4296.332737
 30
0.0
 11
8041.60948
 21
4306.332737
 31
0.0
  0
LINE
  5
43A
  8
1
  6
DASHED
 10
8041.60978
 20
4306.332737
 30
0.0
 11
8041.60948
 21
4338.832737
 31
0.0
  0
LINE
  5
43B
  8
1
  6
DASHED
 10
8041.61028
 20
4254.332737
 30
0.0
 11
8041.60998
 21
4286.332737
 31
0.0
  0
LINE
  5
43C
  8
1
  6
DASHED
 10
8041.61048
 20
4202.332737
 30
0.0
 11
8041.61028
 21
4234.332737
 31
0.0
  0
LINE
  5
43D
  8
1
  6
DASHED
 10
7341.61038
 20
4202.332537
 30
0.0
 11
7341.61058
 21
4234.332537
 31
0.0
  0
LINE
  5
43E
  8
1
  6
DASHED
 10
7341.61058
 20
4254.332537
 30
0.0
 11
7341.61088
 21
4286.332537
 31
0.0
  0
LINE
  5
43F
  8
1
  6
DASHED
 10
7341.61108
 20
4306.332537
 30
0.0
 11
7341.61138
 21
4338.832537
 31
0.0
  0
LINE
  5
440
  8
1
  6
DASHED
 10
7347.61138
 20
4296.332537
 30
0.0
 11
7341.61138
 21
4306.332537
 31
0.0
  0
LINE
  5
441
  8
1
  6
DASHED
 10
7341.61138
 20
4286.332537
 30
0.0
 11
7347.61138
 21
4296.332537
 31
0.0
  0
LINE
  5
442
  8
1
  6
DASHED
 10
7347.61108
 20
4244.332537
 30
0.0
 11
7341.61108
 21
4254.332537
 31
0.0
  0
LINE
  5
443
  8
1
  6
DASHED
 10
7341.61108
 20
4234.332537
 30
0.0
 11
7347.61108
 21
4244.332537
 31
0.0
  0
LINE
  5
444
  8
1
  6
DASHED
 10
7347.61088
 20
4192.332537
 30
0.0
 11
7341.61088
 21
4202.332537
 31
0.0
  0
LINE
  5
445
  8
1
  6
DASHED
 10
7341.61088
 20
4182.332537
 30
0.0
 11
7347.61088
 21
4192.332537
 31
0.0
  0
LINE
  5
446
  8
1
  6
DASHED
 10
7341.61008
 20
4149.832737
 30
0.0
 11
7341.61038
 21
4182.332537
 31
0.0
  0
LINE
  5
447
  8
1
  6
DASHED
 10
7341.61008
 20
4338.833437
 30
0.0
 11
7341.61038
 21
4306.333737
 31
0.0
  0
LINE
  5
448
  8
1
  6
DASHED
 10
7341.61088
 20
4306.333737
 30
0.0
 11
7347.61088
 21
4296.333737
 31
0.0
  0
LINE
  5
449
  8
1
 10
9588.73434
 20
4356.834077
 30
0.0
 11
9990.73448
 21
4356.833737
 31
0.0
  0
LINE
  5
44A
  8
1
 10
9580.73434
 20
4356.834077
 30
0.0
 11
9982.73448
 21
4356.833737
 31
0.0
  0
LINE
  5
44B
  8
1
 10
9580.73404
 20
4338.834077
 30
0.0
 11
9990.73448
 21
4338.833737
 31
0.0
  0
LINE
  5
44C
  8
1
  6
DASHED
 10
7347.61088
 20
4296.333737
 30
0.0
 11
7341.61088
 21
4286.333737
 31
0.0
  0
LINE
  5
44D
  8
1
  6
DASHED
 10
7341.61108
 20
4254.333737
 30
0.0
 11
7347.61108
 21
4244.333737
 31
0.0
  0
LINE
  5
44E
  8
1
 10
9990.73448
 20
4371.833737
 30
0.0
 11
9990.73448
 21
4338.833737
 31
0.0
  0
LINE
  5
44F
  8
1
 10
9580.73404
 20
4371.834077
 30
0.0
 11
9580.73404
 21
4338.834077
 31
0.0
  0
LINE
  5
450
  8
1
  6
DASHED
 10
7347.61108
 20
4244.333737
 30
0.0
 11
7341.61108
 21
4234.333737
 31
0.0
  0
LINE
  5
451
  8
1
  6
DASHED
 10
7341.61138
 20
4202.333737
 30
0.0
 11
7347.61138
 21
4192.333737
 31
0.0
  0
LINE
  5
452
  8
1
  6
DASHED
 10
7347.61138
 20
4192.333737
 30
0.0
 11
7341.61138
 21
4182.333737
 31
0.0
  0
LINE
  5
453
  8
1
  6
DASHED
 10
7341.61108
 20
4182.333737
 30
0.0
 11
7341.61138
 21
4149.833737
 31
0.0
  0
LINE
  5
454
  8
1
  6
DASHED
 10
7341.61058
 20
4234.333737
 30
0.0
 11
7341.61088
 21
4202.333737
 31
0.0
  0
LINE
  5
455
  8
1
  6
DASHED
 10
7341.61038
 20
4286.333737
 30
0.0
 11
7341.61058
 21
4254.333737
 31
0.0
  0
ARC
  5
456
  8
1
 10
8101.70478
 20
5516.117943
 30
0.0
 40
7.4349
 50
207.5107
 51
269.2756
  0
LINE
  5
457
  8
1
 10
7291.61058
 20
4086.834237
 30
0.0
 11
8091.61078
 21
4086.833737
 31
0.0
  0
ARC
  5
458
  8
1
 10
8091.62638
 20
5447.933443
 30
0.0
 40
16.0161
 50
151.0601
 51
208.9394
  0
LINE
  5
459
  8
1
 10
8071.18008
 20
5466.680443
 30
0.0
 11
8059.02208
 21
5466.683143
 31
0.0
  0
LINE
  5
45A
  8
1
 10
8055.61078
 20
5446.682843
 30
0.0
 11
8058.19468
 21
5446.683443
 31
0.0
  0
LINE
  5
45B
  8
1
 10
8073.61098
 20
5450.193443
 30
0.0
 11
8073.61098
 21
5450.412343
 31
0.0
  0
ARC
  5
45C
  8
1
 10
8101.65348
 20
5432.692043
 30
0.0
 40
10.9915
 50
90.2244
 51
137.0336
  0
LINE
  5
45D
  8
1
 10
8072.00698
 20
5464.680543
 30
0.0
 11
8075.61028
 21
5464.679643
 31
0.0
  0
LINE
  5
45E
  8
1
 10
8041.61048
 20
5723.183243
 30
0.0
 11
8097.78018
 21
5723.183243
 31
0.0
  0
LINE
  5
45F
  8
1
 10
9190.73448
 20
4671.833737
 30
0.0
 11
9190.73448
 21
4391.833737
 31
0.0
  0
LINE
  5
460
  8
1
 10
9190.73448
 20
4391.833737
 30
0.0
 11
9190.73448
 21
4371.833937
 31
0.0
  0
LINE
  5
461
  8
1
  6
DIVIDE
 10
9505.73478
 20
4631.833937
 30
0.0
 11
9505.73478
 21
4583.833937
 31
0.0
  0
LINE
  5
462
  8
1
 10
7341.61058
 20
4671.834437
 30
0.0
 11
8041.61078
 21
4671.833737
 31
0.0
  0
LINE
  5
463
  8
1
  6
DIVIDE
 10
9481.73478
 20
4607.833937
 30
0.0
 11
9529.73478
 21
4607.833937
 31
0.0
  0
LINE
  5
464
  8
1
 10
8072.61078
 20
5461.191543
 30
0.0
 11
8072.61048
 21
5450.193443
 31
0.0
  0
LINE
  5
465
  8
1
  6
DASHDOT
 10
7691.61058
 20
5349.433943
 30
0.0
 11
7691.61058
 21
6230.683643
 31
0.0
  0
LINE
  5
466
  8
1
 10
8047.61048
 20
5555.683243
 30
0.0
 11
8069.61048
 21
5555.683443
 31
0.0
  0
LINE
  5
467
  8
1
 10
8055.61118
 20
5464.684043
 30
0.0
 11
8058.19498
 21
5464.683643
 31
0.0
  0
LINE
  5
468
  8
1
 10
8073.61048
 20
5455.683443
 30
0.0
 11
8075.61048
 21
5455.683443
 31
0.0
  0
LINE
  5
469
  8
1
 10
8075.61048
 20
5471.183443
 30
0.0
 11
8075.61048
 21
5440.183443
 31
0.0
  0
ARC
  5
46A
  8
1
 10
8091.62638
 20
5463.433443
 30
0.0
 40
16.0161
 50
151.0603
 51
208.9396
  0
ARC
  5
46B
  8
1
 10
8079.59418
 20
5463.433443
 30
0.0
 40
16.0161
 50
331.0599
 51
28.9393
  0
ARC
  5
46C
  8
1
 10
8101.65348
 20
5478.674943
 30
0.0
 40
10.9915
 50
222.9662
 51
269.7753
  0
LINE
  5
46D
  8
1
 10
8057.61078
 20
5461.191543
 30
0.0
 11
8057.61048
 21
5450.193443
 31
0.0
  0
LINE
  5
46E
  8
1
 10
8075.61048
 20
5471.183443
 30
0.0
 11
8093.61028
 21
5471.183443
 31
0.0
  0
LINE
  5
46F
  8
1
 10
8075.61048
 20
5440.183443
 30
0.0
 11
8093.61048
 21
5440.183443
 31
0.0
  0
LINE
  5
470
  8
1
 10
8101.61028
 20
5467.683443
 30
0.0
 11
8101.61048
 21
5443.683443
 31
0.0
  0
LINE
  5
471
  8
1
 10
8041.61048
 20
5463.683443
 30
0.0
 11
8055.61098
 21
5463.683443
 31
0.0
  0
LINE
  5
472
  8
1
 10
8041.61048
 20
5447.683443
 30
0.0
 11
8055.61048
 21
5447.683343
 31
0.0
  0
LINE
  5
473
  8
1
 10
9235.61078
 20
5654.236071
 30
0.0
 11
9891.61078
 21
5654.236071
 31
0.0
  0
LINE
  5
474
  8
1
 10
9235.61078
 20
5684.236071
 30
0.0
 11
9891.61078
 21
5684.236071
 31
0.0
  0
LINE
  5
475
  8
1
 10
9235.61088
 20
5714.236071
 30
0.0
 11
9891.61078
 21
5714.236071
 31
0.0
  0
LINE
  5
476
  8
1
 10
9235.61088
 20
5744.236071
 30
0.0
 11
9891.61078
 21
5744.236071
 31
0.0
  0
LINE
  5
477
  8
1
  6
DIVIDE
 10
8029.98008
 20
5735.683243
 30
0.0
 11
8106.88538
 21
5735.683343
 31
0.0
  0
LINE
  5
478
  8
1
 10
8091.61078
 20
4604.833737
 30
0.0
 11
8041.61078
 21
4604.833737
 31
0.0
  0
LINE
  5
479
  8
1
 10
8041.61048
 20
5715.683243
 30
0.0
 11
8084.31488
 21
5715.683243
 31
0.0
  0
LINE
  5
47A
  8
1
 10
8084.31488
 20
5715.683243
 30
0.0
 11
8084.31488
 21
5735.683243
 31
0.0
  0
LINE
  5
47B
  8
1
  6
DIVIDE
 10
8029.98008
 20
5725.683243
 30
0.0
 11
8106.88538
 21
5725.683243
 31
0.0
  0
LINE
  5
47C
  8
1
 10
8041.61048
 20
5748.183243
 30
0.0
 11
8097.78018
 21
5748.183243
 31
0.0
  0
LINE
  5
47D
  8
1
 10
8097.78018
 20
5723.183243
 30
0.0
 11
8097.78018
 21
5748.183243
 31
0.0
  0
LINE
  5
47E
  8
1
 10
8041.61078
 20
4386.816837
 30
0.0
 11
8098.61078
 21
4386.816837
 31
0.0
  0
LINE
  5
47F
  8
1
  6
DIVIDE
 10
8028.43228
 20
4399.316837
 30
0.0
 11
8105.33758
 21
4399.316637
 31
0.0
  0
LINE
  5
480
  8
1
 10
8041.61078
 20
4411.816837
 30
0.0
 11
8098.61078
 21
4411.816837
 31
0.0
  0
LINE
  5
482
  8
1
 10
9580.73384
 20
4086.831611
 30
0.0
 11
9580.7335
 21
4116.831611
 31
0.0
  0
LINE
  5
483
  8
1
  6
DASHDOT
 10
10025.84828
 20
5773.236071
 30
0.0
 11
9121.84828
 21
5773.236071
 31
0.0
  0
LINE
  5
484
  8
1
  6
DASHDOT
 10
8145.84828
 20
4505.334087
 30
0.0
 11
7273.84828
 21
4505.334087
 31
0.0
  0
LINE
  5
485
  8
1
 10
9990.73448
 20
4671.833737
 30
0.0
 11
9190.73448
 21
4671.833737
 31
0.0
  0
LINE
  5
486
  8
1
 10
7296.661653
 20
4465.068212
 30
0.0
 11
7290.668549
 21
4465.068212
 31
0.0
  0
LINE
  5
487
  8
1
 10
7296.661653
 20
4471.061415
 30
0.0
 11
7296.661653
 21
4465.068212
 31
0.0
  0
LINE
  5
488
  8
1
 10
7335.617476
 20
4471.061415
 30
0.0
 11
7296.661653
 21
4471.061415
 31
0.0
  0
LINE
  5
489
  8
1
 10
7341.61068
 20
4477.054619
 30
0.0
 11
7290.668449
 21
4477.054819
 31
0.0
  0
LINE
  5
48A
  8
1
 10
7290.668449
 20
4477.054619
 30
0.0
 11
7290.668449
 21
4465.068212
 31
0.0
  0
LINE
  5
48B
  8
1
 10
7335.617476
 20
4471.061415
 30
0.0
 11
7335.617476
 21
4417.122583
 31
0.0
  0
LINE
  5
48C
  8
1
 10
7335.617476
 20
4417.122583
 30
0.0
 11
7341.609581
 21
4417.122583
 31
0.0
  0
LINE
  5
48D
  8
1
 10
9312.503603
 20
4477.054619
 30
0.0
 11
9312.503603
 21
4424.614287
 31
0.0
  0
LINE
  5
48E
  8
1
 10
9312.503903
 20
4477.054619
 30
0.0
 11
9360.449232
 21
4477.054619
 31
0.0
  0
ARC
  5
48F
  8
1
 10
9324.989444
 20
4424.614087
 30
0.0
 40
12.485841
 50
180.0002
 51
270.0002
  0
LINE
  5
490
  8
1
 10
9324.989744
 20
4412.128446
 30
0.0
 11
9347.963391
 21
4412.128446
 31
0.0
  0
ARC
  5
491
  8
1
 10
9347.963391
 20
4424.614287
 30
0.0
 40
12.485841
 50
270.0002
 51
0.0
  0
LINE
  5
492
  8
1
 10
9360.449232
 20
4477.054619
 30
0.0
 11
9360.449232
 21
4424.614287
 31
0.0
  0
LINE
  5
493
  8
1
 10
9346.46589
 20
4465.068711
 30
0.0
 11
9360.449732
 21
4465.06971
 31
0.0
  0
LINE
  5
494
  8
1
 10
9341.471254
 20
4477.055118
 30
0.0
 11
9341.471054
 21
4470.063247
 31
0.0
  0
LINE
  5
495
  8
1
 10
9331.482381
 20
4477.054619
 30
0.0
 11
9331.482381
 21
4470.062548
 31
0.0
  0
ARC
  5
496
  8
1
 10
9326.488045
 20
4470.062548
 30
0.0
 40
4.994336
 50
270.0002
 51
0.0
  0
LINE
  5
497
  8
1
 10
9312.503903
 20
4465.068212
 30
0.0
 11
9326.488245
 21
4465.068212
 31
0.0
  0
ARC
  5
498
  8
1
 10
9346.46539
 20
4470.063047
 30
0.0
 40
4.994336
 50
180.0002
 51
270.003
  0
LINE
  5
499
  8
1
 10
9941.790483
 20
4477.054619
 30
0.0
 11
9989.735913
 21
4477.054619
 31
0.0
  0
LINE
  5
49A
  8
1
 10
9970.757934
 20
4477.055118
 30
0.0
 11
9970.757634
 21
4470.063247
 31
0.0
  0
ARC
  5
49B
  8
1
 10
9975.751971
 20
4470.063047
 30
0.0
 40
4.994336
 50
180.0002
 51
270.003
  0
LINE
  5
49C
  8
1
 10
9960.768962
 20
4477.054619
 30
0.0
 11
9960.768962
 21
4470.062548
 31
0.0
  0
ARC
  5
49D
  8
1
 10
9955.774625
 20
4470.062548
 30
0.0
 40
4.994336
 50
270.0002
 51
0.0
  0
LINE
  5
49E
  8
1
 10
9941.790483
 20
4465.068212
 30
0.0
 11
9955.774925
 21
4465.068212
 31
0.0
  0
LINE
  5
49F
  8
1
 10
9941.790284
 20
4477.054619
 30
0.0
 11
9941.790284
 21
4422.116919
 31
0.0
  0
ARC
  5
4A0
  8
1
 10
9951.778956
 20
4422.116919
 30
0.0
 40
9.988673
 50
180.0002
 51
270.0002
  0
LINE
  5
4A1
  8
1
 10
9951.779156
 20
4412.128246
 30
0.0
 11
9979.74724
 21
4412.128446
 31
0.0
  0
ARC
  5
4A2
  8
1
 10
9979.74724
 20
4422.116919
 30
0.0
 40
9.988673
 50
270.0002
 51
0.0
  0
LINE
  5
4A3
  8
1
 10
9989.735913
 20
4477.054619
 30
0.0
 11
9989.735913
 21
4422.116619
 31
0.0
  0
LINE
  5
4A4
  8
1
 10
9975.75247
 20
4465.068711
 30
0.0
 11
9989.736412
 21
4465.06971
 31
0.0
  0
TEXT
  8
3
  40
100
  5
4FF
  72
0
  71
0
 10
10314.2
 20
4752.35
 30
0.000000
  1

  0
TEXT
  8
3
  40
100
  5
500
  72
0
  71
0
 10
10314.2
 20
4622.35
 30
0.000000
  1
GBS16_2
  0
TEXT
  8
3
  40
100
  5
501
  72
0
  71
0
 10
10314.2
 20
4492.35
 30
0.000000
  1
FXYS40KV1
  0
TEXT
  8
3
  40
100
  5
502
  72
0
  71
0
 10
10314.2
 20
4362.35
 30
0.000000
  1
FXYS50KV1
  0
TEXT
  8
3
  40
100
  5
503
  72
0
  71
0
 10
10314.2
 20
4232.35
 30
0.000000
  1
FXYS40KVAL
  0
TEXT
  8
3
  40
100
  5
504
  72
0
  71
0
 10
10314.2
 20
4102.35
 30
0.000000
  1
FXYS50KVAL
  0
ENDSEC
  0
EOF
